osu file format v14

[General]
AudioFilename: audio.mp3
AudioLeadIn: 0
PreviewTime: 95847
Countdown: 1
SampleSet: None
StackLeniency: 0.7
Mode: 1
LetterboxInBreaks: 0
WidescreenStoryboard: 0

[Editor]
Bookmarks: 23421,34782,47563,70285,95847,118569,141291,152652,176439,202001,224723,247444,270166,292888,293066
DistanceSpacing: 0.8
BeatDivisor: 4
GridSize: 32
TimelineZoom: 1.999999

[Metadata]
Title:World End (OTOOTO-PxSOOOO)
TitleUnicode:World End (OTOOTO-PxSOOOO)
Artist:SOOOO
ArtistUnicode:SOOOO
Creator:Idealism
Version:Hope Lost In Nothingness ~A sacrifice to the end of the world~
Source:
Tags:
BeatmapID:1862346
BeatmapSetID:890870

[Difficulty]
HPDrainRate:6
CircleSize:5
OverallDifficulty:6.5
ApproachRate:5
SliderMultiplier:1.4
SliderTickRate:1

[Events]
//Background and Video events
//Break Periods
2,171491,175239
//Storyboard Layer 0 (Background)
//Storyboard Layer 1 (Fail)
//Storyboard Layer 2 (Pass)
//Storyboard Layer 3 (Foreground)
//Storyboard Sound Samples

[TimingPoints]
700,355.029585798817,4,1,0,20,1,0
700,-153.846153846154,4,1,0,60,0,0
23421,-125,4,1,0,60,0,0
47563,-153.846153846154,4,1,0,50,0,0
70818,-125,4,1,0,50,0,0
95847,-90.9090909090909,4,1,0,75,0,1
140581,-90.9090909090909,4,1,0,75,0,0
141291,-90.9090909090909,4,1,0,75,0,1
152652,-90.9090909090909,4,1,0,50,0,0
152741,-153.846153846154,4,1,0,50,0,0
169694,-153.846153846154,4,1,0,75,0,0
176439,355.029585798817,4,1,0,60,1,0
176439,-125,4,1,0,60,0,0
202001,-153.846153846154,4,1,0,40,0,0
222947,-125,4,1,0,40,0,0
224012,-95.2380952380952,4,1,0,40,0,0
224367,-83.3333333333333,4,1,0,40,0,0
224723,-74.0740740740741,4,1,0,90,0,1
270166,-83.3333333333333,4,1,0,80,0,1
315610,-83.3333333333333,4,1,0,80,0,0
315699,-153.846153846154,4,1,0,20,0,0

[HitObjects]
256,190,700,5,8,0:0:0:0:
256,186,2120,1,0,0:0:0:0:
256,186,3540,1,8,0:0:0:0:
256,186,4960,1,8,0:0:0:0:
256,186,5670,1,8,0:0:0:0:
256,186,6380,1,0,0:0:0:0:
256,192,6735,12,0,11173,0:0:0:0:
258,187,12060,5,8,0:0:0:0:
258,187,13481,1,0,0:0:0:0:
258,187,14901,1,8,0:0:0:0:
258,187,16321,1,8,0:0:0:0:
258,187,17031,1,8,0:0:0:0:
258,187,17741,1,0,0:0:0:0:
256,192,18096,12,0,22534,0:0:0:0:
260,193,23421,5,0,0:0:0:0:
260,193,23954,1,8,0:0:0:0:
260,193,24486,1,8,0:0:0:0:
260,193,25019,1,0,0:0:0:0:
260,193,25552,1,8,0:0:0:0:
260,193,25907,1,0,0:0:0:0:
260,193,26084,1,0,0:0:0:0:
260,193,26262,1,8,0:0:0:0:
260,193,26794,1,8,0:0:0:0:
260,193,27327,1,8,0:0:0:0:
260,193,27859,1,0,0:0:0:0:
260,193,28392,1,8,0:0:0:0:
260,193,28747,1,8,0:0:0:0:
260,193,29102,1,0,0:0:0:0:
260,193,29634,1,0,0:0:0:0:
260,193,29812,1,8,0:0:0:0:
260,193,30167,1,0,0:0:0:0:
260,193,30522,1,0,0:0:0:0:
260,193,30700,1,8,0:0:0:0:
260,193,31232,1,0,0:0:0:0:
260,193,31587,1,8,0:0:0:0:
261,193,31942,1,0,0:0:0:0:
260,193,32475,1,0,0:0:0:0:
260,193,32653,1,8,0:0:0:0:
261,193,33007,1,0,0:0:0:0:
256,189,33540,1,0,0:0:0:0:
256,189,33895,1,0,0:0:0:0:
256,189,33984,1,0,0:0:0:0:
256,189,34072,1,8,0:0:0:0:
256,189,34161,1,8,0:0:0:0:
256,189,34250,1,0,0:0:0:0:
256,189,34427,1,0,0:0:0:0:
256,189,34605,1,0,0:0:0:0:
256,189,34782,1,8,0:0:0:0:
256,189,34960,1,8,0:0:0:0:
256,189,35137,1,0,0:0:0:0:
256,189,35315,1,0,0:0:0:0:
254,182,35404,1,0,0:0:0:0:
256,189,35492,1,8,0:0:0:0:
256,189,35847,1,0,0:0:0:0:
256,189,36025,1,8,0:0:0:0:
256,189,36380,1,8,0:0:0:0:
256,189,36557,1,0,0:0:0:0:
253,178,36735,1,0,0:0:0:0:
256,189,36913,1,8,0:0:0:0:
254,182,37090,1,0,0:0:0:0:
254,182,37179,1,0,0:0:0:0:
253,178,37268,1,8,0:0:0:0:
253,178,37623,1,0,0:0:0:0:
253,178,37800,1,8,0:0:0:0:
253,178,38155,1,8,0:0:0:0:
253,178,38333,1,0,0:0:0:0:
253,178,38510,1,0,0:0:0:0:
253,178,38688,1,8,0:0:0:0:
253,178,38865,1,0,0:0:0:0:
253,178,39220,1,8,0:0:0:0:
253,178,39398,1,0,0:0:0:0:
253,178,39575,1,0,0:0:0:0:
253,178,39664,1,0,0:0:0:0:
253,178,39753,1,8,0:0:0:0:
253,178,39930,1,0,0:0:0:0:
253,178,40108,1,8,0:0:0:0:
253,178,40463,1,0,0:0:0:0:
253,178,40640,1,8,0:0:0:0:
253,178,40818,1,0,0:0:0:0:
253,178,40995,1,0,0:0:0:0:
253,178,41173,1,8,0:0:0:0:
253,178,41350,1,0,0:0:0:0:
253,178,41528,1,8,0:0:0:0:
253,178,41883,1,8,0:0:0:0:
253,178,42060,1,0,0:0:0:0:
253,178,42238,1,8,0:0:0:0:
253,178,42415,1,0,0:0:0:0:
253,178,42504,1,0,0:0:0:0:
253,178,42593,1,8,0:0:0:0:
253,178,42771,1,0,0:0:0:0:
253,178,42948,1,8,0:0:0:0:
253,178,43303,1,0,0:0:0:0:
253,178,43481,1,8,0:0:0:0:
253,178,43836,1,0,0:0:0:0:
253,178,43924,1,0,0:0:0:0:
253,178,44013,1,8,0:0:0:0:
253,178,44191,1,0,0:0:0:0:
253,178,44368,1,8,0:0:0:0:
253,178,44546,1,0,0:0:0:0:
253,178,44901,1,8,0:0:0:0:
253,178,45078,1,0,0:0:0:0:
253,178,45256,1,8,0:0:0:0:
255,172,45344,1,0,0:0:0:0:
253,178,45433,1,8,0:0:0:0:
253,178,45611,1,0,0:0:0:0:
253,178,45788,1,8,0:0:0:0:
253,178,46143,1,8,0:0:0:0:
256,192,46232,12,0,47386,0:0:0:0:
255,187,47563,5,0,0:0:0:0:
260,191,48095,1,0,0:0:0:0:
260,191,48273,1,8,0:0:0:0:
260,191,48628,1,8,0:0:0:0:
260,191,48984,1,0,0:0:0:0:
260,191,49516,1,0,0:0:0:0:
260,191,49871,1,0,0:0:0:0:
260,191,50049,1,8,0:0:0:0:
260,191,50404,1,0,0:0:0:0:
260,191,50936,1,8,0:0:0:0:
260,191,51469,1,0,0:0:0:0:
260,191,52001,1,8,0:0:0:0:
260,191,52356,1,8,0:0:0:0:
260,191,52534,1,0,0:0:0:0:
260,191,52889,1,8,0:0:0:0:
260,191,53244,1,0,0:0:0:0:
254,193,53954,1,0,0:0:0:0:
254,193,54309,1,8,0:0:0:0:
254,193,54486,1,0,0:0:0:0:
254,193,54842,1,8,0:0:0:0:
254,193,55197,1,0,0:0:0:0:
253,198,55729,1,0,0:0:0:0:
254,193,56084,1,8,0:0:0:0:
254,193,56617,1,0,0:0:0:0:
254,193,57149,1,8,0:0:0:0:
254,193,57682,1,0,0:0:0:0:
254,193,58037,1,8,0:0:0:0:
254,193,58214,1,0,0:0:0:0:
254,193,58392,1,0,0:0:0:0:
254,193,58569,1,0,0:0:0:0:
254,193,58924,1,0,0:0:0:0:
254,184,59634,1,0,0:0:0:0:
254,184,59989,1,8,0:0:0:0:
254,184,60167,1,0,0:0:0:0:
254,184,60522,1,8,0:0:0:0:
254,184,60877,1,0,0:0:0:0:
254,184,61410,1,0,0:0:0:0:
254,184,61765,1,0,0:0:0:0:
254,184,62297,1,8,0:0:0:0:
254,184,62830,1,0,0:0:0:0:
254,184,63362,1,8,0:0:0:0:
254,184,63717,1,8,0:0:0:0:
254,184,63895,1,0,0:0:0:0:
254,184,64072,1,8,0:0:0:0:
254,184,64250,1,0,0:0:0:0:
254,184,64605,1,8,0:0:0:0:
254,184,65315,1,0,0:0:0:0:
254,184,65670,1,8,0:0:0:0:
254,184,65847,1,0,0:0:0:0:
254,184,66202,1,8,0:0:0:0:
254,184,66557,1,0,0:0:0:0:
254,184,67090,1,0,0:0:0:0:
254,184,67445,1,8,0:0:0:0:
254,184,67978,1,0,0:0:0:0:
254,184,68510,1,8,0:0:0:0:
254,184,69043,1,0,0:0:0:0:
254,184,69398,1,8,0:0:0:0:
254,184,69753,1,0,0:0:0:0:
254,184,70108,1,8,0:0:0:0:
254,184,70285,1,0,0:0:0:0:
254,184,70818,1,8,0:0:0:0:
254,184,70995,1,0,0:0:0:0:
254,184,71173,1,0,0:0:0:0:
254,184,71350,1,8,0:0:0:0:
254,184,71528,1,0,0:0:0:0:
254,184,71705,1,12,0:0:0:0:
254,184,71883,1,0,0:0:0:0:
254,184,72238,1,8,0:0:0:0:
254,184,72415,1,0,0:0:0:0:
254,184,72593,1,0,0:0:0:0:
254,184,72682,1,0,0:0:0:0:
254,184,72771,1,8,0:0:0:0:
254,184,72948,1,8,0:0:0:0:
254,184,73126,1,0,0:0:0:0:
254,184,73303,1,8,0:0:0:0:
254,184,73658,1,8,0:0:0:0:
254,184,73836,1,0,0:0:0:0:
254,184,74013,1,0,0:0:0:0:
254,184,74191,1,8,0:0:0:0:
254,184,74368,1,0,0:0:0:0:
254,184,74546,1,12,0:0:0:0:
254,184,74723,1,0,0:0:0:0:
254,184,75078,1,8,0:0:0:0:
254,184,75167,1,8,0:0:0:0:
254,184,75256,1,0,0:0:0:0:
254,184,75433,1,0,0:0:0:0:
254,184,75611,1,8,0:0:0:0:
254,184,75966,1,8,0:0:0:0:
254,184,76143,1,0,0:0:0:0:
254,184,76498,1,8,0:0:0:0:
254,184,76676,1,0,0:0:0:0:
254,184,76853,1,0,0:0:0:0:
254,184,77031,1,8,0:0:0:0:
254,184,77208,1,0,0:0:0:0:
254,184,77386,1,12,0:0:0:0:
254,184,77563,1,0,0:0:0:0:
254,184,77918,1,8,0:0:0:0:
254,184,78096,1,0,0:0:0:0:
254,184,78273,1,0,0:0:0:0:
254,184,78451,1,8,0:0:0:0:
254,184,78540,1,8,0:0:0:0:
254,184,78628,1,0,0:0:0:0:
254,184,78717,1,8,0:0:0:0:
254,184,78806,1,0,0:0:0:0:
254,184,78984,1,0,0:0:0:0:
254,184,79339,1,8,0:0:0:0:
254,184,79516,1,0,0:0:0:0:
254,184,79694,1,0,0:0:0:0:
254,184,79871,1,8,0:0:0:0:
254,184,80049,1,0,0:0:0:0:
254,184,80226,1,12,0:0:0:0:
254,184,80404,1,0,0:0:0:0:
254,184,80759,1,0,0:0:0:0:
254,184,80847,1,0,0:0:0:0:
254,184,80936,1,8,0:0:0:0:
254,184,81114,1,0,0:0:0:0:
254,184,81291,1,8,0:0:0:0:
254,184,81646,1,0,0:0:0:0:
254,184,81824,1,8,0:0:0:0:
254,184,82179,1,8,0:0:0:0:
254,184,82356,1,0,0:0:0:0:
254,184,82534,1,8,0:0:0:0:
254,184,82711,1,0,0:0:0:0:
254,184,82889,1,0,0:0:0:0:
254,184,83066,1,12,0:0:0:0:
254,184,83244,1,0,0:0:0:0:
254,184,83599,1,8,0:0:0:0:
254,184,83776,1,0,0:0:0:0:
254,184,83954,1,0,0:0:0:0:
254,184,84131,1,8,0:0:0:0:
254,184,84309,1,0,0:0:0:0:
254,184,84398,1,0,0:0:0:0:
254,184,84486,1,8,0:0:0:0:
254,184,84664,1,0,0:0:0:0:
254,184,85019,1,8,0:0:0:0:
254,184,85197,1,0,0:0:0:0:
254,184,85374,1,8,0:0:0:0:
254,184,85552,1,0,0:0:0:0:
254,184,85729,1,0,0:0:0:0:
254,184,85907,1,12,0:0:0:0:
254,184,86084,1,0,0:0:0:0:
259,188,86439,1,0,0:0:0:0:
254,184,86528,1,8,0:0:0:0:
254,184,86617,1,0,0:0:0:0:
254,184,86794,1,8,0:0:0:0:
254,184,86972,1,0,0:0:0:0:
255,183,87327,1,0,0:0:0:0:
254,184,87504,1,8,0:0:0:0:
254,184,87859,1,8,0:0:0:0:
255,183,88037,1,0,0:0:0:0:
255,183,88214,1,0,0:0:0:0:
254,184,88392,1,0,0:0:0:0:
254,184,88569,1,8,0:0:0:0:
254,184,88747,1,12,0:0:0:0:
255,183,88924,1,0,0:0:0:0:
254,184,89279,1,0,0:0:0:0:
254,184,89368,1,8,0:0:0:0:
254,184,89457,1,8,0:0:0:0:
254,184,89634,1,0,0:0:0:0:
255,183,89812,1,8,0:0:0:0:
254,184,90167,1,0,0:0:0:0:
254,184,90344,1,0,0:0:0:0:
254,184,90522,1,8,0:0:0:0:
255,183,90700,1,8,0:0:0:0:
254,184,90877,1,0,0:0:0:0:
254,184,91232,1,8,0:0:0:0:
254,184,91410,1,0,0:0:0:0:
254,184,91498,1,0,0:0:0:0:
255,183,91587,1,8,0:0:0:0:
254,184,91765,1,0,0:0:0:0:
254,184,92120,1,0,0:0:0:0:
254,184,92297,1,8,0:0:0:0:
254,184,92475,1,0,0:0:0:0:
254,184,92652,1,8,0:0:0:0:
254,184,92830,1,0,0:0:0:0:
256,192,93007,12,0,94339,0:0:0:0:
256,192,94427,12,0,95670,0:0:0:0:
260,192,95847,5,0,0:0:0:0:
260,192,96025,1,8,0:0:0:0:
260,192,96114,1,8,0:0:0:0:
260,192,96202,1,0,0:0:0:0:
260,192,96380,1,8,0:0:0:0:
260,192,96557,1,0,0:0:0:0:
260,192,96646,1,8,0:0:0:0:
260,192,96735,1,8,0:0:0:0:
260,192,96824,1,0,0:0:0:0:
260,192,96913,1,8,0:0:0:0:
260,192,97001,1,8,0:0:0:0:
260,192,97090,1,0,0:0:0:0:
260,192,97268,1,0,0:0:0:0:
260,192,97445,1,8,0:0:0:0:
260,192,97534,1,0,0:0:0:0:
260,192,97623,1,0,0:0:0:0:
260,192,97800,1,0,0:0:0:0:
260,192,97889,1,8,0:0:0:0:
260,192,97978,1,8,0:0:0:0:
260,192,98155,1,0,0:0:0:0:
260,192,98333,1,8,0:0:0:0:
260,192,98421,1,8,0:0:0:0:
260,192,98510,1,0,0:0:0:0:
260,192,98599,1,0,0:0:0:0:
260,192,98688,1,8,0:0:0:0:
260,192,98865,1,0,0:0:0:0:
260,192,98954,1,8,0:0:0:0:
260,192,99043,1,0,0:0:0:0:
260,192,99220,1,8,0:0:0:0:
260,192,99398,1,8,0:0:0:0:
260,192,99486,1,8,0:0:0:0:
260,192,99575,1,0,0:0:0:0:
260,192,99753,1,0,0:0:0:0:
260,192,99842,1,8,0:0:0:0:
260,192,99930,1,8,0:0:0:0:
260,192,100019,1,0,0:0:0:0:
260,192,100108,1,8,0:0:0:0:
260,192,100285,1,8,0:0:0:0:
260,192,100374,1,0,0:0:0:0:
260,192,100463,1,0,0:0:0:0:
260,192,100640,1,8,0:0:0:0:
260,192,100818,1,0,0:0:0:0:
260,192,100907,1,8,0:0:0:0:
260,192,100995,1,8,0:0:0:0:
260,192,101084,1,8,0:0:0:0:
260,192,101173,1,0,0:0:0:0:
260,192,101350,1,8,0:0:0:0:
260,192,101439,1,8,0:0:0:0:
260,192,101528,1,0,0:0:0:0:
260,192,101705,1,8,0:0:0:0:
260,192,101883,1,0,0:0:0:0:
260,192,102060,1,8,0:0:0:0:
260,192,102149,1,0,0:0:0:0:
260,192,102238,1,0,0:0:0:0:
260,192,102415,1,0,0:0:0:0:
260,192,102504,1,8,0:0:0:0:
260,192,102593,1,8,0:0:0:0:
260,192,102771,1,0,0:0:0:0:
265,192,102948,1,8,0:0:0:0:
260,192,103126,1,8,0:0:0:0:
260,192,103214,1,8,0:0:0:0:
260,192,103303,1,0,0:0:0:0:
260,192,103481,1,8,0:0:0:0:
260,192,103569,1,0,0:0:0:0:
260,192,103658,1,8,0:0:0:0:
261,187,103836,1,0,0:0:0:0:
260,192,104013,1,8,0:0:0:0:
260,192,104102,1,8,0:0:0:0:
260,192,104191,1,0,0:0:0:0:
260,192,104279,1,0,0:0:0:0:
260,192,104368,1,8,0:0:0:0:
260,192,104546,1,8,0:0:0:0:
260,192,104634,1,0,0:0:0:0:
259,194,104723,1,0,0:0:0:0:
260,192,104901,1,8,0:0:0:0:
260,192,105078,1,0,0:0:0:0:
260,192,105167,1,8,0:0:0:0:
260,192,105256,1,8,0:0:0:0:
260,192,105433,1,0,0:0:0:0:
260,192,105611,1,8,0:0:0:0:
259,194,105700,1,0,0:0:0:0:
260,192,105788,1,0,0:0:0:0:
260,192,105877,1,8,0:0:0:0:
260,192,105966,1,8,0:0:0:0:
260,192,106143,1,8,0:0:0:0:
260,192,106232,1,8,0:0:0:0:
260,192,106321,1,0,0:0:0:0:
260,192,106498,1,8,0:0:0:0:
259,194,106676,1,0,0:0:0:0:
260,192,106853,1,0,0:0:0:0:
260,192,106942,1,8,0:0:0:0:
260,192,107031,1,8,0:0:0:0:
260,192,107120,1,0,0:0:0:0:
260,192,107208,1,8,0:0:0:0:
260,192,107386,1,0,0:0:0:0:
264,188,107475,1,8,0:0:0:0:
264,188,107563,1,0,0:0:0:0:
264,188,107741,1,8,0:0:0:0:
264,188,107918,1,8,0:0:0:0:
264,188,108007,1,0,0:0:0:0:
264,188,108096,1,0,0:0:0:0:
264,188,108185,1,8,0:0:0:0:
264,188,108273,1,8,0:0:0:0:
264,188,108362,1,0,0:0:0:0:
264,188,108451,1,0,0:0:0:0:
264,188,108628,1,0,0:0:0:0:
256,187,108806,1,0,0:0:0:0:
256,187,108895,1,8,0:0:0:0:
256,187,108984,1,8,0:0:0:0:
256,187,109161,1,8,0:0:0:0:
256,187,109250,1,8,0:0:0:0:
256,187,109339,1,0,0:0:0:0:
264,188,109516,1,0,0:0:0:0:
261,188,109694,1,8,0:0:0:0:
261,188,109782,1,8,0:0:0:0:
261,188,109871,1,0,0:0:0:0:
261,188,109960,1,0,0:0:0:0:
261,188,110049,1,8,0:0:0:0:
261,188,110226,1,0,0:0:0:0:
261,188,110315,1,8,0:0:0:0:
264,188,110404,1,8,0:0:0:0:
261,188,110581,1,8,0:0:0:0:
261,188,110759,1,8,0:0:0:0:
261,188,110847,1,0,0:0:0:0:
261,188,110936,1,0,0:0:0:0:
257,183,111114,1,0,0:0:0:0:
257,183,111291,1,0,0:0:0:0:
257,183,111380,1,8,0:0:0:0:
257,183,111469,1,8,0:0:0:0:
257,183,111646,1,8,0:0:0:0:
257,183,111735,1,0,0:0:0:0:
257,183,111824,1,8,0:0:0:0:
257,183,111913,1,8,0:0:0:0:
257,183,112001,1,0,0:0:0:0:
257,183,112090,1,8,0:0:0:0:
257,183,112179,1,0,0:0:0:0:
257,183,112356,1,0,0:0:0:0:
257,183,112445,1,0,0:0:0:0:
257,183,112534,1,8,0:0:0:0:
257,183,112711,1,8,0:0:0:0:
257,183,112889,1,0,0:0:0:0:
257,183,113066,1,8,0:0:0:0:
257,183,113155,1,8,0:0:0:0:
257,183,113244,1,0,0:0:0:0:
257,183,113421,1,0,0:0:0:0:
257,183,113599,1,0,0:0:0:0:
257,183,113688,1,8,0:0:0:0:
257,183,113776,1,8,0:0:0:0:
257,183,113954,1,8,0:0:0:0:
257,183,114131,1,0,0:0:0:0:
257,183,114309,1,0,0:0:0:0:
257,183,114486,1,8,0:0:0:0:
257,183,114575,1,8,0:0:0:0:
257,183,114664,1,0,0:0:0:0:
257,183,114842,1,0,0:0:0:0:
257,183,114930,1,8,0:0:0:0:
257,183,115019,1,0,0:0:0:0:
257,183,115108,1,0,0:0:0:0:
257,183,115197,1,8,0:0:0:0:
257,183,115374,1,8,0:0:0:0:
257,183,115552,1,8,0:0:0:0:
257,183,115640,1,8,0:0:0:0:
257,183,115729,1,0,0:0:0:0:
257,183,115907,1,0,0:0:0:0:
257,183,115995,1,8,0:0:0:0:
257,183,116084,1,8,0:0:0:0:
257,183,116262,1,8,0:0:0:0:
257,183,116439,1,8,0:0:0:0:
257,183,116528,1,0,0:0:0:0:
257,183,116617,1,0,0:0:0:0:
257,183,116794,1,0,0:0:0:0:
257,183,116972,1,0,0:0:0:0:
257,183,117060,1,8,0:0:0:0:
257,183,117149,1,0,0:0:0:0:
257,183,117238,1,0,0:0:0:0:
257,183,117327,1,8,0:0:0:0:
257,183,117415,1,8,0:0:0:0:
257,183,117504,1,0,0:0:0:0:
257,183,117682,1,8,0:0:0:0:
257,183,117771,1,8,0:0:0:0:
257,183,117859,1,0,0:0:0:0:
257,183,118037,1,0,0:0:0:0:
257,183,118214,1,8,0:0:0:0:
257,183,118303,1,0,0:0:0:0:
257,183,118392,1,0,0:0:0:0:
260,192,118569,1,0,0:0:0:0:
260,192,118747,1,8,0:0:0:0:
260,192,118836,1,8,0:0:0:0:
260,192,118924,1,0,0:0:0:0:
260,192,119102,1,8,0:0:0:0:
260,192,119279,1,0,0:0:0:0:
260,192,119368,1,8,0:0:0:0:
260,192,119457,1,8,0:0:0:0:
260,192,119546,1,0,0:0:0:0:
260,192,119635,1,8,0:0:0:0:
260,192,119723,1,8,0:0:0:0:
260,192,119812,1,0,0:0:0:0:
260,192,119990,1,0,0:0:0:0:
260,192,120167,1,8,0:0:0:0:
260,192,120256,1,0,0:0:0:0:
260,192,120345,1,0,0:0:0:0:
260,192,120522,1,0,0:0:0:0:
260,192,120611,1,8,0:0:0:0:
260,192,120700,1,8,0:0:0:0:
260,192,120877,1,0,0:0:0:0:
260,192,121055,1,8,0:0:0:0:
260,192,121143,1,8,0:0:0:0:
260,192,121232,1,0,0:0:0:0:
260,192,121321,1,0,0:0:0:0:
260,192,121410,1,8,0:0:0:0:
260,192,121587,1,0,0:0:0:0:
260,192,121676,1,8,0:0:0:0:
260,192,121765,1,0,0:0:0:0:
260,192,121942,1,8,0:0:0:0:
260,192,122120,1,8,0:0:0:0:
260,192,122208,1,8,0:0:0:0:
260,192,122297,1,0,0:0:0:0:
260,192,122475,1,0,0:0:0:0:
260,192,122564,1,8,0:0:0:0:
260,192,122652,1,8,0:0:0:0:
260,192,122741,1,0,0:0:0:0:
260,192,122830,1,8,0:0:0:0:
260,192,123007,1,8,0:0:0:0:
260,192,123096,1,0,0:0:0:0:
260,192,123185,1,0,0:0:0:0:
260,192,123362,1,8,0:0:0:0:
260,192,123540,1,0,0:0:0:0:
260,192,123629,1,8,0:0:0:0:
260,192,123717,1,8,0:0:0:0:
260,192,123806,1,8,0:0:0:0:
260,192,123895,1,0,0:0:0:0:
260,192,124072,1,8,0:0:0:0:
260,192,124161,1,8,0:0:0:0:
260,192,124250,1,0,0:0:0:0:
260,192,124427,1,8,0:0:0:0:
260,192,124605,1,0,0:0:0:0:
260,192,124782,1,8,0:0:0:0:
260,192,124871,1,0,0:0:0:0:
260,192,124960,1,0,0:0:0:0:
260,192,125137,1,0,0:0:0:0:
260,192,125226,1,8,0:0:0:0:
260,192,125315,1,8,0:0:0:0:
260,192,125493,1,0,0:0:0:0:
265,192,125670,1,8,0:0:0:0:
260,192,125848,1,8,0:0:0:0:
260,192,125936,1,8,0:0:0:0:
260,192,126025,1,0,0:0:0:0:
260,192,126203,1,8,0:0:0:0:
260,192,126291,1,0,0:0:0:0:
260,192,126380,1,8,0:0:0:0:
261,187,126558,1,0,0:0:0:0:
260,192,126735,1,8,0:0:0:0:
260,192,126824,1,8,0:0:0:0:
260,192,126913,1,0,0:0:0:0:
260,192,127001,1,0,0:0:0:0:
260,192,127090,1,8,0:0:0:0:
260,192,127268,1,8,0:0:0:0:
260,192,127356,1,0,0:0:0:0:
259,194,127445,1,0,0:0:0:0:
260,192,127623,1,8,0:0:0:0:
260,192,127800,1,0,0:0:0:0:
260,192,127889,1,8,0:0:0:0:
260,192,127978,1,8,0:0:0:0:
260,192,128155,1,0,0:0:0:0:
260,192,128333,1,8,0:0:0:0:
259,194,128422,1,0,0:0:0:0:
260,192,128510,1,0,0:0:0:0:
260,192,128599,1,8,0:0:0:0:
260,192,128688,1,8,0:0:0:0:
260,192,128865,1,8,0:0:0:0:
260,192,128954,1,8,0:0:0:0:
260,192,129043,1,0,0:0:0:0:
260,192,129220,1,8,0:0:0:0:
259,194,129398,1,0,0:0:0:0:
260,192,129575,1,0,0:0:0:0:
260,192,129664,1,8,0:0:0:0:
260,192,129753,1,8,0:0:0:0:
260,192,129930,1,0,0:0:0:0:
260,192,130108,1,0,0:0:0:0:
264,188,130197,1,8,0:0:0:0:
264,188,130285,1,0,0:0:0:0:
264,188,130463,1,8,0:0:0:0:
264,188,130640,1,8,0:0:0:0:
264,188,130729,1,0,0:0:0:0:
264,188,130818,1,0,0:0:0:0:
264,188,130907,1,8,0:0:0:0:
264,188,130995,1,8,0:0:0:0:
264,188,131084,1,0,0:0:0:0:
264,188,131173,1,0,0:0:0:0:
264,188,131350,1,0,0:0:0:0:
256,187,131528,1,0,0:0:0:0:
256,187,131617,1,8,0:0:0:0:
256,187,131706,1,8,0:0:0:0:
256,187,131883,1,8,0:0:0:0:
256,187,131972,1,8,0:0:0:0:
256,187,132061,1,0,0:0:0:0:
264,188,132238,1,0,0:0:0:0:
261,188,132416,1,8,0:0:0:0:
261,188,132504,1,8,0:0:0:0:
261,188,132593,1,0,0:0:0:0:
261,188,132682,1,0,0:0:0:0:
261,188,132771,1,8,0:0:0:0:
261,188,132948,1,0,0:0:0:0:
261,188,133037,1,8,0:0:0:0:
264,188,133126,1,8,0:0:0:0:
261,188,133303,1,8,0:0:0:0:
261,188,133481,1,8,0:0:0:0:
261,188,133569,1,0,0:0:0:0:
261,188,133658,1,0,0:0:0:0:
257,183,133836,1,0,0:0:0:0:
257,183,134013,1,0,0:0:0:0:
257,183,134102,1,8,0:0:0:0:
257,183,134191,1,8,0:0:0:0:
257,183,134368,1,8,0:0:0:0:
257,183,134457,1,0,0:0:0:0:
257,183,134546,1,8,0:0:0:0:
257,183,134635,1,8,0:0:0:0:
257,183,134723,1,0,0:0:0:0:
257,183,134812,1,8,0:0:0:0:
257,183,134901,1,0,0:0:0:0:
257,183,135078,1,0,0:0:0:0:
257,183,135167,1,0,0:0:0:0:
257,183,135256,1,8,0:0:0:0:
257,183,135433,1,8,0:0:0:0:
257,183,135611,1,0,0:0:0:0:
257,183,135788,1,8,0:0:0:0:
257,183,135877,1,8,0:0:0:0:
257,183,135966,1,0,0:0:0:0:
257,183,136055,1,8,0:0:0:0:
257,183,136143,1,0,0:0:0:0:
257,183,136321,1,0,0:0:0:0:
257,183,136410,1,8,0:0:0:0:
257,183,136498,1,8,0:0:0:0:
257,183,136676,1,8,0:0:0:0:
257,183,136853,1,8,0:0:0:0:
257,183,136942,1,8,0:0:0:0:
257,183,137031,1,0,0:0:0:0:
257,183,137208,1,8,0:0:0:0:
257,183,137297,1,0,0:0:0:0:
257,183,137386,1,8,0:0:0:0:
257,183,137564,1,0,0:0:0:0:
257,183,137652,1,8,0:0:0:0:
257,183,137741,1,0,0:0:0:0:
257,183,137830,1,0,0:0:0:0:
257,183,137919,1,8,0:0:0:0:
257,183,138007,1,0,0:0:0:0:
257,183,138096,1,8,0:0:0:0:
257,183,138274,1,0,0:0:0:0:
257,183,138451,1,8,0:0:0:0:
257,183,138540,1,8,0:0:0:0:
257,183,138629,1,0,0:0:0:0:
257,183,138717,1,8,0:0:0:0:
257,183,138806,1,0,0:0:0:0:
257,183,138984,1,8,0:0:0:0:
257,183,139072,1,0,0:0:0:0:
257,183,139161,1,8,0:0:0:0:
257,183,139250,1,0,0:0:0:0:
257,183,139339,1,0,0:0:0:0:
257,183,139516,1,0,0:0:0:0:
257,183,139605,1,8,0:0:0:0:
257,183,139694,1,0,0:0:0:0:
257,183,139782,1,0,0:0:0:0:
257,183,139871,1,8,0:0:0:0:
257,183,139930,1,8,0:0:0:0:
257,183,139989,1,8,0:0:0:0:
257,183,140049,1,0,0:0:0:0:
257,183,140137,1,0,0:0:0:0:
257,183,140226,1,8,0:0:0:0:
257,183,140285,1,8,0:0:0:0:
257,183,140344,1,8,0:0:0:0:
257,183,140404,1,0,0:0:0:0:
257,183,140492,1,0,0:0:0:0:
257,183,140581,1,0,0:0:0:0:
257,191,141291,1,4,0:0:0:0:
257,191,141469,1,0,0:0:0:0:
257,191,141557,1,0,0:0:0:0:
257,191,141646,1,8,0:0:0:0:
257,191,141705,1,8,0:0:0:0:
257,191,141765,1,8,0:0:0:0:
257,191,141824,1,0,0:0:0:0:
257,191,141913,1,8,0:0:0:0:
257,191,142001,1,0,0:0:0:0:
257,191,142179,1,8,0:0:0:0:
257,191,142268,1,0,0:0:0:0:
257,191,142356,1,8,0:0:0:0:
257,191,142415,1,0,0:0:0:0:
257,191,142475,1,0,0:0:0:0:
257,191,142534,1,8,0:0:0:0:
257,191,142623,1,0,0:0:0:0:
257,191,142711,1,8,0:0:0:0:
257,191,142889,1,0,0:0:0:0:
257,191,142978,1,8,0:0:0:0:
257,191,143066,1,0,0:0:0:0:
257,191,143126,1,0,0:0:0:0:
257,191,143185,1,8,0:0:0:0:
257,191,143244,1,0,0:0:0:0:
256,197,143333,1,8,0:0:0:0:
256,197,143421,1,0,0:0:0:0:
256,197,143599,1,8,0:0:0:0:
256,197,143688,1,0,0:0:0:0:
257,198,143776,1,8,0:0:0:0:
257,198,143836,1,8,0:0:0:0:
257,198,143895,1,0,0:0:0:0:
257,198,143954,1,8,0:0:0:0:
257,198,144043,1,8,0:0:0:0:
257,198,144131,1,0,0:0:0:0:
256,197,144309,1,8,0:0:0:0:
256,197,144398,1,0,0:0:0:0:
256,197,144486,1,8,0:0:0:0:
256,197,144546,1,8,0:0:0:0:
256,197,144605,1,8,0:0:0:0:
256,197,144664,1,0,0:0:0:0:
257,198,144753,1,8,0:0:0:0:
257,198,144842,1,0,0:0:0:0:
257,198,144901,1,0,0:0:0:0:
257,198,144960,1,0,0:0:0:0:
257,198,145019,1,8,0:0:0:0:
256,197,145197,1,0,0:0:0:0:
256,197,145374,1,8,0:0:0:0:
256,197,145418,1,8,0:0:0:0:
256,197,145463,1,8,0:0:0:0:
256,197,145507,1,8,0:0:0:0:
256,197,145552,1,0,0:0:0:0:
257,198,145729,1,0,0:0:0:0:
257,198,145818,1,0,0:0:0:0:
257,198,145907,1,8,0:0:0:0:
257,198,145995,1,8,0:0:0:0:
256,197,146084,1,0,0:0:0:0:
256,197,146173,1,0,0:0:0:0:
256,197,146262,1,8,0:0:0:0:
256,197,146306,1,8,0:0:0:0:
256,197,146439,1,8,0:0:0:0:
256,197,146484,1,8,0:0:0:0:
257,198,146617,1,8,0:0:0:0:
257,198,146661,1,8,0:0:0:0:
257,198,146794,1,8,0:0:0:0:
257,198,146883,1,8,0:0:0:0:
257,198,146972,1,4,0:0:0:0:
257,198,147682,1,0,0:0:0:0:
257,198,147859,1,0,0:0:0:0:
257,198,147904,1,0,0:0:0:0:
257,198,147948,1,8,0:0:0:0:
257,198,147992,1,8,0:0:0:0:
257,198,148037,1,0,0:0:0:0:
257,198,148214,1,0,0:0:0:0:
257,198,148259,1,8,0:0:0:0:
257,198,148303,1,8,0:0:0:0:
257,198,148347,1,0,0:0:0:0:
257,198,148392,1,0,0:0:0:0:
257,198,149102,1,0,0:0:0:0:
257,198,149279,1,8,0:0:0:0:
257,198,149324,1,8,0:0:0:0:
257,198,149368,1,0,0:0:0:0:
257,198,149413,1,0,0:0:0:0:
257,198,149457,1,8,0:0:0:0:
257,198,149635,1,8,0:0:0:0:
257,198,149679,1,8,0:0:0:0:
257,198,149724,1,0,0:0:0:0:
257,198,149768,1,8,0:0:0:0:
257,198,149813,1,0,0:0:0:0:
257,198,150522,1,0,0:0:0:0:
257,198,150700,1,8,0:0:0:0:
257,198,150744,1,8,0:0:0:0:
257,198,150877,1,8,0:0:0:0:
257,198,150921,1,8,0:0:0:0:
257,198,151055,1,8,0:0:0:0:
257,198,151143,1,8,0:0:0:0:
257,198,151232,1,0,0:0:0:0:
257,198,151410,1,0,0:0:0:0:
257,198,151498,1,0,0:0:0:0:
257,198,151587,1,8,0:0:0:0:
257,198,151765,1,8,0:0:0:0:
257,198,151942,1,0,0:0:0:0:
257,198,152120,1,0,0:0:0:0:
257,198,152208,1,0,0:0:0:0:
257,198,152297,1,8,0:0:0:0:
257,198,152475,1,8,0:0:0:0:
255,187,152652,5,0,0:0:0:0:
260,191,153184,1,0,0:0:0:0:
260,191,153362,1,8,0:0:0:0:
260,191,153717,1,8,0:0:0:0:
260,191,154073,1,0,0:0:0:0:
260,191,154605,1,0,0:0:0:0:
260,191,154960,1,0,0:0:0:0:
260,191,155138,1,8,0:0:0:0:
260,191,155493,1,0,0:0:0:0:
260,191,156025,1,8,0:0:0:0:
260,191,156558,1,0,0:0:0:0:
260,191,157090,1,8,0:0:0:0:
260,191,157445,1,8,0:0:0:0:
260,191,157623,1,0,0:0:0:0:
260,191,157978,1,8,0:0:0:0:
260,191,158333,1,0,0:0:0:0:
254,193,159043,1,0,0:0:0:0:
254,193,159398,1,8,0:0:0:0:
254,193,159575,1,0,0:0:0:0:
254,193,159931,1,8,0:0:0:0:
254,193,160286,1,0,0:0:0:0:
253,198,160818,1,0,0:0:0:0:
254,193,161173,1,8,0:0:0:0:
254,193,161706,1,0,0:0:0:0:
254,193,162238,1,8,0:0:0:0:
254,193,162771,1,0,0:0:0:0:
254,193,163126,1,8,0:0:0:0:
254,193,163303,1,0,0:0:0:0:
254,193,163481,1,0,0:0:0:0:
254,193,163658,1,0,0:0:0:0:
254,193,164013,1,0,0:0:0:0:
254,184,164723,1,0,0:0:0:0:
254,184,165078,1,8,0:0:0:0:
254,184,165256,1,0,0:0:0:0:
254,184,165611,1,8,0:0:0:0:
254,184,165966,1,0,0:0:0:0:
254,184,166321,1,0,0:0:0:0:
254,184,166499,1,8,0:0:0:0:
254,184,166854,1,0,0:0:0:0:
254,184,167386,1,8,0:0:0:0:
254,184,167919,1,0,0:0:0:0:
254,184,168451,1,8,0:0:0:0:
254,184,168806,1,8,0:0:0:0:
254,184,168984,1,0,0:0:0:0:
254,184,169161,1,8,0:0:0:0:
254,184,169339,1,0,0:0:0:0:
254,184,169427,1,8,0:0:0:0:
254,184,169516,1,8,0:0:0:0:
254,184,169605,1,8,0:0:0:0:
254,184,169694,1,4,0:0:0:0:
254,184,170404,1,8,0:0:0:0:
254,184,170448,1,8,0:0:0:0:
254,184,170492,1,0,0:0:0:0:
254,184,170581,1,0,0:0:0:0:
254,184,170626,1,0,0:0:0:0:
254,184,170670,1,8,0:0:0:0:
254,184,170759,1,8,0:0:0:0:
254,184,170936,1,0,0:0:0:0:
254,184,171291,1,8,0:0:0:0:
254,184,176439,5,8,0:0:0:0:
254,184,176616,1,8,0:0:0:0:
254,184,176705,1,8,0:0:0:0:
254,184,176794,1,0,0:0:0:0:
254,184,176971,1,8,0:0:0:0:
254,184,177149,1,0,0:0:0:0:
254,184,177326,1,0,0:0:0:0:
254,184,177415,1,0,0:0:0:0:
254,184,177504,1,8,0:0:0:0:
254,184,177859,1,8,0:0:0:0:
254,184,178036,1,0,0:0:0:0:
254,184,178214,1,0,0:0:0:0:
254,184,178303,1,0,0:0:0:0:
254,184,178392,1,8,0:0:0:0:
254,184,178569,1,8,0:0:0:0:
254,184,178747,1,0,0:0:0:0:
254,184,178924,1,8,0:0:0:0:
254,184,179279,1,8,0:0:0:0:
254,184,179367,1,0,0:0:0:0:
254,184,179457,1,0,0:0:0:0:
254,184,179634,1,0,0:0:0:0:
254,184,179812,1,0,0:0:0:0:
254,184,179900,1,8,0:0:0:0:
254,184,179989,1,8,0:0:0:0:
254,184,180167,1,0,0:0:0:0:
254,184,180344,1,8,0:0:0:0:
254,184,180699,1,8,0:0:0:0:
254,184,180788,1,8,0:0:0:0:
254,184,180877,1,0,0:0:0:0:
254,184,181054,1,0,0:0:0:0:
254,184,181232,1,0,0:0:0:0:
254,184,181320,1,0,0:0:0:0:
254,184,181409,1,8,0:0:0:0:
254,184,181587,1,8,0:0:0:0:
254,184,181764,1,0,0:0:0:0:
254,184,182119,1,8,0:0:0:0:
254,184,182297,1,0,0:0:0:0:
254,184,182385,1,8,0:0:0:0:
254,184,182474,1,0,0:0:0:0:
254,184,182652,1,8,0:0:0:0:
254,184,182829,1,0,0:0:0:0:
254,184,183007,1,0,0:0:0:0:
254,184,183095,1,8,0:0:0:0:
254,184,183184,1,8,0:0:0:0:
254,184,183539,1,0,0:0:0:0:
254,184,183717,1,8,0:0:0:0:
254,184,183894,1,8,0:0:0:0:
254,184,184072,1,8,0:0:0:0:
254,184,184161,1,8,0:0:0:0:
254,184,184249,1,0,0:0:0:0:
254,184,184427,1,8,0:0:0:0:
254,184,184605,1,0,0:0:0:0:
254,184,184960,1,8,0:0:0:0:
254,184,185048,1,8,0:0:0:0:
254,184,185137,1,0,0:0:0:0:
254,184,185315,1,8,0:0:0:0:
254,184,185492,1,0,0:0:0:0:
254,184,185670,1,0,0:0:0:0:
254,184,185847,1,0,0:0:0:0:
254,184,185936,1,0,0:0:0:0:
254,184,186025,1,8,0:0:0:0:
254,184,186380,1,0,0:0:0:0:
254,184,186468,1,0,0:0:0:0:
254,184,186557,1,8,0:0:0:0:
254,184,186735,1,0,0:0:0:0:
254,184,186912,1,8,0:0:0:0:
254,184,187001,1,8,0:0:0:0:
254,184,187089,1,0,0:0:0:0:
254,184,187267,1,0,0:0:0:0:
254,184,187445,1,8,0:0:0:0:
254,184,187800,1,8,0:0:0:0:
254,184,187977,1,8,0:0:0:0:
254,184,188155,1,0,0:0:0:0:
254,184,188332,1,8,0:0:0:0:
254,184,188421,1,8,0:0:0:0:
254,184,188510,1,0,0:0:0:0:
254,184,188687,1,8,0:0:0:0:
254,184,188865,1,0,0:0:0:0:
254,184,189220,1,8,0:0:0:0:
254,184,189397,1,0,0:0:0:0:
254,184,189575,1,0,0:0:0:0:
254,184,189752,1,8,0:0:0:0:
254,184,189930,1,8,0:0:0:0:
254,184,190019,1,8,0:0:0:0:
254,184,190107,1,0,0:0:0:0:
254,184,190285,1,0,0:0:0:0:
254,184,190462,1,8,0:0:0:0:
254,184,190551,1,0,0:0:0:0:
254,184,190640,1,8,0:0:0:0:
254,184,190818,1,0,0:0:0:0:
254,184,190995,1,0,0:0:0:0:
254,184,191173,1,8,0:0:0:0:
254,184,191350,1,0,0:0:0:0:
254,184,191528,1,8,0:0:0:0:
254,184,191616,1,8,0:0:0:0:
254,184,191705,1,0,0:0:0:0:
259,188,192060,1,0,0:0:0:0:
254,184,192149,1,8,0:0:0:0:
254,184,192238,1,0,0:0:0:0:
254,184,192415,1,8,0:0:0:0:
254,184,192593,1,0,0:0:0:0:
254,184,192681,1,8,0:0:0:0:
253,181,192770,1,0,0:0:0:0:
255,183,192948,1,0,0:0:0:0:
254,184,193125,1,8,0:0:0:0:
254,184,193480,1,8,0:0:0:0:
254,184,193569,1,8,0:0:0:0:
255,183,193658,1,0,0:0:0:0:
255,183,193835,1,0,0:0:0:0:
254,184,194013,1,8,0:0:0:0:
254,184,194190,1,0,0:0:0:0:
254,184,194368,1,8,0:0:0:0:
254,184,194456,1,0,0:0:0:0:
255,183,194545,1,0,0:0:0:0:
254,184,194900,1,0,0:0:0:0:
254,184,194989,1,8,0:0:0:0:
254,184,195078,1,8,0:0:0:0:
254,184,195255,1,0,0:0:0:0:
255,183,195433,1,8,0:0:0:0:
255,183,195521,1,8,0:0:0:0:
254,184,195610,1,0,0:0:0:0:
254,184,195788,1,0,0:0:0:0:
254,184,195965,1,8,0:0:0:0:
254,184,196143,1,8,0:0:0:0:
255,183,196321,1,0,0:0:0:0:
254,184,196498,1,0,0:0:0:0:
256,179,196675,1,8,0:0:0:0:
254,184,196853,1,0,0:0:0:0:
254,184,197031,1,8,0:0:0:0:
255,183,197208,1,0,0:0:0:0:
254,184,197386,1,0,0:0:0:0:
256,179,197563,1,8,0:0:0:0:
254,184,197652,1,8,0:0:0:0:
254,184,197741,1,0,0:0:0:0:
254,184,197918,1,8,0:0:0:0:
254,184,198096,1,0,0:0:0:0:
254,184,198273,1,8,0:0:0:0:
254,184,198451,1,0,0:0:0:0:
254,184,198628,1,8,0:0:0:0:
254,184,198805,1,0,0:0:0:0:
254,184,198894,1,8,0:0:0:0:
254,184,198983,1,0,0:0:0:0:
254,184,199072,1,8,0:0:0:0:
254,184,199160,1,8,0:0:0:0:
254,184,199249,1,8,0:0:0:0:
254,184,199338,1,0,0:0:0:0:
254,184,199427,1,0,0:0:0:0:
254,184,199515,1,8,0:0:0:0:
254,184,199604,1,0,0:0:0:0:
254,184,199693,1,0,0:0:0:0:
254,184,199782,1,8,0:0:0:0:
254,184,199870,1,8,0:0:0:0:
254,184,199959,1,0,0:0:0:0:
254,184,200048,1,8,0:0:0:0:
254,184,200137,1,8,0:0:0:0:
254,184,200225,1,0,0:0:0:0:
254,184,200314,1,0,0:0:0:0:
254,184,200403,1,8,0:0:0:0:
254,184,200492,1,0,0:0:0:0:
254,184,200581,1,8,0:0:0:0:
257,183,202001,1,0,0:0:0:0:
257,183,203066,1,0,0:0:0:0:
257,183,204131,1,8,0:0:0:0:
257,183,204486,1,8,0:0:0:0:
257,183,204841,1,0,0:0:0:0:
257,183,205906,1,0,0:0:0:0:
257,183,206971,1,0,0:0:0:0:
257,183,207326,1,8,0:0:0:0:
257,183,207681,1,0,0:0:0:0:
257,183,208746,1,0,0:0:0:0:
257,183,209811,1,8,0:0:0:0:
257,183,210166,1,0,0:0:0:0:
257,183,210521,1,8,0:0:0:0:
257,183,211586,1,8,0:0:0:0:
257,183,212652,1,0,0:0:0:0:
257,183,212829,1,0,0:0:0:0:
257,183,213007,1,8,0:0:0:0:
257,183,213184,1,0,0:0:0:0:
257,183,213362,1,8,0:0:0:0:
258,192,214427,1,0,0:0:0:0:
258,192,215492,1,8,0:0:0:0:
258,192,215847,1,8,0:0:0:0:
258,192,216202,1,0,0:0:0:0:
258,192,217267,1,0,0:0:0:0:
258,192,218332,1,8,0:0:0:0:
258,192,218687,1,0,0:0:0:0:
258,192,219042,1,8,0:0:0:0:
258,192,220107,1,0,0:0:0:0:
258,192,221172,1,8,0:0:0:0:
258,192,221527,1,0,0:0:0:0:
258,192,221882,1,8,0:0:0:0:
260,190,222947,1,0,0:0:0:0:
260,190,224012,1,0,0:0:0:0:
260,190,224367,1,8,0:0:0:0:
260,190,224723,1,0,0:0:0:0:
260,190,224811,1,0,0:0:0:0:
260,190,224900,1,8,0:0:0:0:
260,190,224959,1,0,0:0:0:0:
260,190,225018,1,0,0:0:0:0:
260,190,225078,1,0,0:0:0:0:
260,190,225255,1,0,0:0:0:0:
260,190,225433,1,8,0:0:0:0:
260,190,225492,1,0,0:0:0:0:
260,190,225551,1,0,0:0:0:0:
260,190,225610,1,8,0:0:0:0:
260,190,225699,1,0,0:0:0:0:
260,190,225788,1,8,0:0:0:0:
260,190,225876,1,0,0:0:0:0:
260,190,225965,1,8,0:0:0:0:
260,190,226024,1,8,0:0:0:0:
260,190,226083,1,8,0:0:0:0:
260,190,226143,1,0,0:0:0:0:
260,190,226320,1,0,0:0:0:0:
256,193,226498,1,0,0:0:0:0:
260,190,226557,1,8,0:0:0:0:
260,190,226616,1,8,0:0:0:0:
260,190,226675,1,0,0:0:0:0:
260,190,226764,1,0,0:0:0:0:
260,190,226853,1,8,0:0:0:0:
260,190,226941,1,0,0:0:0:0:
260,190,227030,1,0,0:0:0:0:
260,190,227208,1,0,0:0:0:0:
260,190,227296,1,8,0:0:0:0:
260,190,227385,1,0,0:0:0:0:
260,190,227444,1,8,0:0:0:0:
258,187,227504,1,8,0:0:0:0:
260,190,227563,1,0,0:0:0:0:
260,190,227652,1,8,0:0:0:0:
260,190,227740,1,0,0:0:0:0:
260,190,227799,1,0,0:0:0:0:
260,190,227859,1,0,0:0:0:0:
260,190,227918,1,8,0:0:0:0:
260,190,228007,1,8,0:0:0:0:
260,190,228095,1,0,0:0:0:0:
260,190,228273,1,8,0:0:0:0:
260,190,228362,1,8,0:0:0:0:
260,190,228450,1,0,0:0:0:0:
258,187,228539,1,8,0:0:0:0:
260,190,228628,1,0,0:0:0:0:
260,190,228687,1,0,0:0:0:0:
260,190,228746,1,0,0:0:0:0:
260,190,228805,1,8,0:0:0:0:
260,190,228983,1,8,0:0:0:0:
260,190,229042,1,8,0:0:0:0:
260,190,229101,1,8,0:0:0:0:
260,190,229160,1,0,0:0:0:0:
260,190,229249,1,8,0:0:0:0:
260,190,229338,1,0,0:0:0:0:
262,192,229515,1,0,0:0:0:0:
260,190,229604,1,0,0:0:0:0:
260,190,229693,1,8,0:0:0:0:
260,190,229752,1,8,0:0:0:0:
260,190,229811,1,8,0:0:0:0:
260,190,229870,1,0,0:0:0:0:
260,190,229959,1,0,0:0:0:0:
260,190,230048,1,8,0:0:0:0:
260,190,230225,1,0,0:0:0:0:
261,185,230403,1,8,0:0:0:0:
261,185,230462,1,0,0:0:0:0:
261,185,230521,1,0,0:0:0:0:
260,190,230581,1,0,0:0:0:0:
260,190,230669,1,8,0:0:0:0:
260,190,230758,1,0,0:0:0:0:
260,190,230936,1,8,0:0:0:0:
260,190,231113,1,0,0:0:0:0:
260,190,231202,1,8,0:0:0:0:
260,192,231291,1,0,0:0:0:0:
260,192,231379,1,0,0:0:0:0:
257,189,231468,1,8,0:0:0:0:
262,191,231527,1,0,0:0:0:0:
260,190,231586,1,0,0:0:0:0:
260,190,231646,1,0,0:0:0:0:
260,190,231734,1,8,0:0:0:0:
260,190,231823,1,0,0:0:0:0:
260,190,232001,1,8,0:0:0:0:
260,190,232060,1,8,0:0:0:0:
260,190,232119,1,8,0:0:0:0:
265,189,232178,1,0,0:0:0:0:
263,188,232267,1,0,0:0:0:0:
263,188,232356,1,8,0:0:0:0:
260,190,232533,1,0,0:0:0:0:
260,190,232711,1,0,0:0:0:0:
260,190,232799,1,8,0:0:0:0:
260,190,232888,1,8,0:0:0:0:
260,190,232947,1,8,0:0:0:0:
260,190,233007,1,8,0:0:0:0:
260,190,233066,1,0,0:0:0:0:
260,190,233154,1,8,0:0:0:0:
261,194,233243,1,0,0:0:0:0:
260,190,233421,1,0,0:0:0:0:
260,190,233480,1,0,0:0:0:0:
260,190,233539,1,0,0:0:0:0:
260,190,233598,1,8,0:0:0:0:
260,190,233687,1,0,0:0:0:0:
260,190,233776,1,8,0:0:0:0:
260,190,233865,1,8,0:0:0:0:
260,190,233953,1,0,0:0:0:0:
260,190,234131,1,0,0:0:0:0:
260,190,234308,1,0,0:0:0:0:
260,190,234397,1,8,0:0:0:0:
260,190,234486,1,8,0:0:0:0:
260,190,234545,1,8,0:0:0:0:
260,190,234604,1,8,0:0:0:0:
260,190,234663,1,0,0:0:0:0:
260,190,234752,1,0,0:0:0:0:
260,190,234841,1,8,0:0:0:0:
260,190,235018,1,0,0:0:0:0:
260,190,235107,1,8,0:0:0:0:
258,195,235196,1,0,0:0:0:0:
260,190,235255,1,0,0:0:0:0:
260,190,235314,1,0,0:0:0:0:
260,190,235373,1,8,0:0:0:0:
260,190,235462,1,8,0:0:0:0:
260,190,235551,1,0,0:0:0:0:
260,190,235728,1,0,0:0:0:0:
260,190,235773,1,0,0:0:0:0:
260,190,235817,1,8,0:0:0:0:
260,190,235906,1,0,0:0:0:0:
260,190,236083,1,8,0:0:0:0:
260,190,236171,1,0,0:0:0:0:
260,190,236260,1,8,0:0:0:0:
260,190,236319,1,8,0:0:0:0:
260,190,236378,1,8,0:0:0:0:
260,190,236438,1,0,0:0:0:0:
260,190,236615,1,0,0:0:0:0:
260,190,236793,1,8,0:0:0:0:
260,190,236852,1,8,0:0:0:0:
260,190,236911,1,8,0:0:0:0:
260,190,236970,1,0,0:0:0:0:
260,190,237059,1,8,0:0:0:0:
260,190,237148,1,0,0:0:0:0:
260,190,237236,1,0,0:0:0:0:
260,190,237325,1,8,0:0:0:0:
260,190,237384,1,0,0:0:0:0:
260,190,237443,1,0,0:0:0:0:
260,190,237503,1,0,0:0:0:0:
260,190,237680,1,0,0:0:0:0:
256,193,237858,1,0,0:0:0:0:
260,190,237917,1,0,0:0:0:0:
260,190,237976,1,0,0:0:0:0:
260,190,238035,1,8,0:0:0:0:
260,190,238124,1,0,0:0:0:0:
260,190,238213,1,8,0:0:0:0:
260,190,238301,1,0,0:0:0:0:
260,190,238390,1,0,0:0:0:0:
260,190,238568,1,0,0:0:0:0:
260,190,238656,1,8,0:0:0:0:
260,190,238745,1,8,0:0:0:0:
260,190,238804,1,8,0:0:0:0:
258,187,238864,1,8,0:0:0:0:
260,190,238923,1,0,0:0:0:0:
260,190,239012,1,8,0:0:0:0:
260,190,239100,1,0,0:0:0:0:
260,190,239159,1,0,0:0:0:0:
260,190,239219,1,0,0:0:0:0:
260,190,239278,1,8,0:0:0:0:
260,190,239367,1,8,0:0:0:0:
260,190,239455,1,0,0:0:0:0:
260,190,239633,1,8,0:0:0:0:
260,190,239722,1,8,0:0:0:0:
260,190,239810,1,0,0:0:0:0:
258,187,239899,1,0,0:0:0:0:
260,190,239988,1,8,0:0:0:0:
260,190,240048,1,8,0:0:0:0:
260,190,240106,1,8,0:0:0:0:
260,190,240165,1,0,0:0:0:0:
260,190,240343,1,8,0:0:0:0:
260,190,240402,1,8,0:0:0:0:
260,190,240461,1,8,0:0:0:0:
260,190,240520,1,0,0:0:0:0:
260,190,240609,1,8,0:0:0:0:
260,190,240698,1,0,0:0:0:0:
262,192,240876,1,0,0:0:0:0:
260,190,240964,1,0,0:0:0:0:
260,190,241053,1,8,0:0:0:0:
260,190,241112,1,0,0:0:0:0:
260,190,241171,1,0,0:0:0:0:
260,190,241230,1,0,0:0:0:0:
260,190,241319,1,8,0:0:0:0:
260,190,241408,1,0,0:0:0:0:
260,190,241498,1,0,0:0:0:0:
260,190,241585,1,8,0:0:0:0:
261,185,241763,1,8,0:0:0:0:
261,185,241822,1,8,0:0:0:0:
261,185,241881,1,8,0:0:0:0:
260,190,241941,1,0,0:0:0:0:
260,190,242029,1,8,0:0:0:0:
260,190,242118,1,0,0:0:0:0:
260,190,242296,1,8,0:0:0:0:
260,190,242473,1,8,0:0:0:0:
260,190,242562,1,0,0:0:0:0:
260,192,242651,1,8,0:0:0:0:
260,192,242739,1,8,0:0:0:0:
257,189,242829,1,0,0:0:0:0:
262,191,242887,1,0,0:0:0:0:
260,190,242946,1,0,0:0:0:0:
260,190,243006,1,8,0:0:0:0:
260,190,243094,1,8,0:0:0:0:
260,190,243183,1,0,0:0:0:0:
260,190,243361,1,8,0:0:0:0:
260,190,243420,1,8,0:0:0:0:
260,190,243479,1,8,0:0:0:0:
265,189,243538,1,0,0:0:0:0:
263,188,243627,1,0,0:0:0:0:
263,188,243716,1,8,0:0:0:0:
261,185,243805,1,8,0:0:0:0:
260,190,243893,1,0,0:0:0:0:
260,190,244071,1,0,0:0:0:0:
260,190,244159,1,8,0:0:0:0:
260,190,244248,1,8,0:0:0:0:
260,190,244307,1,8,0:0:0:0:
260,190,244367,1,8,0:0:0:0:
260,190,244426,1,0,0:0:0:0:
260,190,244514,1,8,0:0:0:0:
261,194,244603,1,0,0:0:0:0:
260,190,244781,1,0,0:0:0:0:
260,190,244840,1,0,0:0:0:0:
260,190,244899,1,0,0:0:0:0:
260,190,244958,1,8,0:0:0:0:
260,190,245047,1,0,0:0:0:0:
260,190,245136,1,8,0:0:0:0:
260,190,245225,1,8,0:0:0:0:
260,190,245313,1,0,0:0:0:0:
260,190,245491,1,0,0:0:0:0:
260,190,245668,1,0,0:0:0:0:
260,190,245757,1,8,0:0:0:0:
260,190,245846,1,8,0:0:0:0:
260,190,245905,1,8,0:0:0:0:
260,190,245964,1,8,0:0:0:0:
260,190,246023,1,0,0:0:0:0:
260,190,246112,1,0,0:0:0:0:
260,190,246201,1,8,0:0:0:0:
260,190,246378,1,0,0:0:0:0:
260,190,246467,1,8,0:0:0:0:
260,190,246557,1,0,0:0:0:0:
260,190,246734,1,0,0:0:0:0:
260,190,246779,1,8,0:0:0:0:
260,190,246823,1,8,0:0:0:0:
254,184,246867,1,0,0:0:0:0:
260,190,246912,1,0,0:0:0:0:
260,190,247089,1,0,0:0:0:0:
260,190,247134,1,8,0:0:0:0:
260,190,247178,1,8,0:0:0:0:
260,190,247223,1,0,0:0:0:0:
264,193,247267,1,0,0:0:0:0:
260,190,247444,1,0,0:0:0:0:
260,190,247621,1,8,0:0:0:0:
260,190,247680,1,8,0:0:0:0:
260,190,247739,1,8,0:0:0:0:
260,190,247799,1,0,0:0:0:0:
259,187,247888,1,0,0:0:0:0:
260,190,247976,1,0,0:0:0:0:
262,194,248066,1,8,0:0:0:0:
260,190,248154,1,0,0:0:0:0:
260,190,248331,1,8,0:0:0:0:
260,190,248420,1,0,0:0:0:0:
260,190,248509,1,8,0:0:0:0:
260,190,248569,1,8,0:0:0:0:
260,190,248628,1,8,0:0:0:0:
260,190,248687,1,8,0:0:0:0:
260,190,248776,1,0,0:0:0:0:
260,190,248864,1,0,0:0:0:0:
260,190,249041,1,0,0:0:0:0:
256,193,249219,1,0,0:0:0:0:
260,190,249278,1,8,0:0:0:0:
260,190,249337,1,8,0:0:0:0:
260,190,249396,1,0,0:0:0:0:
260,190,249485,1,0,0:0:0:0:
260,190,249574,1,8,0:0:0:0:
260,190,249662,1,0,0:0:0:0:
260,190,249751,1,0,0:0:0:0:
260,190,249929,1,0,0:0:0:0:
260,190,250017,1,8,0:0:0:0:
260,190,250106,1,0,0:0:0:0:
260,190,250165,1,8,0:0:0:0:
258,187,250225,1,8,0:0:0:0:
260,190,250284,1,0,0:0:0:0:
260,190,250373,1,8,0:0:0:0:
260,190,250461,1,0,0:0:0:0:
260,190,250520,1,0,0:0:0:0:
260,190,250580,1,0,0:0:0:0:
260,190,250639,1,8,0:0:0:0:
260,190,250728,1,8,0:0:0:0:
260,190,250816,1,0,0:0:0:0:
260,190,250994,1,8,0:0:0:0:
260,190,251083,1,8,0:0:0:0:
260,190,251171,1,0,0:0:0:0:
258,187,251260,1,8,0:0:0:0:
260,190,251349,1,0,0:0:0:0:
260,190,251408,1,0,0:0:0:0:
260,190,251467,1,0,0:0:0:0:
260,190,251526,1,8,0:0:0:0:
260,190,251704,1,8,0:0:0:0:
260,190,251763,1,8,0:0:0:0:
260,190,251822,1,8,0:0:0:0:
260,190,251881,1,0,0:0:0:0:
260,190,251970,1,8,0:0:0:0:
260,190,252059,1,0,0:0:0:0:
262,192,252236,1,0,0:0:0:0:
260,190,252325,1,0,0:0:0:0:
260,190,252414,1,8,0:0:0:0:
260,190,252473,1,8,0:0:0:0:
260,190,252532,1,8,0:0:0:0:
260,190,252591,1,0,0:0:0:0:
260,190,252680,1,0,0:0:0:0:
260,190,252769,1,8,0:0:0:0:
260,190,252946,1,0,0:0:0:0:
261,185,253124,1,8,0:0:0:0:
261,185,253183,1,0,0:0:0:0:
261,185,253242,1,0,0:0:0:0:
260,190,253302,1,0,0:0:0:0:
260,190,253390,1,8,0:0:0:0:
260,190,253479,1,0,0:0:0:0:
260,190,253657,1,8,0:0:0:0:
260,190,253834,1,0,0:0:0:0:
260,190,253923,1,8,0:0:0:0:
260,192,254012,1,0,0:0:0:0:
260,192,254100,1,0,0:0:0:0:
257,189,254189,1,8,0:0:0:0:
262,191,254248,1,0,0:0:0:0:
260,190,254307,1,0,0:0:0:0:
260,190,254367,1,0,0:0:0:0:
260,190,254455,1,8,0:0:0:0:
260,190,254544,1,0,0:0:0:0:
260,190,254722,1,8,0:0:0:0:
260,190,254781,1,8,0:0:0:0:
260,190,254840,1,8,0:0:0:0:
265,189,254899,1,0,0:0:0:0:
263,188,254988,1,0,0:0:0:0:
263,188,255077,1,8,0:0:0:0:
260,190,255254,1,0,0:0:0:0:
260,190,255432,1,0,0:0:0:0:
260,190,255520,1,8,0:0:0:0:
260,190,255609,1,8,0:0:0:0:
260,190,255668,1,8,0:0:0:0:
260,190,255728,1,8,0:0:0:0:
260,190,255787,1,0,0:0:0:0:
260,190,255875,1,8,0:0:0:0:
261,194,255964,1,0,0:0:0:0:
260,190,256142,1,0,0:0:0:0:
260,190,256201,1,0,0:0:0:0:
260,190,256260,1,0,0:0:0:0:
260,190,256319,1,8,0:0:0:0:
260,190,256408,1,0,0:0:0:0:
260,190,256497,1,8,0:0:0:0:
260,190,256586,1,8,0:0:0:0:
260,190,256674,1,0,0:0:0:0:
260,190,256852,1,0,0:0:0:0:
260,190,257029,1,0,0:0:0:0:
260,190,257118,1,8,0:0:0:0:
260,190,257207,1,8,0:0:0:0:
260,190,257266,1,8,0:0:0:0:
260,190,257325,1,8,0:0:0:0:
260,190,257384,1,0,0:0:0:0:
260,190,257473,1,0,0:0:0:0:
260,190,257562,1,8,0:0:0:0:
260,190,257739,1,0,0:0:0:0:
260,190,257828,1,8,0:0:0:0:
258,195,257917,1,0,0:0:0:0:
260,190,257976,1,0,0:0:0:0:
260,190,258035,1,0,0:0:0:0:
260,190,258094,1,8,0:0:0:0:
260,190,258183,1,8,0:0:0:0:
260,190,258272,1,0,0:0:0:0:
260,190,258449,1,0,0:0:0:0:
260,190,258494,1,0,0:0:0:0:
260,190,258538,1,8,0:0:0:0:
260,190,258627,1,0,0:0:0:0:
260,190,258804,1,8,0:0:0:0:
260,190,258892,1,0,0:0:0:0:
260,190,258981,1,8,0:0:0:0:
260,190,259040,1,8,0:0:0:0:
260,190,259099,1,8,0:0:0:0:
260,190,259159,1,0,0:0:0:0:
260,190,259336,1,0,0:0:0:0:
260,190,259514,1,8,0:0:0:0:
260,190,259573,1,8,0:0:0:0:
260,190,259632,1,8,0:0:0:0:
260,190,259691,1,0,0:0:0:0:
260,190,259780,1,8,0:0:0:0:
260,190,259869,1,0,0:0:0:0:
260,190,259957,1,0,0:0:0:0:
260,190,260046,1,8,0:0:0:0:
260,190,260105,1,0,0:0:0:0:
260,190,260164,1,0,0:0:0:0:
260,190,260224,1,0,0:0:0:0:
260,190,260401,1,0,0:0:0:0:
256,193,260579,1,0,0:0:0:0:
260,190,260638,1,0,0:0:0:0:
260,190,260697,1,0,0:0:0:0:
260,190,260756,1,8,0:0:0:0:
260,190,260845,1,0,0:0:0:0:
260,190,260934,1,8,0:0:0:0:
260,190,261022,1,0,0:0:0:0:
260,190,261111,1,0,0:0:0:0:
260,190,261289,1,0,0:0:0:0:
260,190,261377,1,8,0:0:0:0:
260,190,261466,1,8,0:0:0:0:
260,190,261525,1,8,0:0:0:0:
258,187,261585,1,8,0:0:0:0:
260,190,261644,1,0,0:0:0:0:
260,190,261733,1,8,0:0:0:0:
260,190,261821,1,0,0:0:0:0:
260,190,261880,1,0,0:0:0:0:
260,190,261940,1,0,0:0:0:0:
260,190,261999,1,8,0:0:0:0:
260,190,262088,1,8,0:0:0:0:
260,190,262176,1,0,0:0:0:0:
260,190,262354,1,8,0:0:0:0:
260,190,262443,1,8,0:0:0:0:
260,190,262531,1,0,0:0:0:0:
258,187,262620,1,0,0:0:0:0:
260,190,262709,1,8,0:0:0:0:
260,190,262769,1,8,0:0:0:0:
260,190,262827,1,8,0:0:0:0:
260,190,262886,1,0,0:0:0:0:
260,190,263064,1,8,0:0:0:0:
260,190,263123,1,8,0:0:0:0:
260,190,263182,1,8,0:0:0:0:
260,190,263241,1,0,0:0:0:0:
260,190,263330,1,8,0:0:0:0:
260,190,263419,1,0,0:0:0:0:
262,192,263597,1,0,0:0:0:0:
260,190,263685,1,0,0:0:0:0:
260,190,263774,1,8,0:0:0:0:
260,190,263833,1,0,0:0:0:0:
260,190,263892,1,0,0:0:0:0:
260,190,263951,1,0,0:0:0:0:
260,190,264040,1,8,0:0:0:0:
260,190,264129,1,0,0:0:0:0:
260,190,264219,1,0,0:0:0:0:
260,190,264306,1,8,0:0:0:0:
261,185,264484,1,8,0:0:0:0:
261,185,264543,1,8,0:0:0:0:
261,185,264602,1,8,0:0:0:0:
260,190,264662,1,0,0:0:0:0:
260,190,264750,1,8,0:0:0:0:
260,190,264839,1,0,0:0:0:0:
260,190,265017,1,8,0:0:0:0:
260,190,265194,1,8,0:0:0:0:
260,190,265283,1,0,0:0:0:0:
260,192,265372,1,8,0:0:0:0:
260,192,265460,1,8,0:0:0:0:
257,189,265550,1,0,0:0:0:0:
262,191,265608,1,0,0:0:0:0:
260,190,265667,1,0,0:0:0:0:
260,190,265727,1,8,0:0:0:0:
260,190,265815,1,8,0:0:0:0:
260,190,265904,1,0,0:0:0:0:
260,190,266082,1,8,0:0:0:0:
260,190,266141,1,8,0:0:0:0:
260,190,266200,1,8,0:0:0:0:
265,189,266259,1,0,0:0:0:0:
263,188,266348,1,0,0:0:0:0:
263,188,266437,1,8,0:0:0:0:
261,185,266526,1,8,0:0:0:0:
260,190,266614,1,0,0:0:0:0:
260,190,266792,1,0,0:0:0:0:
260,190,266880,1,8,0:0:0:0:
260,190,266969,1,8,0:0:0:0:
260,190,267028,1,8,0:0:0:0:
260,190,267088,1,8,0:0:0:0:
260,190,267147,1,0,0:0:0:0:
260,190,267235,1,8,0:0:0:0:
261,194,267324,1,0,0:0:0:0:
260,190,267502,1,0,0:0:0:0:
260,190,267561,1,0,0:0:0:0:
260,190,267620,1,0,0:0:0:0:
260,190,267679,1,8,0:0:0:0:
260,190,267768,1,0,0:0:0:0:
260,190,267857,1,8,0:0:0:0:
260,190,267946,1,8,0:0:0:0:
260,190,268034,1,0,0:0:0:0:
260,190,268212,1,0,0:0:0:0:
260,190,268389,1,0,0:0:0:0:
260,190,268478,1,8,0:0:0:0:
260,190,268567,1,8,0:0:0:0:
260,190,268626,1,8,0:0:0:0:
260,190,268685,1,8,0:0:0:0:
260,190,268744,1,0,0:0:0:0:
260,190,268833,1,0,0:0:0:0:
260,190,268922,1,8,0:0:0:0:
260,190,269099,1,0,0:0:0:0:
260,190,269188,1,8,0:0:0:0:
260,190,269278,1,0,0:0:0:0:
260,190,269455,1,0,0:0:0:0:
260,190,269500,1,8,0:0:0:0:
260,190,269544,1,8,0:0:0:0:
254,184,269588,1,0,0:0:0:0:
260,190,269633,1,0,0:0:0:0:
260,190,269810,1,0,0:0:0:0:
260,190,269855,1,8,0:0:0:0:
260,190,269899,1,8,0:0:0:0:
260,190,269944,1,0,0:0:0:0:
264,193,269988,1,0,0:0:0:0:
260,190,270166,1,8,0:0:0:0:
260,190,270344,1,0,0:0:0:0:
260,190,270433,1,8,0:0:0:0:
260,190,270521,1,0,0:0:0:0:
260,193,270610,1,8,0:0:0:0:
260,190,270699,1,0,0:0:0:0:
260,190,270788,1,0,0:0:0:0:
260,190,270876,1,8,0:0:0:0:
260,190,271054,1,8,0:0:0:0:
260,190,271143,1,8,0:0:0:0:
260,190,271231,1,0,0:0:0:0:
260,190,271409,1,8,0:0:0:0:
260,193,271586,1,0,0:0:0:0:
260,190,271764,1,0,0:0:0:0:
260,190,271853,1,8,0:0:0:0:
260,190,271941,1,8,0:0:0:0:
260,190,272030,1,0,0:0:0:0:
260,190,272119,1,8,0:0:0:0:
260,190,272208,1,0,0:0:0:0:
260,190,272296,1,8,0:0:0:0:
260,193,272474,1,8,0:0:0:0:
260,193,272563,1,8,0:0:0:0:
260,190,272652,1,0,0:0:0:0:
260,190,272740,1,0,0:0:0:0:
260,190,272829,1,8,0:0:0:0:
260,190,273007,1,0,0:0:0:0:
260,190,273184,1,8,0:0:0:0:
260,190,273273,1,0,0:0:0:0:
260,193,273362,1,0,0:0:0:0:
260,193,273450,1,8,0:0:0:0:
260,193,273539,1,0,0:0:0:0:
260,190,273628,1,0,0:0:0:0:
260,190,273717,1,8,0:0:0:0:
254,188,273894,1,8,0:0:0:0:
254,188,273983,1,8,0:0:0:0:
254,188,274072,1,0,0:0:0:0:
254,188,274249,1,0,0:0:0:0:
254,188,274427,1,8,0:0:0:0:
254,188,274604,1,0,0:0:0:0:
254,188,274693,1,0,0:0:0:0:
254,188,274782,1,8,0:0:0:0:
254,188,274870,1,0,0:0:0:0:
254,188,274959,1,8,0:0:0:0:
254,188,275048,1,8,0:0:0:0:
254,188,275137,1,0,0:0:0:0:
254,188,275314,1,8,0:0:0:0:
254,188,275403,1,0,0:0:0:0:
254,188,275492,1,0,0:0:0:0:
254,188,275669,1,8,0:0:0:0:
254,188,275847,1,0,0:0:0:0:
254,188,276024,1,0,0:0:0:0:
254,188,276113,1,8,0:0:0:0:
254,188,276202,1,0,0:0:0:0:
254,188,276379,1,8,0:0:0:0:
254,188,276557,1,0,0:0:0:0:
254,188,276646,1,0,0:0:0:0:
254,188,276734,1,8,0:0:0:0:
254,188,276912,1,0,0:0:0:0:
254,188,277089,1,8,0:0:0:0:
254,188,277267,1,0,0:0:0:0:
254,188,277444,1,0,0:0:0:0:
254,188,277533,1,8,0:0:0:0:
254,188,277622,1,0,0:0:0:0:
254,188,277799,1,0,0:0:0:0:
254,188,277977,1,8,0:0:0:0:
254,188,278066,1,8,0:0:0:0:
254,188,278154,1,0,0:0:0:0:
254,188,278332,1,8,0:0:0:0:
254,188,278510,1,8,0:0:0:0:
254,188,278598,1,8,0:0:0:0:
254,188,278687,1,0,0:0:0:0:
254,188,278776,1,0,0:0:0:0:
254,188,278865,1,8,0:0:0:0:
254,188,278953,1,8,0:0:0:0:
254,188,279042,1,0,0:0:0:0:
254,188,279220,1,8,0:0:0:0:
254,188,279308,1,0,0:0:0:0:
254,188,279397,1,8,0:0:0:0:
254,188,279575,1,0,0:0:0:0:
254,188,279752,1,8,0:0:0:0:
251,193,279841,1,0,0:0:0:0:
254,188,279930,1,8,0:0:0:0:
254,188,280107,1,0,0:0:0:0:
254,188,280285,1,8,0:0:0:0:
254,188,280373,1,0,0:0:0:0:
254,188,280462,1,0,0:0:0:0:
254,188,280551,1,8,0:0:0:0:
254,188,280640,1,8,0:0:0:0:
254,188,280728,1,0,0:0:0:0:
251,193,280817,1,8,0:0:0:0:
254,188,280995,1,0,0:0:0:0:
254,188,281083,1,0,0:0:0:0:
254,188,281172,1,8,0:0:0:0:
254,188,281350,1,0,0:0:0:0:
254,188,281527,1,8,0:0:0:0:
254,188,281705,1,8,0:0:0:0:
256,190,281794,1,8,0:0:0:0:
254,188,281882,1,0,0:0:0:0:
254,188,282060,1,8,0:0:0:0:
254,188,282237,1,0,0:0:0:0:
254,188,282326,1,8,0:0:0:0:
254,188,282415,1,0,0:0:0:0:
254,188,282592,1,0,0:0:0:0:
256,190,282770,1,8,0:0:0:0:
254,188,282947,1,0,0:0:0:0:
254,188,283125,1,8,0:0:0:0:
254,188,283214,1,8,0:0:0:0:
254,188,283302,1,0,0:0:0:0:
254,188,283480,1,0,0:0:0:0:
254,188,283569,1,8,0:0:0:0:
256,190,283657,1,8,0:0:0:0:
256,190,283746,1,0,0:0:0:0:
254,188,283835,1,0,0:0:0:0:
254,188,283924,1,8,0:0:0:0:
254,188,284012,1,0,0:0:0:0:
254,188,284190,1,0,0:0:0:0:
254,188,284367,1,8,0:0:0:0:
254,188,284545,1,8,0:0:0:0:
256,190,284634,1,0,0:0:0:0:
256,190,284723,1,8,0:0:0:0:
252,180,284811,1,0,0:0:0:0:
254,188,284900,1,0,0:0:0:0:
252,180,284989,1,8,0:0:0:0:
254,188,285078,1,8,0:0:0:0:
260,180,285255,1,8,0:0:0:0:
254,188,285344,1,8,0:0:0:0:
252,180,285433,1,0,0:0:0:0:
252,180,285610,1,8,0:0:0:0:
252,180,285788,1,0,0:0:0:0:
253,187,285965,1,0,0:0:0:0:
254,188,286054,1,8,0:0:0:0:
253,187,286143,1,0,0:0:0:0:
253,187,286231,1,8,0:0:0:0:
254,188,286320,1,8,0:0:0:0:
252,187,286409,1,0,0:0:0:0:
252,187,286498,1,8,0:0:0:0:
252,187,286675,1,8,0:0:0:0:
252,187,286764,1,8,0:0:0:0:
253,187,286853,1,0,0:0:0:0:
254,188,287030,1,8,0:0:0:0:
253,187,287208,1,0,0:0:0:0:
252,187,287385,1,8,0:0:0:0:
252,187,287474,1,8,0:0:0:0:
252,187,287563,1,0,0:0:0:0:
252,187,287740,1,0,0:0:0:0:
254,188,287918,1,8,0:0:0:0:
254,188,288007,1,0,0:0:0:0:
253,187,288095,1,0,0:0:0:0:
252,187,288273,1,8,0:0:0:0:
252,187,288450,1,0,0:0:0:0:
252,187,288628,1,8,0:0:0:0:
252,187,288805,1,0,0:0:0:0:
254,188,288894,1,8,0:0:0:0:
254,188,288983,1,0,0:0:0:0:
252,187,289160,1,8,0:0:0:0:
252,187,289338,1,8,0:0:0:0:
252,187,289427,1,0,0:0:0:0:
252,187,289515,1,8,0:0:0:0:
252,187,289693,1,8,0:0:0:0:
252,187,289782,1,0,0:0:0:0:
254,188,289870,1,0,0:0:0:0:
254,188,289959,1,8,0:0:0:0:
252,187,290048,1,0,0:0:0:0:
252,187,290225,1,8,0:0:0:0:
252,187,290314,1,0,0:0:0:0:
252,187,290403,1,0,0:0:0:0:
252,187,290581,1,0,0:0:0:0:
252,187,290758,1,8,0:0:0:0:
254,188,290847,1,8,0:0:0:0:
254,188,290936,1,0,0:0:0:0:
252,187,291113,1,0,0:0:0:0:
252,187,291291,1,8,0:0:0:0:
252,187,291468,1,0,0:0:0:0:
252,187,291646,1,8,0:0:0:0:
252,187,291734,1,0,0:0:0:0:
254,188,291823,1,0,0:0:0:0:
252,187,292001,1,0,0:0:0:0:
252,187,292178,1,0,0:0:0:0:
252,187,292267,1,8,0:0:0:0:
252,187,292356,1,0,0:0:0:0:
252,187,292533,1,8,0:0:0:0:
252,187,292622,1,0,0:0:0:0:
252,187,292711,1,8,0:0:0:0:
254,188,292799,1,8,0:0:0:0:
252,187,292888,1,0,0:0:0:0:
260,190,293066,1,0,0:0:0:0:
260,190,293155,1,8,0:0:0:0:
260,190,293243,1,0,0:0:0:0:
260,193,293332,1,8,0:0:0:0:
260,190,293421,1,0,0:0:0:0:
260,190,293510,1,0,0:0:0:0:
260,190,293598,1,8,0:0:0:0:
260,190,293776,1,8,0:0:0:0:
260,190,293865,1,8,0:0:0:0:
260,190,293953,1,0,0:0:0:0:
260,190,294131,1,8,0:0:0:0:
260,193,294308,1,0,0:0:0:0:
260,190,294486,1,0,0:0:0:0:
260,190,294575,1,8,0:0:0:0:
260,190,294663,1,8,0:0:0:0:
260,190,294752,1,0,0:0:0:0:
260,190,294841,1,8,0:0:0:0:
260,190,294930,1,0,0:0:0:0:
260,190,295018,1,8,0:0:0:0:
260,193,295196,1,8,0:0:0:0:
260,193,295285,1,8,0:0:0:0:
260,190,295374,1,0,0:0:0:0:
260,190,295462,1,0,0:0:0:0:
260,190,295551,1,8,0:0:0:0:
260,190,295729,1,0,0:0:0:0:
260,190,295906,1,8,0:0:0:0:
260,190,295995,1,0,0:0:0:0:
260,193,296084,1,0,0:0:0:0:
260,193,296172,1,8,0:0:0:0:
260,193,296261,1,0,0:0:0:0:
260,190,296350,1,0,0:0:0:0:
260,190,296439,1,8,0:0:0:0:
254,188,296616,1,8,0:0:0:0:
254,188,296705,1,8,0:0:0:0:
254,188,296794,1,0,0:0:0:0:
254,188,296971,1,0,0:0:0:0:
254,188,297149,1,8,0:0:0:0:
254,188,297326,1,0,0:0:0:0:
254,188,297415,1,0,0:0:0:0:
254,188,297504,1,8,0:0:0:0:
254,188,297592,1,0,0:0:0:0:
254,188,297681,1,8,0:0:0:0:
254,188,297770,1,8,0:0:0:0:
254,188,297859,1,0,0:0:0:0:
254,188,298036,1,8,0:0:0:0:
254,188,298125,1,0,0:0:0:0:
254,188,298214,1,0,0:0:0:0:
254,188,298391,1,8,0:0:0:0:
254,188,298569,1,0,0:0:0:0:
254,188,298746,1,0,0:0:0:0:
254,188,298835,1,8,0:0:0:0:
254,188,298924,1,0,0:0:0:0:
254,188,299101,1,8,0:0:0:0:
254,188,299279,1,0,0:0:0:0:
254,188,299368,1,0,0:0:0:0:
254,188,299456,1,8,0:0:0:0:
254,188,299634,1,0,0:0:0:0:
254,188,299811,1,8,0:0:0:0:
254,188,299989,1,0,0:0:0:0:
254,188,300166,1,0,0:0:0:0:
254,188,300255,1,8,0:0:0:0:
254,188,300344,1,0,0:0:0:0:
254,188,300521,1,0,0:0:0:0:
254,188,300699,1,8,0:0:0:0:
254,188,300788,1,8,0:0:0:0:
254,188,300876,1,0,0:0:0:0:
254,188,301054,1,8,0:0:0:0:
254,188,301232,1,8,0:0:0:0:
254,188,301320,1,8,0:0:0:0:
254,188,301409,1,0,0:0:0:0:
254,188,301498,1,0,0:0:0:0:
254,188,301587,1,8,0:0:0:0:
254,188,301675,1,8,0:0:0:0:
254,188,301764,1,0,0:0:0:0:
254,188,301942,1,8,0:0:0:0:
254,188,302030,1,0,0:0:0:0:
254,188,302119,1,8,0:0:0:0:
254,188,302297,1,0,0:0:0:0:
254,188,302474,1,8,0:0:0:0:
251,193,302563,1,0,0:0:0:0:
254,188,302652,1,8,0:0:0:0:
254,188,302829,1,0,0:0:0:0:
254,188,303007,1,8,0:0:0:0:
254,188,303095,1,0,0:0:0:0:
254,188,303184,1,0,0:0:0:0:
254,188,303273,1,8,0:0:0:0:
254,188,303362,1,8,0:0:0:0:
254,188,303450,1,0,0:0:0:0:
251,193,303539,1,8,0:0:0:0:
254,188,303717,1,0,0:0:0:0:
254,188,303805,1,0,0:0:0:0:
254,188,303894,1,8,0:0:0:0:
254,188,304072,1,0,0:0:0:0:
254,188,304249,1,8,0:0:0:0:
254,188,304427,1,8,0:0:0:0:
256,190,304516,1,8,0:0:0:0:
254,188,304604,1,0,0:0:0:0:
254,188,304782,1,8,0:0:0:0:
254,188,304959,1,0,0:0:0:0:
254,188,305048,1,8,0:0:0:0:
254,188,305137,1,0,0:0:0:0:
254,188,305314,1,0,0:0:0:0:
256,190,305492,1,8,0:0:0:0:
254,188,305669,1,0,0:0:0:0:
254,188,305847,1,8,0:0:0:0:
254,188,305936,1,8,0:0:0:0:
254,188,306024,1,0,0:0:0:0:
254,188,306202,1,0,0:0:0:0:
254,188,306291,1,8,0:0:0:0:
256,190,306379,1,8,0:0:0:0:
256,190,306468,1,0,0:0:0:0:
254,188,306557,1,0,0:0:0:0:
254,188,306646,1,8,0:0:0:0:
254,188,306734,1,0,0:0:0:0:
254,188,306912,1,0,0:0:0:0:
254,188,307089,1,8,0:0:0:0:
254,188,307267,1,8,0:0:0:0:
256,190,307356,1,0,0:0:0:0:
256,190,307445,1,8,0:0:0:0:
252,180,307533,1,0,0:0:0:0:
254,188,307622,1,0,0:0:0:0:
252,180,307711,1,8,0:0:0:0:
254,188,307800,1,8,0:0:0:0:
260,180,307977,1,8,0:0:0:0:
254,188,308066,1,8,0:0:0:0:
252,180,308155,1,0,0:0:0:0:
252,180,308332,1,8,0:0:0:0:
252,180,308510,1,0,0:0:0:0:
253,187,308687,1,0,0:0:0:0:
254,188,308776,1,8,0:0:0:0:
253,187,308865,1,0,0:0:0:0:
253,187,308953,1,8,0:0:0:0:
254,188,309042,1,8,0:0:0:0:
252,187,309131,1,0,0:0:0:0:
252,187,309220,1,8,0:0:0:0:
252,187,309397,1,8,0:0:0:0:
252,187,309486,1,8,0:0:0:0:
253,187,309575,1,0,0:0:0:0:
254,188,309752,1,8,0:0:0:0:
253,187,309930,1,0,0:0:0:0:
252,187,310107,1,8,0:0:0:0:
252,187,310196,1,8,0:0:0:0:
252,187,310285,1,0,0:0:0:0:
252,187,310462,1,0,0:0:0:0:
254,188,310640,1,8,0:0:0:0:
254,188,310729,1,0,0:0:0:0:
253,187,310817,1,0,0:0:0:0:
252,187,310995,1,8,0:0:0:0:
252,187,311172,1,0,0:0:0:0:
252,187,311350,1,8,0:0:0:0:
252,187,311527,1,0,0:0:0:0:
254,188,311616,1,8,0:0:0:0:
254,188,311705,1,0,0:0:0:0:
252,187,311882,1,8,0:0:0:0:
252,187,312060,1,8,0:0:0:0:
252,187,312149,1,0,0:0:0:0:
252,187,312237,1,8,0:0:0:0:
252,187,312415,1,0,0:0:0:0:
253,192,312592,1,8,0:0:0:0:
253,193,312770,1,0,0:0:0:0:
253,193,312859,1,8,0:0:0:0:
253,193,312947,1,0,0:0:0:0:
253,193,313036,1,8,0:0:0:0:
253,193,313125,1,8,0:0:0:0:
253,193,313214,1,0,0:0:0:0:
253,193,313302,1,0,0:0:0:0:
253,193,313391,1,8,0:0:0:0:
253,193,313480,1,0,0:0:0:0:
253,193,313569,1,8,0:0:0:0:
253,193,313657,1,0,0:0:0:0:
253,193,313746,1,0,0:0:0:0:
253,193,313835,1,8,0:0:0:0:
253,193,313924,1,0,0:0:0:0:
253,193,314012,1,0,0:0:0:0:
253,193,314101,1,8,0:0:0:0:
253,193,314190,1,8,0:0:0:0:
253,193,314279,1,0,0:0:0:0:
253,193,314367,1,8,0:0:0:0:
253,193,314456,1,0,0:0:0:0:
253,193,314545,1,8,0:0:0:0:
253,193,314634,1,0,0:0:0:0:
253,193,314723,1,0,0:0:0:0:
253,193,314811,1,8,0:0:0:0:
253,193,314900,1,8,0:0:0:0:
253,193,314989,1,0,0:0:0:0:
253,193,315078,1,8,0:0:0:0:
253,193,315166,1,0,0:0:0:0:
261,193,315255,1,8,0:0:0:0:
253,193,315344,1,8,0:0:0:0:
253,193,315433,1,0,0:0:0:0:
254,187,315521,1,8,0:0:0:0:
261,193,315610,1,8,0:0:0:0:
257,185,317030,1,8,0:0:0:0:
257,185,318450,1,8,0:0:0:0:
257,185,319870,1,8,0:0:0:0:
257,185,320581,1,0,0:0:0:0:
