osu file format v14

[General]
AudioFilename: audio.mp3
AudioLeadIn: 0
PreviewTime:115897
Countdown: 0
SampleSet: Soft
StackLeniency: 0.3
Mode: 0
LetterboxInBreaks: 0
WidescreenStoryboard: 1

[Editor]
Bookmarks: 8375,16651,33203,41479,58031,66307,99410,111824,115962,124238,149065,157341,190444,194582,210875
DistanceSpacing: 2.2
BeatDivisor: 4
GridSize: 4
TimelineZoom: 3.899998

[Metadata]
Title:Rasou
TitleUnicode:裸装
Artist:SOOOO
ArtistUnicode:SOOOO
Creator:CallieCube
Version:muya-'s Insane
Source:
Tags:featured artist fa OWC 2021sf fm3 osu world cup semi finals free mod three allice obamacube smokebloke bluirre nachmark muya- p1twist paul blart electronic japanese naked clothes 鏡音レン kagamine len ボーカロイド ボカロ vocaloid
BeatmapID:3889034
BeatmapSetID:1621913

[Difficulty]
HPDrainRate:4.5
CircleSize:3.4
OverallDifficulty:8.4
ApproachRate:9
SliderMultiplier:1.4
SliderTickRate:1

[Events]
//Background and Video events
0,0,"mosh abomination upscaled red.jpg",0,0
//Break Periods
2,58489,63638
2,99609,101396
2,103748,106310
2,149394,152603
2,190644,191913
//Storyboard Layer 0 (Background)
//Storyboard Layer 1 (Fail)
//Storyboard Layer 2 (Pass)
//Storyboard Layer 3 (Foreground)
//Storyboard Layer 4 (Overlay)
//Storyboard Sound Samples

[TimingPoints]
4238,258.620689655172,4,3,1,70,1,0
7939,-100,4,3,1,5,0,0
8376,-125,4,3,1,70,0,0
14841,-111.111111111111,4,3,1,70,0,0
15358,-100,4,3,1,70,0,0
15811,-100,4,3,1,70,0,0
15875,-83.3333333333333,4,3,1,70,0,0
16069,-83.3333333333333,4,3,1,5,0,0
16134,-90.9090909090909,4,3,1,70,0,0
16199,-90.9090909090909,4,3,1,70,0,0
16263,-100,4,3,1,70,0,0
16328,-100,4,3,1,70,0,0
16393,-111.111111111111,4,3,1,70,0,0
16457,-111.111111111111,4,3,1,70,0,0
16522,-125,4,3,1,70,0,0
16651,-100,4,3,1,70,0,0
24927,-90.9090909090909,4,3,1,70,0,0
25121,-90.9090909090909,4,3,1,5,0,0
25186,-90.9090909090909,4,3,1,70,0,0
29065,-100,4,3,1,70,0,0
33203,-166.666666666667,4,3,1,50,0,0
37212,-166.666666666667,4,3,1,50,0,0
37341,-166.666666666667,4,3,1,50,0,0
40444,-83.3333333333333,4,3,1,50,0,0
41479,-90.9090909090909,4,3,1,70,0,0
49755,-83.3333333333333,4,3,1,70,0,0
53893,-125,4,3,1,70,0,0
55962,-71.4285714285714,4,3,1,70,0,1
56996,-71.4285714285714,4,3,1,80,0,1
58031,-55.5555555555556,4,3,1,80,0,0
58289,-55.5555555555556,4,3,1,60,0,0
58354,-55.5555555555556,4,3,1,60,0,0
64238,-100,4,3,1,80,0,0
64367,-100,4,3,1,5,0,0
64496,-111.111111111111,4,3,1,80,0,0
64625,-111.111111111111,4,3,1,5,0,0
64755,-125,4,3,1,60,0,0
64884,-125,4,3,1,5,0,0
65013,-142.857142857143,4,3,1,60,0,0
65143,-142.857142857143,4,3,1,5,0,0
65272,-142.857142857143,4,3,1,45,0,0
65789,-142.857142857143,4,3,1,35,0,0
66307,-111.111111111111,4,3,1,70,0,0
66694,-111.111111111111,4,3,1,70,0,0
66824,-111.111111111111,4,3,1,70,0,0
80789,-99.9999999999999,4,3,1,70,0,0
81307,-111.111111111111,4,3,1,70,0,0
81824,-125,4,3,1,70,0,0
82341,-111.111111111111,4,3,1,70,0,0
82794,-111.111111111111,4,3,1,5,0,0
82858,-90.9090909090908,4,3,1,70,0,1
90875,-90.9090909090908,4,3,1,70,0,0
91134,-83.3333333333333,4,3,1,70,0,1
92169,-71.4285714285714,4,3,1,70,0,1
92621,-71.4285714285714,4,3,1,5,0,1
92686,-83.3333333333333,4,3,1,70,0,1
94238,-71.4285714285714,4,3,1,70,0,1
94690,-71.4285714285714,4,3,1,5,0,1
94755,-83.3333333333333,4,3,1,70,0,1
96307,-71.4285714285714,4,3,1,70,0,1
97341,-83.3333333333333,4,3,1,70,0,1
98634,-71.4285714285714,4,3,1,70,0,1
99410,-71.4285714285714,4,2,0,50,0,0
101996,-250,4,2,0,50,0,0
103548,-250,4,2,98,50,0,0
107427,-125,4,2,98,50,0,0
107686,-500,4,2,99,50,0,0
111824,-500,4,2,0,50,0,0
115962,-125,4,3,1,70,0,0
120100,-111.111111111111,4,3,1,70,0,0
122169,-100,4,3,1,70,0,0
123203,-71.4285714285714,4,3,1,70,0,0
123720,-125,4,3,1,70,0,0
124238,-90.9090909090909,4,3,1,70,0,0
131479,-71.4285714285714,4,3,1,70,0,0
131932,-71.4285714285714,4,3,1,5,0,0
131996,-71.4285714285714,4,3,1,70,0,0
132513,-83.3333333333333,4,3,1,70,0,0
140660,-76.9230769230769,4,3,1,70,0,1
142341,-142.857142857143,4,3,1,70,0,0
142664,-142.857142857143,4,3,1,5,0,0
142729,-76.9230769230769,4,3,1,70,0,1
144410,-142.857142857143,4,3,1,70,0,0
144733,-142.857142857143,4,3,1,5,0,0
144798,-76.9230769230769,4,3,1,70,0,1
146479,-142.857142857143,4,3,1,70,0,0
146867,-71.4285714285714,4,3,1,70,0,1
146996,-71.4285714285714,4,3,1,80,0,1
148936,-55.5555555555556,4,3,1,80,0,0
149194,-55.5555555555556,4,3,1,5,0,0
149259,-55.5555555555556,4,3,1,80,0,0
153203,-166.666666666667,4,3,1,80,0,0
153332,-166.666666666667,4,3,1,55,0,0
153462,-142.857142857143,4,3,1,55,0,0
153591,-142.857142857143,4,3,1,5,0,0
153720,-125,4,3,1,55,0,0
153850,-125,4,3,1,5,0,0
153979,-111.111111111111,4,3,1,55,0,0
154108,-111.111111111111,4,3,1,5,0,0
154238,-100,4,3,1,55,0,0
154367,-100,4,3,1,5,0,0
154496,-83.3333333333333,4,3,1,55,0,0
154625,-83.3333333333333,4,3,1,5,0,0
154755,-71.4285714285714,4,3,1,55,0,0
154884,-71.4285714285714,4,3,1,55,0,0
155013,-62.5,4,3,1,55,0,0
155143,-76.9230769230769,4,3,1,5,0,0
155207,-76.9230769230769,4,3,1,55,0,0
157341,-111.111111111111,4,3,1,70,0,0
157729,-111.111111111111,4,3,1,70,0,0
157858,-111.111111111111,4,3,1,70,0,0
171824,-99.9999999999999,4,3,1,70,0,0
172341,-111.111111111111,4,3,1,70,0,0
172858,-125,4,3,1,70,0,0
173375,-111.111111111111,4,3,1,70,0,0
173828,-111.111111111111,4,3,1,5,0,0
173893,-90.9090909090908,4,3,1,70,0,1
181587,-90.9090909090908,4,3,1,5,0,1
181651,-90.9090909090908,4,3,1,70,0,1
181910,-90.9090909090908,4,3,1,70,0,0
182169,-83.3333333333333,4,3,1,70,0,1
183203,-71.4285714285714,4,3,1,70,0,1
183656,-71.4285714285714,4,3,1,5,0,1
183720,-83.3333333333333,4,3,1,70,0,1
185272,-71.4285714285714,4,3,1,70,0,1
185725,-71.4285714285714,4,3,1,5,0,1
185789,-83.3333333333333,4,3,1,70,0,1
187341,-71.4285714285714,4,3,1,70,0,1
188375,-83.3333333333333,4,3,1,70,0,1
189669,-71.4285714285714,4,3,1,70,0,1
190444,-71.4285714285714,4,3,1,70,0,0
192513,-333.333333333333,4,3,1,70,0,0
194582,-76.9230769230769,4,3,1,80,0,1
202341,-55.5555555555556,4,3,1,80,0,0
202858,-71.4285714285714,4,3,1,90,0,1
210875,-35.7142857142857,4,3,1,90,0,0
210939,-35.7142857142857,4,2,97,100,0,0

[Colours]
Combo1 : 125,2,2
Combo2 : 230,220,174
Combo3 : 217,4,4
Combo4 : 245,198,139

[HitObjects]
421,40,8376,6,0,P|430:79|421:109,3,56,0|2|0|2,0:0|0:0|0:0|0:0,0:0:0:0:
495,147,8894,2,0,P|465:174|435:181,3,56,0|2|0|0,0:0|0:0|0:0|0:0,0:0:0:0:
439,264,9411,2,0,P|400:252|379:229,3,56,0|2|0|0,0:0|0:0|0:0|0:0,0:0:0:0:
309,274,9928,2,0,P|300:235|309:205,3,56,0|2|0|2,0:0|0:0|0:0|0:0,0:0:0:0:
301,99,10444,6,0,P|265:80|234:81,3,56,0|2|0|2,0:0|0:0|0:0|0:0,0:0:0:0:
216,0,10962,2,0,P|182:21|167:48,3,56,0|2|2|2,0:0|0:0|0:0|0:0,0:0:0:0:
89,23,11479,2,0,P|90:63|106:89,3,56,0|2|0|0,0:0|0:0|0:0|0:0,0:0:0:0:
45,146,11996,2,0,P|80:164|111:163,3,56,0|2|2|2,0:0|0:0|0:0|0:0,0:0:0:0:
221,125,12513,6,0,P|248:154|255:184,3,56,0|2|0|2,0:0|0:0|0:0|0:0,0:0:0:0:
339,181,13031,2,0,P|327:219|304:240,3,56,2|2|2|2,0:0|0:0|0:0|0:0,0:0:0:0:
350,310,13548,2,0,P|311:319|281:310,3,56,0|0|2|0,0:0|0:0|0:0|0:0,0:0:0:0:
242,384,14065,2,0,P|214:354|207:324,3,56,2|2|2|2,0:0|0:0|0:0|0:0,0:0:0:0:
113,333,14582,6,0,P|104:294|87:263,1,56
24,163,14841,2,0,B|126:136|98:231|217:197,1,188.999994232178,2|0,0:2|0:0,0:0:0:0:
304,103,15358,2,0,B|275:111|231:102|231:102|275:116|288:151,1,140,2|0,0:2|0:0,0:0:0:0:
364,207,15746,2,0,P|373:231|375:258,1,35,2|0,0:2|0:0,0:0:0:0:
315,328,15875,6,0,P|361:291|439:315,1,125.999996154785,2|0,0:2|0:0,0:0:0:0:
441,313,16134,1,2,0:2:0:0:
511,277,16263,1,2,0:2:0:0:
512,195,16393,1,2,0:2:0:0:
442,155,16522,1,2,0:2:0:0:
512,65,16651,1,4,0:0:0:0:
320,142,16910,6,0,B|252:128|257:187|181:172,1,140,8|0,0:2|0:0,0:0:0:0:
76,139,17298,1,0,0:0:0:0:
76,139,17427,2,0,P|88:175|98:215,1,70,8|0,0:2|0:0,0:0:0:0:
110,318,17686,1,4,0:0:0:0:
110,318,17815,1,4,0:0:0:0:
230,250,17944,6,0,P|207:316|192:397,1,140,8|0,0:2|0:0,0:0:0:0:
416,291,18462,1,8,0:2:0:0:
416,291,18591,1,0,0:0:0:0:
371,210,18720,2,0,P|340:240|333:288,1,70,4|0,0:0|0:0,0:0:0:0:
472,370,18979,6,0,P|507:314|485:224,1,140,8|4,0:2|0:0,0:0:0:0:
421,145,19367,1,4,0:0:0:0:
421,145,19496,2,0,P|395:105|397:74,1,70,8|4,0:2|0:0,0:0:0:0:
486,46,19755,2,0,P|512:86|510:117,1,70,4|4,0:0|0:0,0:0:0:0:
319,136,20013,6,0,B|257:150|257:150|252:155|252:155|163:174,1,140,8|0,0:2|0:0,0:0:0:0:
0,69,20531,2,0,P|15:102|25:138,1,70,8|0,0:2|0:0,0:0:0:0:
146,18,20789,6,0,P|131:51|105:176,1,140,4|8,0:0|0:2,0:0:0:0:
165,243,21177,2,0,P|170:181|99:154,1,140,4|0,0:0|0:0,0:0:0:0:
2,237,21565,2,0,P|15:273|25:312,1,70,8|2,0:2|0:0,0:0:0:0:
120,376,21824,1,4,0:0:0:0:
120,376,21953,1,4,0:0:0:0:
221,327,22082,1,8,0:2:0:0:
221,327,22212,2,0,B|221:264|276:273|276:191,1,140,4|4,0:0|0:0,0:0:0:0:
189,106,22600,2,0,P|167:132|175:179,1,70,8|2,0:2|0:0,0:0:0:0:
294,101,22858,6,0,P|339:52|428:62,2,140,4|8|4,0:0|0:2|0:0,0:0:0:0:
362,206,23505,1,4,0:0:0:0:
362,206,23634,2,0,P|386:238|385:289,1,70,0|4,0:0|0:0,0:0:0:0:
269,379,23893,5,4,0:0:0:0:
235,269,24022,2,0,P|240:250|247:236,2,35,2|2|8,0:0|0:0|0:2,0:0:0:0:
365,359,24281,2,0,B|442:344|426:392|520:383,1,140,2|8,0:0|0:0,0:0:0:0:
390,266,24669,2,2,P|360:239|372:190,1,70,10|0,0:1|0:0,0:0:0:0:
453,90,24927,5,4,0:0:0:0:
376,22,25057,1,0,0:0:0:0:
376,22,25121,1,0,0:0:0:0:
376,22,25186,2,0,P|335:0|285:31,1,77.0000023498536,8|2,0:2|0:0,0:0:0:0:
220,76,25444,1,4,0:0:0:0:
220,76,25574,1,4,0:0:0:0:
112,12,25703,1,8,0:2:0:0:
204,168,25962,6,0,P|228:196|233:234,2,77.0000023498536,4|4|8,0:0|0:0|0:2,0:0:0:0:
44,126,26350,2,0,P|72:200|88:283,1,154.000004699707,4|4,0:0|0:0,0:0:0:0:
89,374,26738,1,8,0:2:0:0:
239,239,26996,5,4,0:0:0:0:
239,239,27125,1,4,0:0:0:0:
331,292,27255,1,8,0:2:0:0:
331,292,27384,1,4,0:0:0:0:
414,217,27513,1,4,0:0:0:0:
274,47,27772,2,0,P|289:88|299:136,1,77.0000023498536,8|0,0:2|0:0,0:0:0:0:
446,66,28031,6,0,P|430:117|413:223,1,154.000004699707,4|8,0:0|0:2,0:0:0:0:
492,374,28419,2,0,P|517:325|404:217,1,231.000007049561,4|8,0:0|0:2,0:0:0:0:
206,345,29065,6,0,B|131:333|140:381|49:371,1,140,4|8,0:0|0:2,0:0:0:0:
9,266,29453,2,0,P|46:275|89:284,1,70,4|0,0:0|0:0,0:0:0:0:
320,254,29841,1,8,0:2:0:0:
320,254,29970,1,2,0:0:0:0:
246,182,30100,1,0,0:0:0:0:
246,182,30229,1,0,0:0:0:0:
341,95,30358,1,8,0:2:0:0:
142,11,30617,2,0,P|100:9|67:32,1,70,4|2,0:0|0:0,0:0:0:0:
100,115,30875,2,0,P|132:115|171:93,1,70,8|4,0:2|0:0,0:0:0:0:
206,78,31069,1,0,0:0:0:0:
206,78,31134,6,0,B|279:55|278:114|360:91,1,140,4|8,0:0|0:2,0:0:0:0:
462,69,31522,2,0,B|445:33|448:3|448:3|442:38|414:68,1,140,0|4,0:0|0:0,0:0:0:0:
295,133,31910,2,0,P|280:172|292:217,1,70,8|2,0:2|0:0,0:0:0:0:
424,282,32169,5,0,0:0:0:0:
497,224,32298,1,0,0:0:0:0:
497,224,32363,1,4,0:0:0:0:
497,224,32427,2,0,B|500:203|489:182|489:182|491:203|485:217,1,70,8|2,0:2|0:0,0:0:0:0:
336,264,32686,2,0,B|316:271|303:291|303:291|320:279|335:277,1,70,4|4,0:0|0:0,1:0:0:0:
459,362,32944,2,0,B|475:375|499:376|499:376|480:367|471:355,1,70,8|4,0:2|0:0,1:0:0:0:
382,170,33203,6,0,B|324:133|255:189|279:205|246:283|158:246,1,251.999992309571,4|0,0:2|0:0,0:0:0:0:
17,155,34238,2,0,B|33:114|70:113|105:133|105:133|75:213|66:283,1,251.999992309571,0|0,1:0|0:0,0:0:0:0:
223,375,35272,2,0,B|251:367|259:336|259:336|266:298|266:298|277:274|302:272|302:272|372:282|372:282|344:297|338:325,1,251.999992309571
183,302,36307,6,0,L|203:201,1,83.9999974365235
297,162,36694,1,0,0:0:0:0:
297,162,36824,2,0,L|270:28,1,125.999996154785
433,14,37341,6,0,B|477:6|489:55|489:55|445:153|445:153|454:199|496:202,1,251.999992309571,4|0,0:2|0:0,0:0:0:0:
373,92,38375,2,0,B|320:72|273:84|251:159|281:153|264:230|190:221,1,251.999992309571,0|0,1:0|0:0,0:0:0:0:
39,277,39410,2,0,B|87:239|108:169|108:169|85:238|119:291,1,251.999992309571
335,364,40444,5,4,0:0:0:0:
335,364,40574,1,4,0:0:0:0:
413,270,40703,1,4,0:0:0:0:
413,270,40832,1,4,0:0:0:0:
289,195,40962,2,0,P|310:238|322:276,1,83.9999974365235,4|4,0:0|0:0,0:0:0:0:
436,181,41220,2,0,P|449:141|468:103,1,83.9999974365235,4|4,0:0|0:0,0:0:0:0:
286,40,41479,6,0,B|214:59|214:59|209:63|209:63|123:86,1,154.000004699707,4|8,0:0|0:2,0:0:0:0:
16,51,41867,1,0,0:0:0:0:
16,51,41996,2,0,P|46:84|49:129,1,77.0000023498536,4|4,0:0|0:0,0:0:0:0:
138,190,42255,2,0,P|124:232|86:257,1,77.0000023498536,8|0,0:2|0:0,0:0:0:0:
14,365,42513,6,0,P|7:329|-13:287,2,77.0000023498536,4|2|8,0:0|0:0|0:2,0:0:0:0:
99,251,42901,2,0,B|183:243|171:299|268:304,1,154.000004699707
372,267,43289,1,8,0:2:0:0:
224,122,43548,6,0,B|209:145|214:167|214:167|219:150|233:135,1,77.0000023498536,4|0,0:0|0:0,0:0:0:0:
338,126,43807,2,2,B|365:127|381:112|381:112|364:116|349:113,1,77.0000023498536,10|2,0:2|0:2,0:2:0:0:
194,34,44065,2,0,P|237:181|250:266,1,231.000007049561,4|4,0:0|0:0,0:0:0:0:
351,383,44582,5,4,0:0:0:0:
351,383,44712,1,4,0:0:0:0:
397,292,44841,1,8,0:2:0:0:
397,292,44970,1,8,0:2:0:0:
313,227,45100,2,0,P|269:234|246:264,1,77.0000023498536,4|4,0:0|0:0,0:0:0:0:
188,375,45358,1,8,0:2:0:0:
6,240,45617,5,4,0:0:0:0:
6,240,45746,1,2,0:0:0:0:
98,173,45875,2,0,P|112:140|108:96,1,77.0000023498536,8|2,0:2|0:0,0:0:0:0:
20,30,46134,1,4,0:0:0:0:
20,30,46263,1,4,0:0:0:0:
109,99,46393,2,0,P|145:123|190:123,1,77.0000023498536,8|2,0:2|0:0,0:0:0:0:
342,22,46651,6,0,B|364:34|363:66|363:66|355:50|345:41,1,77.0000023498536,4|2,0:0|0:0,0:0:0:0:
170,48,46910,2,0,B|169:22|197:7|197:7|187:22|184:35,1,77.0000023498536,8|2,0:2|0:0,0:0:0:0:
290,177,47169,2,0,B|268:190|241:173|241:173|259:174|272:170,1,77.0000023498536,4|4,0:0|0:0,0:0:0:0:
261,81,47427,1,8,0:2:0:0:
487,184,47686,5,4,0:0:0:0:
487,184,47815,1,2,0:0:0:0:
407,246,47944,2,0,P|392:281|405:329,1,77.0000023498536,8|2,0:2|0:0,0:0:0:0:
490,380,48203,1,4,0:0:0:0:
490,380,48332,1,4,0:0:0:0:
398,318,48462,2,0,P|359:297|311:312,1,77.0000023498536,8|2,0:2|0:0,0:0:0:0:
202,363,48720,6,4,B|181:383|155:380|155:380|181:372|194:354,1,77.0000023498536,0|0,0:0|0:0,0:0:0:0:
157,211,48979,2,8,B|184:218|194:242|194:242|175:223|153:221,1,77.0000023498536,8|8,0:2|0:2,0:2:0:0:
47,327,49238,2,4,B|39:299|55:278|55:278|48:304|58:324,1,77.0000023498536,0|0,0:0|0:0,0:0:0:0:
135,302,49496,1,10,0:2:0:0:
308,204,49755,6,0,B|335:112|243:130|268:26,2,167.999994873047,4|8|4,0:0|0:2|0:0,1:0:0:0:
248,299,50401,1,4,0:0:0:0:
163,211,50531,2,0,P|193:179|249:184,1,83.9999974365235,8|0,0:2|0:0,1:0:0:0:
373,262,50789,1,4,0:0:0:0:
373,262,50919,2,0,P|388:317|392:359,1,83.9999974365235,2|0,0:0|0:0,1:0:0:0:
510,220,51177,1,4,0:0:0:0:
510,220,51307,2,0,P|495:275|491:317,1,83.9999974365235,4|0,0:0|0:0,1:0:0:0:
421,177,51565,1,8,0:2:0:0:
250,286,51824,5,4,0:0:0:0:
250,286,51953,1,0,0:0:0:0:
162,216,52082,1,8,0:2:0:0:
162,216,52212,1,0,0:0:0:0:
285,123,52341,2,0,P|264:181|250:290,1,167.999994873047,4|8,0:0|0:2,0:0:0:0:
293,381,52729,1,2,0:0:0:0:
328,283,52858,2,0,P|279:272|248:287,1,83.9999974365235,4|4,0:0|0:0,0:0:0:0:
114,365,53117,6,8,B|89:382|64:379|64:379|85:372|102:355,1,83.9999974365235,8|8,0:2|0:2,0:2:0:0:
108,230,53375,2,0,B|135:243|145:266|145:266|128:251|105:245,1,83.9999974365235,4|4,0:0|0:0,0:0:0:0:
0,280,53634,1,8,0:2:0:0:
99,105,53893,6,0,P|127:88|168:93,1,56,4|4,0:0|0:0,0:0:0:0:
182,8,54151,2,0,P|210:23|226:61,1,56,8|2,0:2|0:0,0:0:0:0:
307,31,54410,2,0,P|307:63|282:96,1,56,4|4,0:0|0:0,0:0:0:0:
349,150,54669,2,0,P|321:166|280:161,1,56,8|2,0:2|0:0,0:0:0:0:
189,195,54927,5,4,0:0:0:0:
189,195,55057,1,4,0:0:0:0:
149,290,55186,1,8,0:2:0:0:
149,290,55315,1,4,0:0:0:0:
223,363,55444,2,0,L|290:371,1,56,4|0,0:0|0:0,0:0:0:0:
387,317,55703,2,0,L|454:309,1,56,8|0,0:2|0:0,0:0:0:0:
283,217,55962,5,4,0:0:0:0:
283,217,56091,1,8,0:2:0:0:
442,167,56220,2,0,B|469:182|491:187|491:187|465:196|434:220,1,97.9999970092774,8|4,0:2|0:0,0:0:0:0:
284,218,56479,5,8,0:2:0:0:
284,218,56608,1,8,0:2:0:0:
313,53,56737,2,0,B|330:43|351:18|351:18|347:52|356:84,1,97.9999970092774,4|8,0:0|0:2,0:0:0:0:
191,207,56996,6,0,P|169:219|145:223,3,48.9999985046387,10|8|8|0,0:2|0:2|0:2|0:0,0:0:0:0:
64,185,57255,2,0,P|52:163|47:139,2,48.9999985046387,10|8|8,0:2|0:2|0:2,0:0:0:0:
162,41,57513,1,0,0:0:0:0:
162,41,57643,2,0,P|146:94|139:140,1,97.9999970092774,0|2,0:0|0:0,0:0:0:0:
268,18,57901,1,14,0:1:0:0:
268,18,58031,6,0,P|284:71|310:295,1,251.999992309571,0|2,0:0|0:1,0:0:0:0:
174,0,64238,6,2,L|190:94,1,70,0|0,2:0|0:0,1:0:0:0:
317,93,64496,2,0,L|302:182,1,62.9999980773926,0|0,2:0|0:0,0:0:0:0:
211,192,64755,2,2,L|224:268,1,56,0|0,2:0|0:0,1:0:0:0:
310,283,65013,2,0,L|299:342,1,48.9999985046387,0|0,2:0|0:0,0:0:0:0:
220,384,65272,1,0,2:0:0:0:
220,384,65531,1,0,2:0:0:0:
220,384,65789,1,0,2:0:0:0:
24,83,66307,6,0,B|65:52|101:97|101:97|81:148|72:192,1,188.999994232178,4|0,2:1|2:0,2:0:0:0:
172,305,66824,2,2,B|238:251|308:310|274:332|323:396|407:353,1,251.999992309571,2|0,0:2|0:0,0:1:0:0:
341,216,67600,2,0,P|355:247|362:277,1,62.9999980773926,2|0,0:0|0:0,0:0:0:0:
476,359,67858,2,0,P|489:247|527:96,1,251.999992309571,2|4,0:2|2:1,0:0:0:0:
332,24,68634,6,0,P|297:33|278:55,1,62.9999980773926,0|0,2:0|2:0,0:0:0:0:
198,25,68893,2,2,P|188:59|197:87,1,62.9999980773926,2|0,0:2|0:0,0:1:0:0:
131,141,69151,2,0,P|156:166|184:172,1,62.9999980773926,0|2,0:0|0:2,0:0:0:0:
298,158,69410,1,0,0:0:0:0:
298,158,69539,1,0,0:0:0:0:
196,83,69669,1,2,0:0:0:0:
60,248,69927,2,2,P|76:289|80:315,1,62.9999980773926,2|0,0:2|0:0,0:1:0:0:
178,352,70186,2,0,P|185:323|200:289,2,62.9999980773926,8|8|4,0:0|0:0|2:1,0:0:0:0:
178,352,70703,1,0,2:0:0:0:
376,229,70962,6,2,B|408:175|364:114|364:114|290:134|299:219,1,251.999992309571,2|0,0:2|0:0,0:1:0:0:
389,315,71738,2,0,P|415:312|455:270,1,62.9999980773926,2|0,0:0|0:0,0:0:0:0:
298,210,71996,2,0,B|236:235|173:179|222:150|151:83|86:127,1,251.999992309571,2|4,0:2|2:1,0:0:0:0:
278,16,72772,6,2,B|332:-9|410:42|410:42|378:39|348:64,1,188.999994232178,2|0,0:2|0:0,0:1:0:0:
271,131,73289,2,2,P|249:175|253:213,1,62.9999980773926,2|0,0:2|0:0,0:1:0:0:
298,294,73548,1,8,0:0:0:0:
298,294,73677,1,8,0:0:0:0:
378,255,73807,2,0,P|352:222|315:211,1,62.9999980773926,8|8,0:2|0:2,0:0:0:0:
194,269,74065,6,0,L|208:340,1,62.9999980773926,4|4,0:3|0:3,0:0:0:0:
124,366,74324,2,0,L|111:304,1,62.9999980773926,8|8,0:2|0:2,0:0:0:0:
75,164,74582,1,4,2:1:0:0:
75,163,74841,1,0,2:0:0:0:
265,39,75100,6,2,B|313:22|332:80|332:80|292:161|292:161|299:213|351:216,1,251.999992309571,2|0,0:2|0:0,0:1:0:0:
464,201,75875,2,0,P|460:173|424:137,1,62.9999980773926,2|0,0:0|0:0,0:0:0:0:
333,213,76134,2,0,B|271:177|198:259|250:270|218:358|127:325,1,251.999992309571,2|4,0:2|2:1,0:0:0:0:
4,104,76910,6,0,P|39:113|58:135,1,62.9999980773926,0|0,2:0|2:0,0:0:0:0:
138,105,77169,2,2,P|148:139|139:167,1,62.9999980773926,2|0,0:2|0:0,0:1:0:0:
205,221,77427,2,0,P|180:246|152:252,1,62.9999980773926,0|2,0:0|0:2,0:0:0:0:
38,238,77686,1,0,0:0:0:0:
38,238,77815,1,0,0:0:0:0:
140,163,77945,1,2,0:0:0:0:
277,300,78203,2,2,P|293:341|297:367,1,62.9999980773926,2|0,0:2|0:0,0:1:0:0:
391,330,78462,2,0,P|398:301|413:267,2,62.9999980773926,8|8|4,0:0|0:0|2:1,0:0:0:0:
391,330,78979,1,0,2:0:0:0:
256,180,79238,6,2,B|300:136|313:60|313:60|301:132|339:173,1,251.999992309571,2|0,0:2|0:0,0:1:0:0:
476,104,80013,2,0,P|473:75|453:43,1,62.9999980773926,2|0,0:0|0:0,0:0:0:0:
313,60,80272,2,0,B|239:69|239:69|216:94|216:94|129:107,1,188.999994232178,2|2,0:2|0:0,0:0:0:0:
0,0,80789,6,0,P|33:18|46:55,1,70,4|0,2:1|2:0,2:0:0:0:
136,105,81048,2,0,P|136:142|112:169,1,70,0|0,2:0|2:0,0:0:0:0:
29,240,81307,6,2,P|4:269|0:300,1,62.9999980773926,6|0,0:2|0:0,0:1:0:0:
46,368,81565,2,0,P|83:375|112:363,1,62.9999980773926
222,310,81824,6,2,L|208:243,1,56,6|0,0:2|0:0,0:1:0:0:
282,212,82082,2,0,L|294:272,1,56
390,365,82341,2,0,P|399:274|435:142,1,220.499993270874,6|0,0:2|0:0,0:1:0:0:
452,66,82858,6,0,P|494:88|512:120,2,77.0000023498536,4|0|2,0:0|0:0|0:0,0:0:0:0:
295,84,83246,2,0,B|205:83|242:141|157:146,1,154.000004699707,8|0,0:0|0:0,0:0:0:0:
28,79,83634,2,2,P|66:90|85:131,1,77.0000023498536,2|0,0:0|0:0,0:1:0:0:
0,265,83893,1,8,0:1:0:0:
0,265,84022,2,0,P|46:207|127:228,1,154.000004699707,8|0,0:0|0:0,0:0:0:0:
214,343,84410,1,2,0:0:0:0:
292,199,84669,2,0,P|249:215|227:248,1,77.0000023498536,8|0,0:0|0:0,0:0:0:0:
357,340,84927,6,0,B|351:259|403:278|391:177,1,154.000004699707,4|2,0:0|0:0,0:0:0:0:
268,126,85315,1,2,0:0:0:0:
268,126,85444,2,0,P|286:168|293:212,1,77.0000023498536,8|2,0:0|0:0,0:0:0:0:
440,110,85703,2,0,P|448:72|464:37,1,77.0000023498536,2|2,0:0|0:0,0:0:0:0:
286,32,85962,2,0,B|215:4|168:73|196:83|171:159|86:125,2,231.000007049561,8|8|2,0:1|0:2|0:0,0:0:0:0:
360,200,86996,6,0,P|341:238|339:279,2,77.0000023498536,4|0|0,0:0|0:0|0:0,0:0:0:0:
492,158,87384,2,0,P|502:236|442:261,1,154.000004699707,8|0,0:0|0:0,0:0:0:0:
285,155,87772,2,2,P|255:129|209:131,1,77.0000023498536,2|0,0:0|0:0,0:1:0:0:
159,235,88031,1,8,0:1:0:0:
159,235,88160,2,0,P|213:213|213:119,1,154.000004699707,8|0,0:0|0:0,0:0:0:0:
60,23,88548,1,2,0:0:0:0:
5,185,88807,2,0,P|42:182|80:151,1,77.0000023498536,8|0,0:0|0:0,0:0:0:0:
245,47,89065,6,0,P|231:113|221:199,1,154.000004699707,4|2,0:0|0:0,0:0:0:0:
351,290,89453,1,2,0:0:0:0:
351,290,89582,2,0,B|352:266|338:247|338:247|343:274|338:290,1,77.0000023498536,2|2,0:0|0:0,0:0:0:0:
197,354,89841,2,0,B|217:366|240:364|240:364|214:355|203:342,1,77.0000023498536,2|2,0:0|0:0,0:0:0:0:
224,203,90100,1,8,0:1:0:0:
224,203,90229,1,2,0:0:0:0:
388,176,90358,2,0,P|462:156|503:284,1,231.000007049561,4|8,0:2|0:2,0:0:0:0:
436,384,90875,1,8,0:0:0:0:
436,384,91005,1,8,0:0:0:0:
313,273,91134,6,0,B|341:236|302:179|290:197|246:184|247:117,1,167.999994873047,4|2,0:0|0:0,0:0:0:0:
359,40,91522,2,0,P|346:75|333:120,1,83.9999974365235,8|0,0:0|0:0,0:0:0:0:
167,155,91781,1,0,0:0:0:0:
167,155,91910,2,0,P|180:190|193:235,1,83.9999974365235,8|0,0:0|0:0,0:0:0:0:
3,347,92169,6,0,B|36:335|41:306|41:306|31:256|31:256|35:222|70:214|70:214|193:235|193:235|163:251|154:287,1,342.999989532471,8|0,0:1|0:0,0:0:0:0:
238,305,92686,2,0,B|221:324|223:356|223:356|230:336|243:325,1,83.9999974365235,8|0,0:0|0:0,0:0:0:0:
312,202,92944,2,0,B|305:177|276:163|276:163|290:179|293:196,1,83.9999974365235,2|2,0:0|0:0,0:0:0:0:
437,347,93203,5,6,0:0:0:0:
479,269,93332,1,0,0:0:0:0:
421,207,93462,1,2,0:0:0:0:
467,45,93591,2,0,P|442:115|420:216,1,167.999994873047,8|0,0:0|0:0,0:0:0:0:
275,81,93979,2,0,P|319:82|343:127,1,83.9999974365235,8|0,0:0|0:0,0:0:0:0:
227,290,94238,6,0,B|232:185|180:81|180:81|212:157|197:217,1,342.999989532471,8|0,0:1|0:0,0:0:0:0:
121,228,94755,2,0,B|102:225|85:200|85:200|105:215|132:216,1,83.9999974365235,2|2,0:0|0:0,0:0:0:0:
227,290,95013,2,0,B|234:307|221:335|221:335|224:310|212:286,1,83.9999974365235,8|0,0:0|0:0,0:0:0:0:
323,165,95272,6,2,B|406:140|397:224|489:199,1,167.999994873047,4|0,0:0|0:0,0:1:0:0:
509,76,95660,1,0,0:0:0:0:
509,76,95789,2,0,P|463:94|460:136,1,83.9999974365235
406,244,96048,2,0,P|423:294|424:353,1,83.9999974365235
243,367,96307,2,0,P|259:247|322:65,2,293.999991027832,8|2|2,0:1|0:0|0:0,0:0:0:0:
14,160,97341,6,0,B|102:139|63:100|183:87,1,167.999994873047,4|8,0:0|0:0,0:0:0:0:
320,210,97729,2,0,P|241:193|148:176,1,167.999994873047,4|8,0:0|0:0,0:0:0:0:
256,13,98117,2,0,P|303:27|318:68,1,83.9999974365235,4|2,0:0|0:0,0:0:0:0:
320,210,98375,1,8,0:1:0:0:
320,210,98505,1,8,0:0:0:0:
429,337,98634,2,0,B|478:355|546:336|552:253|469:167|358:229|361:318|401:340|320:396|229:415|202:323|202:323|244:375|312:342,1,587.999982055665,2|6,0:0|0:0,0:0:0:0:
235,42,101996,6,0,P|263:187|277:328,1,280
276,318,103548,1,0,0:0:0:0:
276,318,106910,5,0,0:0:0:0:
346,247,107169,1,0,0:0:0:0:
306,151,107427,2,0,P|275:160|238:167,1,56
71,111,107686,6,0,B|34:79|63:26|63:26|125:-7|170:51|170:51|134:138|118:251,1,420,4|0,0:0|0:0,0:0:0:0:
247,368,111824,6,0,B|273:375|295:358|304:331|304:331|273:259|273:259|268:230|286:214|286:214|414:234|414:234|380:234|359:252,1,392,2|0,0:0|0:0,0:0:0:0:
131,113,115962,6,0,P|108:98|74:96,3,56,0|2|0|2,0:0|0:0|0:0|0:0,0:0:0:0:
216,119,116479,2,0,P|217:91|202:61,3,56,0|2|0|0,0:0|0:0|0:0|0:0,0:0:0:0:
165,199,116996,2,0,P|144:235|144:259,3,56,0|2|0|0,0:0|0:0|0:0|0:0,0:0:0:0:
63,277,117513,2,0,P|83:313|104:325,3,56,0|2|0|2,0:0|0:0|0:0|0:0,0:0:0:0:
199,370,118031,6,0,L|271:377,3,56,0|2|0|2,0:0|0:0|0:0|0:0,0:0:0:0:
236,291,118548,2,0,L|308:298,3,56,0|2|2|2,0:0|0:0|0:0|0:0,0:0:0:0:
273,212,119065,2,0,L|345:219,3,56,0|2|0|0,0:0|0:0|0:0|0:0,0:0:0:0:
310,133,119582,2,0,L|382:140,3,56,0|2|2|2,0:0|0:0|0:0|0:0,0:0:0:0:
455,71,120100,6,0,P|474:101|476:139,3,62.9999980773926,0|2|0|2,0:0|0:0|0:0|0:0,0:0:0:0:
406,212,120617,2,0,P|387:242|385:280,3,62.9999980773926,2|2|0|2,0:0|0:0|0:0|0:0,0:0:0:0:
490,309,121134,2,0,P|509:279|511:241,3,62.9999980773926,0|2|0|2,0:0|0:0|0:0|0:0,0:0:0:0:
406,212,121651,2,0,P|370:210|336:227,3,62.9999980773926,0|2|0|2,0:0|0:0|0:0|0:0,0:0:0:0:
254,271,122169,6,0,P|266:305|273:346,1,70,0|2,0:0|0:0,0:0:0:0:
131,304,122427,2,0,P|137:269|149:236,1,70,0|2,0:0|0:0,0:0:0:0:
248,107,122686,2,0,P|260:141|267:182,1,70,2|2,0:0|0:0,0:0:0:0:
97,146,122944,2,0,P|103:111|115:78,1,70,2|2,0:0|0:0,0:0:0:0:
266,15,123203,6,0,P|282:18|296:23,12,24.4999992523194,0|0|0|0|2|0|0|0|2|0|0|0|0,0:0|0:0|0:0|0:0|0:0|0:0|0:0|0:0|0:0|0:0|0:0|0:0|0:0,0:0:0:0:
369,90,123720,2,0,P|373:101|376:114,12,14,0|0|0|0|2|0|0|0|2|0|0|0|2,0:0|0:0|0:0|0:0|0:0|0:0|0:0|0:0|0:0|0:0|0:0|0:0|0:0,0:0:0:0:
221,172,124238,6,0,B|215:260|282:233|286:303,1,154.000004699707,4|8,0:0|0:2,0:0:0:0:
203,369,124625,1,2,0:0:0:0:
203,369,124755,2,0,B|189:348|193:322|193:322|196:344|202:355,1,77.0000023498536,4|4,0:0|0:0,0:0:0:0:
379,305,125013,2,0,P|368:352|364:392,1,77.0000023498536,8|0,0:2|0:0,0:0:0:0:
287,304,125272,6,0,B|281:224|231:246|216:163,1,154.000004699707,4|8,0:0|0:2,0:0:0:0:
299,75,125660,1,2,0:0:0:0:
299,75,125789,2,4,P|338:86|375:89,1,77.0000023498536,0|0,0:0|0:0,0:0:0:0:
500,0,126048,2,0,P|461:3|440:38,1,77.0000023498536,8|0,0:2|0:0,0:0:0:0:
494,198,126307,5,4,0:0:0:0:
494,198,126436,1,0,0:0:0:0:
375,179,126565,2,0,B|315:188|315:188|301:211|301:211|220:225,1,154.000004699707,8|4,0:2|0:0,0:0:0:0:
151,272,126953,1,0,0:0:0:0:
151,272,127082,1,8,0:2:0:0:
149,16,127341,6,0,B|181:22|193:49|193:49|178:35|155:36,1,77.0000023498536,4|4,0:0|0:0,0:0:0:0:
28,110,127600,2,0,B|17:79|34:55|34:55|29:75|42:94,1,77.0000023498536,8|8,0:2|0:2,0:0:0:0:
169,167,127858,2,0,B|147:191|118:188|118:188|138:182|148:162,1,77.0000023498536,4|4,0:0|0:0,0:0:0:0:
117,95,128117,1,8,0:2:0:0:
117,95,128246,1,2,0:0:0:0:
273,147,128375,6,0,B|357:140|332:222|427:211,1,154.000004699707,4|8,0:0|0:2,0:0:0:0:
491,125,128763,1,6,0:0:0:0:
491,125,128893,2,0,P|451:104|420:119,1,77.0000023498536,4|4,0:0|0:0,0:0:0:0:
329,221,129151,2,0,P|344:264|350:307,1,77.0000023498536,8|2,0:2|0:0,0:0:0:0:
231,375,129410,5,4,0:0:0:0:
231,375,129539,1,2,0:0:0:0:
147,303,129669,1,8,0:2:0:0:
251,223,129798,2,0,P|240:259|231:393,1,154.000004699707,6|4,0:0|0:0,0:0:0:0:
147,303,130186,2,0,P|136:253|116:217,1,77.0000023498536,8|2,0:2|0:0,0:0:0:0:
24,142,130444,6,0,P|2:109|14:66,2,77.0000023498536,4|0|8,0:0|0:0|0:2,0:0:0:0:
147,110,130832,1,2,0:0:0:0:
147,110,130962,2,0,P|159:65|169:18,1,77.0000023498536,4|4,0:0|0:0,0:0:0:0:
265,97,131220,2,0,P|273:134|283:171,1,77.0000023498536,8|2,0:2|0:0,0:0:0:0:
474,284,131479,6,2,B|441:272|436:243|436:243|446:193|446:193|442:159|407:151|407:151|284:172|284:172|314:188|323:224,1,342.999989532471,6|0,0:2|0:0,0:1:0:0:
243,246,131996,2,0,P|230:308|254:348,1,97.9999970092774
355,291,132255,1,0,0:0:0:0:
355,291,132385,1,0,0:0:0:0:
285,173,132513,6,0,P|239:159|200:172,1,83.9999974365235,4|0,0:0|0:0,0:0:0:0:
146,83,132772,2,0,P|110:115|102:156,1,83.9999974365235,8|0,0:2|0:0,0:0:0:0:
5,240,133031,2,0,B|66:222|90:284|71:287|88:335|166:322,1,167.999994873047,4|8,0:0|0:2,0:0:0:0:
279,384,133419,2,0,P|288:296|311:192,1,167.999994873047,4|2,0:0|0:0,0:0:0:0:
422,166,133807,2,0,P|437:201|427:248,1,83.9999974365235,8|0,0:2|0:0,0:0:0:0:
308,223,134065,1,4,0:0:0:0:
308,223,134194,1,4,0:0:0:0:
344,104,134324,1,8,0:2:0:0:
144,75,134582,6,0,P|104:84|79:133,1,83.9999974365235,4|4,0:0|0:0,0:0:0:0:
0,129,134841,2,0,P|9:169|58:194,1,83.9999974365235,8|2,0:2|0:0,0:0:0:0:
158,211,135100,1,4,0:0:0:0:
158,211,135229,1,4,0:0:0:0:
95,296,135358,1,8,0:2:0:0:
95,296,135488,1,2,0:0:0:0:
217,368,135617,6,0,P|229:276|264:98,1,251.999992309571,4|8,0:0|0:2,0:0:0:0:
389,59,136134,2,0,B|419:66|426:101|426:101|413:82|395:78,1,83.9999974365235,4|0,0:0|0:0,0:0:0:0:
258,119,136393,2,0,B|249:89|275:65|275:65|265:86|271:104,1,83.9999974365235,8|2,0:2|0:0,0:0:0:0:
412,195,136651,6,0,B|409:294|350:250|348:353,1,167.999994873047,4|8,0:0|0:2,0:0:0:0:
489,384,137039,1,2,0:0:0:0:
489,384,137169,2,0,P|463:342|427:335,1,83.9999974365235,4|4,0:0|0:0,0:0:0:0:
284,384,137427,2,0,P|332:372|349:339,1,83.9999974365235,8|2,0:2|0:0,0:0:0:0:
330,204,137686,6,0,P|338:163|363:109,2,83.9999974365235,4|2|8,0:0|0:0|0:2,0:0:0:0:
225,257,138074,1,2,0:0:0:0:
225,257,138203,2,0,P|216:216|192:162,1,83.9999974365235,4|4,0:0|0:0,0:0:0:0:
123,84,138462,1,8,0:2:0:0:
6,273,138720,5,4,0:0:0:0:
6,273,138850,1,2,0:0:0:0:
93,310,138979,2,0,P|100:260|84:224,1,83.9999974365235,8|2,0:2|0:0,0:0:0:0:
0,155,139238,1,4,0:0:0:0:
0,155,139367,1,4,0:0:0:0:
88,229,139496,2,0,P|130:252|180:245,1,83.9999974365235,8|2,0:2|0:0,0:0:0:0:
285,177,139755,6,0,P|276:130|259:84,1,83.9999974365235,4|4,0:0|0:0,0:0:0:0:
418,71,140013,2,0,P|404:110|397:152,1,83.9999974365235,8|8,0:2|0:2,0:0:0:0:
443,351,140272,1,4,0:0:0:0:
512,297,140401,2,0,P|503:254|484:210,1,83.9999974365235,8|0,0:2|0:0,0:0:0:0:
295,271,140660,6,0,B|260:284|226:283|226:283|204:322|204:322|161:319|117:336,1,181.999991668702,0|4,0:0|0:0,0:0:0:0:
0,217,141048,2,0,P|19:167|87:165,1,90.9999958343508,8|2,0:2|0:0,0:0:0:0:
219,198,141307,2,0,P|166:206|130:148,1,90.9999958343508,4|4,0:0|0:0,0:0:0:0:
128,59,141565,1,8,0:2:0:0:
284,134,141824,1,4,0:0:0:0:
284,134,141953,1,4,0:0:0:0:
362,89,142082,2,0,P|337:53|266:48,1,90.9999958343508,8|4,0:2|0:0,0:0:0:0:
187,141,142341,6,0,P|207:199|219:266,1,122.499996261597,4|0,0:0|0:0,0:0:0:0:
282,313,142729,6,0,B|345:278|385:333|361:348|396:394|469:372,1,181.999991668702,0|4,0:0|0:0,0:0:0:0:
512,276,143117,2,0,B|514:251|501:222|501:222|506:251|495:280,1,90.9999958343508,8|2,0:2|0:0,0:0:0:0:
381,178,143375,2,0,B|379:203|392:232|392:232|387:203|398:174,1,90.9999958343508,4|4,0:0|0:0,0:0:0:0:
491,115,143634,1,8,0:2:0:0:
326,39,143893,1,4,0:0:0:0:
326,39,144022,1,4,0:0:0:0:
268,126,144151,2,0,P|233:157|179:153,1,90.9999958343508,8|4,0:2|0:0,0:0:0:0:
40,126,144410,6,0,P|92:144|113:219,1,122.499996261597,4|0,0:0|0:0,0:0:0:0:
77,272,144798,6,0,P|143:241|252:257,1,181.999991668702,0|4,0:0|0:0,0:0:0:0:
359,373,145186,2,0,P|321:352|318:298,1,90.9999958343508,8|2,0:2|0:0,0:0:0:0:
430,255,145444,2,0,B|448:279|448:310|448:310|439:283|422:273,1,90.9999958343508,4|4,0:0|0:0,0:0:0:0:
341,209,145703,1,8,0:2:0:0:
466,103,145962,1,4,0:0:0:0:
466,103,146091,1,4,0:0:0:0:
382,43,146220,2,0,P|337:53|280:60,1,90.9999958343508,8|4,0:2|0:0,0:0:0:0:
136,35,146479,6,0,P|188:51|205:99,1,97.9999970092774,4|8,0:0|0:2,0:0:0:0:
144,218,146867,1,4,0:0:0:0:
144,218,146932,1,4,0:0:0:0:
144,218,146996,6,0,P|167:286|173:331,1,97.9999970092774,4|8,0:0|0:2,0:0:0:0:
336,265,147255,2,0,P|345:217|363:171,1,97.9999970092774,8|4,0:2|0:0,0:0:0:0:
156,216,147513,1,8,0:2:0:0:
156,216,147643,2,0,P|179:284|185:329,1,97.9999970092774,8|4,0:2|0:0,0:0:0:0:
347,272,147901,1,8,0:2:0:0:
347,272,148031,6,0,P|363:251|372:214,3,48.9999985046387,10|8|8|0,0:2|0:2|0:2|0:0,0:0:0:0:
377,134,148289,2,0,P|356:118|319:109,3,48.9999985046387,10|8|8|0,0:2|0:2|0:2|0:0,0:0:0:0:
169,39,148548,1,0,0:0:0:0:
169,39,148677,2,0,P|188:86|202:145,1,97.9999970092774,0|2,0:0|0:0,0:0:0:0:
334,110,148936,6,2,P|308:197|281:367,1,251.999992309571,14|0,0:1|0:0,0:1:0:0:
220,384,153203,5,0,0:0:0:0:
301,331,153462,2,0,L|310:283,1,48.9999985046387,2|0,2:2|0:0,0:0:0:0:
220,247,153720,2,0,L|211:192,1,56,2|0,2:2|0:0,0:0:0:0:
306,155,153979,2,0,L|317:93,1,62.9999980773926,2|0,2:2|0:0,0:0:0:0:
185,69,154238,2,0,L|174:0,1,70
306,155,154496,6,0,P|336:178|405:176,1,83.9999974365235,2|0,2:2|0:0,0:0:0:0:
168,201,154755,2,0,P|134:226|66:221,1,97.9999970092774,2|2,2:2|2:2,0:0:0:0:
300,134,155013,2,0,P|337:166|411:165,1,112,2|0,2:2|0:0,0:0:0:0:
430,32,157341,6,0,B|455:73|482:103|482:103|445:146|420:196,1,188.999994232178,4|0,2:1|2:0,2:0:0:0:
355,102,157858,2,2,B|289:48|219:107|253:129|204:193|120:150,1,251.999992309571,2|0,0:2|0:0,0:1:0:0:
18,111,158634,2,0,P|41:138|47:170,1,62.9999980773926,2|0,0:0|0:0,0:0:0:0:
1,288,158892,2,0,P|72:245|237:312,1,251.999992309571,2|4,0:2|2:1,0:0:0:0:
443,384,159668,6,0,L|459:308,1,62.9999980773926,0|0,2:0|2:0,0:0:0:0:
372,261,159927,2,2,L|356:185,1,62.9999980773926,2|0,0:2|0:0,0:1:0:0:
449,158,160186,2,0,L|465:82,1,62.9999980773926,0|2,0:0|0:2,0:0:0:0:
398,29,160444,1,0,0:0:0:0:
398,29,160573,1,0,0:0:0:0:
311,108,160703,1,2,0:0:0:0:
173,11,160961,2,2,P|209:15|237:37,1,62.9999980773926,2|0,0:2|0:0,0:1:0:0:
166,106,161220,2,0,P|133:110|99:121,2,62.9999980773926,8|8|4,0:0|0:0|2:1,0:0:0:0:
166,106,161737,1,0,2:0:0:0:
385,184,161996,6,2,B|380:120|315:125|315:125|297:224|279:276,1,251.999992309571,2|0,0:2|0:0,0:1:0:0:
382,376,162772,2,0,P|394:353|385:299,1,62.9999980773926,2|0,0:0|0:0,0:0:0:0:
281,268,163030,2,0,B|208:222|148:297|182:320|128:377|48:338,1,251.999992309571,2|4,0:2|2:1,0:0:0:0:
5,216,163807,6,2,B|-14:153|45:81|45:81|37:112|54:149,1,188.999994232178,2|0,0:2|0:0,0:1:0:0:
150,110,164323,2,2,P|153:141|141:170,1,62.9999980773926,2|0,0:2|0:0,0:1:0:0:
87,256,164582,1,8,0:0:0:0:
87,256,164711,1,8,0:0:0:0:
141,170,164841,2,0,P|179:150|217:156,1,62.9999980773926,8|8,0:2|0:2,0:0:0:0:
288,228,165099,6,0,P|316:247|359:246,1,62.9999980773926,4|4,0:3|0:3,0:0:0:0:
377,166,165358,2,0,P|349:147|306:148,1,62.9999980773926,8|8,0:2|0:2,0:0:0:0:
198,150,165616,1,4,2:1:0:0:
198,149,165875,1,0,2:0:0:0:
422,59,166134,6,2,B|459:18|508:65|508:65|485:148|468:231,1,251.999992309571,2|0,0:2|0:0,0:1:0:0:
448,364,166909,2,0,P|483:359|510:326,1,62.9999980773926,2|0,0:0|0:0,0:0:0:0:
392,268,167168,2,0,B|298:284|298:284|267:332|267:332|159:349,1,251.999992309571,2|4,0:2|2:1,0:0:0:0:
13,265,167944,6,0,P|10:237|47:193,1,62.9999980773926,0|0,2:0|2:0,0:0:0:0:
8,118,168203,2,2,P|30:101|87:111,1,62.9999980773926,2|0,0:2|0:0,0:1:0:0:
132,41,168462,2,0,P|157:52|177:106,1,62.9999980773926,0|2,0:0|0:2,0:0:0:0:
210,183,168720,1,0,0:0:0:0:
210,183,168849,1,0,0:0:0:0:
292,113,168979,1,2,0:0:0:0:
388,237,169237,2,2,P|400:267|408:305,1,62.9999980773926,2|0,0:2|0:0,0:1:0:0:
492,237,169496,2,0,P|499:208|514:174,2,62.9999980773926,8|8|4,0:0|0:0|2:1,0:0:0:0:
492,237,170013,1,0,2:0:0:0:
375,129,170272,6,2,B|308:78|237:158|286:167|255:244|159:224,1,251.999992309571,2|0,0:2|0:0,0:1:0:0:
95,126,171047,2,0,L|107:58,1,62.9999980773926,2|0,0:0|0:0,0:0:0:0:
21,42,171307,2,0,L|-9:235,1,188.999994232178,2|2,0:2|0:0,0:0:0:0:
76,359,171824,6,0,P|108:361|145:336,1,70,4|0,2:1|2:0,2:0:0:0:
228,383,172082,2,0,P|245:356|242:311,1,70,0|0,2:0|2:0,0:0:0:0:
163,242,172341,6,2,L|149:180,1,62.9999980773926,6|0,0:2|0:0,0:1:0:0:
235,132,172600,2,0,L|248:193,1,62.9999980773926
336,272,172858,6,2,P|364:290|399:288,1,56,6|0,0:2|0:0,0:1:0:0:
460,254,173117,2,0,P|456:226|445:193,1,56
426,62,173375,2,0,B|472:66|487:101|487:101|429:127|420:50|330:69,1,220.499993270874,6|0,0:2|0:0,0:1:0:0:
270,49,173893,6,0,P|237:18|196:17,2,77.0000023498536,4|0|2,0:0|0:0|0:0,0:0:0:0:
331,167,174281,2,0,B|349:244|272:235|296:331,1,154.000004699707,8|0,0:0|0:0,0:0:0:0:
431,340,174668,2,2,P|411:308|374:298,1,77.0000023498536,2|0,0:0|0:0,0:1:0:0:
217,335,174927,1,8,0:1:0:0:
217,335,175056,2,0,B|160:342|160:342|141:362|141:362|61:372,1,154.000004699707,8|0,0:0|0:0,0:0:0:0:
0,277,175444,1,2,0:0:0:0:
181,159,175703,2,0,P|167:201|162:241,1,77.0000023498536,8|0,0:0|0:0,0:0:0:0:
63,196,175961,6,0,P|52:130|25:46,1,154.000004699707,4|2,0:0|0:0,0:0:0:0:
178,60,176349,1,2,0:0:0:0:
178,60,176478,2,0,P|218:61|248:97,1,77.0000023498536,8|2,0:0|0:0,0:0:0:0:
332,98,176738,2,0,P|351:133|334:177,1,77.0000023498536,2|2,0:0|0:0,0:0:0:0:
260,271,176996,2,0,B|325:233|380:297|344:316|388:377|467:347,1,231.000007049561,8|8,0:1|0:2,0:0:0:0:
507,255,177513,2,0,B|493:226|499:176|499:176|487:224|458:250,1,154.000004699707,8|2,0:0|0:0,0:0:0:0:
286,343,178030,6,0,P|255:371|209:372,2,77.0000023498536,4|0|2,0:0|0:0|0:0,0:0:0:0:
300,211,178419,2,0,P|252:174|170:216,1,154.000004699707,8|0,0:0|0:0,0:0:0:0:
81,290,178806,2,2,P|96:259|80:208,1,77.0000023498536,2|0,0:0|0:0,0:1:0:0:
0,144,179065,1,8,0:1:0:0:
0,144,179194,2,0,P|65:131|128:59,1,154.000004699707,8|0,0:0|0:0,0:0:0:0:
229,0,179582,1,2,0:0:0:0:
299,152,179841,2,0,P|264:147|231:108,1,77.0000023498536,8|0,0:0|0:0,0:0:0:0:
411,69,180099,6,0,P|397:135|387:221,1,154.000004699707,4|2,0:0|0:0,0:0:0:0:
486,336,180487,1,2,0:0:0:0:
486,336,180616,2,0,B|487:312|473:293|473:293|478:320|473:336,1,77.0000023498536,2|2,0:0|0:0,0:0:0:0:
332,331,180875,2,0,B|331:355|345:374|345:374|340:347|345:331,1,77.0000023498536,2|2,0:0|0:0,0:0:0:0:
391,224,181134,1,8,0:1:0:0:
391,224,181263,1,2,0:0:0:0:
257,272,181392,2,0,B|193:264|203:311|139:303,1,115.50000352478,4|0,0:2|0:0,0:0:0:0:
132,300,181651,2,0,P|117:248|100:209,1,77.0000023498536,8|8,0:2|0:2,0:0:0:0:
6,125,181909,1,8,0:0:0:0:
6,125,182039,1,8,0:0:0:0:
139,43,182169,6,0,B|195:24|222:78|198:85|226:135|278:128,1,167.999994873047,4|2,0:0|0:0,0:0:0:0:
360,24,182556,2,0,P|319:21|284:57,1,83.9999974365235,8|0,0:0|0:0,0:0:0:0:
423,150,182815,1,0,0:0:0:0:
423,150,182944,2,0,P|464:157|507:172,1,83.9999974365235,8|0,0:0|0:0,0:0:0:0:
341,261,183203,2,0,B|229:338|89:285|89:285|138:296|184:264,1,342.999989532471,8|0,0:1|0:0,0:0:0:0:
116,206,183720,6,0,B|113:168|90:160|90:160|104:178|104:197,1,83.9999974365235,8|0,0:0|0:0,0:0:0:0:
217,108,183979,2,0,B|220:70|243:62|243:62|229:80|229:99,1,83.9999974365235,2|2,0:0|0:0,0:0:0:0:
325,194,184237,5,6,0:0:0:0:
411,230,184366,1,0,0:0:0:0:
483,176,184496,1,2,0:0:0:0:
373,66,184625,2,0,P|400:156|412:249,1,167.999994873047,8|0,0:0|0:0,0:0:0:0:
481,384,185013,2,0,P|506:362|499:302,1,83.9999974365235,8|0,0:0|0:0,0:0:0:0:
336,307,185272,6,0,B|303:295|298:266|298:266|308:216|308:216|304:182|269:174|269:174|146:195|146:195|176:211|185:247,1,342.999989532471,8|0,0:1|0:0,0:0:0:0:
105,272,185789,2,0,P|82:313|89:360,1,83.9999974365235,2|2,0:0|0:0,0:0:0:0:
197,382,186048,2,0,P|220:341|213:294,1,83.9999974365235,8|0,0:0|0:0,0:0:0:0:
147,195,186306,6,2,B|131:109|205:124|197:31,1,167.999994873047,4|0,0:0|0:0,0:1:0:0:
32,24,186694,1,0,0:0:0:0:
32,24,186823,2,0,P|68:55|121:43,1,83.9999974365235
268,11,187082,2,0,P|226:12|197:40,1,83.9999974365235
147,195,187341,2,0,P|293:216|457:268,2,293.999991027832,8|2|2,0:1|0:0|0:0,0:0:0:0:
345,19,188375,6,0,P|411:23|410:115,1,167.999994873047,4|8,0:0|0:0,0:0:0:0:
439,250,188763,2,0,P|390:227|257:204,1,167.999994873047,4|8,0:0|0:0,0:0:0:0:
142,242,189151,2,0,P|147:285|196:303,1,83.9999974365235,4|2,0:0|0:0,0:0:0:0:
278,204,189409,1,8,0:1:0:0:
199,140,189539,1,8,0:0:0:0:
241,50,189669,2,0,B|270:33|308:-5|308:-5|258:81|226:186|197:329|290:355|374:323|381:218|278:204,1,587.999982055665,2|0,0:0|2:1,0:0:0:0:
344,73,192513,6,0,B|391:109|453:141|453:141|395:194|367:233,1,251.999992309571,4|0,0:2|0:0,0:0:0:0:
184,226,194582,5,4,1:1:0:0:
248,302,194712,1,0,1:0:0:0:
195,384,194841,1,8,1:0:0:0:
195,384,194970,1,8,1:0:0:0:
43,263,195100,2,0,P|29:209|11:176,1,90.9999958343508,0|0,1:0|1:0,0:0:0:0:
174,218,195359,2,0,P|155:259|146:303,1,90.9999958343508,8|8,1:0|1:0,0:0:0:0:
109,136,195617,2,0,P|145:109|213:121,3,90.9999958343508,4|0|8|12,1:1|1:0|1:0|1:1,0:0:0:0:
264,252,196134,2,0,B|322:225|359:280|340:292|360:352|446:328,1,181.999991668702,0|4,1:0|1:1,1:0:0:0:
468,37,196651,6,0,P|421:33|382:74,1,90.9999958343508,4|0,1:1|1:0,0:0:0:0:
423,174,196910,2,0,P|470:178|509:137,1,90.9999958343508,8|8,1:0|1:0,0:0:0:0:
298,54,197169,1,0,1:0:0:0:
327,147,197298,1,0,1:0:0:0:
287,51,197427,1,8,1:0:0:0:
316,144,197556,1,8,1:0:0:0:
170,245,197686,6,0,P|157:204|135:152,1,90.9999958343508,4|0,1:1|1:0,1:0:0:0:
129,8,197944,2,8,P|176:23|184:76,1,90.9999958343508,8|8,1:0|1:0,1:0:0:0:
38,143,198203,1,4,1:1:0:0:
0,34,198332,1,0,1:0:0:0:
44,135,198462,1,8,1:0:0:0:
8,39,198591,1,8,1:0:0:0:
174,191,198720,6,0,P|154:276|136:373,1,181.999991668702,4|8,1:1|1:0,0:0:0:0:
311,313,199108,2,0,P|264:314|231:347,1,90.9999958343508,8|0,1:0|1:0,0:0:0:0:
378,384,199367,1,0,1:0:0:0:
378,384,199496,2,8,P|410:353|401:292,1,90.9999958343508,8|8,1:0|1:0,1:0:0:0:
286,159,199755,6,0,B|361:173|361:173|377:198|377:198|482:217,1,181.999991668702,4|8,1:1|1:0,0:0:0:0:
511,89,200143,2,0,B|503:56|490:36|437:39,1,90.9999958343508,12|0,1:1|0:0,1:0:0:0:
286,159,200401,1,0,1:0:0:0:
368,91,200531,1,4,1:1:0:0:
145,0,200789,5,4,1:1:0:0:
71,62,200919,1,0,0:0:0:0:
141,11,201048,1,0,1:0:0:0:
193,161,201177,2,0,P|173:257|160:346,1,181.999991668702,8|0,1:0|1:0,1:0:0:0:
10,241,201565,2,8,P|39:204|96:217,1,90.9999958343508,8|8,1:0|1:0,1:0:0:0:
161,341,201824,5,4,1:1:0:0:
161,341,201953,1,0,1:0:0:0:
77,384,202082,2,0,P|43:356|68:305,1,90.9999958343508,12|8,1:1|1:0,0:0:0:0:
274,270,202341,6,0,B|285:275|285:275|294:274|294:274|301:278|301:278|317:280,12,31.4999990386963,12|0|0|0|8|0|0|0|12|0|8|0|8,1:1|0:0|0:0|0:0|1:0|0:0|0:0|0:0|1:3|0:0|1:3|0:0|1:3,0:0:0:0:
215,185,202858,5,6,1:1:0:0:
141,119,202988,1,0,0:0:0:0:
190,38,203117,1,0,1:0:0:0:
318,104,203246,2,0,B|380:78|379:75|425:146|395:149|418:201|468:194,1,195.999994018555,6|0,1:1|0:0,1:0:0:0:
480,41,203634,2,0,B|429:56|429:56|426:121,1,97.9999970092774,0|0,1:0|1:0,0:0:0:0:
429,287,203893,5,14,1:1:0:0:
429,287,204022,2,0,B|441:246|441:246|440:233|440:233|460:181,1,97.9999970092774,10|14,1:0|1:1,0:0:0:0:
246,258,204281,5,10,1:0:0:0:
269,166,204410,2,0,B|291:257|291:257|297:255|297:255|320:360,1,195.999994018555,4|0,1:1|1:0,1:0:0:0:
87,384,204927,6,0,B|68:364|48:350|48:350|71:282,1,97.9999970092774,6|0,1:1|1:0,0:0:0:0:
173,279,205186,2,0,B|190:301|214:311|214:311|202:338|189:381,1,97.9999970092774,8|8,1:0|1:0,0:0:0:0:
101,216,205444,1,6,1:1:0:0:
101,216,205574,2,0,B|79:123|223:150|172:39,1,195.999994018555,0|8,1:0|1:0,0:0:0:0:
0,0,205962,5,6,1:1:0:0:
42,86,206091,1,0,1:0:0:0:
2,170,206220,1,0,1:0:0:0:
172,114,206350,2,0,B|208:101|236:126|236:126|244:154|272:172|272:172|321:159|353:202,1,195.999994018555,6|0,1:1|1:0,1:0:0:0:
374,20,206738,2,0,B|324:36|324:36|318:85,1,97.9999970092774,6|0,1:1|0:0,1:0:0:0:
456,225,206996,5,6,1:1:0:0:
456,225,207125,2,0,B|468:212|468:212|442:127,1,97.9999970092774,0|8,1:0|1:0,0:0:0:0:
205,211,207384,1,8,1:0:0:0:
232,127,207513,2,0,B|225:152|225:152|258:229|258:229|285:324,1,195.999994018555,2|8,1:0|1:0,0:0:0:0:
449,371,207901,1,8,1:0:0:0:
449,371,208031,6,2,B|432:376|432:376|366:354|395:315|332:285|280:312,1,195.999994018555,6|6,1:1|1:1,1:0:0:0:
115,384,208419,1,0,1:0:0:0:
115,384,208548,2,2,B|148:373|177:353|157:305,1,97.9999970092774,6|0,1:1|0:0,1:0:0:0:
47,218,208807,1,2,1:0:0:0:
324,213,209065,6,2,B|344:219|369:221|369:221|377:227|377:227|394:225|430:237,1,97.9999970092774,14|2,1:1|1:0,1:0:0:0:
230,66,209324,2,2,B|209:59|184:57|184:57|176:51|176:51|159:53|123:41,1,97.9999970092774,14|2,1:1|1:0,1:0:0:0:
319,205,209582,2,2,B|337:216|359:212|359:212|369:216|369:216|379:214|379:214|387:210|413:226,1,97.9999970092774,14|2,1:1|1:0,1:0:0:0:
233,73,209841,2,2,B|216:66|216:66|192:65|192:65|187:58|187:58|167:57|167:57|153:64|138:51,1,97.9999970092774,14|2,1:1|1:0,1:0:0:0:
391,98,210100,5,14,1:1:0:0:
391,98,210229,1,10,1:0:0:0:
254,155,210358,5,14,1:1:0:0:
254,155,210487,1,10,1:0:0:0:
116,217,210617,5,14,1:1:0:0:
240,261,210746,1,10,1:0:0:0:
101,215,210875,6,0,B|106:183|106:183|90:189|90:189|88:183|86:174|86:174|73:165|73:165|59:162|80:150|62:146|62:146|89:218,1,97.9999970092774,2|0,1:2|2:0,1:0:0:0:
