osu file format v14

[General]
AudioFilename: audio.mp3
AudioLeadIn: 0
PreviewTime: 106652
Countdown: 0
SampleSet: None
StackLeniency: 0.7
Mode: 3
LetterboxInBreaks: 0
SpecialStyle: 0
WidescreenStoryboard: 1

[Editor]
Bookmarks: 17449,34440,55679,72670,89661,102404,106652,127891,136387,157626,166121,185236,193732,202227,219219,236210,257449,280811,308422
DistanceSpacing: 1.7
BeatDivisor: 12
GridSize: 4
TimelineZoom: 3.499999

[Metadata]
Title:Happppy song
TitleUnicode:Happppy song
Artist:SOOOO
ArtistUnicode:SOOOO
Creator:[GB]V1do
Version:bLessiNg to this world. (cut)
Source:
Tags:vocaloid producer kagamine len 鏡音レン
BeatmapID:4537637
BeatmapSetID:2150406

[Difficulty]
HPDrainRate:8
CircleSize:4
OverallDifficulty:7
ApproachRate:5
SliderMultiplier:1.4
SliderTickRate:1

[Events]
//Background and Video events
0,0,"aw-she-cute.png",0,0
//Break Periods
//Storyboard Layer 0 (Background)
//Storyboard Layer 1 (Fail)
//Storyboard Layer 2 (Pass)
//Storyboard Layer 3 (Foreground)
//Storyboard Layer 4 (Overlay)
//Storyboard Sound Samples

[TimingPoints]
458,265.486725663717,4,1,0,0,1,0
34440,-100,4,1,0,0,0,1
51365,-100,4,1,0,0,0,0
51431,-100,4,1,0,0,0,1
51763,-100,4,1,0,0,0,0
51829,-100,4,1,0,0,0,1
52161,-100,4,1,0,0,0,0
52227,-100,4,1,0,0,0,1
52559,-100,4,1,0,0,0,0
52626,-100,4,1,0,0,0,1
52958,-100,4,1,0,0,0,0
53024,-100,4,1,0,0,0,1
53488,-100,4,1,0,0,0,0
53555,-100,4,1,0,0,0,1
53887,-100,4,1,0,0,0,0
53953,-100,4,1,0,0,0,1
54285,-100,4,1,0,0,0,0
54351,-100,4,1,0,0,0,1
54683,-100,4,1,0,0,0,0
54750,-100,4,1,0,0,0,1
55081,-100,4,1,0,0,0,0
55148,-100,4,1,0,0,0,1
55679,-100,4,1,0,0,0,0
106652,-100,4,1,0,0,0,1
123577,-100,4,1,0,0,0,0
123643,-100,4,1,0,0,0,1
123975,-100,4,1,0,0,0,0
124042,-100,4,1,0,0,0,1
124373,-100,4,1,0,0,0,0
124440,-100,4,1,0,0,0,1
124772,-100,4,1,0,0,0,0
124838,-100,4,1,0,0,0,1
125170,-100,4,1,0,0,0,0
125236,-100,4,1,0,0,0,1
125701,-100,4,1,0,0,0,0
125767,-100,4,1,0,0,0,1
126099,-100,4,1,0,0,0,0
126165,-100,4,1,0,0,0,1
126497,-100,4,1,0,0,0,0
126564,-100,4,1,0,0,0,1
126896,-100,4,1,0,0,0,0
126962,-100,4,1,0,0,0,1
127294,-100,4,1,0,0,0,0
127360,-100,4,1,0,0,0,1
127891,-100,4,1,0,0,0,0
282935,-100,4,1,0,0,0,1
299860,-100,4,1,0,0,0,0
299927,-100,4,1,0,0,0,1
300258,-100,4,1,0,0,0,0
300325,-100,4,1,0,0,0,1
300657,-100,4,1,0,0,0,0
300723,-100,4,1,0,0,0,1
301055,-100,4,1,0,0,0,0
301121,-100,4,1,0,0,0,1
301453,-100,4,1,0,0,0,0
301519,-100,4,1,0,0,0,1
301984,-100,4,1,0,0,0,0
302050,-100,4,1,0,0,0,1
302382,-100,4,1,0,0,0,0
302449,-100,4,1,0,0,0,1
302781,-100,4,1,0,0,0,0
302847,-100,4,1,0,0,0,1
303179,-100,4,1,0,0,0,0
303245,-100,4,1,0,0,0,1
303577,-100,4,1,0,0,0,0
303643,-100,4,1,0,0,0,1
304108,-100,4,1,0,0,0,0
304174,-100,4,1,0,0,0,1
304506,-100,4,1,0,0,0,0
304573,-100,4,1,0,0,0,1
304904,-100,4,1,0,0,0,0
304971,-100,4,1,0,0,0,1
305303,-100,4,1,0,0,0,0
305369,-100,4,1,0,0,0,1
305701,-100,4,1,0,0,0,0
305767,-100,4,1,0,0,0,1
306232,-100,4,1,0,0,0,0
306298,-100,4,1,0,0,0,1
306630,-100,4,1,0,0,0,0
306696,-100,4,1,0,0,0,1
307028,-100,4,1,0,0,0,0
307095,-100,4,1,0,0,0,1
307427,-100,4,1,0,0,0,0
307493,-100,4,1,0,0,0,1
307825,-100,4,1,0,0,0,0
307891,-100,4,1,0,0,0,1
308422,-100,4,1,0,0,0,0

[HitObjects]
64,192,17183,128,0,17250:0:0:0:0:
192,192,17316,128,0,17382:0:0:0:0:
320,192,17449,128,0,17714:0:0:0:0:
64,192,17449,128,0,17648:0:0:0:0:
448,192,17449,128,0,17847:0:0:0:0:
192,192,17581,128,0,17648:0:0:0:0:
192,192,17714,128,0,17847:0:0:0:0:
64,192,17714,128,0,17781:0:0:0:0:
64,192,17847,128,0,18046:0:0:0:0:
192,192,17913,128,0,17980:0:0:0:0:
448,192,17980,128,0,18179:0:0:0:0:
320,192,17980,128,0,18112:0:0:0:0:
192,192,18112,128,0,18444:0:0:0:0:
320,192,18179,128,0,18378:0:0:0:0:
64,192,18245,128,0,18311:0:0:0:0:
448,192,18245,128,0,18511:0:0:0:0:
64,192,18378,128,0,18444:0:0:0:0:
192,192,18511,128,0,18577:0:0:0:0:
320,192,18511,128,0,18577:0:0:0:0:
192,192,18643,128,0,18710:0:0:0:0:
320,192,18776,128,0,18842:0:0:0:0:
64,192,18776,128,0,19241:0:0:0:0:
320,192,18909,128,0,18975:0:0:0:0:
448,192,19042,128,0,19108:0:0:0:0:
192,192,19042,128,0,19241:0:0:0:0:
448,192,19174,128,0,19241:0:0:0:0:
320,192,19241,128,0,19440:0:0:0:0:
64,192,19307,128,0,19440:0:0:0:0:
192,192,19307,128,0,19373:0:0:0:0:
192,192,19440,128,0,19506:0:0:0:0:
448,192,19573,128,0,19772:0:0:0:0:
64,192,19573,128,0,19639:0:0:0:0:
320,192,19617,128,0,19683:0:0:0:0:
192,192,19661,128,0,19727:0:0:0:0:
64,192,19705,128,0,19816:0:0:0:0:
320,192,19750,128,0,19904:0:0:0:0:
192,192,19794,128,0,19860:0:0:0:0:
448,192,19838,128,0,19949:0:0:0:0:
64,192,19882,128,0,19993:0:0:0:0:
192,192,19927,128,0,20037:0:0:0:0:
320,192,19971,128,0,20081:0:0:0:0:
448,192,20015,128,0,20170:0:0:0:0:
64,192,20059,128,0,20126:0:0:0:0:
192,192,20104,128,0,20258:0:0:0:0:
320,192,20148,128,0,20214:0:0:0:0:
64,192,20192,128,0,20303:0:0:0:0:
448,192,20236,128,0,20347:0:0:0:0:
320,192,20281,128,0,20435:0:0:0:0:
192,192,20325,128,0,20391:0:0:0:0:
64,192,20369,128,0,20524:0:0:0:0:
448,192,20413,128,0,20480:0:0:0:0:
192,192,20458,128,0,20568:0:0:0:0:
320,192,20502,128,0,20612:0:0:0:0:
448,192,20546,128,0,20701:0:0:0:0:
64,192,20590,128,0,20657:0:0:0:0:
192,192,20634,128,0,20789:0:0:0:0:
320,192,20679,128,0,20745:0:0:0:0:
64,192,20723,128,0,20834:0:0:0:0:
448,192,20767,128,0,20878:0:0:0:0:
320,192,20811,128,0,20922:0:0:0:0:
192,192,20856,128,0,20966:0:0:0:0:
64,192,20900,128,0,21011:0:0:0:0:
448,192,20944,128,0,21055:0:0:0:0:
320,192,20988,128,0,21143:0:0:0:0:
192,192,21033,128,0,21099:0:0:0:0:
64,192,21077,128,0,21232:0:0:0:0:
448,192,21121,128,0,21188:0:0:0:0:
192,192,21165,128,0,21276:0:0:0:0:
320,192,21210,128,0,21320:0:0:0:0:
448,192,21254,128,0,21365:0:0:0:0:
64,192,21298,128,0,21453:0:0:0:0:
192,192,21342,128,0,21409:0:0:0:0:
320,192,21387,128,0,21542:0:0:0:0:
448,192,21431,128,0,21497:0:0:0:0:
192,192,21475,128,0,21586:0:0:0:0:
64,192,21519,128,0,21630:0:0:0:0:
448,192,21564,128,0,21630:0:0:0:0:
320,192,21608,128,0,21696:0:0:0:0:
192,192,21696,128,0,21962:0:0:0:0:
448,192,21696,128,0,21896:0:0:0:0:
64,192,21696,128,0,22095:0:0:0:0:
320,192,21829,128,0,21896:0:0:0:0:
320,192,21962,128,0,22095:0:0:0:0:
448,192,21962,128,0,22028:0:0:0:0:
448,192,22095,128,0,22294:0:0:0:0:
320,192,22161,128,0,22227:0:0:0:0:
64,192,22227,128,0,22427:0:0:0:0:
192,192,22227,128,0,22360:0:0:0:0:
320,192,22360,128,0,22692:0:0:0:0:
192,192,22427,128,0,22626:0:0:0:0:
448,192,22493,128,0,22559:0:0:0:0:
64,192,22493,128,0,22758:0:0:0:0:
448,192,22626,128,0,22692:0:0:0:0:
320,192,22758,128,0,22825:0:0:0:0:
192,192,22758,128,0,22825:0:0:0:0:
320,192,22891,128,0,22958:0:0:0:0:
192,192,23024,128,0,23090:0:0:0:0:
448,192,23024,128,0,23488:0:0:0:0:
192,192,23157,128,0,23223:0:0:0:0:
64,192,23289,128,0,23356:0:0:0:0:
320,192,23289,128,0,23488:0:0:0:0:
64,192,23422,128,0,23488:0:0:0:0:
192,192,23488,128,0,23688:0:0:0:0:
448,192,23555,128,0,23688:0:0:0:0:
320,192,23555,128,0,23621:0:0:0:0:
320,192,23688,128,0,23754:0:0:0:0:
64,192,23820,128,0,23873:0:0:0:0:
448,192,23820,128,0,23927:0:0:0:0:
320,192,23873,128,0,23980:0:0:0:0:
64,192,23927,128,0,24033:0:0:0:0:
192,192,23980,128,0,24086:0:0:0:0:
320,192,24033,128,0,24139:0:0:0:0:
448,192,24086,128,0,24139:0:0:0:0:
192,192,24139,128,0,24192:0:0:0:0:
448,192,24192,128,0,24298:0:0:0:0:
192,192,24245,128,0,24351:0:0:0:0:
320,192,24298,128,0,24458:0:0:0:0:
448,192,24351,128,0,24404:0:0:0:0:
64,192,24351,128,0,24564:0:0:0:0:
192,192,24404,128,0,24511:0:0:0:0:
448,192,24458,128,0,24564:0:0:0:0:
320,192,24511,128,0,24617:0:0:0:0:
192,192,24564,128,0,24670:0:0:0:0:
64,192,24617,128,0,24670:0:0:0:0:
320,192,24670,128,0,24723:0:0:0:0:
64,192,24723,128,0,24776:0:0:0:0:
320,192,24776,128,0,24829:0:0:0:0:
192,192,24829,128,0,24988:0:0:0:0:
64,192,24882,128,0,24935:0:0:0:0:
448,192,24882,128,0,24988:0:0:0:0:
320,192,24935,128,0,25042:0:0:0:0:
64,192,24988,128,0,25095:0:0:0:0:
192,192,25042,128,0,25148:0:0:0:0:
320,192,25095,128,0,25201:0:0:0:0:
448,192,25148,128,0,25254:0:0:0:0:
192,192,25201,128,0,25254:0:0:0:0:
320,192,25254,128,0,25307:0:0:0:0:
192,192,25307,128,0,25413:0:0:0:0:
320,192,25360,128,0,25519:0:0:0:0:
448,192,25413,128,0,25466:0:0:0:0:
64,192,25413,128,0,25519:0:0:0:0:
192,192,25466,128,0,25573:0:0:0:0:
448,192,25519,128,0,25626:0:0:0:0:
320,192,25573,128,0,25679:0:0:0:0:
192,192,25626,128,0,25732:0:0:0:0:
64,192,25679,128,0,25732:0:0:0:0:
448,192,25732,128,0,25785:0:0:0:0:
64,192,25785,128,0,25891:0:0:0:0:
448,192,25838,128,0,25891:0:0:0:0:
192,192,25891,128,0,25944:0:0:0:0:
320,192,25944,128,0,26210:0:0:0:0:
64,192,25944,128,0,26143:0:0:0:0:
448,192,25944,128,0,26342:0:0:0:0:
192,192,26210,128,0,26342:0:0:0:0:
64,192,26210,128,0,26276:0:0:0:0:
64,192,26342,128,0,26542:0:0:0:0:
192,192,26409,128,0,26475:0:0:0:0:
448,192,26475,128,0,26674:0:0:0:0:
320,192,26475,128,0,26608:0:0:0:0:
192,192,26608,128,0,26940:0:0:0:0:
320,192,26674,128,0,26873:0:0:0:0:
64,192,26741,128,0,26807:0:0:0:0:
448,192,26741,128,0,27006:0:0:0:0:
64,192,26873,128,0,26940:0:0:0:0:
192,192,27006,128,0,27073:0:0:0:0:
320,192,27006,128,0,27073:0:0:0:0:
192,192,27139,128,0,27205:0:0:0:0:
320,192,27272,128,0,27338:0:0:0:0:
64,192,27272,128,0,27471:0:0:0:0:
320,192,27404,128,0,27471:0:0:0:0:
448,192,27537,128,0,27604:0:0:0:0:
64,192,27537,128,0,27736:0:0:0:0:
192,192,27581,128,0,27736:0:0:0:0:
320,192,27626,128,0,27670:0:0:0:0:
448,192,27670,128,0,27736:0:0:0:0:
320,192,27736,128,0,27935:0:0:0:0:
64,192,27803,128,0,27935:0:0:0:0:
192,192,27803,128,0,27869:0:0:0:0:
192,192,27935,128,0,28002:0:0:0:0:
64,192,28068,128,0,28179:0:0:0:0:
448,192,28068,128,0,28134:0:0:0:0:
320,192,28112,128,0,28245:0:0:0:0:
192,192,28157,128,0,28201:0:0:0:0:
448,192,28201,128,0,28289:0:0:0:0:
192,192,28245,128,0,28422:0:0:0:0:
64,192,28245,128,0,28311:0:0:0:0:
320,192,28311,128,0,28378:0:0:0:0:
64,192,28378,128,0,28488:0:0:0:0:
448,192,28422,128,0,28555:0:0:0:0:
320,192,28444,128,0,28511:0:0:0:0:
192,192,28488,128,0,28599:0:0:0:0:
64,192,28555,128,0,28621:0:0:0:0:
320,192,28577,128,0,28688:0:0:0:0:
448,192,28643,128,0,28754:0:0:0:0:
192,192,28688,128,0,28754:0:0:0:0:
64,192,28688,128,0,28820:0:0:0:0:
320,192,28754,128,0,28865:0:0:0:0:
448,192,28820,128,0,28887:0:0:0:0:
192,192,28820,128,0,28931:0:0:0:0:
64,192,28887,128,0,28997:0:0:0:0:
320,192,28953,128,0,28997:0:0:0:0:
448,192,28953,128,0,29042:0:0:0:0:
192,192,28997,128,0,29108:0:0:0:0:
64,192,29064,128,0,29108:0:0:0:0:
320,192,29064,128,0,29196:0:0:0:0:
448,192,29130,128,0,29196:0:0:0:0:
192,192,29174,128,0,29263:0:0:0:0:
64,192,29174,128,0,29329:0:0:0:0:
320,192,29263,128,0,29418:0:0:0:0:
448,192,29263,128,0,29329:0:0:0:0:
192,192,29329,128,0,29373:0:0:0:0:
448,192,29396,128,0,29462:0:0:0:0:
64,192,29396,128,0,29639:0:0:0:0:
192,192,29440,128,0,29506:0:0:0:0:
320,192,29484,128,0,29550:0:0:0:0:
448,192,29528,128,0,29595:0:0:0:0:
192,192,29573,128,0,29683:0:0:0:0:
320,192,29617,128,0,29727:0:0:0:0:
448,192,29661,128,0,29904:0:0:0:0:
64,192,29705,128,0,29772:0:0:0:0:
192,192,29750,128,0,29816:0:0:0:0:
320,192,29794,128,0,29860:0:0:0:0:
64,192,29838,128,0,29949:0:0:0:0:
192,192,29882,128,0,29993:0:0:0:0:
320,192,29927,128,0,30037:0:0:0:0:
448,192,29971,128,0,30081:0:0:0:0:
64,192,30015,128,0,30126:0:0:0:0:
192,192,30059,128,0,30126:0:0:0:0:
320,192,30104,128,0,30192:0:0:0:0:
192,192,30192,128,0,30458:0:0:0:0:
448,192,30192,128,0,30391:0:0:0:0:
64,192,30192,128,0,30590:0:0:0:0:
320,192,30458,128,0,30590:0:0:0:0:
448,192,30458,128,0,30524:0:0:0:0:
448,192,30590,128,0,30789:0:0:0:0:
320,192,30657,128,0,30723:0:0:0:0:
64,192,30723,128,0,30922:0:0:0:0:
192,192,30723,128,0,30856:0:0:0:0:
320,192,30856,128,0,31188:0:0:0:0:
192,192,30922,128,0,31121:0:0:0:0:
448,192,30988,128,0,31055:0:0:0:0:
64,192,30988,128,0,31254:0:0:0:0:
448,192,31121,128,0,31188:0:0:0:0:
320,192,31254,128,0,31320:0:0:0:0:
192,192,31254,128,0,31320:0:0:0:0:
320,192,31387,128,0,31453:0:0:0:0:
192,192,31519,128,0,31586:0:0:0:0:
448,192,31519,128,0,31984:0:0:0:0:
192,192,31652,128,0,31719:0:0:0:0:
64,192,31785,128,0,31851:0:0:0:0:
320,192,31785,128,0,31984:0:0:0:0:
64,192,31918,128,0,31984:0:0:0:0:
192,192,31984,128,0,32183:0:0:0:0:
448,192,32050,128,0,32183:0:0:0:0:
320,192,32050,128,0,32117:0:0:0:0:
320,192,32183,128,0,32250:0:0:0:0:
64,192,32316,128,0,32515:0:0:0:0:
448,192,32316,128,0,32382:0:0:0:0:
192,192,32360,128,0,32449:0:0:0:0:
320,192,32404,128,0,32559:0:0:0:0:
448,192,32449,128,0,32515:0:0:0:0:
192,192,32515,128,0,32604:0:0:0:0:
64,192,32581,128,0,32648:0:0:0:0:
448,192,32581,128,0,32781:0:0:0:0:
320,192,32626,128,0,32714:0:0:0:0:
192,192,32670,128,0,32825:0:0:0:0:
64,192,32714,128,0,32781:0:0:0:0:
320,192,32781,128,0,32869:0:0:0:0:
448,192,32847,128,0,33046:0:0:0:0:
64,192,32847,128,0,32935:0:0:0:0:
192,192,32891,128,0,33002:0:0:0:0:
320,192,32935,128,0,33090:0:0:0:0:
64,192,33002,128,0,33046:0:0:0:0:
192,192,33068,128,0,33134:0:0:0:0:
448,192,33112,128,0,33201:0:0:0:0:
64,192,33112,128,0,33311:0:0:0:0:
320,192,33157,128,0,33267:0:0:0:0:
192,192,33201,128,0,33356:0:0:0:0:
448,192,33267,128,0,33311:0:0:0:0:
320,192,33334,128,0,33400:0:0:0:0:
448,192,33378,128,0,33444:0:0:0:0:
64,192,33378,128,0,33577:0:0:0:0:
192,192,33422,128,0,33488:0:0:0:0:
320,192,33466,128,0,33533:0:0:0:0:
448,192,33511,128,0,33621:0:0:0:0:
192,192,33555,128,0,33710:0:0:0:0:
320,192,33599,128,0,33665:0:0:0:0:
64,192,33643,128,0,33776:0:0:0:0:
448,192,33688,128,0,33776:0:0:0:0:
320,192,33732,128,0,33820:0:0:0:0:
192,192,33776,128,0,33909:0:0:0:0:
320,192,33909,128,0,34108:0:0:0:0:
64,192,34440,128,0,34595:0:0:0:0:
448,192,34440,128,0,34506:0:0:0:0:
192,192,34484,128,0,34550:0:0:0:0:
320,192,34528,128,0,34705:0:0:0:0:
448,192,34573,128,0,34639:0:0:0:0:
192,192,34617,128,0,34772:0:0:0:0:
64,192,34661,128,0,34772:0:0:0:0:
448,192,34705,128,0,34816:0:0:0:0:
320,192,34772,128,0,34860:0:0:0:0:
192,192,34838,128,0,34904:0:0:0:0:
64,192,34882,128,0,34971:0:0:0:0:
448,192,34882,128,0,34949:0:0:0:0:
320,192,34927,128,0,34993:0:0:0:0:
192,192,34971,128,0,35037:0:0:0:0:
448,192,35015,128,0,35081:0:0:0:0:
320,192,35059,128,0,35126:0:0:0:0:
192,192,35104,128,0,35170:0:0:0:0:
64,192,35104,128,0,35170:0:0:0:0:
448,192,35170,128,0,35236:0:0:0:0:
192,192,35236,128,0,35325:0:0:0:0:
64,192,35236,128,0,35391:0:0:0:0:
448,192,35281,128,0,35435:0:0:0:0:
320,192,35325,128,0,35435:0:0:0:0:
192,192,35391,128,0,35502:0:0:0:0:
64,192,35458,128,0,35502:0:0:0:0:
320,192,35502,128,0,35568:0:0:0:0:
448,192,35502,128,0,35568:0:0:0:0:
64,192,35568,128,0,35701:0:0:0:0:
320,192,35634,128,0,35701:0:0:0:0:
448,192,35634,128,0,35701:0:0:0:0:
192,192,35701,128,0,35834:0:0:0:0:
448,192,35767,128,0,35834:0:0:0:0:
320,192,35767,128,0,35834:0:0:0:0:
64,192,35834,128,0,35966:0:0:0:0:
448,192,35900,128,0,35966:0:0:0:0:
320,192,35900,128,0,36011:0:0:0:0:
192,192,35966,128,0,36165:0:0:0:0:
448,192,36033,128,0,36232:0:0:0:0:
64,192,36033,128,0,36099:0:0:0:0:
320,192,36077,128,0,36232:0:0:0:0:
64,192,36165,128,0,36298:0:0:0:0:
192,192,36232,128,0,36298:0:0:0:0:
320,192,36298,128,0,36453:0:0:0:0:
448,192,36298,128,0,36387:0:0:0:0:
64,192,36342,128,0,36497:0:0:0:0:
192,192,36387,128,0,36497:0:0:0:0:
448,192,36453,128,0,36564:0:0:0:0:
320,192,36519,128,0,36630:0:0:0:0:
192,192,36564,128,0,36630:0:0:0:0:
64,192,36564,128,0,36630:0:0:0:0:
448,192,36630,128,0,36763:0:0:0:0:
192,192,36696,128,0,36763:0:0:0:0:
64,192,36696,128,0,36763:0:0:0:0:
320,192,36763,128,0,36896:0:0:0:0:
64,192,36829,128,0,36896:0:0:0:0:
192,192,36829,128,0,36896:0:0:0:0:
448,192,36896,128,0,37028:0:0:0:0:
64,192,36962,128,0,37028:0:0:0:0:
192,192,36962,128,0,37073:0:0:0:0:
320,192,37028,128,0,37227:0:0:0:0:
448,192,37095,128,0,37161:0:0:0:0:
64,192,37095,128,0,37294:0:0:0:0:
192,192,37139,128,0,37294:0:0:0:0:
448,192,37227,128,0,37360:0:0:0:0:
320,192,37294,128,0,37360:0:0:0:0:
192,192,37360,128,0,37515:0:0:0:0:
64,192,37360,128,0,37449:0:0:0:0:
448,192,37404,128,0,37559:0:0:0:0:
320,192,37449,128,0,37559:0:0:0:0:
64,192,37515,128,0,37626:0:0:0:0:
192,192,37581,128,0,37692:0:0:0:0:
320,192,37626,128,0,37692:0:0:0:0:
448,192,37626,128,0,37692:0:0:0:0:
64,192,37692,128,0,37825:0:0:0:0:
320,192,37758,128,0,37825:0:0:0:0:
448,192,37758,128,0,37825:0:0:0:0:
192,192,37825,128,0,37958:0:0:0:0:
448,192,37891,128,0,37958:0:0:0:0:
320,192,37891,128,0,37958:0:0:0:0:
64,192,37958,128,0,38090:0:0:0:0:
448,192,38024,128,0,38090:0:0:0:0:
320,192,38024,128,0,38134:0:0:0:0:
192,192,38090,128,0,38245:0:0:0:0:
64,192,38157,128,0,38223:0:0:0:0:
448,192,38157,128,0,38356:0:0:0:0:
320,192,38201,128,0,38267:0:0:0:0:
64,192,38289,128,0,38422:0:0:0:0:
320,192,38334,128,0,38400:0:0:0:0:
192,192,38378,128,0,38533:0:0:0:0:
448,192,38422,128,0,38488:0:0:0:0:
320,192,38466,128,0,38577:0:0:0:0:
64,192,38511,128,0,38555:0:0:0:0:
448,192,38555,128,0,38599:0:0:0:0:
64,192,38599,128,0,38688:0:0:0:0:
448,192,38643,128,0,38688:0:0:0:0:
192,192,38688,128,0,38776:0:0:0:0:
320,192,38688,128,0,38732:0:0:0:0:
64,192,38754,128,0,38820:0:0:0:0:
320,192,38798,128,0,38887:0:0:0:0:
192,192,38842,128,0,38931:0:0:0:0:
64,192,38887,128,0,39086:0:0:0:0:
320,192,38953,128,0,39019:0:0:0:0:
448,192,38953,128,0,38997:0:0:0:0:
192,192,38997,128,0,39086:0:0:0:0:
448,192,39042,128,0,39152:0:0:0:0:
320,192,39086,128,0,39196:0:0:0:0:
192,192,39152,128,0,39263:0:0:0:0:
64,192,39219,128,0,39263:0:0:0:0:
448,192,39219,128,0,39351:0:0:0:0:
320,192,39263,128,0,39351:0:0:0:0:
64,192,39307,128,0,39418:0:0:0:0:
192,192,39351,128,0,39462:0:0:0:0:
320,192,39418,128,0,39528:0:0:0:0:
448,192,39484,128,0,39528:0:0:0:0:
64,192,39484,128,0,39683:0:0:0:0:
192,192,39528,128,0,39617:0:0:0:0:
448,192,39573,128,0,39683:0:0:0:0:
320,192,39617,128,0,39750:0:0:0:0:
192,192,39683,128,0,39750:0:0:0:0:
64,192,39750,128,0,39816:0:0:0:0:
448,192,39750,128,0,39949:0:0:0:0:
320,192,39816,128,0,39882:0:0:0:0:
64,192,39882,128,0,39949:0:0:0:0:
192,192,39882,128,0,40015:0:0:0:0:
320,192,39949,128,0,40126:0:0:0:0:
448,192,40015,128,0,40214:0:0:0:0:
64,192,40015,128,0,40081:0:0:0:0:
192,192,40081,128,0,40170:0:0:0:0:
64,192,40148,128,0,40214:0:0:0:0:
320,192,40192,128,0,40281:0:0:0:0:
192,192,40236,128,0,40347:0:0:0:0:
64,192,40281,128,0,40413:0:0:0:0:
448,192,40281,128,0,40347:0:0:0:0:
320,192,40347,128,0,40480:0:0:0:0:
448,192,40413,128,0,40480:0:0:0:0:
192,192,40413,128,0,40546:0:0:0:0:
64,192,40480,128,0,40612:0:0:0:0:
320,192,40546,128,0,40679:0:0:0:0:
448,192,40546,128,0,40612:0:0:0:0:
192,192,40612,128,0,40745:0:0:0:0:
448,192,40679,128,0,40745:0:0:0:0:
64,192,40679,128,0,40745:0:0:0:0:
320,192,40745,128,0,40834:0:0:0:0:
64,192,40811,128,0,40922:0:0:0:0:
192,192,40811,128,0,40878:0:0:0:0:
448,192,40811,128,0,41011:0:0:0:0:
320,192,40900,128,0,41011:0:0:0:0:
192,192,40944,128,0,41011:0:0:0:0:
64,192,40988,128,0,41099:0:0:0:0:
192,192,41077,128,0,41276:0:0:0:0:
320,192,41077,128,0,41143:0:0:0:0:
448,192,41077,128,0,41188:0:0:0:0:
64,192,41165,128,0,41276:0:0:0:0:
320,192,41210,128,0,41276:0:0:0:0:
448,192,41254,128,0,41342:0:0:0:0:
320,192,41342,128,0,41542:0:0:0:0:
192,192,41342,128,0,41453:0:0:0:0:
64,192,41342,128,0,41409:0:0:0:0:
448,192,41431,128,0,41542:0:0:0:0:
64,192,41475,128,0,41542:0:0:0:0:
192,192,41519,128,0,41630:0:0:0:0:
64,192,41608,128,0,41807:0:0:0:0:
320,192,41608,128,0,41719:0:0:0:0:
448,192,41608,128,0,41674:0:0:0:0:
192,192,41696,128,0,41851:0:0:0:0:
448,192,41741,128,0,41807:0:0:0:0:
320,192,41785,128,0,41896:0:0:0:0:
448,192,41873,128,0,41940:0:0:0:0:
64,192,41873,128,0,42073:0:0:0:0:
192,192,41918,128,0,42073:0:0:0:0:
320,192,41962,128,0,42006:0:0:0:0:
448,192,42006,128,0,42139:0:0:0:0:
320,192,42073,128,0,42205:0:0:0:0:
192,192,42139,128,0,42272:0:0:0:0:
64,192,42139,128,0,42205:0:0:0:0:
448,192,42205,128,0,42338:0:0:0:0:
320,192,42272,128,0,42404:0:0:0:0:
64,192,42272,128,0,42338:0:0:0:0:
192,192,42338,128,0,42449:0:0:0:0:
64,192,42404,128,0,42493:0:0:0:0:
448,192,42404,128,0,42604:0:0:0:0:
320,192,42471,128,0,42559:0:0:0:0:
192,192,42515,128,0,42670:0:0:0:0:
64,192,42559,128,0,42604:0:0:0:0:
320,192,42626,128,0,42714:0:0:0:0:
448,192,42670,128,0,42758:0:0:0:0:
64,192,42670,128,0,42869:0:0:0:0:
192,192,42736,128,0,42825:0:0:0:0:
320,192,42781,128,0,42913:0:0:0:0:
448,192,42825,128,0,42869:0:0:0:0:
192,192,42891,128,0,42958:0:0:0:0:
448,192,42935,128,0,43090:0:0:0:0:
64,192,42935,128,0,43002:0:0:0:0:
320,192,42980,128,0,43046:0:0:0:0:
192,192,43024,128,0,43201:0:0:0:0:
64,192,43068,128,0,43134:0:0:0:0:
320,192,43112,128,0,43267:0:0:0:0:
448,192,43157,128,0,43267:0:0:0:0:
64,192,43201,128,0,43311:0:0:0:0:
192,192,43267,128,0,43356:0:0:0:0:
320,192,43334,128,0,43400:0:0:0:0:
448,192,43378,128,0,43466:0:0:0:0:
64,192,43378,128,0,43444:0:0:0:0:
192,192,43422,128,0,43488:0:0:0:0:
320,192,43466,128,0,43533:0:0:0:0:
64,192,43511,128,0,43577:0:0:0:0:
192,192,43555,128,0,43621:0:0:0:0:
320,192,43599,128,0,43665:0:0:0:0:
448,192,43599,128,0,43665:0:0:0:0:
64,192,43665,128,0,43732:0:0:0:0:
320,192,43732,128,0,43820:0:0:0:0:
448,192,43732,128,0,43887:0:0:0:0:
64,192,43776,128,0,43931:0:0:0:0:
192,192,43820,128,0,43931:0:0:0:0:
320,192,43887,128,0,43997:0:0:0:0:
448,192,43953,128,0,43997:0:0:0:0:
192,192,43997,128,0,44064:0:0:0:0:
64,192,43997,128,0,44064:0:0:0:0:
448,192,44064,128,0,44196:0:0:0:0:
192,192,44130,128,0,44196:0:0:0:0:
64,192,44130,128,0,44196:0:0:0:0:
320,192,44196,128,0,44329:0:0:0:0:
64,192,44263,128,0,44329:0:0:0:0:
192,192,44263,128,0,44329:0:0:0:0:
448,192,44329,128,0,44462:0:0:0:0:
64,192,44396,128,0,44462:0:0:0:0:
192,192,44396,128,0,44506:0:0:0:0:
320,192,44462,128,0,44661:0:0:0:0:
64,192,44528,128,0,44727:0:0:0:0:
448,192,44528,128,0,44595:0:0:0:0:
192,192,44573,128,0,44727:0:0:0:0:
448,192,44661,128,0,44794:0:0:0:0:
320,192,44727,128,0,44794:0:0:0:0:
192,192,44794,128,0,44949:0:0:0:0:
64,192,44794,128,0,44882:0:0:0:0:
448,192,44838,128,0,44993:0:0:0:0:
320,192,44882,128,0,44993:0:0:0:0:
64,192,44949,128,0,45059:0:0:0:0:
192,192,45015,128,0,45126:0:0:0:0:
320,192,45059,128,0,45126:0:0:0:0:
448,192,45059,128,0,45126:0:0:0:0:
64,192,45126,128,0,45258:0:0:0:0:
320,192,45192,128,0,45258:0:0:0:0:
448,192,45192,128,0,45258:0:0:0:0:
192,192,45258,128,0,45391:0:0:0:0:
448,192,45325,128,0,45391:0:0:0:0:
320,192,45325,128,0,45391:0:0:0:0:
64,192,45391,128,0,45524:0:0:0:0:
448,192,45458,128,0,45524:0:0:0:0:
320,192,45458,128,0,45568:0:0:0:0:
192,192,45524,128,0,45723:0:0:0:0:
64,192,45590,128,0,45657:0:0:0:0:
448,192,45590,128,0,45789:0:0:0:0:
320,192,45634,128,0,45789:0:0:0:0:
64,192,45723,128,0,45856:0:0:0:0:
192,192,45789,128,0,45856:0:0:0:0:
320,192,45856,128,0,46011:0:0:0:0:
448,192,45856,128,0,45944:0:0:0:0:
64,192,45900,128,0,46055:0:0:0:0:
192,192,45944,128,0,46055:0:0:0:0:
448,192,46011,128,0,46121:0:0:0:0:
320,192,46077,128,0,46188:0:0:0:0:
192,192,46121,128,0,46188:0:0:0:0:
64,192,46121,128,0,46188:0:0:0:0:
448,192,46188,128,0,46320:0:0:0:0:
192,192,46254,128,0,46320:0:0:0:0:
64,192,46254,128,0,46320:0:0:0:0:
320,192,46320,128,0,46453:0:0:0:0:
64,192,46387,128,0,46453:0:0:0:0:
192,192,46387,128,0,46453:0:0:0:0:
448,192,46453,128,0,46586:0:0:0:0:
64,192,46519,128,0,46586:0:0:0:0:
192,192,46519,128,0,46630:0:0:0:0:
320,192,46586,128,0,46719:0:0:0:0:
448,192,46652,128,0,46719:0:0:0:0:
64,192,46652,128,0,46851:0:0:0:0:
192,192,46696,128,0,46763:0:0:0:0:
448,192,46785,128,0,46851:0:0:0:0:
320,192,46785,128,0,46984:0:0:0:0:
192,192,46851,128,0,46940:0:0:0:0:
64,192,46918,128,0,46962:0:0:0:0:
448,192,46962,128,0,47050:0:0:0:0:
64,192,47006,128,0,47117:0:0:0:0:
192,192,47050,128,0,47117:0:0:0:0:
448,192,47095,128,0,47183:0:0:0:0:
320,192,47139,128,0,47183:0:0:0:0:
64,192,47183,128,0,47294:0:0:0:0:
192,192,47183,128,0,47250:0:0:0:0:
320,192,47272,128,0,47382:0:0:0:0:
448,192,47316,128,0,47382:0:0:0:0:
192,192,47316,128,0,47471:0:0:0:0:
64,192,47360,128,0,47515:0:0:0:0:
320,192,47449,128,0,47515:0:0:0:0:
448,192,47449,128,0,47559:0:0:0:0:
192,192,47537,128,0,47648:0:0:0:0:
64,192,47581,128,0,47648:0:0:0:0:
320,192,47581,128,0,47692:0:0:0:0:
448,192,47626,128,0,47736:0:0:0:0:
64,192,47714,128,0,47781:0:0:0:0:
192,192,47714,128,0,47781:0:0:0:0:
320,192,47758,128,0,47847:0:0:0:0:
448,192,47803,128,0,47913:0:0:0:0:
192,192,47847,128,0,48002:0:0:0:0:
320,192,47913,128,0,47958:0:0:0:0:
64,192,47980,128,0,48046:0:0:0:0:
448,192,47980,128,0,48112:0:0:0:0:
320,192,48024,128,0,48112:0:0:0:0:
192,192,48068,128,0,48223:0:0:0:0:
64,192,48112,128,0,48179:0:0:0:0:
320,192,48179,128,0,48267:0:0:0:0:
448,192,48245,128,0,48311:0:0:0:0:
64,192,48245,128,0,48378:0:0:0:0:
192,192,48289,128,0,48378:0:0:0:0:
320,192,48334,128,0,48511:0:0:0:0:
448,192,48378,128,0,48444:0:0:0:0:
192,192,48444,128,0,48511:0:0:0:0:
448,192,48511,128,0,48577:0:0:0:0:
64,192,48511,128,0,48710:0:0:0:0:
192,192,48577,128,0,48643:0:0:0:0:
320,192,48643,128,0,48754:0:0:0:0:
448,192,48643,128,0,48710:0:0:0:0:
192,192,48710,128,0,48798:0:0:0:0:
64,192,48776,128,0,48842:0:0:0:0:
448,192,48776,128,0,48865:0:0:0:0:
320,192,48820,128,0,48909:0:0:0:0:
192,192,48865,128,0,48975:0:0:0:0:
64,192,48909,128,0,48975:0:0:0:0:
320,192,48975,128,0,49108:0:0:0:0:
192,192,49042,128,0,49174:0:0:0:0:
64,192,49042,128,0,49108:0:0:0:0:
448,192,49108,128,0,49241:0:0:0:0:
320,192,49174,128,0,49241:0:0:0:0:
64,192,49174,128,0,49241:0:0:0:0:
192,192,49241,128,0,49307:0:0:0:0:
448,192,49307,128,0,49373:0:0:0:0:
64,192,49307,128,0,49506:0:0:0:0:
320,192,49307,128,0,49373:0:0:0:0:
192,192,49373,128,0,49440:0:0:0:0:
448,192,49440,128,0,49506:0:0:0:0:
320,192,49440,128,0,49573:0:0:0:0:
192,192,49506,128,0,49683:0:0:0:0:
64,192,49573,128,0,49772:0:0:0:0:
448,192,49573,128,0,49639:0:0:0:0:
320,192,49639,128,0,49727:0:0:0:0:
448,192,49705,128,0,49772:0:0:0:0:
192,192,49750,128,0,49838:0:0:0:0:
320,192,49794,128,0,49904:0:0:0:0:
448,192,49838,128,0,49971:0:0:0:0:
64,192,49838,128,0,49904:0:0:0:0:
192,192,49904,128,0,50037:0:0:0:0:
64,192,49971,128,0,50037:0:0:0:0:
320,192,49971,128,0,50104:0:0:0:0:
448,192,50037,128,0,50170:0:0:0:0:
192,192,50104,128,0,50236:0:0:0:0:
64,192,50104,128,0,50303:0:0:0:0:
320,192,50170,128,0,50336:0:0:0:0:
448,192,50236,128,0,50303:0:0:0:0:
192,192,50303,128,0,50369:0:0:0:0:
448,192,50369,128,0,50435:0:0:0:0:
64,192,50369,128,0,50568:0:0:0:0:
320,192,50402,128,0,50502:0:0:0:0:
192,192,50435,128,0,50601:0:0:0:0:
448,192,50502,128,0,50568:0:0:0:0:
320,192,50568,128,0,50634:0:0:0:0:
64,192,50634,128,0,50701:0:0:0:0:
448,192,50634,128,0,50834:0:0:0:0:
192,192,50668,128,0,50767:0:0:0:0:
320,192,50701,128,0,50867:0:0:0:0:
64,192,50767,128,0,50834:0:0:0:0:
192,192,50834,128,0,50900:0:0:0:0:
448,192,50900,128,0,50966:0:0:0:0:
64,192,50900,128,0,51099:0:0:0:0:
320,192,50933,128,0,51033:0:0:0:0:
192,192,50966,128,0,51132:0:0:0:0:
448,192,51033,128,0,51099:0:0:0:0:
320,192,51099,128,0,51165:0:0:0:0:
448,192,51165,128,0,51365:0:0:0:0:
64,192,51165,128,0,51232:0:0:0:0:
192,192,51199,128,0,51365:0:0:0:0:
320,192,51232,128,0,51365:0:0:0:0:
64,192,51298,128,0,51365:0:0:0:0:
192,192,51431,128,0,51497:0:0:0:0:
64,192,51431,128,0,51763:0:0:0:0:
320,192,51431,128,0,51497:0:0:0:0:
448,192,51431,128,0,51497:0:0:0:0:
192,192,51564,128,0,51763:0:0:0:0:
320,192,51564,128,0,51630:0:0:0:0:
448,192,51564,128,0,51630:0:0:0:0:
448,192,51696,128,0,51763:0:0:0:0:
320,192,51696,128,0,51763:0:0:0:0:
448,192,51829,128,0,52161:0:0:0:0:
192,192,51829,128,0,51896:0:0:0:0:
64,192,51829,128,0,51896:0:0:0:0:
320,192,51829,128,0,51896:0:0:0:0:
64,192,51962,128,0,52028:0:0:0:0:
192,192,51962,128,0,52028:0:0:0:0:
320,192,51962,128,0,52161:0:0:0:0:
64,192,52095,128,0,52161:0:0:0:0:
192,192,52095,128,0,52161:0:0:0:0:
64,192,52227,128,0,52559:0:0:0:0:
320,192,52227,128,0,52294:0:0:0:0:
448,192,52227,128,0,52294:0:0:0:0:
192,192,52227,128,0,52294:0:0:0:0:
192,192,52360,128,0,52559:0:0:0:0:
320,192,52360,128,0,52427:0:0:0:0:
448,192,52360,128,0,52427:0:0:0:0:
448,192,52493,128,0,52559:0:0:0:0:
320,192,52493,128,0,52559:0:0:0:0:
448,192,52626,128,0,52958:0:0:0:0:
192,192,52626,128,0,52692:0:0:0:0:
64,192,52626,128,0,52692:0:0:0:0:
320,192,52626,128,0,52692:0:0:0:0:
64,192,52758,128,0,52825:0:0:0:0:
192,192,52758,128,0,52825:0:0:0:0:
320,192,52758,128,0,52958:0:0:0:0:
64,192,52891,128,0,52958:0:0:0:0:
192,192,52891,128,0,52958:0:0:0:0:
64,192,53024,128,0,53090:0:0:0:0:
192,192,53024,128,0,53090:0:0:0:0:
320,192,53024,128,0,53090:0:0:0:0:
448,192,53024,128,0,53090:0:0:0:0:
448,192,53157,128,0,53223:0:0:0:0:
64,192,53157,128,0,53223:0:0:0:0:
320,192,53157,128,0,53223:0:0:0:0:
192,192,53157,128,0,53223:0:0:0:0:
320,192,53289,128,0,53356:0:0:0:0:
192,192,53289,128,0,53356:0:0:0:0:
448,192,53289,128,0,53356:0:0:0:0:
64,192,53289,128,0,53356:0:0:0:0:
192,192,53422,128,0,53488:0:0:0:0:
320,192,53422,128,0,53488:0:0:0:0:
448,192,53555,128,0,53621:0:0:0:0:
320,192,53555,128,0,53621:0:0:0:0:
64,192,53555,128,0,53887:0:0:0:0:
192,192,53555,128,0,53621:0:0:0:0:
448,192,53688,128,0,53754:0:0:0:0:
320,192,53688,128,0,53754:0:0:0:0:
192,192,53688,128,0,53887:0:0:0:0:
320,192,53820,128,0,53887:0:0:0:0:
448,192,53820,128,0,53887:0:0:0:0:
64,192,53953,128,0,54019:0:0:0:0:
192,192,53953,128,0,54019:0:0:0:0:
448,192,53953,128,0,54285:0:0:0:0:
320,192,53953,128,0,54019:0:0:0:0:
320,192,54086,128,0,54285:0:0:0:0:
192,192,54086,128,0,54152:0:0:0:0:
64,192,54086,128,0,54152:0:0:0:0:
192,192,54219,128,0,54285:0:0:0:0:
64,192,54219,128,0,54285:0:0:0:0:
64,192,54351,128,0,54683:0:0:0:0:
320,192,54351,128,0,54418:0:0:0:0:
448,192,54351,128,0,54418:0:0:0:0:
192,192,54351,128,0,54418:0:0:0:0:
192,192,54484,128,0,54683:0:0:0:0:
320,192,54484,128,0,54550:0:0:0:0:
448,192,54484,128,0,54550:0:0:0:0:
448,192,54617,128,0,54683:0:0:0:0:
320,192,54617,128,0,54683:0:0:0:0:
448,192,54750,128,0,55081:0:0:0:0:
192,192,54750,128,0,54816:0:0:0:0:
64,192,54750,128,0,54816:0:0:0:0:
320,192,54750,128,0,54816:0:0:0:0:
64,192,54882,128,0,54949:0:0:0:0:
192,192,54882,128,0,54949:0:0:0:0:
320,192,54882,128,0,55081:0:0:0:0:
64,192,55015,128,0,55081:0:0:0:0:
192,192,55015,128,0,55081:0:0:0:0:
448,192,55148,128,0,55214:0:0:0:0:
320,192,55148,128,0,55214:0:0:0:0:
64,192,55148,128,0,55480:0:0:0:0:
192,192,55148,128,0,55347:0:0:0:0:
320,192,55281,128,0,55347:0:0:0:0:
448,192,55281,128,0,55612:0:0:0:0:
192,192,55413,128,0,55480:0:0:0:0:
320,192,55413,128,0,55612:0:0:0:0:
64,192,55546,128,0,55612:0:0:0:0:
192,192,55546,128,0,55612:0:0:0:0:
64,192,55679,128,0,55878:0:0:0:0:
448,192,55679,128,0,55745:0:0:0:0:
320,192,55679,128,0,55944:0:0:0:0:
192,192,55745,128,0,55811:0:0:0:0:
448,192,55811,128,0,55878:0:0:0:0:
192,192,55878,128,0,56143:0:0:0:0:
64,192,55944,128,0,56143:0:0:0:0:
448,192,55944,128,0,56011:0:0:0:0:
320,192,56011,128,0,56077:0:0:0:0:
448,192,56077,128,0,56210:0:0:0:0:
320,192,56143,128,0,56276:0:0:0:0:
192,192,56210,128,0,56342:0:0:0:0:
64,192,56210,128,0,56409:0:0:0:0:
448,192,56276,128,0,56475:0:0:0:0:
320,192,56342,128,0,56409:0:0:0:0:
192,192,56409,128,0,56542:0:0:0:0:
64,192,56475,128,0,56674:0:0:0:0:
320,192,56475,128,0,56608:0:0:0:0:
448,192,56542,128,0,56674:0:0:0:0:
192,192,56608,128,0,56674:0:0:0:0:
320,192,56674,128,0,56741:0:0:0:0:
448,192,56741,128,0,56940:0:0:0:0:
64,192,56741,128,0,56807:0:0:0:0:
192,192,56741,128,0,57006:0:0:0:0:
320,192,56807,128,0,56873:0:0:0:0:
64,192,56873,128,0,56940:0:0:0:0:
320,192,56940,128,0,57205:0:0:0:0:
448,192,57006,128,0,57205:0:0:0:0:
64,192,57006,128,0,57073:0:0:0:0:
192,192,57073,128,0,57139:0:0:0:0:
64,192,57139,128,0,57272:0:0:0:0:
192,192,57205,128,0,57338:0:0:0:0:
320,192,57272,128,0,57404:0:0:0:0:
448,192,57272,128,0,57471:0:0:0:0:
64,192,57338,128,0,57537:0:0:0:0:
192,192,57404,128,0,57471:0:0:0:0:
320,192,57471,128,0,57604:0:0:0:0:
448,192,57537,128,0,57736:0:0:0:0:
192,192,57537,128,0,57670:0:0:0:0:
64,192,57604,128,0,57736:0:0:0:0:
320,192,57670,128,0,57736:0:0:0:0:
192,192,57736,128,0,57803:0:0:0:0:
320,192,57803,128,0,58068:0:0:0:0:
448,192,57803,128,0,57869:0:0:0:0:
64,192,57803,128,0,58002:0:0:0:0:
192,192,57869,128,0,57935:0:0:0:0:
448,192,57935,128,0,58002:0:0:0:0:
192,192,58002,128,0,58267:0:0:0:0:
448,192,58068,128,0,58134:0:0:0:0:
64,192,58068,128,0,58267:0:0:0:0:
320,192,58134,128,0,58201:0:0:0:0:
448,192,58201,128,0,58334:0:0:0:0:
320,192,58267,128,0,58400:0:0:0:0:
64,192,58334,128,0,58533:0:0:0:0:
192,192,58334,128,0,58466:0:0:0:0:
448,192,58400,128,0,58533:0:0:0:0:
320,192,58466,128,0,58599:0:0:0:0:
192,192,58533,128,0,58665:0:0:0:0:
448,192,58599,128,0,58732:0:0:0:0:
64,192,58599,128,0,58798:0:0:0:0:
320,192,58665,128,0,58798:0:0:0:0:
192,192,58732,128,0,58798:0:0:0:0:
448,192,58798,128,0,58865:0:0:0:0:
192,192,58865,128,0,59130:0:0:0:0:
64,192,58865,128,0,58931:0:0:0:0:
320,192,58865,128,0,59064:0:0:0:0:
448,192,58931,128,0,58997:0:0:0:0:
64,192,58997,128,0,59064:0:0:0:0:
448,192,59064,128,0,59329:0:0:0:0:
64,192,59130,128,0,59196:0:0:0:0:
320,192,59130,128,0,59329:0:0:0:0:
192,192,59196,128,0,59263:0:0:0:0:
64,192,59263,128,0,59396:0:0:0:0:
192,192,59329,128,0,59462:0:0:0:0:
448,192,59396,128,0,59595:0:0:0:0:
320,192,59396,128,0,59528:0:0:0:0:
64,192,59462,128,0,59595:0:0:0:0:
192,192,59528,128,0,59661:0:0:0:0:
320,192,59595,128,0,59727:0:0:0:0:
64,192,59661,128,0,59794:0:0:0:0:
448,192,59661,128,0,59860:0:0:0:0:
192,192,59727,128,0,59860:0:0:0:0:
320,192,59794,128,0,59860:0:0:0:0:
64,192,59860,128,0,59927:0:0:0:0:
192,192,59927,128,0,60059:0:0:0:0:
448,192,59927,128,0,59993:0:0:0:0:
320,192,59927,128,0,60192:0:0:0:0:
64,192,59993,128,0,60126:0:0:0:0:
448,192,60059,128,0,60126:0:0:0:0:
192,192,60126,128,0,60391:0:0:0:0:
64,192,60192,128,0,60391:0:0:0:0:
448,192,60192,128,0,60258:0:0:0:0:
320,192,60258,128,0,60325:0:0:0:0:
448,192,60325,128,0,60458:0:0:0:0:
320,192,60391,128,0,60524:0:0:0:0:
64,192,60458,128,0,60590:0:0:0:0:
192,192,60458,128,0,60657:0:0:0:0:
448,192,60524,128,0,60657:0:0:0:0:
320,192,60590,128,0,60723:0:0:0:0:
64,192,60657,128,0,60789:0:0:0:0:
192,192,60723,128,0,60922:0:0:0:0:
448,192,60723,128,0,60856:0:0:0:0:
320,192,60789,128,0,60922:0:0:0:0:
64,192,60856,128,0,60922:0:0:0:0:
448,192,60922,128,0,60988:0:0:0:0:
320,192,60988,128,0,61121:0:0:0:0:
192,192,60988,128,0,61055:0:0:0:0:
64,192,60988,128,0,61254:0:0:0:0:
448,192,61055,128,0,61188:0:0:0:0:
192,192,61121,128,0,61188:0:0:0:0:
320,192,61188,128,0,61453:0:0:0:0:
448,192,61254,128,0,61453:0:0:0:0:
192,192,61254,128,0,61320:0:0:0:0:
64,192,61320,128,0,61387:0:0:0:0:
192,192,61387,128,0,61519:0:0:0:0:
64,192,61453,128,0,61586:0:0:0:0:
320,192,61519,128,0,61652:0:0:0:0:
448,192,61519,128,0,61719:0:0:0:0:
192,192,61586,128,0,61785:0:0:0:0:
64,192,61652,128,0,61719:0:0:0:0:
320,192,61719,128,0,61851:0:0:0:0:
448,192,61785,128,0,61984:0:0:0:0:
64,192,61785,128,0,61918:0:0:0:0:
192,192,61851,128,0,61984:0:0:0:0:
320,192,61918,128,0,61984:0:0:0:0:
64,192,61984,128,0,62050:0:0:0:0:
320,192,62050,128,0,62316:0:0:0:0:
448,192,62050,128,0,62117:0:0:0:0:
192,192,62050,128,0,62250:0:0:0:0:
64,192,62117,128,0,62183:0:0:0:0:
448,192,62183,128,0,62250:0:0:0:0:
64,192,62250,128,0,62515:0:0:0:0:
448,192,62316,128,0,62382:0:0:0:0:
192,192,62316,128,0,62515:0:0:0:0:
320,192,62382,128,0,62449:0:0:0:0:
448,192,62449,128,0,62581:0:0:0:0:
320,192,62515,128,0,62648:0:0:0:0:
192,192,62581,128,0,62781:0:0:0:0:
64,192,62581,128,0,62714:0:0:0:0:
448,192,62648,128,0,62781:0:0:0:0:
320,192,62714,128,0,62847:0:0:0:0:
64,192,62781,128,0,62913:0:0:0:0:
448,192,62847,128,0,62980:0:0:0:0:
192,192,62847,128,0,63046:0:0:0:0:
320,192,62913,128,0,63046:0:0:0:0:
64,192,62980,128,0,63046:0:0:0:0:
448,192,63046,128,0,63112:0:0:0:0:
64,192,63112,128,0,63378:0:0:0:0:
192,192,63112,128,0,63179:0:0:0:0:
320,192,63112,128,0,63311:0:0:0:0:
448,192,63179,128,0,63245:0:0:0:0:
192,192,63245,128,0,63311:0:0:0:0:
448,192,63311,128,0,63577:0:0:0:0:
192,192,63378,128,0,63444:0:0:0:0:
320,192,63378,128,0,63577:0:0:0:0:
64,192,63444,128,0,63511:0:0:0:0:
192,192,63511,128,0,63643:0:0:0:0:
64,192,63577,128,0,63710:0:0:0:0:
320,192,63643,128,0,63842:0:0:0:0:
448,192,63643,128,0,63776:0:0:0:0:
192,192,63710,128,0,63842:0:0:0:0:
64,192,63776,128,0,63975:0:0:0:0:
448,192,63842,128,0,63909:0:0:0:0:
192,192,63909,128,0,64108:0:0:0:0:
320,192,63909,128,0,64042:0:0:0:0:
448,192,63975,128,0,64108:0:0:0:0:
64,192,64042,128,0,64108:0:0:0:0:
320,192,64108,128,0,64174:0:0:0:0:
64,192,64174,128,0,64440:0:0:0:0:
192,192,64174,128,0,64241:0:0:0:0:
448,192,64174,128,0,64373:0:0:0:0:
320,192,64241,128,0,64307:0:0:0:0:
192,192,64307,128,0,64373:0:0:0:0:
320,192,64373,128,0,64639:0:0:0:0:
192,192,64440,128,0,64506:0:0:0:0:
448,192,64440,128,0,64639:0:0:0:0:
64,192,64506,128,0,64573:0:0:0:0:
192,192,64573,128,0,64705:0:0:0:0:
64,192,64639,128,0,64772:0:0:0:0:
448,192,64705,128,0,64904:0:0:0:0:
320,192,64705,128,0,64838:0:0:0:0:
192,192,64772,128,0,64904:0:0:0:0:
64,192,64838,128,0,64971:0:0:0:0:
320,192,64904,128,0,65037:0:0:0:0:
192,192,64971,128,0,65104:0:0:0:0:
448,192,64971,128,0,65170:0:0:0:0:
64,192,65037,128,0,65170:0:0:0:0:
320,192,65104,128,0,65170:0:0:0:0:
192,192,65170,128,0,65236:0:0:0:0:
320,192,65236,128,0,65502:0:0:0:0:
448,192,65236,128,0,65303:0:0:0:0:
64,192,65236,128,0,65369:0:0:0:0:
192,192,65303,128,0,65435:0:0:0:0:
448,192,65369,128,0,65435:0:0:0:0:
64,192,65435,128,0,65701:0:0:0:0:
448,192,65502,128,0,65568:0:0:0:0:
192,192,65502,128,0,65701:0:0:0:0:
320,192,65568,128,0,65634:0:0:0:0:
448,192,65634,128,0,65767:0:0:0:0:
320,192,65701,128,0,65834:0:0:0:0:
64,192,65767,128,0,65966:0:0:0:0:
192,192,65767,128,0,65900:0:0:0:0:
448,192,65834,128,0,66033:0:0:0:0:
320,192,65900,128,0,65966:0:0:0:0:
192,192,65966,128,0,66099:0:0:0:0:
320,192,66033,128,0,66165:0:0:0:0:
64,192,66033,128,0,66232:0:0:0:0:
448,192,66099,128,0,66232:0:0:0:0:
192,192,66165,128,0,66232:0:0:0:0:
320,192,66232,128,0,66298:0:0:0:0:
448,192,66298,128,0,66497:0:0:0:0:
64,192,66298,128,0,66365:0:0:0:0:
192,192,66298,128,0,66564:0:0:0:0:
320,192,66365,128,0,66431:0:0:0:0:
64,192,66431,128,0,66497:0:0:0:0:
320,192,66497,128,0,66763:0:0:0:0:
448,192,66564,128,0,66763:0:0:0:0:
64,192,66564,128,0,66630:0:0:0:0:
192,192,66630,128,0,66696:0:0:0:0:
64,192,66696,128,0,66829:0:0:0:0:
192,192,66763,128,0,66896:0:0:0:0:
320,192,66829,128,0,66962:0:0:0:0:
448,192,66829,128,0,67028:0:0:0:0:
64,192,66896,128,0,67028:0:0:0:0:
192,192,66962,128,0,67095:0:0:0:0:
320,192,67028,128,0,67161:0:0:0:0:
448,192,67095,128,0,67294:0:0:0:0:
64,192,67095,128,0,67227:0:0:0:0:
192,192,67161,128,0,67294:0:0:0:0:
320,192,67227,128,0,67294:0:0:0:0:
64,192,67294,128,0,67360:0:0:0:0:
192,192,67360,128,0,67559:0:0:0:0:
448,192,67360,128,0,67427:0:0:0:0:
320,192,67360,128,0,67626:0:0:0:0:
64,192,67427,128,0,67493:0:0:0:0:
448,192,67493,128,0,67559:0:0:0:0:
64,192,67559,128,0,67825:0:0:0:0:
192,192,67626,128,0,67825:0:0:0:0:
448,192,67626,128,0,67692:0:0:0:0:
320,192,67692,128,0,67758:0:0:0:0:
448,192,67758,128,0,67891:0:0:0:0:
320,192,67825,128,0,67958:0:0:0:0:
192,192,67891,128,0,68024:0:0:0:0:
64,192,67891,128,0,68090:0:0:0:0:
448,192,67958,128,0,68090:0:0:0:0:
320,192,68024,128,0,68157:0:0:0:0:
192,192,68090,128,0,68223:0:0:0:0:
64,192,68157,128,0,68356:0:0:0:0:
448,192,68157,128,0,68289:0:0:0:0:
320,192,68223,128,0,68356:0:0:0:0:
192,192,68289,128,0,68356:0:0:0:0:
448,192,68356,128,0,68422:0:0:0:0:
320,192,68422,128,0,68555:0:0:0:0:
64,192,68422,128,0,68488:0:0:0:0:
192,192,68422,128,0,68688:0:0:0:0:
448,192,68488,128,0,68621:0:0:0:0:
64,192,68555,128,0,68621:0:0:0:0:
320,192,68621,128,0,68887:0:0:0:0:
448,192,68688,128,0,68887:0:0:0:0:
64,192,68688,128,0,68754:0:0:0:0:
192,192,68754,128,0,68820:0:0:0:0:
64,192,68820,128,0,68953:0:0:0:0:
192,192,68887,128,0,69019:0:0:0:0:
448,192,68953,128,0,69086:0:0:0:0:
320,192,68953,128,0,69152:0:0:0:0:
64,192,69019,128,0,69152:0:0:0:0:
192,192,69086,128,0,69219:0:0:0:0:
448,192,69152,128,0,69285:0:0:0:0:
320,192,69219,128,0,69418:0:0:0:0:
64,192,69219,128,0,69351:0:0:0:0:
192,192,69285,128,0,69418:0:0:0:0:
448,192,69351,128,0,69418:0:0:0:0:
64,192,69418,128,0,69484:0:0:0:0:
192,192,69484,128,0,69617:0:0:0:0:
320,192,69484,128,0,69550:0:0:0:0:
448,192,69484,128,0,69750:0:0:0:0:
64,192,69550,128,0,69683:0:0:0:0:
320,192,69617,128,0,69683:0:0:0:0:
192,192,69683,128,0,69949:0:0:0:0:
64,192,69750,128,0,69949:0:0:0:0:
320,192,69750,128,0,69816:0:0:0:0:
448,192,69816,128,0,69882:0:0:0:0:
320,192,69882,128,0,70015:0:0:0:0:
448,192,69949,128,0,70081:0:0:0:0:
192,192,70015,128,0,70148:0:0:0:0:
64,192,70015,128,0,70214:0:0:0:0:
320,192,70081,128,0,70281:0:0:0:0:
448,192,70148,128,0,70214:0:0:0:0:
192,192,70214,128,0,70347:0:0:0:0:
64,192,70281,128,0,70480:0:0:0:0:
448,192,70281,128,0,70413:0:0:0:0:
320,192,70347,128,0,70480:0:0:0:0:
192,192,70413,128,0,70480:0:0:0:0:
448,192,70480,128,0,70546:0:0:0:0:
192,192,70546,128,0,70811:0:0:0:0:
64,192,70546,128,0,70612:0:0:0:0:
320,192,70546,128,0,70745:0:0:0:0:
448,192,70612,128,0,70679:0:0:0:0:
64,192,70679,128,0,70745:0:0:0:0:
448,192,70745,128,0,71011:0:0:0:0:
64,192,70811,128,0,70878:0:0:0:0:
320,192,70811,128,0,71011:0:0:0:0:
192,192,70878,128,0,70944:0:0:0:0:
64,192,70944,128,0,71077:0:0:0:0:
192,192,71011,128,0,71143:0:0:0:0:
320,192,71077,128,0,71276:0:0:0:0:
448,192,71077,128,0,71210:0:0:0:0:
64,192,71143,128,0,71276:0:0:0:0:
192,192,71210,128,0,71342:0:0:0:0:
448,192,71276,128,0,71409:0:0:0:0:
64,192,71342,128,0,71475:0:0:0:0:
320,192,71342,128,0,71542:0:0:0:0:
192,192,71409,128,0,71542:0:0:0:0:
448,192,71475,128,0,71542:0:0:0:0:
64,192,71542,128,0,71608:0:0:0:0:
448,192,71608,128,0,71873:0:0:0:0:
320,192,71608,128,0,71674:0:0:0:0:
192,192,71608,128,0,71807:0:0:0:0:
64,192,71674,128,0,71741:0:0:0:0:
320,192,71741,128,0,71807:0:0:0:0:
64,192,71807,128,0,72073:0:0:0:0:
320,192,71873,128,0,71940:0:0:0:0:
192,192,71873,128,0,72073:0:0:0:0:
448,192,71940,128,0,72006:0:0:0:0:
320,192,72006,128,0,72139:0:0:0:0:
448,192,72073,128,0,72205:0:0:0:0:
64,192,72139,128,0,72338:0:0:0:0:
192,192,72139,128,0,72272:0:0:0:0:
320,192,72205,128,0,72338:0:0:0:0:
448,192,72272,128,0,72404:0:0:0:0:
192,192,72338,128,0,72471:0:0:0:0:
320,192,72404,128,0,72670:0:0:0:0:
64,192,72404,128,0,72604:0:0:0:0:
448,192,72471,128,0,72537:0:0:0:0:
192,192,72537,128,0,72604:0:0:0:0:
448,192,72604,128,0,72670:0:0:0:0:
64,192,72670,128,0,72869:0:0:0:0:
192,192,72670,128,0,72736:0:0:0:0:
320,192,72803,128,0,72869:0:0:0:0:
448,192,72935,128,0,73002:0:0:0:0:
64,192,72935,128,0,73002:0:0:0:0:
64,192,73068,128,0,73267:0:0:0:0:
320,192,73068,128,0,73134:0:0:0:0:
192,192,73201,128,0,73267:0:0:0:0:
64,192,73334,128,0,73400:0:0:0:0:
320,192,73334,128,0,73400:0:0:0:0:
448,192,73466,128,0,73533:0:0:0:0:
192,192,73599,128,0,73665:0:0:0:0:
64,192,73732,128,0,73798:0:0:0:0:
192,192,73865,128,0,73931:0:0:0:0:
448,192,73997,128,0,74196:0:0:0:0:
320,192,73997,128,0,74064:0:0:0:0:
192,192,74130,128,0,74196:0:0:0:0:
448,192,74263,128,0,74329:0:0:0:0:
64,192,74263,128,0,74329:0:0:0:0:
320,192,74396,128,0,74462:0:0:0:0:
448,192,74396,128,0,74595:0:0:0:0:
192,192,74528,128,0,74595:0:0:0:0:
64,192,74661,128,0,74727:0:0:0:0:
320,192,74794,128,0,74860:0:0:0:0:
192,192,74927,128,0,74993:0:0:0:0:
448,192,75059,128,0,75126:0:0:0:0:
320,192,75192,128,0,75258:0:0:0:0:
64,192,75325,128,0,75391:0:0:0:0:
192,192,75458,128,0,75524:0:0:0:0:
320,192,75590,128,0,75657:0:0:0:0:
448,192,75723,128,0,75789:0:0:0:0:
64,192,75856,128,0,75922:0:0:0:0:
192,192,75988,128,0,76055:0:0:0:0:
320,192,76121,128,0,76188:0:0:0:0:
192,192,76254,128,0,76320:0:0:0:0:
64,192,76387,128,0,76453:0:0:0:0:
320,192,76519,128,0,76586:0:0:0:0:
448,192,76652,128,0,76719:0:0:0:0:
192,192,76652,128,0,76719:0:0:0:0:
448,192,76785,128,0,76851:0:0:0:0:
64,192,76785,128,0,76851:0:0:0:0:
448,192,76918,128,0,77117:0:0:0:0:
320,192,76918,128,0,76984:0:0:0:0:
64,192,76918,128,0,77050:0:0:0:0:
192,192,76984,128,0,77117:0:0:0:0:
320,192,77050,128,0,77183:0:0:0:0:
64,192,77117,128,0,77183:0:0:0:0:
448,192,77183,128,0,77250:0:0:0:0:
192,192,77183,128,0,77250:0:0:0:0:
448,192,77316,128,0,77515:0:0:0:0:
320,192,77316,128,0,77382:0:0:0:0:
192,192,77449,128,0,77515:0:0:0:0:
448,192,77581,128,0,77648:0:0:0:0:
64,192,77581,128,0,77648:0:0:0:0:
320,192,77714,128,0,77781:0:0:0:0:
192,192,77847,128,0,77913:0:0:0:0:
448,192,77980,128,0,78046:0:0:0:0:
320,192,78112,128,0,78179:0:0:0:0:
64,192,78245,128,0,78444:0:0:0:0:
192,192,78245,128,0,78311:0:0:0:0:
320,192,78378,128,0,78444:0:0:0:0:
64,192,78511,128,0,78577:0:0:0:0:
192,192,78511,128,0,78577:0:0:0:0:
64,192,78643,128,0,78842:0:0:0:0:
448,192,78643,128,0,78710:0:0:0:0:
320,192,78776,128,0,78842:0:0:0:0:
192,192,78909,128,0,78975:0:0:0:0:
64,192,79042,128,0,79108:0:0:0:0:
448,192,79042,128,0,79108:0:0:0:0:
320,192,79174,128,0,79241:0:0:0:0:
192,192,79307,128,0,79373:0:0:0:0:
448,192,79440,128,0,79506:0:0:0:0:
320,192,79573,128,0,79639:0:0:0:0:
64,192,79705,128,0,79772:0:0:0:0:
192,192,79838,128,0,79904:0:0:0:0:
320,192,79971,128,0,80037:0:0:0:0:
448,192,80104,128,0,80170:0:0:0:0:
192,192,80236,128,0,80303:0:0:0:0:
448,192,80236,128,0,80834:0:0:0:0:
192,192,80369,128,0,80900:0:0:0:0:
320,192,80435,128,0,80502:0:0:0:0:
320,192,80568,128,0,80900:0:0:0:0:
64,192,80634,128,0,80701:0:0:0:0:
64,192,80767,128,0,80900:0:0:0:0:
448,192,80900,128,0,80966:0:0:0:0:
448,192,81033,128,0,81099:0:0:0:0:
64,192,81165,128,0,81365:0:0:0:0:
320,192,81165,128,0,81232:0:0:0:0:
192,192,81165,128,0,81298:0:0:0:0:
448,192,81232,128,0,81365:0:0:0:0:
320,192,81298,128,0,81431:0:0:0:0:
192,192,81365,128,0,81431:0:0:0:0:
448,192,81431,128,0,81497:0:0:0:0:
64,192,81431,128,0,81497:0:0:0:0:
64,192,81564,128,0,81763:0:0:0:0:
320,192,81564,128,0,81630:0:0:0:0:
192,192,81696,128,0,81763:0:0:0:0:
64,192,81829,128,0,81896:0:0:0:0:
320,192,81829,128,0,81896:0:0:0:0:
448,192,81962,128,0,82028:0:0:0:0:
192,192,82095,128,0,82161:0:0:0:0:
64,192,82227,128,0,82294:0:0:0:0:
448,192,82294,128,0,82360:0:0:0:0:
192,192,82360,128,0,82427:0:0:0:0:
64,192,82427,128,0,82493:0:0:0:0:
448,192,82493,128,0,82692:0:0:0:0:
320,192,82493,128,0,82559:0:0:0:0:
64,192,82592,128,0,82659:0:0:0:0:
192,192,82626,128,0,82692:0:0:0:0:
320,192,82659,128,0,82725:0:0:0:0:
448,192,82758,128,0,82825:0:0:0:0:
64,192,82758,128,0,82825:0:0:0:0:
320,192,82891,128,0,82958:0:0:0:0:
448,192,82891,128,0,83024:0:0:0:0:
64,192,82924,128,0,83024:0:0:0:0:
192,192,83024,128,0,83157:0:0:0:0:
320,192,83057,128,0,83190:0:0:0:0:
448,192,83090,128,0,83223:0:0:0:0:
64,192,83157,128,0,83223:0:0:0:0:
320,192,83289,128,0,83356:0:0:0:0:
192,192,83422,128,0,83488:0:0:0:0:
448,192,83555,128,0,83621:0:0:0:0:
320,192,83688,128,0,83754:0:0:0:0:
64,192,83820,128,0,83887:0:0:0:0:
192,192,83953,128,0,84019:0:0:0:0:
320,192,84086,128,0,84152:0:0:0:0:
448,192,84219,128,0,84285:0:0:0:0:
64,192,84351,128,0,84418:0:0:0:0:
448,192,84384,128,0,84451:0:0:0:0:
320,192,84418,128,0,84484:0:0:0:0:
192,192,84484,128,0,84550:0:0:0:0:
448,192,84517,128,0,84584:0:0:0:0:
64,192,84550,128,0,84617:0:0:0:0:
320,192,84617,128,0,84683:0:0:0:0:
448,192,84650,128,0,84716:0:0:0:0:
64,192,84683,128,0,84750:0:0:0:0:
192,192,84750,128,0,84816:0:0:0:0:
320,192,84783,128,0,84849:0:0:0:0:
448,192,84816,128,0,84882:0:0:0:0:
64,192,84882,128,0,84949:0:0:0:0:
192,192,84882,128,0,84949:0:0:0:0:
448,192,84971,128,0,85037:0:0:0:0:
320,192,85015,128,0,85081:0:0:0:0:
64,192,85059,128,0,85126:0:0:0:0:
448,192,85148,128,0,85214:0:0:0:0:
192,192,85148,128,0,85214:0:0:0:0:
320,192,85236,128,0,85303:0:0:0:0:
448,192,85281,128,0,85347:0:0:0:0:
64,192,85281,128,0,85347:0:0:0:0:
192,192,85325,128,0,85391:0:0:0:0:
448,192,85413,128,0,85612:0:0:0:0:
320,192,85413,128,0,85480:0:0:0:0:
64,192,85413,128,0,85546:0:0:0:0:
192,192,85480,128,0,85612:0:0:0:0:
320,192,85546,128,0,85679:0:0:0:0:
64,192,85612,128,0,85679:0:0:0:0:
448,192,85679,128,0,85745:0:0:0:0:
192,192,85679,128,0,85745:0:0:0:0:
448,192,85811,128,0,86011:0:0:0:0:
320,192,85811,128,0,85878:0:0:0:0:
192,192,85944,128,0,86011:0:0:0:0:
448,192,86077,128,0,86143:0:0:0:0:
64,192,86077,128,0,86143:0:0:0:0:
320,192,86210,128,0,86276:0:0:0:0:
192,192,86342,128,0,86409:0:0:0:0:
448,192,86475,128,0,86542:0:0:0:0:
320,192,86608,128,0,86674:0:0:0:0:
64,192,86741,128,0,86940:0:0:0:0:
192,192,86741,128,0,86807:0:0:0:0:
320,192,86873,128,0,86940:0:0:0:0:
64,192,87006,128,0,87073:0:0:0:0:
192,192,87006,128,0,87073:0:0:0:0:
64,192,87139,128,0,87338:0:0:0:0:
448,192,87139,128,0,87205:0:0:0:0:
320,192,87272,128,0,87338:0:0:0:0:
192,192,87404,128,0,87471:0:0:0:0:
448,192,87537,128,0,87604:0:0:0:0:
64,192,87537,128,0,87736:0:0:0:0:
192,192,87581,128,0,87648:0:0:0:0:
320,192,87626,128,0,87692:0:0:0:0:
448,192,87670,128,0,87736:0:0:0:0:
192,192,87714,128,0,87781:0:0:0:0:
320,192,87758,128,0,87825:0:0:0:0:
448,192,87803,128,0,87869:0:0:0:0:
64,192,87803,128,0,87935:0:0:0:0:
192,192,87869,128,0,87935:0:0:0:0:
448,192,87935,128,0,88002:0:0:0:0:
320,192,87935,128,0,88046:0:0:0:0:
192,192,88002,128,0,88090:0:0:0:0:
64,192,88068,128,0,88134:0:0:0:0:
448,192,88068,128,0,88267:0:0:0:0:
320,192,88112,128,0,88179:0:0:0:0:
192,192,88157,128,0,88223:0:0:0:0:
64,192,88201,128,0,88267:0:0:0:0:
320,192,88245,128,0,88311:0:0:0:0:
192,192,88289,128,0,88356:0:0:0:0:
64,192,88334,128,0,88400:0:0:0:0:
448,192,88334,128,0,88466:0:0:0:0:
320,192,88400,128,0,88466:0:0:0:0:
64,192,88466,128,0,88533:0:0:0:0:
192,192,88466,128,0,88577:0:0:0:0:
320,192,88533,128,0,88621:0:0:0:0:
448,192,88599,128,0,88665:0:0:0:0:
64,192,88599,128,0,88665:0:0:0:0:
192,192,88643,128,0,88710:0:0:0:0:
320,192,88688,128,0,88754:0:0:0:0:
448,192,88732,128,0,88798:0:0:0:0:
192,192,88776,128,0,88931:0:0:0:0:
320,192,88820,128,0,88887:0:0:0:0:
64,192,88865,128,0,88975:0:0:0:0:
448,192,88909,128,0,88975:0:0:0:0:
320,192,88953,128,0,89019:0:0:0:0:
192,192,88997,128,0,89108:0:0:0:0:
64,192,89042,128,0,89152:0:0:0:0:
320,192,89086,128,0,89152:0:0:0:0:
448,192,89130,128,0,89285:0:0:0:0:
192,192,89174,128,0,89241:0:0:0:0:
320,192,89219,128,0,89329:0:0:0:0:
64,192,89263,128,0,89396:0:0:0:0:
192,192,89307,128,0,89440:0:0:0:0:
448,192,89351,128,0,89396:0:0:0:0:
320,192,89396,128,0,89440:0:0:0:0:
448,192,89440,128,0,89595:0:0:0:0:
320,192,89484,128,0,89595:0:0:0:0:
192,192,89528,128,0,89595:0:0:0:0:
64,192,89573,128,0,89661:0:0:0:0:
192,192,89661,128,0,89794:0:0:0:0:
320,192,89661,128,0,89860:0:0:0:0:
448,192,89661,128,0,89727:0:0:0:0:
64,192,89727,128,0,89927:0:0:0:0:
448,192,89794,128,0,89860:0:0:0:0:
192,192,89860,128,0,89927:0:0:0:0:
320,192,89927,128,0,90059:0:0:0:0:
448,192,89927,128,0,90126:0:0:0:0:
64,192,89993,128,0,90126:0:0:0:0:
192,192,90059,128,0,90159:0:0:0:0:
320,192,90126,128,0,90192:0:0:0:0:
64,192,90192,128,0,90258:0:0:0:0:
448,192,90192,128,0,90391:0:0:0:0:
192,192,90225,128,0,90458:0:0:0:0:
320,192,90258,128,0,90358:0:0:0:0:
64,192,90325,128,0,90391:0:0:0:0:
320,192,90424,128,0,90491:0:0:0:0:
448,192,90458,128,0,90524:0:0:0:0:
64,192,90458,128,0,90557:0:0:0:0:
192,192,90524,128,0,90590:0:0:0:0:
320,192,90557,128,0,90723:0:0:0:0:
448,192,90590,128,0,90657:0:0:0:0:
192,192,90657,128,0,90756:0:0:0:0:
64,192,90723,128,0,90789:0:0:0:0:
448,192,90723,128,0,90856:0:0:0:0:
320,192,90789,128,0,90839:0:0:0:0:
192,192,90856,128,0,90922:0:0:0:0:
320,192,90889,128,0,90955:0:0:0:0:
448,192,90922,128,0,90988:0:0:0:0:
192,192,90988,128,0,91188:0:0:0:0:
64,192,90988,128,0,91055:0:0:0:0:
320,192,91055,128,0,91121:0:0:0:0:
64,192,91121,128,0,91188:0:0:0:0:
320,192,91188,128,0,91354:0:0:0:0:
64,192,91254,128,0,91320:0:0:0:0:
448,192,91254,128,0,91453:0:0:0:0:
192,192,91320,128,0,91387:0:0:0:0:
64,192,91387,128,0,91453:0:0:0:0:
320,192,91420,128,0,91519:0:0:0:0:
192,192,91453,128,0,91519:0:0:0:0:
448,192,91519,128,0,91586:0:0:0:0:
64,192,91519,128,0,91619:0:0:0:0:
320,192,91586,128,0,91719:0:0:0:0:
448,192,91652,128,0,91719:0:0:0:0:
64,192,91685,128,0,91785:0:0:0:0:
192,192,91719,128,0,91818:0:0:0:0:
320,192,91785,128,0,91851:0:0:0:0:
448,192,91785,128,0,91984:0:0:0:0:
64,192,91851,128,0,91918:0:0:0:0:
192,192,91884,128,0,92084:0:0:0:0:
320,192,91918,128,0,91984:0:0:0:0:
64,192,91984,128,0,92050:0:0:0:0:
448,192,92050,128,0,92117:0:0:0:0:
320,192,92050,128,0,92183:0:0:0:0:
64,192,92117,128,0,92250:0:0:0:0:
192,192,92150,128,0,92283:0:0:0:0:
448,192,92183,128,0,92250:0:0:0:0:
320,192,92250,128,0,92316:0:0:0:0:
64,192,92316,128,0,92714:0:0:0:0:
448,192,92316,128,0,92515:0:0:0:0:
192,192,92382,128,0,92449:0:0:0:0:
320,192,92449,128,0,92515:0:0:0:0:
192,192,92515,128,0,92581:0:0:0:0:
320,192,92581,128,0,92648:0:0:0:0:
448,192,92581,128,0,92681:0:0:0:0:
192,192,92648,128,0,92714:0:0:0:0:
320,192,92714,128,0,92781:0:0:0:0:
448,192,92747,128,0,92797:0:0:0:0:
192,192,92781,128,0,92847:0:0:0:0:
64,192,92814,128,0,92863:0:0:0:0:
320,192,92847,128,0,92958:0:0:0:0:
448,192,92847,128,0,93311:0:0:0:0:
192,192,92935,128,0,93046:0:0:0:0:
64,192,92980,128,0,93046:0:0:0:0:
320,192,93024,128,0,93134:0:0:0:0:
192,192,93112,128,0,93223:0:0:0:0:
64,192,93112,128,0,93179:0:0:0:0:
320,192,93201,128,0,93311:0:0:0:0:
64,192,93245,128,0,93577:0:0:0:0:
192,192,93289,128,0,93444:0:0:0:0:
320,192,93378,128,0,93577:0:0:0:0:
448,192,93378,128,0,93444:0:0:0:0:
192,192,93511,128,0,93710:0:0:0:0:
448,192,93511,128,0,93577:0:0:0:0:
64,192,93643,128,0,93710:0:0:0:0:
320,192,93643,128,0,93842:0:0:0:0:
192,192,93776,128,0,93842:0:0:0:0:
448,192,93776,128,0,93909:0:0:0:0:
320,192,93909,128,0,94042:0:0:0:0:
192,192,93909,128,0,94108:0:0:0:0:
64,192,93909,128,0,93975:0:0:0:0:
448,192,93975,128,0,94174:0:0:0:0:
64,192,94042,128,0,94108:0:0:0:0:
320,192,94108,128,0,94174:0:0:0:0:
192,192,94174,128,0,94307:0:0:0:0:
64,192,94174,128,0,94373:0:0:0:0:
448,192,94241,128,0,94373:0:0:0:0:
320,192,94307,128,0,94407:0:0:0:0:
192,192,94373,128,0,94440:0:0:0:0:
448,192,94440,128,0,94506:0:0:0:0:
64,192,94440,128,0,94639:0:0:0:0:
320,192,94473,128,0,94705:0:0:0:0:
192,192,94506,128,0,94606:0:0:0:0:
448,192,94573,128,0,94639:0:0:0:0:
192,192,94672,128,0,94738:0:0:0:0:
64,192,94705,128,0,94772:0:0:0:0:
448,192,94705,128,0,94805:0:0:0:0:
320,192,94772,128,0,94838:0:0:0:0:
192,192,94805,128,0,94971:0:0:0:0:
64,192,94838,128,0,94904:0:0:0:0:
320,192,94904,128,0,95004:0:0:0:0:
448,192,94971,128,0,95037:0:0:0:0:
64,192,94971,128,0,95104:0:0:0:0:
192,192,95037,128,0,95087:0:0:0:0:
320,192,95104,128,0,95170:0:0:0:0:
192,192,95137,128,0,95203:0:0:0:0:
64,192,95170,128,0,95236:0:0:0:0:
320,192,95236,128,0,95435:0:0:0:0:
448,192,95236,128,0,95303:0:0:0:0:
192,192,95303,128,0,95369:0:0:0:0:
448,192,95369,128,0,95435:0:0:0:0:
192,192,95435,128,0,95601:0:0:0:0:
448,192,95502,128,0,95568:0:0:0:0:
64,192,95502,128,0,95701:0:0:0:0:
320,192,95568,128,0,95634:0:0:0:0:
448,192,95634,128,0,95701:0:0:0:0:
192,192,95668,128,0,95767:0:0:0:0:
320,192,95701,128,0,95767:0:0:0:0:
64,192,95767,128,0,95834:0:0:0:0:
448,192,95767,128,0,95867:0:0:0:0:
192,192,95834,128,0,95966:0:0:0:0:
64,192,95900,128,0,95966:0:0:0:0:
448,192,95933,128,0,96033:0:0:0:0:
320,192,95966,128,0,96066:0:0:0:0:
192,192,96033,128,0,96099:0:0:0:0:
64,192,96033,128,0,96232:0:0:0:0:
448,192,96099,128,0,96165:0:0:0:0:
320,192,96132,128,0,96331:0:0:0:0:
192,192,96165,128,0,96232:0:0:0:0:
448,192,96232,128,0,96298:0:0:0:0:
64,192,96298,128,0,96365:0:0:0:0:
192,192,96298,128,0,96431:0:0:0:0:
448,192,96365,128,0,96497:0:0:0:0:
320,192,96398,128,0,96531:0:0:0:0:
64,192,96431,128,0,96497:0:0:0:0:
192,192,96497,128,0,96564:0:0:0:0:
448,192,96564,128,0,96962:0:0:0:0:
64,192,96564,128,0,96763:0:0:0:0:
320,192,96630,128,0,96696:0:0:0:0:
192,192,96696,128,0,96763:0:0:0:0:
320,192,96763,128,0,96829:0:0:0:0:
192,192,96829,128,0,96896:0:0:0:0:
64,192,96829,128,0,96929:0:0:0:0:
320,192,96896,128,0,96962:0:0:0:0:
192,192,96962,128,0,97028:0:0:0:0:
64,192,96995,128,0,97045:0:0:0:0:
320,192,97028,128,0,97095:0:0:0:0:
448,192,97061,128,0,97111:0:0:0:0:
192,192,97095,128,0,97205:0:0:0:0:
64,192,97095,128,0,97559:0:0:0:0:
320,192,97183,128,0,97294:0:0:0:0:
448,192,97227,128,0,97294:0:0:0:0:
192,192,97272,128,0,97382:0:0:0:0:
320,192,97360,128,0,97471:0:0:0:0:
448,192,97360,128,0,97427:0:0:0:0:
192,192,97449,128,0,97559:0:0:0:0:
448,192,97493,128,0,97825:0:0:0:0:
320,192,97537,128,0,97692:0:0:0:0:
192,192,97626,128,0,97825:0:0:0:0:
64,192,97626,128,0,97692:0:0:0:0:
320,192,97758,128,0,97958:0:0:0:0:
64,192,97758,128,0,97825:0:0:0:0:
448,192,97891,128,0,97958:0:0:0:0:
192,192,97891,128,0,98090:0:0:0:0:
320,192,98024,128,0,98090:0:0:0:0:
64,192,98024,128,0,98157:0:0:0:0:
192,192,98157,128,0,98289:0:0:0:0:
320,192,98157,128,0,98356:0:0:0:0:
448,192,98157,128,0,98223:0:0:0:0:
64,192,98223,128,0,98422:0:0:0:0:
448,192,98289,128,0,98356:0:0:0:0:
192,192,98356,128,0,98422:0:0:0:0:
320,192,98422,128,0,98555:0:0:0:0:
448,192,98422,128,0,98621:0:0:0:0:
64,192,98488,128,0,98621:0:0:0:0:
192,192,98555,128,0,98654:0:0:0:0:
320,192,98621,128,0,98688:0:0:0:0:
64,192,98688,128,0,98754:0:0:0:0:
448,192,98688,128,0,98887:0:0:0:0:
192,192,98721,128,0,98953:0:0:0:0:
320,192,98754,128,0,98854:0:0:0:0:
64,192,98820,128,0,98887:0:0:0:0:
320,192,98920,128,0,98986:0:0:0:0:
448,192,98953,128,0,99019:0:0:0:0:
64,192,98953,128,0,99053:0:0:0:0:
192,192,99019,128,0,99086:0:0:0:0:
320,192,99053,128,0,99219:0:0:0:0:
448,192,99086,128,0,99152:0:0:0:0:
192,192,99152,128,0,99252:0:0:0:0:
64,192,99219,128,0,99285:0:0:0:0:
448,192,99219,128,0,99351:0:0:0:0:
320,192,99285,128,0,99335:0:0:0:0:
192,192,99351,128,0,99418:0:0:0:0:
320,192,99384,128,0,99451:0:0:0:0:
448,192,99418,128,0,99484:0:0:0:0:
192,192,99484,128,0,99683:0:0:0:0:
64,192,99484,128,0,99550:0:0:0:0:
320,192,99550,128,0,99617:0:0:0:0:
64,192,99617,128,0,99683:0:0:0:0:
320,192,99683,128,0,99849:0:0:0:0:
64,192,99750,128,0,99816:0:0:0:0:
448,192,99750,128,0,99949:0:0:0:0:
192,192,99816,128,0,99882:0:0:0:0:
64,192,99882,128,0,99949:0:0:0:0:
320,192,99915,128,0,100015:0:0:0:0:
192,192,99949,128,0,100015:0:0:0:0:
448,192,100015,128,0,100081:0:0:0:0:
64,192,100015,128,0,100115:0:0:0:0:
320,192,100081,128,0,100214:0:0:0:0:
448,192,100148,128,0,100214:0:0:0:0:
64,192,100181,128,0,100281:0:0:0:0:
192,192,100214,128,0,100314:0:0:0:0:
320,192,100281,128,0,100347:0:0:0:0:
448,192,100281,128,0,100480:0:0:0:0:
64,192,100347,128,0,100413:0:0:0:0:
192,192,100380,128,0,100579:0:0:0:0:
320,192,100413,128,0,100480:0:0:0:0:
64,192,100480,128,0,100546:0:0:0:0:
448,192,100546,128,0,100612:0:0:0:0:
320,192,100546,128,0,100679:0:0:0:0:
64,192,100612,128,0,100745:0:0:0:0:
192,192,100646,128,0,100778:0:0:0:0:
448,192,100679,128,0,100745:0:0:0:0:
320,192,100745,128,0,100811:0:0:0:0:
64,192,100811,128,0,101210:0:0:0:0:
448,192,100811,128,0,101011:0:0:0:0:
192,192,100878,128,0,100944:0:0:0:0:
320,192,100944,128,0,101011:0:0:0:0:
192,192,101011,128,0,101077:0:0:0:0:
320,192,101077,128,0,101143:0:0:0:0:
448,192,101077,128,0,101177:0:0:0:0:
192,192,101143,128,0,101210:0:0:0:0:
320,192,101210,128,0,101276:0:0:0:0:
448,192,101243,128,0,101293:0:0:0:0:
192,192,101276,128,0,101342:0:0:0:0:
64,192,101309,128,0,101359:0:0:0:0:
320,192,101342,128,0,101453:0:0:0:0:
448,192,101342,128,0,101807:0:0:0:0:
192,192,101431,128,0,101542:0:0:0:0:
64,192,101475,128,0,101542:0:0:0:0:
320,192,101519,128,0,101630:0:0:0:0:
192,192,101608,128,0,101719:0:0:0:0:
64,192,101608,128,0,101674:0:0:0:0:
320,192,101696,128,0,101807:0:0:0:0:
64,192,101741,128,0,102139:0:0:0:0:
192,192,101785,128,0,101873:0:0:0:0:
448,192,101873,128,0,101940:0:0:0:0:
320,192,101873,128,0,101940:0:0:0:0:
192,192,101940,128,0,102006:0:0:0:0:
320,192,102006,128,0,102073:0:0:0:0:
192,192,102073,128,0,102139:0:0:0:0:
448,192,102139,128,0,102338:0:0:0:0:
320,192,102139,128,0,102205:0:0:0:0:
192,192,102205,128,0,102272:0:0:0:0:
320,192,102272,128,0,102338:0:0:0:0:
192,192,102338,128,0,102404:0:0:0:0:
320,192,102404,128,0,102471:0:0:0:0:
448,192,102404,128,0,102471:0:0:0:0:
64,192,102404,128,0,102471:0:0:0:0:
448,192,102537,128,0,102604:0:0:0:0:
64,192,102670,128,0,102736:0:0:0:0:
64,192,102803,128,0,102869:0:0:0:0:
320,192,102935,128,0,103134:0:0:0:0:
320,192,103201,128,0,103466:0:0:0:0:
192,192,103223,128,0,103555:0:0:0:0:
64,192,103245,128,0,103400:0:0:0:0:
64,192,103466,128,0,103533:0:0:0:0:
320,192,103555,128,0,103643:0:0:0:0:
64,192,103599,128,0,103665:0:0:0:0:
192,192,103643,128,0,103732:0:0:0:0:
320,192,103732,128,0,103798:0:0:0:0:
192,192,103798,128,0,103865:0:0:0:0:
320,192,103865,128,0,103931:0:0:0:0:
192,192,103931,128,0,103997:0:0:0:0:
320,192,103997,128,0,104130:0:0:0:0:
64,192,104528,128,0,104595:0:0:0:0:
448,192,104528,128,0,104595:0:0:0:0:
192,192,104573,128,0,104661:0:0:0:0:
320,192,104617,128,0,104727:0:0:0:0:
448,192,104661,128,0,104727:0:0:0:0:
64,192,104661,128,0,104794:0:0:0:0:
192,192,104727,128,0,104860:0:0:0:0:
448,192,104794,128,0,104860:0:0:0:0:
320,192,104794,128,0,104860:0:0:0:0:
64,192,104860,128,0,104993:0:0:0:0:
320,192,104927,128,0,105037:0:0:0:0:
448,192,104927,128,0,104993:0:0:0:0:
192,192,104993,128,0,105081:0:0:0:0:
64,192,105059,128,0,105126:0:0:0:0:
448,192,105059,128,0,105214:0:0:0:0:
320,192,105104,128,0,105170:0:0:0:0:
192,192,105148,128,0,105258:0:0:0:0:
64,192,105192,128,0,105258:0:0:0:0:
320,192,105236,128,0,105325:0:0:0:0:
448,192,105281,128,0,105391:0:0:0:0:
192,192,105325,128,0,105391:0:0:0:0:
64,192,105325,128,0,105391:0:0:0:0:
320,192,105391,128,0,105524:0:0:0:0:
64,192,105458,128,0,105524:0:0:0:0:
192,192,105458,128,0,105524:0:0:0:0:
448,192,105524,128,0,105590:0:0:0:0:
320,192,105590,128,0,105657:0:0:0:0:
192,192,105590,128,0,105789:0:0:0:0:
64,192,105590,128,0,105723:0:0:0:0:
448,192,105657,128,0,105789:0:0:0:0:
320,192,105723,128,0,105789:0:0:0:0:
64,192,105789,128,0,105856:0:0:0:0:
192,192,105856,128,0,105922:0:0:0:0:
320,192,105856,128,0,105988:0:0:0:0:
448,192,105856,128,0,106055:0:0:0:0:
64,192,105922,128,0,106055:0:0:0:0:
192,192,105988,128,0,106055:0:0:0:0:
320,192,106055,128,0,106121:0:0:0:0:
448,192,106121,128,0,106188:0:0:0:0:
192,192,106121,128,0,106276:0:0:0:0:
64,192,106121,128,0,106232:0:0:0:0:
320,192,106188,128,0,106365:0:0:0:0:
448,192,106254,128,0,106320:0:0:0:0:
64,192,106298,128,0,106409:0:0:0:0:
192,192,106342,128,0,106542:0:0:0:0:
448,192,106387,128,0,106453:0:0:0:0:
320,192,106431,128,0,106497:0:0:0:0:
64,192,106475,128,0,106586:0:0:0:0:
448,192,106519,128,0,106586:0:0:0:0:
320,192,106564,128,0,106630:0:0:0:0:
192,192,106608,128,0,106674:0:0:0:0:
448,192,106652,128,0,106807:0:0:0:0:
64,192,106652,128,0,106719:0:0:0:0:
320,192,106696,128,0,106763:0:0:0:0:
192,192,106741,128,0,106918:0:0:0:0:
64,192,106785,128,0,106851:0:0:0:0:
320,192,106829,128,0,106984:0:0:0:0:
448,192,106873,128,0,106984:0:0:0:0:
64,192,106918,128,0,107028:0:0:0:0:
192,192,106984,128,0,107073:0:0:0:0:
320,192,107050,128,0,107117:0:0:0:0:
448,192,107095,128,0,107183:0:0:0:0:
64,192,107095,128,0,107161:0:0:0:0:
192,192,107139,128,0,107205:0:0:0:0:
320,192,107183,128,0,107250:0:0:0:0:
64,192,107227,128,0,107294:0:0:0:0:
192,192,107272,128,0,107338:0:0:0:0:
320,192,107316,128,0,107382:0:0:0:0:
448,192,107316,128,0,107382:0:0:0:0:
64,192,107382,128,0,107449:0:0:0:0:
320,192,107449,128,0,107537:0:0:0:0:
448,192,107449,128,0,107604:0:0:0:0:
64,192,107493,128,0,107648:0:0:0:0:
192,192,107537,128,0,107648:0:0:0:0:
320,192,107604,128,0,107714:0:0:0:0:
448,192,107670,128,0,107714:0:0:0:0:
192,192,107714,128,0,107781:0:0:0:0:
64,192,107714,128,0,107781:0:0:0:0:
448,192,107781,128,0,107913:0:0:0:0:
192,192,107847,128,0,107913:0:0:0:0:
64,192,107847,128,0,107913:0:0:0:0:
320,192,107913,128,0,108046:0:0:0:0:
64,192,107980,128,0,108046:0:0:0:0:
192,192,107980,128,0,108046:0:0:0:0:
448,192,108046,128,0,108179:0:0:0:0:
64,192,108112,128,0,108179:0:0:0:0:
192,192,108112,128,0,108223:0:0:0:0:
320,192,108179,128,0,108378:0:0:0:0:
64,192,108245,128,0,108444:0:0:0:0:
448,192,108245,128,0,108311:0:0:0:0:
192,192,108289,128,0,108444:0:0:0:0:
448,192,108378,128,0,108511:0:0:0:0:
320,192,108444,128,0,108511:0:0:0:0:
192,192,108511,128,0,108665:0:0:0:0:
64,192,108511,128,0,108599:0:0:0:0:
448,192,108555,128,0,108710:0:0:0:0:
320,192,108599,128,0,108710:0:0:0:0:
64,192,108665,128,0,108776:0:0:0:0:
192,192,108732,128,0,108842:0:0:0:0:
320,192,108776,128,0,108842:0:0:0:0:
448,192,108776,128,0,108842:0:0:0:0:
64,192,108842,128,0,108975:0:0:0:0:
320,192,108909,128,0,108975:0:0:0:0:
448,192,108909,128,0,108975:0:0:0:0:
192,192,108975,128,0,109108:0:0:0:0:
448,192,109042,128,0,109108:0:0:0:0:
320,192,109042,128,0,109108:0:0:0:0:
64,192,109108,128,0,109241:0:0:0:0:
448,192,109174,128,0,109241:0:0:0:0:
320,192,109174,128,0,109285:0:0:0:0:
192,192,109241,128,0,109440:0:0:0:0:
64,192,109307,128,0,109373:0:0:0:0:
448,192,109307,128,0,109506:0:0:0:0:
320,192,109351,128,0,109506:0:0:0:0:
64,192,109440,128,0,109573:0:0:0:0:
192,192,109506,128,0,109573:0:0:0:0:
320,192,109573,128,0,109727:0:0:0:0:
448,192,109573,128,0,109661:0:0:0:0:
64,192,109617,128,0,109772:0:0:0:0:
192,192,109661,128,0,109772:0:0:0:0:
448,192,109727,128,0,109838:0:0:0:0:
320,192,109794,128,0,109904:0:0:0:0:
192,192,109838,128,0,109904:0:0:0:0:
64,192,109838,128,0,109904:0:0:0:0:
448,192,109904,128,0,110037:0:0:0:0:
192,192,109971,128,0,110037:0:0:0:0:
64,192,109971,128,0,110037:0:0:0:0:
320,192,110037,128,0,110170:0:0:0:0:
64,192,110104,128,0,110170:0:0:0:0:
192,192,110104,128,0,110170:0:0:0:0:
448,192,110170,128,0,110303:0:0:0:0:
64,192,110236,128,0,110303:0:0:0:0:
192,192,110236,128,0,110347:0:0:0:0:
320,192,110303,128,0,110458:0:0:0:0:
448,192,110369,128,0,110435:0:0:0:0:
64,192,110369,128,0,110568:0:0:0:0:
192,192,110413,128,0,110480:0:0:0:0:
448,192,110502,128,0,110634:0:0:0:0:
192,192,110546,128,0,110612:0:0:0:0:
320,192,110590,128,0,110745:0:0:0:0:
64,192,110634,128,0,110701:0:0:0:0:
192,192,110679,128,0,110789:0:0:0:0:
448,192,110723,128,0,110767:0:0:0:0:
64,192,110767,128,0,110811:0:0:0:0:
448,192,110811,128,0,110900:0:0:0:0:
64,192,110856,128,0,110900:0:0:0:0:
320,192,110900,128,0,110988:0:0:0:0:
192,192,110900,128,0,110944:0:0:0:0:
448,192,110966,128,0,111033:0:0:0:0:
192,192,111011,128,0,111099:0:0:0:0:
320,192,111055,128,0,111143:0:0:0:0:
448,192,111099,128,0,111298:0:0:0:0:
192,192,111165,128,0,111232:0:0:0:0:
64,192,111165,128,0,111210:0:0:0:0:
320,192,111210,128,0,111298:0:0:0:0:
64,192,111254,128,0,111365:0:0:0:0:
192,192,111298,128,0,111409:0:0:0:0:
320,192,111365,128,0,111475:0:0:0:0:
448,192,111431,128,0,111475:0:0:0:0:
64,192,111431,128,0,111564:0:0:0:0:
192,192,111475,128,0,111564:0:0:0:0:
448,192,111519,128,0,111630:0:0:0:0:
320,192,111564,128,0,111674:0:0:0:0:
192,192,111630,128,0,111741:0:0:0:0:
64,192,111696,128,0,111741:0:0:0:0:
448,192,111696,128,0,111896:0:0:0:0:
320,192,111741,128,0,111829:0:0:0:0:
64,192,111785,128,0,111896:0:0:0:0:
192,192,111829,128,0,111962:0:0:0:0:
320,192,111896,128,0,111962:0:0:0:0:
448,192,111962,128,0,112028:0:0:0:0:
64,192,111962,128,0,112161:0:0:0:0:
192,192,112028,128,0,112095:0:0:0:0:
448,192,112095,128,0,112161:0:0:0:0:
320,192,112095,128,0,112227:0:0:0:0:
192,192,112161,128,0,112338:0:0:0:0:
64,192,112227,128,0,112427:0:0:0:0:
448,192,112227,128,0,112294:0:0:0:0:
320,192,112294,128,0,112382:0:0:0:0:
448,192,112360,128,0,112427:0:0:0:0:
192,192,112404,128,0,112493:0:0:0:0:
320,192,112449,128,0,112559:0:0:0:0:
448,192,112493,128,0,112626:0:0:0:0:
64,192,112493,128,0,112559:0:0:0:0:
192,192,112559,128,0,112692:0:0:0:0:
64,192,112626,128,0,112692:0:0:0:0:
320,192,112626,128,0,112758:0:0:0:0:
448,192,112692,128,0,112825:0:0:0:0:
192,192,112758,128,0,112891:0:0:0:0:
64,192,112758,128,0,112825:0:0:0:0:
320,192,112825,128,0,112958:0:0:0:0:
64,192,112891,128,0,112958:0:0:0:0:
448,192,112891,128,0,112958:0:0:0:0:
192,192,112958,128,0,113046:0:0:0:0:
448,192,113024,128,0,113134:0:0:0:0:
320,192,113024,128,0,113090:0:0:0:0:
64,192,113024,128,0,113223:0:0:0:0:
192,192,113112,128,0,113223:0:0:0:0:
320,192,113157,128,0,113223:0:0:0:0:
448,192,113201,128,0,113311:0:0:0:0:
320,192,113289,128,0,113488:0:0:0:0:
192,192,113289,128,0,113356:0:0:0:0:
64,192,113289,128,0,113400:0:0:0:0:
448,192,113378,128,0,113488:0:0:0:0:
192,192,113422,128,0,113488:0:0:0:0:
64,192,113466,128,0,113555:0:0:0:0:
192,192,113555,128,0,113754:0:0:0:0:
320,192,113555,128,0,113665:0:0:0:0:
448,192,113555,128,0,113621:0:0:0:0:
64,192,113643,128,0,113754:0:0:0:0:
448,192,113688,128,0,113754:0:0:0:0:
320,192,113732,128,0,113842:0:0:0:0:
448,192,113820,128,0,114019:0:0:0:0:
192,192,113820,128,0,113931:0:0:0:0:
64,192,113820,128,0,113887:0:0:0:0:
320,192,113909,128,0,114064:0:0:0:0:
64,192,113953,128,0,114019:0:0:0:0:
192,192,113997,128,0,114108:0:0:0:0:
64,192,114086,128,0,114152:0:0:0:0:
448,192,114086,128,0,114285:0:0:0:0:
320,192,114130,128,0,114285:0:0:0:0:
192,192,114174,128,0,114219:0:0:0:0:
64,192,114219,128,0,114351:0:0:0:0:
192,192,114285,128,0,114418:0:0:0:0:
320,192,114351,128,0,114484:0:0:0:0:
448,192,114351,128,0,114418:0:0:0:0:
64,192,114418,128,0,114550:0:0:0:0:
192,192,114484,128,0,114617:0:0:0:0:
448,192,114484,128,0,114550:0:0:0:0:
320,192,114550,128,0,114661:0:0:0:0:
448,192,114617,128,0,114705:0:0:0:0:
64,192,114617,128,0,114816:0:0:0:0:
192,192,114683,128,0,114772:0:0:0:0:
320,192,114727,128,0,114882:0:0:0:0:
448,192,114772,128,0,114816:0:0:0:0:
192,192,114838,128,0,114927:0:0:0:0:
64,192,114882,128,0,114971:0:0:0:0:
448,192,114882,128,0,115081:0:0:0:0:
320,192,114949,128,0,115037:0:0:0:0:
192,192,114993,128,0,115126:0:0:0:0:
64,192,115037,128,0,115081:0:0:0:0:
320,192,115104,128,0,115170:0:0:0:0:
64,192,115148,128,0,115303:0:0:0:0:
448,192,115148,128,0,115214:0:0:0:0:
192,192,115192,128,0,115258:0:0:0:0:
320,192,115236,128,0,115413:0:0:0:0:
448,192,115281,128,0,115347:0:0:0:0:
192,192,115325,128,0,115480:0:0:0:0:
64,192,115369,128,0,115480:0:0:0:0:
448,192,115413,128,0,115524:0:0:0:0:
320,192,115480,128,0,115568:0:0:0:0:
192,192,115546,128,0,115612:0:0:0:0:
64,192,115590,128,0,115679:0:0:0:0:
448,192,115590,128,0,115657:0:0:0:0:
320,192,115634,128,0,115701:0:0:0:0:
192,192,115679,128,0,115745:0:0:0:0:
448,192,115723,128,0,115789:0:0:0:0:
320,192,115767,128,0,115834:0:0:0:0:
192,192,115811,128,0,115878:0:0:0:0:
64,192,115811,128,0,115878:0:0:0:0:
448,192,115878,128,0,115944:0:0:0:0:
192,192,115944,128,0,116033:0:0:0:0:
64,192,115944,128,0,116099:0:0:0:0:
448,192,115988,128,0,116143:0:0:0:0:
320,192,116033,128,0,116143:0:0:0:0:
192,192,116099,128,0,116210:0:0:0:0:
64,192,116165,128,0,116210:0:0:0:0:
320,192,116210,128,0,116276:0:0:0:0:
448,192,116210,128,0,116276:0:0:0:0:
64,192,116276,128,0,116409:0:0:0:0:
320,192,116342,128,0,116409:0:0:0:0:
448,192,116342,128,0,116409:0:0:0:0:
192,192,116409,128,0,116542:0:0:0:0:
448,192,116475,128,0,116542:0:0:0:0:
320,192,116475,128,0,116542:0:0:0:0:
64,192,116542,128,0,116674:0:0:0:0:
448,192,116608,128,0,116674:0:0:0:0:
320,192,116608,128,0,116719:0:0:0:0:
192,192,116674,128,0,116873:0:0:0:0:
448,192,116741,128,0,116940:0:0:0:0:
64,192,116741,128,0,116807:0:0:0:0:
320,192,116785,128,0,116940:0:0:0:0:
64,192,116873,128,0,117006:0:0:0:0:
192,192,116940,128,0,117006:0:0:0:0:
320,192,117006,128,0,117161:0:0:0:0:
448,192,117006,128,0,117095:0:0:0:0:
64,192,117050,128,0,117205:0:0:0:0:
192,192,117095,128,0,117205:0:0:0:0:
448,192,117161,128,0,117272:0:0:0:0:
320,192,117227,128,0,117338:0:0:0:0:
192,192,117272,128,0,117338:0:0:0:0:
64,192,117272,128,0,117338:0:0:0:0:
448,192,117338,128,0,117471:0:0:0:0:
192,192,117404,128,0,117471:0:0:0:0:
64,192,117404,128,0,117471:0:0:0:0:
320,192,117471,128,0,117604:0:0:0:0:
64,192,117537,128,0,117604:0:0:0:0:
192,192,117537,128,0,117604:0:0:0:0:
448,192,117604,128,0,117736:0:0:0:0:
64,192,117670,128,0,117736:0:0:0:0:
192,192,117670,128,0,117781:0:0:0:0:
320,192,117736,128,0,117935:0:0:0:0:
448,192,117803,128,0,117869:0:0:0:0:
64,192,117803,128,0,118002:0:0:0:0:
192,192,117847,128,0,118002:0:0:0:0:
448,192,117935,128,0,118068:0:0:0:0:
320,192,118002,128,0,118068:0:0:0:0:
192,192,118068,128,0,118223:0:0:0:0:
64,192,118068,128,0,118157:0:0:0:0:
448,192,118112,128,0,118267:0:0:0:0:
320,192,118157,128,0,118267:0:0:0:0:
64,192,118223,128,0,118334:0:0:0:0:
192,192,118289,128,0,118400:0:0:0:0:
320,192,118334,128,0,118400:0:0:0:0:
448,192,118334,128,0,118400:0:0:0:0:
64,192,118400,128,0,118533:0:0:0:0:
320,192,118466,128,0,118533:0:0:0:0:
448,192,118466,128,0,118533:0:0:0:0:
192,192,118533,128,0,118665:0:0:0:0:
448,192,118599,128,0,118665:0:0:0:0:
320,192,118599,128,0,118665:0:0:0:0:
64,192,118665,128,0,118798:0:0:0:0:
448,192,118732,128,0,118798:0:0:0:0:
320,192,118732,128,0,118842:0:0:0:0:
192,192,118798,128,0,118931:0:0:0:0:
64,192,118865,128,0,118931:0:0:0:0:
448,192,118865,128,0,119064:0:0:0:0:
320,192,118909,128,0,118975:0:0:0:0:
64,192,118997,128,0,119064:0:0:0:0:
192,192,118997,128,0,119196:0:0:0:0:
320,192,119064,128,0,119152:0:0:0:0:
448,192,119130,128,0,119174:0:0:0:0:
64,192,119174,128,0,119263:0:0:0:0:
448,192,119219,128,0,119329:0:0:0:0:
320,192,119263,128,0,119329:0:0:0:0:
64,192,119307,128,0,119396:0:0:0:0:
192,192,119351,128,0,119396:0:0:0:0:
448,192,119396,128,0,119506:0:0:0:0:
320,192,119396,128,0,119462:0:0:0:0:
192,192,119484,128,0,119595:0:0:0:0:
64,192,119528,128,0,119595:0:0:0:0:
320,192,119528,128,0,119683:0:0:0:0:
448,192,119573,128,0,119727:0:0:0:0:
192,192,119661,128,0,119727:0:0:0:0:
64,192,119661,128,0,119772:0:0:0:0:
320,192,119750,128,0,119860:0:0:0:0:
448,192,119794,128,0,119860:0:0:0:0:
192,192,119794,128,0,119904:0:0:0:0:
64,192,119838,128,0,119949:0:0:0:0:
448,192,119927,128,0,119993:0:0:0:0:
320,192,119927,128,0,119993:0:0:0:0:
192,192,119971,128,0,120059:0:0:0:0:
64,192,120015,128,0,120126:0:0:0:0:
320,192,120059,128,0,120214:0:0:0:0:
192,192,120126,128,0,120170:0:0:0:0:
448,192,120192,128,0,120258:0:0:0:0:
64,192,120192,128,0,120325:0:0:0:0:
192,192,120236,128,0,120325:0:0:0:0:
320,192,120281,128,0,120435:0:0:0:0:
448,192,120325,128,0,120391:0:0:0:0:
192,192,120391,128,0,120480:0:0:0:0:
64,192,120458,128,0,120524:0:0:0:0:
448,192,120458,128,0,120590:0:0:0:0:
320,192,120502,128,0,120590:0:0:0:0:
192,192,120546,128,0,120723:0:0:0:0:
64,192,120590,128,0,120657:0:0:0:0:
320,192,120657,128,0,120723:0:0:0:0:
64,192,120723,128,0,120789:0:0:0:0:
448,192,120723,128,0,120922:0:0:0:0:
320,192,120789,128,0,120856:0:0:0:0:
192,192,120856,128,0,120966:0:0:0:0:
64,192,120856,128,0,120922:0:0:0:0:
320,192,120922,128,0,121011:0:0:0:0:
448,192,120988,128,0,121055:0:0:0:0:
64,192,120988,128,0,121077:0:0:0:0:
192,192,121033,128,0,121121:0:0:0:0:
320,192,121077,128,0,121188:0:0:0:0:
448,192,121121,128,0,121188:0:0:0:0:
192,192,121188,128,0,121320:0:0:0:0:
320,192,121254,128,0,121387:0:0:0:0:
448,192,121254,128,0,121320:0:0:0:0:
64,192,121320,128,0,121453:0:0:0:0:
192,192,121387,128,0,121453:0:0:0:0:
448,192,121387,128,0,121453:0:0:0:0:
320,192,121453,128,0,121519:0:0:0:0:
64,192,121519,128,0,121586:0:0:0:0:
448,192,121519,128,0,121719:0:0:0:0:
192,192,121519,128,0,121586:0:0:0:0:
320,192,121586,128,0,121652:0:0:0:0:
64,192,121652,128,0,121719:0:0:0:0:
192,192,121652,128,0,121785:0:0:0:0:
320,192,121719,128,0,121896:0:0:0:0:
448,192,121785,128,0,121984:0:0:0:0:
64,192,121785,128,0,121851:0:0:0:0:
192,192,121851,128,0,121940:0:0:0:0:
64,192,121918,128,0,121984:0:0:0:0:
320,192,121962,128,0,122050:0:0:0:0:
192,192,122006,128,0,122117:0:0:0:0:
64,192,122050,128,0,122183:0:0:0:0:
448,192,122050,128,0,122117:0:0:0:0:
320,192,122117,128,0,122250:0:0:0:0:
448,192,122183,128,0,122250:0:0:0:0:
192,192,122183,128,0,122316:0:0:0:0:
64,192,122250,128,0,122382:0:0:0:0:
320,192,122316,128,0,122449:0:0:0:0:
448,192,122316,128,0,122515:0:0:0:0:
192,192,122382,128,0,122548:0:0:0:0:
64,192,122449,128,0,122515:0:0:0:0:
320,192,122515,128,0,122581:0:0:0:0:
64,192,122581,128,0,122648:0:0:0:0:
448,192,122581,128,0,122781:0:0:0:0:
192,192,122615,128,0,122714:0:0:0:0:
320,192,122648,128,0,122814:0:0:0:0:
64,192,122714,128,0,122781:0:0:0:0:
192,192,122781,128,0,122847:0:0:0:0:
448,192,122847,128,0,122913:0:0:0:0:
64,192,122847,128,0,123046:0:0:0:0:
320,192,122880,128,0,122980:0:0:0:0:
192,192,122913,128,0,123079:0:0:0:0:
448,192,122980,128,0,123046:0:0:0:0:
320,192,123046,128,0,123112:0:0:0:0:
64,192,123112,128,0,123179:0:0:0:0:
448,192,123112,128,0,123311:0:0:0:0:
192,192,123146,128,0,123245:0:0:0:0:
320,192,123179,128,0,123345:0:0:0:0:
64,192,123245,128,0,123311:0:0:0:0:
192,192,123311,128,0,123378:0:0:0:0:
64,192,123378,128,0,123577:0:0:0:0:
448,192,123378,128,0,123444:0:0:0:0:
320,192,123411,128,0,123577:0:0:0:0:
192,192,123444,128,0,123577:0:0:0:0:
448,192,123511,128,0,123577:0:0:0:0:
320,192,123643,128,0,123710:0:0:0:0:
448,192,123643,128,0,123975:0:0:0:0:
192,192,123643,128,0,123710:0:0:0:0:
64,192,123643,128,0,123710:0:0:0:0:
320,192,123776,128,0,123975:0:0:0:0:
192,192,123776,128,0,123842:0:0:0:0:
64,192,123776,128,0,123842:0:0:0:0:
64,192,123909,128,0,123975:0:0:0:0:
192,192,123909,128,0,123975:0:0:0:0:
64,192,124042,128,0,124373:0:0:0:0:
320,192,124042,128,0,124108:0:0:0:0:
448,192,124042,128,0,124108:0:0:0:0:
192,192,124042,128,0,124108:0:0:0:0:
448,192,124174,128,0,124241:0:0:0:0:
320,192,124174,128,0,124241:0:0:0:0:
192,192,124174,128,0,124373:0:0:0:0:
448,192,124307,128,0,124373:0:0:0:0:
320,192,124307,128,0,124373:0:0:0:0:
448,192,124440,128,0,124772:0:0:0:0:
192,192,124440,128,0,124506:0:0:0:0:
64,192,124440,128,0,124506:0:0:0:0:
320,192,124440,128,0,124506:0:0:0:0:
320,192,124573,128,0,124772:0:0:0:0:
192,192,124573,128,0,124639:0:0:0:0:
64,192,124573,128,0,124639:0:0:0:0:
64,192,124705,128,0,124772:0:0:0:0:
192,192,124705,128,0,124772:0:0:0:0:
64,192,124838,128,0,125170:0:0:0:0:
320,192,124838,128,0,124904:0:0:0:0:
448,192,124838,128,0,124904:0:0:0:0:
192,192,124838,128,0,124904:0:0:0:0:
448,192,124971,128,0,125037:0:0:0:0:
320,192,124971,128,0,125037:0:0:0:0:
192,192,124971,128,0,125170:0:0:0:0:
448,192,125104,128,0,125170:0:0:0:0:
320,192,125104,128,0,125170:0:0:0:0:
448,192,125236,128,0,125303:0:0:0:0:
320,192,125236,128,0,125303:0:0:0:0:
192,192,125236,128,0,125303:0:0:0:0:
64,192,125236,128,0,125303:0:0:0:0:
64,192,125369,128,0,125435:0:0:0:0:
448,192,125369,128,0,125435:0:0:0:0:
192,192,125369,128,0,125435:0:0:0:0:
320,192,125369,128,0,125435:0:0:0:0:
192,192,125502,128,0,125568:0:0:0:0:
320,192,125502,128,0,125568:0:0:0:0:
64,192,125502,128,0,125568:0:0:0:0:
448,192,125502,128,0,125568:0:0:0:0:
320,192,125634,128,0,125701:0:0:0:0:
192,192,125634,128,0,125701:0:0:0:0:
64,192,125767,128,0,125834:0:0:0:0:
192,192,125767,128,0,125834:0:0:0:0:
448,192,125767,128,0,126099:0:0:0:0:
320,192,125767,128,0,125834:0:0:0:0:
64,192,125900,128,0,125966:0:0:0:0:
192,192,125900,128,0,125966:0:0:0:0:
320,192,125900,128,0,126099:0:0:0:0:
192,192,126033,128,0,126099:0:0:0:0:
64,192,126033,128,0,126099:0:0:0:0:
448,192,126165,128,0,126232:0:0:0:0:
320,192,126165,128,0,126232:0:0:0:0:
64,192,126165,128,0,126497:0:0:0:0:
192,192,126165,128,0,126232:0:0:0:0:
192,192,126298,128,0,126497:0:0:0:0:
320,192,126298,128,0,126365:0:0:0:0:
448,192,126298,128,0,126365:0:0:0:0:
320,192,126431,128,0,126497:0:0:0:0:
448,192,126431,128,0,126497:0:0:0:0:
448,192,126564,128,0,126896:0:0:0:0:
192,192,126564,128,0,126630:0:0:0:0:
64,192,126564,128,0,126630:0:0:0:0:
320,192,126564,128,0,126630:0:0:0:0:
320,192,126696,128,0,126896:0:0:0:0:
192,192,126696,128,0,126763:0:0:0:0:
64,192,126696,128,0,126763:0:0:0:0:
64,192,126829,128,0,126896:0:0:0:0:
192,192,126829,128,0,126896:0:0:0:0:
64,192,126962,128,0,127294:0:0:0:0:
320,192,126962,128,0,127028:0:0:0:0:
448,192,126962,128,0,127028:0:0:0:0:
192,192,126962,128,0,127028:0:0:0:0:
448,192,127095,128,0,127161:0:0:0:0:
320,192,127095,128,0,127161:0:0:0:0:
192,192,127095,128,0,127294:0:0:0:0:
448,192,127227,128,0,127294:0:0:0:0:
320,192,127227,128,0,127294:0:0:0:0:
64,192,127360,128,0,127427:0:0:0:0:
192,192,127360,128,0,127427:0:0:0:0:
448,192,127360,128,0,127692:0:0:0:0:
320,192,127360,128,0,127559:0:0:0:0:
192,192,127493,128,0,127559:0:0:0:0:
64,192,127493,128,0,127825:0:0:0:0:
320,192,127626,128,0,127692:0:0:0:0:
192,192,127626,128,0,127825:0:0:0:0:
448,192,127758,128,0,127825:0:0:0:0:
320,192,127758,128,0,127825:0:0:0:0:
192,192,127891,128,0,128090:0:0:0:0:
448,192,127891,128,0,127980:0:0:0:0:
64,192,127891,128,0,127935:0:0:0:0:
320,192,127958,128,0,128112:0:0:0:0:
64,192,128002,128,0,128267:0:0:0:0:
448,192,128046,128,0,128134:0:0:0:0:
192,192,128157,128,0,128245:0:0:0:0:
320,192,128179,128,0,128223:0:0:0:0:
448,192,128201,128,0,128555:0:0:0:0:
320,192,128289,128,0,128555:0:0:0:0:
192,192,128311,128,0,128555:0:0:0:0:
64,192,128334,128,0,128555:0:0:0:0:
320,192,128688,128,0,128887:0:0:0:0:
64,192,128688,128,0,128776:0:0:0:0:
448,192,128688,128,0,128732:0:0:0:0:
192,192,128754,128,0,128909:0:0:0:0:
448,192,128798,128,0,129064:0:0:0:0:
64,192,128842,128,0,128931:0:0:0:0:
320,192,128953,128,0,129042:0:0:0:0:
192,192,128975,128,0,129019:0:0:0:0:
64,192,128997,128,0,129351:0:0:0:0:
192,192,129086,128,0,129351:0:0:0:0:
320,192,129108,128,0,129351:0:0:0:0:
448,192,129130,128,0,129351:0:0:0:0:
64,192,129484,128,0,129750:0:0:0:0:
448,192,129484,128,0,129683:0:0:0:0:
192,192,129506,128,0,129727:0:0:0:0:
320,192,129528,128,0,129705:0:0:0:0:
448,192,129750,128,0,129949:0:0:0:0:
320,192,129772,128,0,130015:0:0:0:0:
192,192,129794,128,0,129949:0:0:0:0:
64,192,129816,128,0,129949:0:0:0:0:
64,192,130015,128,0,130059:0:0:0:0:
448,192,130015,128,0,130104:0:0:0:0:
192,192,130015,128,0,130214:0:0:0:0:
320,192,130081,128,0,130236:0:0:0:0:
64,192,130126,128,0,130391:0:0:0:0:
448,192,130170,128,0,130258:0:0:0:0:
192,192,130281,128,0,130369:0:0:0:0:
320,192,130303,128,0,130347:0:0:0:0:
448,192,130325,128,0,130413:0:0:0:0:
320,192,130413,128,0,130679:0:0:0:0:
192,192,130435,128,0,130679:0:0:0:0:
64,192,130458,128,0,130679:0:0:0:0:
448,192,130480,128,0,130679:0:0:0:0:
448,192,130811,128,0,130856:0:0:0:0:
64,192,130811,128,0,130900:0:0:0:0:
320,192,130811,128,0,131011:0:0:0:0:
192,192,130878,128,0,131033:0:0:0:0:
448,192,130922,128,0,131188:0:0:0:0:
64,192,130966,128,0,131055:0:0:0:0:
320,192,131077,128,0,131165:0:0:0:0:
192,192,131099,128,0,131143:0:0:0:0:
64,192,131121,128,0,131276:0:0:0:0:
192,192,131210,128,0,131409:0:0:0:0:
320,192,131232,128,0,131475:0:0:0:0:
448,192,131254,128,0,131475:0:0:0:0:
64,192,131342,128,0,131409:0:0:0:0:
192,192,131475,128,0,131542:0:0:0:0:
448,192,131608,128,0,131674:0:0:0:0:
64,192,131608,128,0,131807:0:0:0:0:
192,192,131652,128,0,131719:0:0:0:0:
320,192,131696,128,0,131763:0:0:0:0:
448,192,131741,128,0,131940:0:0:0:0:
192,192,131785,128,0,131851:0:0:0:0:
320,192,131829,128,0,131896:0:0:0:0:
64,192,131873,128,0,132073:0:0:0:0:
192,192,131918,128,0,132073:0:0:0:0:
320,192,131962,128,0,132073:0:0:0:0:
448,192,132006,128,0,132073:0:0:0:0:
192,192,132139,128,0,132338:0:0:0:0:
448,192,132139,128,0,132227:0:0:0:0:
64,192,132139,128,0,132183:0:0:0:0:
320,192,132205,128,0,132360:0:0:0:0:
64,192,132250,128,0,132515:0:0:0:0:
448,192,132294,128,0,132382:0:0:0:0:
192,192,132404,128,0,132493:0:0:0:0:
320,192,132427,128,0,132471:0:0:0:0:
448,192,132449,128,0,132803:0:0:0:0:
320,192,132537,128,0,132803:0:0:0:0:
192,192,132559,128,0,132803:0:0:0:0:
64,192,132581,128,0,132803:0:0:0:0:
320,192,132935,128,0,133134:0:0:0:0:
64,192,132935,128,0,133024:0:0:0:0:
448,192,132935,128,0,132980:0:0:0:0:
192,192,133002,128,0,133157:0:0:0:0:
448,192,133046,128,0,133311:0:0:0:0:
64,192,133090,128,0,133179:0:0:0:0:
320,192,133201,128,0,133289:0:0:0:0:
192,192,133223,128,0,133267:0:0:0:0:
64,192,133245,128,0,133599:0:0:0:0:
192,192,133334,128,0,133599:0:0:0:0:
320,192,133356,128,0,133599:0:0:0:0:
448,192,133378,128,0,133599:0:0:0:0:
64,192,133732,128,0,133997:0:0:0:0:
448,192,133732,128,0,133931:0:0:0:0:
192,192,133754,128,0,133975:0:0:0:0:
320,192,133776,128,0,133953:0:0:0:0:
448,192,133997,128,0,134196:0:0:0:0:
320,192,134019,128,0,134263:0:0:0:0:
192,192,134042,128,0,134196:0:0:0:0:
64,192,134064,128,0,134196:0:0:0:0:
64,192,134263,128,0,134307:0:0:0:0:
448,192,134263,128,0,134351:0:0:0:0:
192,192,134263,128,0,134462:0:0:0:0:
320,192,134329,128,0,134484:0:0:0:0:
64,192,134373,128,0,134639:0:0:0:0:
448,192,134418,128,0,134506:0:0:0:0:
192,192,134528,128,0,134617:0:0:0:0:
320,192,134550,128,0,134595:0:0:0:0:
448,192,134573,128,0,134661:0:0:0:0:
320,192,134661,128,0,134904:0:0:0:0:
192,192,134683,128,0,134882:0:0:0:0:
64,192,134705,128,0,134860:0:0:0:0:
448,192,134727,128,0,134860:0:0:0:0:
64,192,134927,128,0,135126:0:0:0:0:
448,192,134927,128,0,135126:0:0:0:0:
192,192,134949,128,0,135126:0:0:0:0:
320,192,134971,128,0,135126:0:0:0:0:
448,192,135192,128,0,135236:0:0:0:0:
64,192,135192,128,0,135281:0:0:0:0:
320,192,135192,128,0,135391:0:0:0:0:
192,192,135258,128,0,135413:0:0:0:0:
448,192,135303,128,0,135568:0:0:0:0:
64,192,135347,128,0,135435:0:0:0:0:
320,192,135458,128,0,135546:0:0:0:0:
192,192,135480,128,0,135524:0:0:0:0:
64,192,135502,128,0,135657:0:0:0:0:
192,192,135590,128,0,135789:0:0:0:0:
320,192,135612,128,0,135789:0:0:0:0:
448,192,135634,128,0,135789:0:0:0:0:
64,192,135723,128,0,135789:0:0:0:0:
448,192,135856,128,0,135922:0:0:0:0:
64,192,135856,128,0,136055:0:0:0:0:
192,192,135900,128,0,135966:0:0:0:0:
320,192,135944,128,0,136011:0:0:0:0:
448,192,135988,128,0,136188:0:0:0:0:
192,192,136033,128,0,136099:0:0:0:0:
320,192,136077,128,0,136143:0:0:0:0:
64,192,136121,128,0,136320:0:0:0:0:
192,192,136165,128,0,136232:0:0:0:0:
320,192,136210,128,0,136276:0:0:0:0:
448,192,136254,128,0,136320:0:0:0:0:
192,192,136298,128,0,136365:0:0:0:0:
320,192,136342,128,0,136409:0:0:0:0:
64,192,136387,128,0,136453:0:0:0:0:
448,192,136387,128,0,136453:0:0:0:0:
