osu file format v14

[General]
AudioFilename: audio.mp3
AudioLeadIn: 0
PreviewTime: 106652
Countdown: 0
SampleSet: None
StackLeniency: 0.7
Mode: 3
LetterboxInBreaks: 0
SpecialStyle: 0
WidescreenStoryboard: 0

[Editor]
Bookmarks: 17449,34440,55679,72670,89661,102404,106652,127891,136387,157626,166121,185236,193732,202227,219219,236210,257449,280811,308422
DistanceSpacing: 1.7
BeatDivisor: 12
GridSize: 4
TimelineZoom: 3.499999

[Metadata]
Title:Happppy song
TitleUnicode:Happppy song
Artist:SOOOO
ArtistUnicode:SOOOO
Creator:[GB]V1do
Version:I am sooo happpy,
Source:
Tags:vocaloid producer kagamine len 鏡音レン
BeatmapID:4537639
BeatmapSetID:2150406

[Difficulty]
HPDrainRate:8
CircleSize:4
OverallDifficulty:7
ApproachRate:5
SliderMultiplier:1.4
SliderTickRate:1

[Events]
//Background and Video events
0,0,"aw-she-cute.png",0,0
//Break Periods
2,257715,264744
//Storyboard Layer 0 (Background)
//Storyboard Layer 1 (Fail)
//Storyboard Layer 2 (Pass)
//Storyboard Layer 3 (Foreground)
//Storyboard Layer 4 (Overlay)
//Storyboard Sound Samples

[TimingPoints]
458,265.486725663717,4,1,0,0,1,0
34440,-100,4,1,0,0,0,1
51365,-100,4,1,0,0,0,0
51431,-100,4,1,0,0,0,1
51763,-100,4,1,0,0,0,0
51829,-100,4,1,0,0,0,1
52161,-100,4,1,0,0,0,0
52227,-100,4,1,0,0,0,1
52559,-100,4,1,0,0,0,0
52626,-100,4,1,0,0,0,1
52958,-100,4,1,0,0,0,0
53024,-100,4,1,0,0,0,1
53488,-100,4,1,0,0,0,0
53555,-100,4,1,0,0,0,1
53887,-100,4,1,0,0,0,0
53953,-100,4,1,0,0,0,1
54285,-100,4,1,0,0,0,0
54351,-100,4,1,0,0,0,1
54683,-100,4,1,0,0,0,0
54750,-100,4,1,0,0,0,1
55081,-100,4,1,0,0,0,0
55148,-100,4,1,0,0,0,1
55679,-100,4,1,0,0,0,0
106652,-100,4,1,0,0,0,1
123577,-100,4,1,0,0,0,0
123643,-100,4,1,0,0,0,1
123975,-100,4,1,0,0,0,0
124042,-100,4,1,0,0,0,1
124373,-100,4,1,0,0,0,0
124440,-100,4,1,0,0,0,1
124772,-100,4,1,0,0,0,0
124838,-100,4,1,0,0,0,1
125170,-100,4,1,0,0,0,0
125236,-100,4,1,0,0,0,1
125701,-100,4,1,0,0,0,0
125767,-100,4,1,0,0,0,1
126099,-100,4,1,0,0,0,0
126165,-100,4,1,0,0,0,1
126497,-100,4,1,0,0,0,0
126564,-100,4,1,0,0,0,1
126896,-100,4,1,0,0,0,0
126962,-100,4,1,0,0,0,1
127294,-100,4,1,0,0,0,0
127360,-100,4,1,0,0,0,1
127891,-100,4,1,0,0,0,0
282935,-100,4,1,0,0,0,1
299860,-100,4,1,0,0,0,0
299927,-100,4,1,0,0,0,1
300258,-100,4,1,0,0,0,0
300325,-100,4,1,0,0,0,1
300657,-100,4,1,0,0,0,0
300723,-100,4,1,0,0,0,1
301055,-100,4,1,0,0,0,0
301121,-100,4,1,0,0,0,1
301453,-100,4,1,0,0,0,0
301519,-100,4,1,0,0,0,1
301984,-100,4,1,0,0,0,0
302050,-100,4,1,0,0,0,1
302382,-100,4,1,0,0,0,0
302449,-100,4,1,0,0,0,1
302781,-100,4,1,0,0,0,0
302847,-100,4,1,0,0,0,1
303179,-100,4,1,0,0,0,0
303245,-100,4,1,0,0,0,1
303577,-100,4,1,0,0,0,0
303643,-100,4,1,0,0,0,1
304108,-100,4,1,0,0,0,0
304174,-100,4,1,0,0,0,1
304506,-100,4,1,0,0,0,0
304573,-100,4,1,0,0,0,1
304904,-100,4,1,0,0,0,0
304971,-100,4,1,0,0,0,1
305303,-100,4,1,0,0,0,0
305369,-100,4,1,0,0,0,1
305701,-100,4,1,0,0,0,0
305767,-100,4,1,0,0,0,1
306232,-100,4,1,0,0,0,0
306298,-100,4,1,0,0,0,1
306630,-100,4,1,0,0,0,0
306696,-100,4,1,0,0,0,1
307028,-100,4,1,0,0,0,0
307095,-100,4,1,0,0,0,1
307427,-100,4,1,0,0,0,0
307493,-100,4,1,0,0,0,1
307825,-100,4,1,0,0,0,0
307891,-100,4,1,0,0,0,1
308422,-100,4,1,0,0,0,0

[HitObjects]
64,192,17183,5,0,0:0:0:0:
192,192,17316,1,0,0:0:0:0:
320,192,17449,1,0,0:0:0:0:
64,192,17449,1,0,0:0:0:0:
448,192,17449,1,0,0:0:0:0:
192,192,17581,1,0,0:0:0:0:
192,192,17714,1,0,0:0:0:0:
64,192,17714,1,0,0:0:0:0:
64,192,17847,1,0,0:0:0:0:
192,192,17913,1,0,0:0:0:0:
448,192,17980,1,0,0:0:0:0:
320,192,17980,1,0,0:0:0:0:
192,192,18112,1,0,0:0:0:0:
320,192,18179,1,0,0:0:0:0:
64,192,18245,1,0,0:0:0:0:
448,192,18245,1,0,0:0:0:0:
64,192,18378,1,0,0:0:0:0:
192,192,18511,1,0,0:0:0:0:
320,192,18511,1,0,0:0:0:0:
192,192,18643,1,0,0:0:0:0:
320,192,18776,1,0,0:0:0:0:
64,192,18776,1,0,0:0:0:0:
320,192,18909,1,0,0:0:0:0:
448,192,19042,1,0,0:0:0:0:
192,192,19042,1,0,0:0:0:0:
448,192,19174,1,0,0:0:0:0:
320,192,19241,1,0,0:0:0:0:
64,192,19307,1,0,0:0:0:0:
192,192,19307,1,0,0:0:0:0:
192,192,19440,1,0,0:0:0:0:
448,192,19573,1,0,0:0:0:0:
64,192,19573,1,0,0:0:0:0:
320,192,19617,1,0,0:0:0:0:
192,192,19661,1,0,0:0:0:0:
64,192,19705,1,0,0:0:0:0:
320,192,19750,1,0,0:0:0:0:
192,192,19794,1,0,0:0:0:0:
448,192,19838,1,0,0:0:0:0:
64,192,19882,1,0,0:0:0:0:
192,192,19927,1,0,0:0:0:0:
320,192,19971,1,0,0:0:0:0:
448,192,20015,1,0,0:0:0:0:
64,192,20059,1,0,0:0:0:0:
192,192,20104,1,0,0:0:0:0:
320,192,20148,1,0,0:0:0:0:
64,192,20192,1,0,0:0:0:0:
448,192,20236,1,0,0:0:0:0:
320,192,20281,1,0,0:0:0:0:
192,192,20325,1,0,0:0:0:0:
64,192,20369,1,0,0:0:0:0:
448,192,20413,1,0,0:0:0:0:
192,192,20458,1,0,0:0:0:0:
320,192,20502,1,0,0:0:0:0:
448,192,20546,1,0,0:0:0:0:
64,192,20590,1,0,0:0:0:0:
192,192,20634,1,0,0:0:0:0:
320,192,20679,1,0,0:0:0:0:
64,192,20723,1,0,0:0:0:0:
448,192,20767,1,0,0:0:0:0:
320,192,20811,1,0,0:0:0:0:
192,192,20856,1,0,0:0:0:0:
64,192,20900,1,0,0:0:0:0:
448,192,20944,1,0,0:0:0:0:
320,192,20988,1,0,0:0:0:0:
192,192,21033,1,0,0:0:0:0:
64,192,21077,1,0,0:0:0:0:
448,192,21121,1,0,0:0:0:0:
192,192,21165,1,0,0:0:0:0:
320,192,21210,1,0,0:0:0:0:
448,192,21254,1,0,0:0:0:0:
64,192,21298,1,0,0:0:0:0:
192,192,21342,1,0,0:0:0:0:
320,192,21387,1,0,0:0:0:0:
448,192,21431,1,0,0:0:0:0:
192,192,21475,1,0,0:0:0:0:
64,192,21519,1,0,0:0:0:0:
448,192,21564,1,0,0:0:0:0:
320,192,21608,1,0,0:0:0:0:
192,192,21696,1,0,0:0:0:0:
448,192,21696,1,0,0:0:0:0:
64,192,21696,1,0,0:0:0:0:
320,192,21829,1,0,0:0:0:0:
320,192,21962,1,0,0:0:0:0:
448,192,21962,1,0,0:0:0:0:
448,192,22095,1,0,0:0:0:0:
320,192,22161,1,0,0:0:0:0:
64,192,22227,1,0,0:0:0:0:
192,192,22227,1,0,0:0:0:0:
320,192,22360,1,0,0:0:0:0:
192,192,22427,1,0,0:0:0:0:
448,192,22493,1,0,0:0:0:0:
64,192,22493,1,0,0:0:0:0:
448,192,22626,1,0,0:0:0:0:
320,192,22758,1,0,0:0:0:0:
192,192,22758,1,0,0:0:0:0:
320,192,22891,1,0,0:0:0:0:
192,192,23024,1,0,0:0:0:0:
448,192,23024,1,0,0:0:0:0:
192,192,23157,1,0,0:0:0:0:
64,192,23289,1,0,0:0:0:0:
320,192,23289,1,0,0:0:0:0:
64,192,23422,1,0,0:0:0:0:
192,192,23488,1,0,0:0:0:0:
448,192,23555,1,0,0:0:0:0:
320,192,23555,1,0,0:0:0:0:
320,192,23688,1,0,0:0:0:0:
64,192,23820,1,0,0:0:0:0:
448,192,23820,1,0,0:0:0:0:
320,192,23873,1,0,0:0:0:0:
64,192,23927,1,0,0:0:0:0:
192,192,23980,1,0,0:0:0:0:
320,192,24033,1,0,0:0:0:0:
448,192,24086,1,0,0:0:0:0:
192,192,24139,1,0,0:0:0:0:
448,192,24192,1,0,0:0:0:0:
192,192,24245,1,0,0:0:0:0:
320,192,24298,1,0,0:0:0:0:
448,192,24351,1,0,0:0:0:0:
64,192,24351,1,0,0:0:0:0:
192,192,24404,1,0,0:0:0:0:
448,192,24458,1,0,0:0:0:0:
320,192,24511,1,0,0:0:0:0:
192,192,24564,1,0,0:0:0:0:
64,192,24617,1,0,0:0:0:0:
320,192,24670,1,0,0:0:0:0:
64,192,24723,1,0,0:0:0:0:
320,192,24776,1,0,0:0:0:0:
192,192,24829,1,0,0:0:0:0:
64,192,24882,1,0,0:0:0:0:
448,192,24882,1,0,0:0:0:0:
320,192,24935,1,0,0:0:0:0:
64,192,24988,1,0,0:0:0:0:
192,192,25042,1,0,0:0:0:0:
320,192,25095,1,0,0:0:0:0:
448,192,25148,1,0,0:0:0:0:
192,192,25201,1,0,0:0:0:0:
320,192,25254,1,0,0:0:0:0:
192,192,25307,1,0,0:0:0:0:
320,192,25360,1,0,0:0:0:0:
448,192,25413,1,0,0:0:0:0:
64,192,25413,1,0,0:0:0:0:
192,192,25466,1,0,0:0:0:0:
448,192,25519,1,0,0:0:0:0:
320,192,25573,1,0,0:0:0:0:
192,192,25626,1,0,0:0:0:0:
64,192,25679,1,0,0:0:0:0:
448,192,25732,1,0,0:0:0:0:
64,192,25785,1,0,0:0:0:0:
448,192,25838,1,0,0:0:0:0:
192,192,25891,1,0,0:0:0:0:
320,192,25944,1,0,0:0:0:0:
64,192,25944,1,0,0:0:0:0:
448,192,25944,1,0,0:0:0:0:
192,192,26210,1,0,0:0:0:0:
64,192,26210,1,0,0:0:0:0:
64,192,26342,1,0,0:0:0:0:
192,192,26409,1,0,0:0:0:0:
448,192,26475,1,0,0:0:0:0:
320,192,26475,1,0,0:0:0:0:
192,192,26608,1,0,0:0:0:0:
320,192,26674,1,0,0:0:0:0:
64,192,26741,1,0,0:0:0:0:
448,192,26741,1,0,0:0:0:0:
64,192,26873,1,0,0:0:0:0:
192,192,27006,1,0,0:0:0:0:
320,192,27006,1,0,0:0:0:0:
192,192,27139,1,0,0:0:0:0:
320,192,27272,1,0,0:0:0:0:
64,192,27272,1,0,0:0:0:0:
320,192,27404,1,0,0:0:0:0:
448,192,27537,1,0,0:0:0:0:
64,192,27537,1,0,0:0:0:0:
192,192,27581,1,0,0:0:0:0:
320,192,27626,1,0,0:0:0:0:
448,192,27670,1,0,0:0:0:0:
320,192,27736,1,0,0:0:0:0:
64,192,27803,1,0,0:0:0:0:
192,192,27803,1,0,0:0:0:0:
192,192,27935,1,0,0:0:0:0:
64,192,28068,1,0,0:0:0:0:
448,192,28068,1,0,0:0:0:0:
320,192,28112,1,0,0:0:0:0:
192,192,28157,1,0,0:0:0:0:
448,192,28201,1,0,0:0:0:0:
192,192,28245,1,0,0:0:0:0:
64,192,28245,1,0,0:0:0:0:
320,192,28311,1,0,0:0:0:0:
64,192,28378,1,0,0:0:0:0:
448,192,28422,1,0,0:0:0:0:
320,192,28444,1,0,0:0:0:0:
192,192,28488,1,0,0:0:0:0:
64,192,28555,1,0,0:0:0:0:
320,192,28577,1,0,0:0:0:0:
448,192,28643,1,0,0:0:0:0:
192,192,28688,1,0,0:0:0:0:
64,192,28688,1,0,0:0:0:0:
320,192,28754,1,0,0:0:0:0:
448,192,28820,1,0,0:0:0:0:
192,192,28820,1,0,0:0:0:0:
64,192,28887,1,0,0:0:0:0:
320,192,28953,1,0,0:0:0:0:
448,192,28953,1,0,0:0:0:0:
192,192,28997,1,0,0:0:0:0:
64,192,29064,1,0,0:0:0:0:
320,192,29064,1,0,0:0:0:0:
448,192,29130,1,0,0:0:0:0:
192,192,29174,1,0,0:0:0:0:
64,192,29174,1,0,0:0:0:0:
320,192,29263,1,0,0:0:0:0:
448,192,29263,1,0,0:0:0:0:
192,192,29329,1,0,0:0:0:0:
448,192,29396,1,0,0:0:0:0:
64,192,29396,1,0,0:0:0:0:
192,192,29440,1,0,0:0:0:0:
320,192,29484,1,0,0:0:0:0:
448,192,29528,1,0,0:0:0:0:
192,192,29573,1,0,0:0:0:0:
320,192,29617,1,0,0:0:0:0:
448,192,29661,1,0,0:0:0:0:
64,192,29705,1,0,0:0:0:0:
192,192,29750,1,0,0:0:0:0:
320,192,29794,1,0,0:0:0:0:
64,192,29838,1,0,0:0:0:0:
192,192,29882,1,0,0:0:0:0:
320,192,29927,1,0,0:0:0:0:
448,192,29971,1,0,0:0:0:0:
64,192,30015,1,0,0:0:0:0:
192,192,30059,1,0,0:0:0:0:
320,192,30104,1,0,0:0:0:0:
192,192,30192,1,0,0:0:0:0:
448,192,30192,1,0,0:0:0:0:
64,192,30192,1,0,0:0:0:0:
320,192,30458,1,0,0:0:0:0:
448,192,30458,1,0,0:0:0:0:
448,192,30590,1,0,0:0:0:0:
320,192,30657,1,0,0:0:0:0:
64,192,30723,1,0,0:0:0:0:
192,192,30723,1,0,0:0:0:0:
320,192,30856,1,0,0:0:0:0:
192,192,30922,1,0,0:0:0:0:
448,192,30988,1,0,0:0:0:0:
64,192,30988,1,0,0:0:0:0:
448,192,31121,1,0,0:0:0:0:
320,192,31254,1,0,0:0:0:0:
192,192,31254,1,0,0:0:0:0:
320,192,31387,1,0,0:0:0:0:
192,192,31519,1,0,0:0:0:0:
448,192,31519,1,0,0:0:0:0:
192,192,31652,1,0,0:0:0:0:
64,192,31785,1,0,0:0:0:0:
320,192,31785,1,0,0:0:0:0:
64,192,31918,1,0,0:0:0:0:
192,192,31984,1,0,0:0:0:0:
448,192,32050,1,0,0:0:0:0:
320,192,32050,1,0,0:0:0:0:
320,192,32183,1,0,0:0:0:0:
64,192,32316,1,0,0:0:0:0:
448,192,32316,1,0,0:0:0:0:
192,192,32360,1,0,0:0:0:0:
320,192,32404,1,0,0:0:0:0:
448,192,32449,1,0,0:0:0:0:
192,192,32515,1,0,0:0:0:0:
64,192,32581,1,0,0:0:0:0:
448,192,32581,1,0,0:0:0:0:
320,192,32626,1,0,0:0:0:0:
192,192,32670,1,0,0:0:0:0:
64,192,32714,1,0,0:0:0:0:
320,192,32781,1,0,0:0:0:0:
448,192,32847,1,0,0:0:0:0:
64,192,32847,1,0,0:0:0:0:
192,192,32891,1,0,0:0:0:0:
320,192,32935,1,0,0:0:0:0:
64,192,33002,1,0,0:0:0:0:
192,192,33068,1,0,0:0:0:0:
448,192,33112,1,0,0:0:0:0:
64,192,33112,1,0,0:0:0:0:
320,192,33157,1,0,0:0:0:0:
192,192,33201,1,0,0:0:0:0:
448,192,33267,1,0,0:0:0:0:
320,192,33334,1,0,0:0:0:0:
448,192,33378,1,0,0:0:0:0:
64,192,33378,1,0,0:0:0:0:
192,192,33422,1,0,0:0:0:0:
320,192,33466,1,0,0:0:0:0:
448,192,33511,1,0,0:0:0:0:
192,192,33555,1,0,0:0:0:0:
320,192,33599,1,0,0:0:0:0:
64,192,33643,1,0,0:0:0:0:
448,192,33688,1,0,0:0:0:0:
320,192,33732,1,0,0:0:0:0:
192,192,33776,1,0,0:0:0:0:
320,192,33909,1,0,0:0:0:0:
64,192,34440,1,0,0:0:0:0:
448,192,34440,1,0,0:0:0:0:
192,192,34484,1,0,0:0:0:0:
320,192,34528,1,0,0:0:0:0:
448,192,34573,1,0,0:0:0:0:
192,192,34617,1,0,0:0:0:0:
64,192,34661,1,0,0:0:0:0:
448,192,34705,1,0,0:0:0:0:
320,192,34772,1,0,0:0:0:0:
192,192,34838,1,0,0:0:0:0:
64,192,34882,1,0,0:0:0:0:
448,192,34882,1,0,0:0:0:0:
320,192,34927,1,0,0:0:0:0:
192,192,34971,1,0,0:0:0:0:
448,192,35015,1,0,0:0:0:0:
320,192,35059,1,0,0:0:0:0:
192,192,35104,1,0,0:0:0:0:
64,192,35104,1,0,0:0:0:0:
448,192,35170,1,0,0:0:0:0:
192,192,35236,1,0,0:0:0:0:
64,192,35236,1,0,0:0:0:0:
448,192,35281,1,0,0:0:0:0:
320,192,35325,1,0,0:0:0:0:
192,192,35391,1,0,0:0:0:0:
64,192,35458,1,0,0:0:0:0:
320,192,35502,1,0,0:0:0:0:
448,192,35502,1,0,0:0:0:0:
64,192,35568,1,0,0:0:0:0:
320,192,35634,1,0,0:0:0:0:
448,192,35634,1,0,0:0:0:0:
192,192,35701,1,0,0:0:0:0:
448,192,35767,1,0,0:0:0:0:
320,192,35767,1,0,0:0:0:0:
64,192,35834,1,0,0:0:0:0:
448,192,35900,1,0,0:0:0:0:
320,192,35900,1,0,0:0:0:0:
192,192,35966,1,0,0:0:0:0:
448,192,36033,1,0,0:0:0:0:
64,192,36033,1,0,0:0:0:0:
320,192,36077,1,0,0:0:0:0:
64,192,36165,1,0,0:0:0:0:
192,192,36232,1,0,0:0:0:0:
320,192,36298,1,0,0:0:0:0:
448,192,36298,1,0,0:0:0:0:
64,192,36342,1,0,0:0:0:0:
192,192,36387,1,0,0:0:0:0:
448,192,36453,1,0,0:0:0:0:
320,192,36519,1,0,0:0:0:0:
192,192,36564,1,0,0:0:0:0:
64,192,36564,1,0,0:0:0:0:
448,192,36630,1,0,0:0:0:0:
192,192,36696,1,0,0:0:0:0:
64,192,36696,1,0,0:0:0:0:
320,192,36763,1,0,0:0:0:0:
64,192,36829,1,0,0:0:0:0:
192,192,36829,1,0,0:0:0:0:
448,192,36896,1,0,0:0:0:0:
64,192,36962,1,0,0:0:0:0:
192,192,36962,1,0,0:0:0:0:
320,192,37028,1,0,0:0:0:0:
448,192,37095,1,0,0:0:0:0:
64,192,37095,1,0,0:0:0:0:
192,192,37139,1,0,0:0:0:0:
448,192,37227,1,0,0:0:0:0:
320,192,37294,1,0,0:0:0:0:
192,192,37360,1,0,0:0:0:0:
64,192,37360,1,0,0:0:0:0:
448,192,37404,1,0,0:0:0:0:
320,192,37449,1,0,0:0:0:0:
64,192,37515,1,0,0:0:0:0:
192,192,37581,1,0,0:0:0:0:
320,192,37626,1,0,0:0:0:0:
448,192,37626,1,0,0:0:0:0:
64,192,37692,1,0,0:0:0:0:
320,192,37758,1,0,0:0:0:0:
448,192,37758,1,0,0:0:0:0:
192,192,37825,1,0,0:0:0:0:
448,192,37891,1,0,0:0:0:0:
320,192,37891,1,0,0:0:0:0:
64,192,37958,1,0,0:0:0:0:
448,192,38024,1,0,0:0:0:0:
320,192,38024,1,0,0:0:0:0:
192,192,38090,1,0,0:0:0:0:
64,192,38157,1,0,0:0:0:0:
448,192,38157,1,0,0:0:0:0:
320,192,38201,1,0,0:0:0:0:
64,192,38289,1,0,0:0:0:0:
320,192,38334,1,0,0:0:0:0:
192,192,38378,1,0,0:0:0:0:
448,192,38422,1,0,0:0:0:0:
320,192,38466,1,0,0:0:0:0:
64,192,38511,1,0,0:0:0:0:
448,192,38555,1,0,0:0:0:0:
64,192,38599,1,0,0:0:0:0:
448,192,38643,1,0,0:0:0:0:
192,192,38688,1,0,0:0:0:0:
320,192,38688,1,0,0:0:0:0:
64,192,38754,1,0,0:0:0:0:
320,192,38798,1,0,0:0:0:0:
192,192,38842,1,0,0:0:0:0:
64,192,38887,1,0,0:0:0:0:
320,192,38953,1,0,0:0:0:0:
448,192,38953,1,0,0:0:0:0:
192,192,38997,1,0,0:0:0:0:
448,192,39042,1,0,0:0:0:0:
320,192,39086,1,0,0:0:0:0:
192,192,39152,1,0,0:0:0:0:
64,192,39219,1,0,0:0:0:0:
448,192,39219,1,0,0:0:0:0:
320,192,39263,1,0,0:0:0:0:
64,192,39307,1,0,0:0:0:0:
192,192,39351,1,0,0:0:0:0:
320,192,39418,1,0,0:0:0:0:
448,192,39484,1,0,0:0:0:0:
64,192,39484,1,0,0:0:0:0:
192,192,39528,1,0,0:0:0:0:
448,192,39573,1,0,0:0:0:0:
320,192,39617,1,0,0:0:0:0:
192,192,39683,1,0,0:0:0:0:
64,192,39750,1,0,0:0:0:0:
448,192,39750,1,0,0:0:0:0:
320,192,39816,1,0,0:0:0:0:
64,192,39882,1,0,0:0:0:0:
192,192,39882,1,0,0:0:0:0:
320,192,39949,1,0,0:0:0:0:
448,192,40015,1,0,0:0:0:0:
64,192,40015,1,0,0:0:0:0:
192,192,40081,1,0,0:0:0:0:
64,192,40148,1,0,0:0:0:0:
320,192,40192,1,0,0:0:0:0:
192,192,40236,1,0,0:0:0:0:
64,192,40281,1,0,0:0:0:0:
448,192,40281,1,0,0:0:0:0:
320,192,40347,1,0,0:0:0:0:
448,192,40413,1,0,0:0:0:0:
192,192,40413,1,0,0:0:0:0:
64,192,40480,1,0,0:0:0:0:
320,192,40546,1,0,0:0:0:0:
448,192,40546,1,0,0:0:0:0:
192,192,40612,1,0,0:0:0:0:
448,192,40679,1,0,0:0:0:0:
64,192,40679,1,0,0:0:0:0:
320,192,40745,1,0,0:0:0:0:
64,192,40811,1,0,0:0:0:0:
192,192,40811,1,0,0:0:0:0:
448,192,40811,1,0,0:0:0:0:
320,192,40900,1,0,0:0:0:0:
192,192,40944,1,0,0:0:0:0:
64,192,40988,1,0,0:0:0:0:
192,192,41077,1,0,0:0:0:0:
320,192,41077,1,0,0:0:0:0:
448,192,41077,1,0,0:0:0:0:
64,192,41165,1,0,0:0:0:0:
320,192,41210,1,0,0:0:0:0:
448,192,41254,1,0,0:0:0:0:
320,192,41342,1,0,0:0:0:0:
192,192,41342,1,0,0:0:0:0:
64,192,41342,1,0,0:0:0:0:
448,192,41431,1,0,0:0:0:0:
64,192,41475,1,0,0:0:0:0:
192,192,41519,1,0,0:0:0:0:
64,192,41608,1,0,0:0:0:0:
320,192,41608,1,0,0:0:0:0:
448,192,41608,1,0,0:0:0:0:
192,192,41696,1,0,0:0:0:0:
448,192,41741,1,0,0:0:0:0:
320,192,41785,1,0,0:0:0:0:
448,192,41873,1,0,0:0:0:0:
64,192,41873,1,0,0:0:0:0:
192,192,41918,1,0,0:0:0:0:
320,192,41962,1,0,0:0:0:0:
448,192,42006,1,0,0:0:0:0:
320,192,42073,1,0,0:0:0:0:
192,192,42139,1,0,0:0:0:0:
64,192,42139,1,0,0:0:0:0:
448,192,42205,1,0,0:0:0:0:
320,192,42272,1,0,0:0:0:0:
64,192,42272,1,0,0:0:0:0:
192,192,42338,1,0,0:0:0:0:
64,192,42404,1,0,0:0:0:0:
448,192,42404,1,0,0:0:0:0:
320,192,42471,1,0,0:0:0:0:
192,192,42515,1,0,0:0:0:0:
64,192,42559,1,0,0:0:0:0:
320,192,42626,1,0,0:0:0:0:
448,192,42670,1,0,0:0:0:0:
64,192,42670,1,0,0:0:0:0:
192,192,42736,1,0,0:0:0:0:
320,192,42781,1,0,0:0:0:0:
448,192,42825,1,0,0:0:0:0:
192,192,42891,1,0,0:0:0:0:
448,192,42935,1,0,0:0:0:0:
64,192,42935,1,0,0:0:0:0:
320,192,42980,1,0,0:0:0:0:
192,192,43024,1,0,0:0:0:0:
64,192,43068,1,0,0:0:0:0:
320,192,43112,1,0,0:0:0:0:
448,192,43157,1,0,0:0:0:0:
64,192,43201,1,0,0:0:0:0:
192,192,43267,1,0,0:0:0:0:
320,192,43334,1,0,0:0:0:0:
448,192,43378,1,0,0:0:0:0:
64,192,43378,1,0,0:0:0:0:
192,192,43422,1,0,0:0:0:0:
320,192,43466,1,0,0:0:0:0:
64,192,43511,1,0,0:0:0:0:
192,192,43555,1,0,0:0:0:0:
320,192,43599,1,0,0:0:0:0:
448,192,43599,1,0,0:0:0:0:
64,192,43665,1,0,0:0:0:0:
320,192,43732,1,0,0:0:0:0:
448,192,43732,1,0,0:0:0:0:
64,192,43776,1,0,0:0:0:0:
192,192,43820,1,0,0:0:0:0:
320,192,43887,1,0,0:0:0:0:
448,192,43953,1,0,0:0:0:0:
192,192,43997,1,0,0:0:0:0:
64,192,43997,1,0,0:0:0:0:
448,192,44064,1,0,0:0:0:0:
192,192,44130,1,0,0:0:0:0:
64,192,44130,1,0,0:0:0:0:
320,192,44196,1,0,0:0:0:0:
64,192,44263,1,0,0:0:0:0:
192,192,44263,1,0,0:0:0:0:
448,192,44329,1,0,0:0:0:0:
64,192,44396,1,0,0:0:0:0:
192,192,44396,1,0,0:0:0:0:
320,192,44462,1,0,0:0:0:0:
64,192,44528,1,0,0:0:0:0:
448,192,44528,1,0,0:0:0:0:
192,192,44573,1,0,0:0:0:0:
448,192,44661,1,0,0:0:0:0:
320,192,44727,1,0,0:0:0:0:
192,192,44794,1,0,0:0:0:0:
64,192,44794,1,0,0:0:0:0:
448,192,44838,1,0,0:0:0:0:
320,192,44882,1,0,0:0:0:0:
64,192,44949,1,0,0:0:0:0:
192,192,45015,1,0,0:0:0:0:
320,192,45059,1,0,0:0:0:0:
448,192,45059,1,0,0:0:0:0:
64,192,45126,1,0,0:0:0:0:
320,192,45192,1,0,0:0:0:0:
448,192,45192,1,0,0:0:0:0:
192,192,45258,1,0,0:0:0:0:
448,192,45325,1,0,0:0:0:0:
320,192,45325,1,0,0:0:0:0:
64,192,45391,1,0,0:0:0:0:
448,192,45458,1,0,0:0:0:0:
320,192,45458,1,0,0:0:0:0:
192,192,45524,1,0,0:0:0:0:
64,192,45590,1,0,0:0:0:0:
448,192,45590,1,0,0:0:0:0:
320,192,45634,1,0,0:0:0:0:
64,192,45723,1,0,0:0:0:0:
192,192,45789,1,0,0:0:0:0:
320,192,45856,1,0,0:0:0:0:
448,192,45856,1,0,0:0:0:0:
64,192,45900,1,0,0:0:0:0:
192,192,45944,1,0,0:0:0:0:
448,192,46011,1,0,0:0:0:0:
320,192,46077,1,0,0:0:0:0:
192,192,46121,1,0,0:0:0:0:
64,192,46121,1,0,0:0:0:0:
448,192,46188,1,0,0:0:0:0:
192,192,46254,1,0,0:0:0:0:
64,192,46254,1,0,0:0:0:0:
320,192,46320,1,0,0:0:0:0:
64,192,46387,1,0,0:0:0:0:
192,192,46387,1,0,0:0:0:0:
448,192,46453,1,0,0:0:0:0:
64,192,46519,1,0,0:0:0:0:
192,192,46519,1,0,0:0:0:0:
320,192,46586,1,0,0:0:0:0:
448,192,46652,1,0,0:0:0:0:
64,192,46652,1,0,0:0:0:0:
192,192,46696,1,0,0:0:0:0:
448,192,46785,1,0,0:0:0:0:
320,192,46785,1,0,0:0:0:0:
192,192,46851,1,0,0:0:0:0:
64,192,46918,1,0,0:0:0:0:
448,192,46962,1,0,0:0:0:0:
64,192,47006,1,0,0:0:0:0:
192,192,47050,1,0,0:0:0:0:
448,192,47095,1,0,0:0:0:0:
320,192,47139,1,0,0:0:0:0:
64,192,47183,1,0,0:0:0:0:
192,192,47183,1,0,0:0:0:0:
320,192,47272,1,0,0:0:0:0:
448,192,47316,1,0,0:0:0:0:
192,192,47316,1,0,0:0:0:0:
64,192,47360,1,0,0:0:0:0:
320,192,47449,1,0,0:0:0:0:
448,192,47449,1,0,0:0:0:0:
192,192,47537,1,0,0:0:0:0:
64,192,47581,1,0,0:0:0:0:
320,192,47581,1,0,0:0:0:0:
448,192,47626,1,0,0:0:0:0:
64,192,47714,1,0,0:0:0:0:
192,192,47714,1,0,0:0:0:0:
320,192,47758,1,0,0:0:0:0:
448,192,47803,1,0,0:0:0:0:
192,192,47847,1,0,0:0:0:0:
320,192,47913,1,0,0:0:0:0:
64,192,47980,1,0,0:0:0:0:
448,192,47980,1,0,0:0:0:0:
320,192,48024,1,0,0:0:0:0:
192,192,48068,1,0,0:0:0:0:
64,192,48112,1,0,0:0:0:0:
320,192,48179,1,0,0:0:0:0:
448,192,48245,1,0,0:0:0:0:
64,192,48245,1,0,0:0:0:0:
192,192,48289,1,0,0:0:0:0:
320,192,48334,1,0,0:0:0:0:
448,192,48378,1,0,0:0:0:0:
192,192,48444,1,0,0:0:0:0:
448,192,48511,1,0,0:0:0:0:
64,192,48511,1,0,0:0:0:0:
192,192,48577,1,0,0:0:0:0:
320,192,48643,1,0,0:0:0:0:
448,192,48643,1,0,0:0:0:0:
192,192,48710,1,0,0:0:0:0:
64,192,48776,1,0,0:0:0:0:
448,192,48776,1,0,0:0:0:0:
320,192,48820,1,0,0:0:0:0:
192,192,48865,1,0,0:0:0:0:
64,192,48909,1,0,0:0:0:0:
320,192,48975,1,0,0:0:0:0:
192,192,49042,1,0,0:0:0:0:
64,192,49042,1,0,0:0:0:0:
448,192,49108,1,0,0:0:0:0:
320,192,49174,1,0,0:0:0:0:
64,192,49174,1,0,0:0:0:0:
192,192,49241,1,0,0:0:0:0:
448,192,49307,1,0,0:0:0:0:
64,192,49307,1,0,0:0:0:0:
320,192,49307,1,0,0:0:0:0:
192,192,49373,1,0,0:0:0:0:
448,192,49440,1,0,0:0:0:0:
320,192,49440,1,0,0:0:0:0:
192,192,49506,1,0,0:0:0:0:
64,192,49573,1,0,0:0:0:0:
448,192,49573,1,0,0:0:0:0:
320,192,49639,1,0,0:0:0:0:
448,192,49705,1,0,0:0:0:0:
192,192,49750,1,0,0:0:0:0:
320,192,49794,1,0,0:0:0:0:
448,192,49838,1,0,0:0:0:0:
64,192,49838,1,0,0:0:0:0:
192,192,49904,1,0,0:0:0:0:
64,192,49971,1,0,0:0:0:0:
320,192,49971,1,0,0:0:0:0:
448,192,50037,1,0,0:0:0:0:
192,192,50104,1,0,0:0:0:0:
64,192,50104,1,0,0:0:0:0:
320,192,50170,1,0,0:0:0:0:
448,192,50236,1,0,0:0:0:0:
192,192,50303,1,0,0:0:0:0:
448,192,50369,1,0,0:0:0:0:
64,192,50369,1,0,0:0:0:0:
320,192,50402,1,0,0:0:0:0:
192,192,50435,1,0,0:0:0:0:
448,192,50502,1,0,0:0:0:0:
320,192,50568,1,0,0:0:0:0:
64,192,50634,1,0,0:0:0:0:
448,192,50634,1,0,0:0:0:0:
192,192,50668,1,0,0:0:0:0:
320,192,50701,1,0,0:0:0:0:
64,192,50767,1,0,0:0:0:0:
192,192,50834,1,0,0:0:0:0:
448,192,50900,1,0,0:0:0:0:
64,192,50900,1,0,0:0:0:0:
320,192,50933,1,0,0:0:0:0:
192,192,50966,1,0,0:0:0:0:
448,192,51033,1,0,0:0:0:0:
320,192,51099,1,0,0:0:0:0:
448,192,51165,1,0,0:0:0:0:
64,192,51165,1,0,0:0:0:0:
192,192,51199,1,0,0:0:0:0:
320,192,51232,1,0,0:0:0:0:
64,192,51298,1,0,0:0:0:0:
192,192,51431,1,0,0:0:0:0:
64,192,51431,1,0,0:0:0:0:
320,192,51431,1,0,0:0:0:0:
448,192,51431,1,0,0:0:0:0:
192,192,51564,1,0,0:0:0:0:
320,192,51564,1,0,0:0:0:0:
448,192,51564,1,0,0:0:0:0:
448,192,51696,1,0,0:0:0:0:
320,192,51696,1,0,0:0:0:0:
448,192,51829,1,0,0:0:0:0:
192,192,51829,1,0,0:0:0:0:
64,192,51829,1,0,0:0:0:0:
320,192,51829,1,0,0:0:0:0:
64,192,51962,1,0,0:0:0:0:
192,192,51962,1,0,0:0:0:0:
320,192,51962,1,0,0:0:0:0:
64,192,52095,1,0,0:0:0:0:
192,192,52095,1,0,0:0:0:0:
64,192,52227,1,0,0:0:0:0:
320,192,52227,1,0,0:0:0:0:
448,192,52227,1,0,0:0:0:0:
192,192,52227,1,0,0:0:0:0:
192,192,52360,1,0,0:0:0:0:
320,192,52360,1,0,0:0:0:0:
448,192,52360,1,0,0:0:0:0:
448,192,52493,1,0,0:0:0:0:
320,192,52493,1,0,0:0:0:0:
448,192,52626,1,0,0:0:0:0:
192,192,52626,1,0,0:0:0:0:
64,192,52626,1,0,0:0:0:0:
320,192,52626,1,0,0:0:0:0:
64,192,52758,1,0,0:0:0:0:
192,192,52758,1,0,0:0:0:0:
320,192,52758,1,0,0:0:0:0:
64,192,52891,1,0,0:0:0:0:
192,192,52891,1,0,0:0:0:0:
64,192,53024,1,0,0:0:0:0:
192,192,53024,1,0,0:0:0:0:
320,192,53024,1,0,0:0:0:0:
448,192,53024,1,0,0:0:0:0:
448,192,53157,1,0,0:0:0:0:
64,192,53157,1,0,0:0:0:0:
320,192,53157,1,0,0:0:0:0:
192,192,53157,1,0,0:0:0:0:
320,192,53289,1,0,0:0:0:0:
192,192,53289,1,0,0:0:0:0:
448,192,53289,1,0,0:0:0:0:
64,192,53289,1,0,0:0:0:0:
192,192,53422,1,0,0:0:0:0:
320,192,53422,1,0,0:0:0:0:
448,192,53555,1,0,0:0:0:0:
320,192,53555,1,0,0:0:0:0:
64,192,53555,1,0,0:0:0:0:
192,192,53555,1,0,0:0:0:0:
448,192,53688,1,0,0:0:0:0:
320,192,53688,1,0,0:0:0:0:
192,192,53688,1,0,0:0:0:0:
320,192,53820,1,0,0:0:0:0:
448,192,53820,1,0,0:0:0:0:
64,192,53953,1,0,0:0:0:0:
192,192,53953,1,0,0:0:0:0:
448,192,53953,1,0,0:0:0:0:
320,192,53953,1,0,0:0:0:0:
320,192,54086,1,0,0:0:0:0:
192,192,54086,1,0,0:0:0:0:
64,192,54086,1,0,0:0:0:0:
192,192,54219,1,0,0:0:0:0:
64,192,54219,1,0,0:0:0:0:
64,192,54351,1,0,0:0:0:0:
320,192,54351,1,0,0:0:0:0:
448,192,54351,1,0,0:0:0:0:
192,192,54351,1,0,0:0:0:0:
192,192,54484,1,0,0:0:0:0:
320,192,54484,1,0,0:0:0:0:
448,192,54484,1,0,0:0:0:0:
448,192,54617,1,0,0:0:0:0:
320,192,54617,1,0,0:0:0:0:
448,192,54750,1,0,0:0:0:0:
192,192,54750,1,0,0:0:0:0:
64,192,54750,1,0,0:0:0:0:
320,192,54750,1,0,0:0:0:0:
64,192,54882,1,0,0:0:0:0:
192,192,54882,1,0,0:0:0:0:
320,192,54882,1,0,0:0:0:0:
64,192,55015,1,0,0:0:0:0:
192,192,55015,1,0,0:0:0:0:
448,192,55148,1,0,0:0:0:0:
320,192,55148,1,0,0:0:0:0:
64,192,55148,1,0,0:0:0:0:
192,192,55148,1,0,0:0:0:0:
320,192,55281,1,0,0:0:0:0:
448,192,55281,1,0,0:0:0:0:
192,192,55413,1,0,0:0:0:0:
320,192,55413,1,0,0:0:0:0:
64,192,55546,1,0,0:0:0:0:
192,192,55546,1,0,0:0:0:0:
64,192,55679,1,0,0:0:0:0:
448,192,55679,1,0,0:0:0:0:
320,192,55679,1,0,0:0:0:0:
192,192,55745,1,0,0:0:0:0:
448,192,55811,1,0,0:0:0:0:
192,192,55878,1,0,0:0:0:0:
64,192,55944,1,0,0:0:0:0:
448,192,55944,1,0,0:0:0:0:
320,192,56011,1,0,0:0:0:0:
448,192,56077,1,0,0:0:0:0:
320,192,56143,1,0,0:0:0:0:
192,192,56210,1,0,0:0:0:0:
64,192,56210,1,0,0:0:0:0:
448,192,56276,1,0,0:0:0:0:
320,192,56342,1,0,0:0:0:0:
192,192,56409,1,0,0:0:0:0:
64,192,56475,1,0,0:0:0:0:
320,192,56475,1,0,0:0:0:0:
448,192,56542,1,0,0:0:0:0:
192,192,56608,1,0,0:0:0:0:
320,192,56674,1,0,0:0:0:0:
448,192,56741,1,0,0:0:0:0:
64,192,56741,1,0,0:0:0:0:
192,192,56741,1,0,0:0:0:0:
320,192,56807,1,0,0:0:0:0:
64,192,56873,1,0,0:0:0:0:
320,192,56940,1,0,0:0:0:0:
448,192,57006,1,0,0:0:0:0:
64,192,57006,1,0,0:0:0:0:
192,192,57073,1,0,0:0:0:0:
64,192,57139,1,0,0:0:0:0:
192,192,57205,1,0,0:0:0:0:
320,192,57272,1,0,0:0:0:0:
448,192,57272,1,0,0:0:0:0:
64,192,57338,1,0,0:0:0:0:
192,192,57404,1,0,0:0:0:0:
320,192,57471,1,0,0:0:0:0:
448,192,57537,1,0,0:0:0:0:
192,192,57537,1,0,0:0:0:0:
64,192,57604,1,0,0:0:0:0:
320,192,57670,1,0,0:0:0:0:
192,192,57736,1,0,0:0:0:0:
320,192,57803,1,0,0:0:0:0:
448,192,57803,1,0,0:0:0:0:
64,192,57803,1,0,0:0:0:0:
192,192,57869,1,0,0:0:0:0:
448,192,57935,1,0,0:0:0:0:
192,192,58002,1,0,0:0:0:0:
448,192,58068,1,0,0:0:0:0:
64,192,58068,1,0,0:0:0:0:
320,192,58134,1,0,0:0:0:0:
448,192,58201,1,0,0:0:0:0:
320,192,58267,1,0,0:0:0:0:
64,192,58334,1,0,0:0:0:0:
192,192,58334,1,0,0:0:0:0:
448,192,58400,1,0,0:0:0:0:
320,192,58466,1,0,0:0:0:0:
192,192,58533,1,0,0:0:0:0:
448,192,58599,1,0,0:0:0:0:
64,192,58599,1,0,0:0:0:0:
320,192,58665,1,0,0:0:0:0:
192,192,58732,1,0,0:0:0:0:
448,192,58798,1,0,0:0:0:0:
192,192,58865,1,0,0:0:0:0:
64,192,58865,1,0,0:0:0:0:
320,192,58865,1,0,0:0:0:0:
448,192,58931,1,0,0:0:0:0:
64,192,58997,1,0,0:0:0:0:
448,192,59064,1,0,0:0:0:0:
64,192,59130,1,0,0:0:0:0:
320,192,59130,1,0,0:0:0:0:
192,192,59196,1,0,0:0:0:0:
64,192,59263,1,0,0:0:0:0:
192,192,59329,1,0,0:0:0:0:
448,192,59396,1,0,0:0:0:0:
320,192,59396,1,0,0:0:0:0:
64,192,59462,1,0,0:0:0:0:
192,192,59528,1,0,0:0:0:0:
320,192,59595,1,0,0:0:0:0:
64,192,59661,1,0,0:0:0:0:
448,192,59661,1,0,0:0:0:0:
192,192,59727,1,0,0:0:0:0:
320,192,59794,1,0,0:0:0:0:
64,192,59860,1,0,0:0:0:0:
192,192,59927,1,0,0:0:0:0:
448,192,59927,1,0,0:0:0:0:
320,192,59927,1,0,0:0:0:0:
64,192,59993,1,0,0:0:0:0:
448,192,60059,1,0,0:0:0:0:
192,192,60126,1,0,0:0:0:0:
64,192,60192,1,0,0:0:0:0:
448,192,60192,1,0,0:0:0:0:
320,192,60258,1,0,0:0:0:0:
448,192,60325,1,0,0:0:0:0:
320,192,60391,1,0,0:0:0:0:
64,192,60458,1,0,0:0:0:0:
192,192,60458,1,0,0:0:0:0:
448,192,60524,1,0,0:0:0:0:
320,192,60590,1,0,0:0:0:0:
64,192,60657,1,0,0:0:0:0:
192,192,60723,1,0,0:0:0:0:
448,192,60723,1,0,0:0:0:0:
320,192,60789,1,0,0:0:0:0:
64,192,60856,1,0,0:0:0:0:
448,192,60922,1,0,0:0:0:0:
320,192,60988,1,0,0:0:0:0:
192,192,60988,1,0,0:0:0:0:
64,192,60988,1,0,0:0:0:0:
448,192,61055,1,0,0:0:0:0:
192,192,61121,1,0,0:0:0:0:
320,192,61188,1,0,0:0:0:0:
448,192,61254,1,0,0:0:0:0:
192,192,61254,1,0,0:0:0:0:
64,192,61320,1,0,0:0:0:0:
192,192,61387,1,0,0:0:0:0:
64,192,61453,1,0,0:0:0:0:
320,192,61519,1,0,0:0:0:0:
448,192,61519,1,0,0:0:0:0:
192,192,61586,1,0,0:0:0:0:
64,192,61652,1,0,0:0:0:0:
320,192,61719,1,0,0:0:0:0:
448,192,61785,1,0,0:0:0:0:
64,192,61785,1,0,0:0:0:0:
192,192,61851,1,0,0:0:0:0:
320,192,61918,1,0,0:0:0:0:
64,192,61984,1,0,0:0:0:0:
320,192,62050,1,0,0:0:0:0:
448,192,62050,1,0,0:0:0:0:
192,192,62050,1,0,0:0:0:0:
64,192,62117,1,0,0:0:0:0:
448,192,62183,1,0,0:0:0:0:
64,192,62250,1,0,0:0:0:0:
448,192,62316,1,0,0:0:0:0:
192,192,62316,1,0,0:0:0:0:
320,192,62382,1,0,0:0:0:0:
448,192,62449,1,0,0:0:0:0:
320,192,62515,1,0,0:0:0:0:
192,192,62581,1,0,0:0:0:0:
64,192,62581,1,0,0:0:0:0:
448,192,62648,1,0,0:0:0:0:
320,192,62714,1,0,0:0:0:0:
64,192,62781,1,0,0:0:0:0:
448,192,62847,1,0,0:0:0:0:
192,192,62847,1,0,0:0:0:0:
320,192,62913,1,0,0:0:0:0:
64,192,62980,1,0,0:0:0:0:
448,192,63046,1,0,0:0:0:0:
64,192,63112,1,0,0:0:0:0:
192,192,63112,1,0,0:0:0:0:
320,192,63112,1,0,0:0:0:0:
448,192,63179,1,0,0:0:0:0:
192,192,63245,1,0,0:0:0:0:
448,192,63311,1,0,0:0:0:0:
192,192,63378,1,0,0:0:0:0:
320,192,63378,1,0,0:0:0:0:
64,192,63444,1,0,0:0:0:0:
192,192,63511,1,0,0:0:0:0:
64,192,63577,1,0,0:0:0:0:
320,192,63643,1,0,0:0:0:0:
448,192,63643,1,0,0:0:0:0:
192,192,63710,1,0,0:0:0:0:
64,192,63776,1,0,0:0:0:0:
448,192,63842,1,0,0:0:0:0:
192,192,63909,1,0,0:0:0:0:
320,192,63909,1,0,0:0:0:0:
448,192,63975,1,0,0:0:0:0:
64,192,64042,1,0,0:0:0:0:
320,192,64108,1,0,0:0:0:0:
64,192,64174,1,0,0:0:0:0:
192,192,64174,1,0,0:0:0:0:
448,192,64174,1,0,0:0:0:0:
320,192,64241,1,0,0:0:0:0:
192,192,64307,1,0,0:0:0:0:
320,192,64373,1,0,0:0:0:0:
192,192,64440,1,0,0:0:0:0:
448,192,64440,1,0,0:0:0:0:
64,192,64506,1,0,0:0:0:0:
192,192,64573,1,0,0:0:0:0:
64,192,64639,1,0,0:0:0:0:
448,192,64705,1,0,0:0:0:0:
320,192,64705,1,0,0:0:0:0:
192,192,64772,1,0,0:0:0:0:
64,192,64838,1,0,0:0:0:0:
320,192,64904,1,0,0:0:0:0:
192,192,64971,1,0,0:0:0:0:
448,192,64971,1,0,0:0:0:0:
64,192,65037,1,0,0:0:0:0:
320,192,65104,1,0,0:0:0:0:
192,192,65170,1,0,0:0:0:0:
320,192,65236,1,0,0:0:0:0:
448,192,65236,1,0,0:0:0:0:
64,192,65236,1,0,0:0:0:0:
192,192,65303,1,0,0:0:0:0:
448,192,65369,1,0,0:0:0:0:
64,192,65435,1,0,0:0:0:0:
448,192,65502,1,0,0:0:0:0:
192,192,65502,1,0,0:0:0:0:
320,192,65568,1,0,0:0:0:0:
448,192,65634,1,0,0:0:0:0:
320,192,65701,1,0,0:0:0:0:
64,192,65767,1,0,0:0:0:0:
192,192,65767,1,0,0:0:0:0:
448,192,65834,1,0,0:0:0:0:
320,192,65900,1,0,0:0:0:0:
192,192,65966,1,0,0:0:0:0:
320,192,66033,1,0,0:0:0:0:
64,192,66033,1,0,0:0:0:0:
448,192,66099,1,0,0:0:0:0:
192,192,66165,1,0,0:0:0:0:
320,192,66232,1,0,0:0:0:0:
448,192,66298,1,0,0:0:0:0:
64,192,66298,1,0,0:0:0:0:
192,192,66298,1,0,0:0:0:0:
320,192,66365,1,0,0:0:0:0:
64,192,66431,1,0,0:0:0:0:
320,192,66497,1,0,0:0:0:0:
448,192,66564,1,0,0:0:0:0:
64,192,66564,1,0,0:0:0:0:
192,192,66630,1,0,0:0:0:0:
64,192,66696,1,0,0:0:0:0:
192,192,66763,1,0,0:0:0:0:
320,192,66829,1,0,0:0:0:0:
448,192,66829,1,0,0:0:0:0:
64,192,66896,1,0,0:0:0:0:
192,192,66962,1,0,0:0:0:0:
320,192,67028,1,0,0:0:0:0:
448,192,67095,1,0,0:0:0:0:
64,192,67095,1,0,0:0:0:0:
192,192,67161,1,0,0:0:0:0:
320,192,67227,1,0,0:0:0:0:
64,192,67294,1,0,0:0:0:0:
192,192,67360,1,0,0:0:0:0:
448,192,67360,1,0,0:0:0:0:
320,192,67360,1,0,0:0:0:0:
64,192,67427,1,0,0:0:0:0:
448,192,67493,1,0,0:0:0:0:
64,192,67559,1,0,0:0:0:0:
192,192,67626,1,0,0:0:0:0:
448,192,67626,1,0,0:0:0:0:
320,192,67692,1,0,0:0:0:0:
448,192,67758,1,0,0:0:0:0:
320,192,67825,1,0,0:0:0:0:
192,192,67891,1,0,0:0:0:0:
64,192,67891,1,0,0:0:0:0:
448,192,67958,1,0,0:0:0:0:
320,192,68024,1,0,0:0:0:0:
192,192,68090,1,0,0:0:0:0:
64,192,68157,1,0,0:0:0:0:
448,192,68157,1,0,0:0:0:0:
320,192,68223,1,0,0:0:0:0:
192,192,68289,1,0,0:0:0:0:
448,192,68356,1,0,0:0:0:0:
320,192,68422,1,0,0:0:0:0:
64,192,68422,1,0,0:0:0:0:
192,192,68422,1,0,0:0:0:0:
448,192,68488,1,0,0:0:0:0:
64,192,68555,1,0,0:0:0:0:
320,192,68621,1,0,0:0:0:0:
448,192,68688,1,0,0:0:0:0:
64,192,68688,1,0,0:0:0:0:
192,192,68754,1,0,0:0:0:0:
64,192,68820,1,0,0:0:0:0:
192,192,68887,1,0,0:0:0:0:
448,192,68953,1,0,0:0:0:0:
320,192,68953,1,0,0:0:0:0:
64,192,69019,1,0,0:0:0:0:
192,192,69086,1,0,0:0:0:0:
448,192,69152,1,0,0:0:0:0:
320,192,69219,1,0,0:0:0:0:
64,192,69219,1,0,0:0:0:0:
192,192,69285,1,0,0:0:0:0:
448,192,69351,1,0,0:0:0:0:
64,192,69418,1,0,0:0:0:0:
192,192,69484,1,0,0:0:0:0:
320,192,69484,1,0,0:0:0:0:
448,192,69484,1,0,0:0:0:0:
64,192,69550,1,0,0:0:0:0:
320,192,69617,1,0,0:0:0:0:
192,192,69683,1,0,0:0:0:0:
64,192,69750,1,0,0:0:0:0:
320,192,69750,1,0,0:0:0:0:
448,192,69816,1,0,0:0:0:0:
320,192,69882,1,0,0:0:0:0:
448,192,69949,1,0,0:0:0:0:
192,192,70015,1,0,0:0:0:0:
64,192,70015,1,0,0:0:0:0:
320,192,70081,1,0,0:0:0:0:
448,192,70148,1,0,0:0:0:0:
192,192,70214,1,0,0:0:0:0:
64,192,70281,1,0,0:0:0:0:
448,192,70281,1,0,0:0:0:0:
320,192,70347,1,0,0:0:0:0:
192,192,70413,1,0,0:0:0:0:
448,192,70480,1,0,0:0:0:0:
192,192,70546,1,0,0:0:0:0:
64,192,70546,1,0,0:0:0:0:
320,192,70546,1,0,0:0:0:0:
448,192,70612,1,0,0:0:0:0:
64,192,70679,1,0,0:0:0:0:
448,192,70745,1,0,0:0:0:0:
64,192,70811,1,0,0:0:0:0:
320,192,70811,1,0,0:0:0:0:
192,192,70878,1,0,0:0:0:0:
64,192,70944,1,0,0:0:0:0:
192,192,71011,1,0,0:0:0:0:
320,192,71077,1,0,0:0:0:0:
448,192,71077,1,0,0:0:0:0:
64,192,71143,1,0,0:0:0:0:
192,192,71210,1,0,0:0:0:0:
448,192,71276,1,0,0:0:0:0:
64,192,71342,1,0,0:0:0:0:
320,192,71342,1,0,0:0:0:0:
192,192,71409,1,0,0:0:0:0:
448,192,71475,1,0,0:0:0:0:
64,192,71542,1,0,0:0:0:0:
448,192,71608,1,0,0:0:0:0:
320,192,71608,1,0,0:0:0:0:
192,192,71608,1,0,0:0:0:0:
64,192,71674,1,0,0:0:0:0:
320,192,71741,1,0,0:0:0:0:
64,192,71807,1,0,0:0:0:0:
320,192,71873,1,0,0:0:0:0:
192,192,71873,1,0,0:0:0:0:
448,192,71940,1,0,0:0:0:0:
320,192,72006,1,0,0:0:0:0:
448,192,72073,1,0,0:0:0:0:
64,192,72139,1,0,0:0:0:0:
192,192,72139,1,0,0:0:0:0:
320,192,72205,1,0,0:0:0:0:
448,192,72272,1,0,0:0:0:0:
192,192,72338,1,0,0:0:0:0:
320,192,72404,1,0,0:0:0:0:
64,192,72404,1,0,0:0:0:0:
448,192,72471,1,0,0:0:0:0:
192,192,72537,1,0,0:0:0:0:
448,192,72604,1,0,0:0:0:0:
64,192,72670,1,0,0:0:0:0:
192,192,72670,1,0,0:0:0:0:
320,192,72803,1,0,0:0:0:0:
448,192,72935,1,0,0:0:0:0:
64,192,72935,1,0,0:0:0:0:
64,192,73068,1,0,0:0:0:0:
320,192,73068,1,0,0:0:0:0:
192,192,73201,1,0,0:0:0:0:
64,192,73334,1,0,0:0:0:0:
320,192,73334,1,0,0:0:0:0:
448,192,73466,1,0,0:0:0:0:
192,192,73599,1,0,0:0:0:0:
64,192,73732,1,0,0:0:0:0:
192,192,73865,1,0,0:0:0:0:
448,192,73997,1,0,0:0:0:0:
320,192,73997,1,0,0:0:0:0:
192,192,74130,1,0,0:0:0:0:
448,192,74263,1,0,0:0:0:0:
64,192,74263,1,0,0:0:0:0:
320,192,74396,1,0,0:0:0:0:
448,192,74396,1,0,0:0:0:0:
192,192,74528,1,0,0:0:0:0:
64,192,74661,1,0,0:0:0:0:
320,192,74794,1,0,0:0:0:0:
192,192,74927,1,0,0:0:0:0:
448,192,75059,1,0,0:0:0:0:
320,192,75192,1,0,0:0:0:0:
64,192,75325,1,0,0:0:0:0:
192,192,75458,1,0,0:0:0:0:
320,192,75590,1,0,0:0:0:0:
448,192,75723,1,0,0:0:0:0:
64,192,75856,1,0,0:0:0:0:
192,192,75988,1,0,0:0:0:0:
320,192,76121,1,0,0:0:0:0:
192,192,76254,1,0,0:0:0:0:
64,192,76387,1,0,0:0:0:0:
320,192,76519,1,0,0:0:0:0:
448,192,76652,1,0,0:0:0:0:
192,192,76652,1,0,0:0:0:0:
448,192,76785,1,0,0:0:0:0:
64,192,76785,1,0,0:0:0:0:
448,192,76918,1,0,0:0:0:0:
320,192,76918,1,0,0:0:0:0:
64,192,76918,1,0,0:0:0:0:
192,192,76984,1,0,0:0:0:0:
320,192,77050,1,0,0:0:0:0:
64,192,77117,1,0,0:0:0:0:
448,192,77183,1,0,0:0:0:0:
192,192,77183,1,0,0:0:0:0:
448,192,77316,1,0,0:0:0:0:
320,192,77316,1,0,0:0:0:0:
192,192,77449,1,0,0:0:0:0:
448,192,77581,1,0,0:0:0:0:
64,192,77581,1,0,0:0:0:0:
320,192,77714,1,0,0:0:0:0:
192,192,77847,1,0,0:0:0:0:
448,192,77980,1,0,0:0:0:0:
320,192,78112,1,0,0:0:0:0:
64,192,78245,1,0,0:0:0:0:
192,192,78245,1,0,0:0:0:0:
320,192,78378,1,0,0:0:0:0:
64,192,78511,1,0,0:0:0:0:
192,192,78511,1,0,0:0:0:0:
64,192,78643,1,0,0:0:0:0:
448,192,78643,1,0,0:0:0:0:
320,192,78776,1,0,0:0:0:0:
192,192,78909,1,0,0:0:0:0:
64,192,79042,1,0,0:0:0:0:
448,192,79042,1,0,0:0:0:0:
320,192,79174,1,0,0:0:0:0:
192,192,79307,1,0,0:0:0:0:
448,192,79440,1,0,0:0:0:0:
320,192,79573,1,0,0:0:0:0:
64,192,79705,1,0,0:0:0:0:
192,192,79838,1,0,0:0:0:0:
320,192,79971,1,0,0:0:0:0:
448,192,80104,1,0,0:0:0:0:
192,192,80236,1,0,0:0:0:0:
448,192,80236,1,0,0:0:0:0:
192,192,80369,1,0,0:0:0:0:
320,192,80435,1,0,0:0:0:0:
320,192,80568,1,0,0:0:0:0:
64,192,80634,1,0,0:0:0:0:
64,192,80767,1,0,0:0:0:0:
448,192,80900,1,0,0:0:0:0:
448,192,81033,1,0,0:0:0:0:
64,192,81165,1,0,0:0:0:0:
320,192,81165,1,0,0:0:0:0:
192,192,81165,1,0,0:0:0:0:
448,192,81232,1,0,0:0:0:0:
320,192,81298,1,0,0:0:0:0:
192,192,81365,1,0,0:0:0:0:
448,192,81431,1,0,0:0:0:0:
64,192,81431,1,0,0:0:0:0:
64,192,81564,1,0,0:0:0:0:
320,192,81564,1,0,0:0:0:0:
192,192,81696,1,0,0:0:0:0:
64,192,81829,1,0,0:0:0:0:
320,192,81829,1,0,0:0:0:0:
448,192,81962,1,0,0:0:0:0:
192,192,82095,1,0,0:0:0:0:
64,192,82227,1,0,0:0:0:0:
448,192,82294,1,0,0:0:0:0:
192,192,82360,1,0,0:0:0:0:
64,192,82427,1,0,0:0:0:0:
448,192,82493,1,0,0:0:0:0:
320,192,82493,1,0,0:0:0:0:
64,192,82592,1,0,0:0:0:0:
192,192,82626,1,0,0:0:0:0:
320,192,82659,1,0,0:0:0:0:
448,192,82758,1,0,0:0:0:0:
64,192,82758,1,0,0:0:0:0:
320,192,82891,1,0,0:0:0:0:
448,192,82891,1,0,0:0:0:0:
64,192,82924,1,0,0:0:0:0:
192,192,83024,1,0,0:0:0:0:
320,192,83057,1,0,0:0:0:0:
448,192,83090,1,0,0:0:0:0:
64,192,83157,1,0,0:0:0:0:
320,192,83289,1,0,0:0:0:0:
192,192,83422,1,0,0:0:0:0:
448,192,83555,1,0,0:0:0:0:
320,192,83688,1,0,0:0:0:0:
64,192,83820,1,0,0:0:0:0:
192,192,83953,1,0,0:0:0:0:
320,192,84086,1,0,0:0:0:0:
448,192,84219,1,0,0:0:0:0:
64,192,84351,1,0,0:0:0:0:
448,192,84384,1,0,0:0:0:0:
320,192,84418,1,0,0:0:0:0:
192,192,84484,1,0,0:0:0:0:
448,192,84517,1,0,0:0:0:0:
64,192,84550,1,0,0:0:0:0:
320,192,84617,1,0,0:0:0:0:
448,192,84650,1,0,0:0:0:0:
64,192,84683,1,0,0:0:0:0:
192,192,84750,1,0,0:0:0:0:
320,192,84783,1,0,0:0:0:0:
448,192,84816,1,0,0:0:0:0:
64,192,84882,1,0,0:0:0:0:
192,192,84882,1,0,0:0:0:0:
448,192,84971,1,0,0:0:0:0:
320,192,85015,1,0,0:0:0:0:
64,192,85059,1,0,0:0:0:0:
448,192,85148,1,0,0:0:0:0:
192,192,85148,1,0,0:0:0:0:
320,192,85236,1,0,0:0:0:0:
448,192,85281,1,0,0:0:0:0:
64,192,85281,1,0,0:0:0:0:
192,192,85325,1,0,0:0:0:0:
448,192,85413,1,0,0:0:0:0:
320,192,85413,1,0,0:0:0:0:
64,192,85413,1,0,0:0:0:0:
192,192,85480,1,0,0:0:0:0:
320,192,85546,1,0,0:0:0:0:
64,192,85612,1,0,0:0:0:0:
448,192,85679,1,0,0:0:0:0:
192,192,85679,1,0,0:0:0:0:
448,192,85811,1,0,0:0:0:0:
320,192,85811,1,0,0:0:0:0:
192,192,85944,1,0,0:0:0:0:
448,192,86077,1,0,0:0:0:0:
64,192,86077,1,0,0:0:0:0:
320,192,86210,1,0,0:0:0:0:
192,192,86342,1,0,0:0:0:0:
448,192,86475,1,0,0:0:0:0:
320,192,86608,1,0,0:0:0:0:
64,192,86741,1,0,0:0:0:0:
192,192,86741,1,0,0:0:0:0:
320,192,86873,1,0,0:0:0:0:
64,192,87006,1,0,0:0:0:0:
192,192,87006,1,0,0:0:0:0:
64,192,87139,1,0,0:0:0:0:
448,192,87139,1,0,0:0:0:0:
320,192,87272,1,0,0:0:0:0:
192,192,87404,1,0,0:0:0:0:
448,192,87537,1,0,0:0:0:0:
64,192,87537,1,0,0:0:0:0:
192,192,87581,1,0,0:0:0:0:
320,192,87626,1,0,0:0:0:0:
448,192,87670,1,0,0:0:0:0:
192,192,87714,1,0,0:0:0:0:
320,192,87758,1,0,0:0:0:0:
448,192,87803,1,0,0:0:0:0:
64,192,87803,1,0,0:0:0:0:
192,192,87869,1,0,0:0:0:0:
448,192,87935,1,0,0:0:0:0:
320,192,87935,1,0,0:0:0:0:
192,192,88002,1,0,0:0:0:0:
64,192,88068,1,0,0:0:0:0:
448,192,88068,1,0,0:0:0:0:
320,192,88112,1,0,0:0:0:0:
192,192,88157,1,0,0:0:0:0:
64,192,88201,1,0,0:0:0:0:
320,192,88245,1,0,0:0:0:0:
192,192,88289,1,0,0:0:0:0:
64,192,88334,1,0,0:0:0:0:
448,192,88334,1,0,0:0:0:0:
320,192,88400,1,0,0:0:0:0:
64,192,88466,1,0,0:0:0:0:
192,192,88466,1,0,0:0:0:0:
320,192,88533,1,0,0:0:0:0:
448,192,88599,1,0,0:0:0:0:
64,192,88599,1,0,0:0:0:0:
192,192,88643,1,0,0:0:0:0:
320,192,88688,1,0,0:0:0:0:
448,192,88732,1,0,0:0:0:0:
192,192,88776,1,0,0:0:0:0:
320,192,88820,1,0,0:0:0:0:
64,192,88865,1,0,0:0:0:0:
448,192,88909,1,0,0:0:0:0:
320,192,88953,1,0,0:0:0:0:
192,192,88997,1,0,0:0:0:0:
64,192,89042,1,0,0:0:0:0:
320,192,89086,1,0,0:0:0:0:
448,192,89130,1,0,0:0:0:0:
192,192,89174,1,0,0:0:0:0:
320,192,89219,1,0,0:0:0:0:
64,192,89263,1,0,0:0:0:0:
192,192,89307,1,0,0:0:0:0:
448,192,89351,1,0,0:0:0:0:
320,192,89396,1,0,0:0:0:0:
448,192,89440,1,0,0:0:0:0:
320,192,89484,1,0,0:0:0:0:
192,192,89528,1,0,0:0:0:0:
64,192,89573,1,0,0:0:0:0:
192,192,89661,1,0,0:0:0:0:
320,192,89661,1,0,0:0:0:0:
448,192,89661,1,0,0:0:0:0:
64,192,89727,1,0,0:0:0:0:
448,192,89794,1,0,0:0:0:0:
192,192,89860,1,0,0:0:0:0:
320,192,89927,1,0,0:0:0:0:
448,192,89927,1,0,0:0:0:0:
64,192,89993,1,0,0:0:0:0:
192,192,90059,1,0,0:0:0:0:
320,192,90126,1,0,0:0:0:0:
64,192,90192,1,0,0:0:0:0:
448,192,90192,1,0,0:0:0:0:
192,192,90225,1,0,0:0:0:0:
320,192,90258,1,0,0:0:0:0:
64,192,90325,1,0,0:0:0:0:
320,192,90424,1,0,0:0:0:0:
448,192,90458,1,0,0:0:0:0:
64,192,90458,1,0,0:0:0:0:
192,192,90524,1,0,0:0:0:0:
320,192,90557,1,0,0:0:0:0:
448,192,90590,1,0,0:0:0:0:
192,192,90657,1,0,0:0:0:0:
64,192,90723,1,0,0:0:0:0:
448,192,90723,1,0,0:0:0:0:
320,192,90789,1,0,0:0:0:0:
192,192,90856,1,0,0:0:0:0:
320,192,90889,1,0,0:0:0:0:
448,192,90922,1,0,0:0:0:0:
192,192,90988,1,0,0:0:0:0:
64,192,90988,1,0,0:0:0:0:
320,192,91055,1,0,0:0:0:0:
64,192,91121,1,0,0:0:0:0:
320,192,91188,1,0,0:0:0:0:
64,192,91254,1,0,0:0:0:0:
448,192,91254,1,0,0:0:0:0:
192,192,91320,1,0,0:0:0:0:
64,192,91387,1,0,0:0:0:0:
320,192,91420,1,0,0:0:0:0:
192,192,91453,1,0,0:0:0:0:
448,192,91519,1,0,0:0:0:0:
64,192,91519,1,0,0:0:0:0:
320,192,91586,1,0,0:0:0:0:
448,192,91652,1,0,0:0:0:0:
64,192,91685,1,0,0:0:0:0:
192,192,91719,1,0,0:0:0:0:
320,192,91785,1,0,0:0:0:0:
448,192,91785,1,0,0:0:0:0:
64,192,91851,1,0,0:0:0:0:
192,192,91884,1,0,0:0:0:0:
320,192,91918,1,0,0:0:0:0:
64,192,91984,1,0,0:0:0:0:
448,192,92050,1,0,0:0:0:0:
320,192,92050,1,0,0:0:0:0:
64,192,92117,1,0,0:0:0:0:
192,192,92150,1,0,0:0:0:0:
448,192,92183,1,0,0:0:0:0:
320,192,92250,1,0,0:0:0:0:
64,192,92316,1,0,0:0:0:0:
448,192,92316,1,0,0:0:0:0:
192,192,92382,1,0,0:0:0:0:
320,192,92449,1,0,0:0:0:0:
192,192,92515,1,0,0:0:0:0:
320,192,92581,1,0,0:0:0:0:
448,192,92581,1,0,0:0:0:0:
192,192,92648,1,0,0:0:0:0:
320,192,92714,1,0,0:0:0:0:
448,192,92747,1,0,0:0:0:0:
192,192,92781,1,0,0:0:0:0:
64,192,92814,1,0,0:0:0:0:
320,192,92847,1,0,0:0:0:0:
448,192,92847,1,0,0:0:0:0:
192,192,92935,1,0,0:0:0:0:
64,192,92980,1,0,0:0:0:0:
320,192,93024,1,0,0:0:0:0:
192,192,93112,1,0,0:0:0:0:
64,192,93112,1,0,0:0:0:0:
320,192,93201,1,0,0:0:0:0:
64,192,93245,1,0,0:0:0:0:
192,192,93289,1,0,0:0:0:0:
320,192,93378,1,0,0:0:0:0:
448,192,93378,1,0,0:0:0:0:
192,192,93511,1,0,0:0:0:0:
448,192,93511,1,0,0:0:0:0:
64,192,93643,1,0,0:0:0:0:
320,192,93643,1,0,0:0:0:0:
192,192,93776,1,0,0:0:0:0:
448,192,93776,1,0,0:0:0:0:
320,192,93909,1,0,0:0:0:0:
192,192,93909,1,0,0:0:0:0:
64,192,93909,1,0,0:0:0:0:
448,192,93975,1,0,0:0:0:0:
64,192,94042,1,0,0:0:0:0:
320,192,94108,1,0,0:0:0:0:
192,192,94174,1,0,0:0:0:0:
64,192,94174,1,0,0:0:0:0:
448,192,94241,1,0,0:0:0:0:
320,192,94307,1,0,0:0:0:0:
192,192,94373,1,0,0:0:0:0:
448,192,94440,1,0,0:0:0:0:
64,192,94440,1,0,0:0:0:0:
320,192,94473,1,0,0:0:0:0:
192,192,94506,1,0,0:0:0:0:
448,192,94573,1,0,0:0:0:0:
192,192,94672,1,0,0:0:0:0:
64,192,94705,1,0,0:0:0:0:
448,192,94705,1,0,0:0:0:0:
320,192,94772,1,0,0:0:0:0:
192,192,94805,1,0,0:0:0:0:
64,192,94838,1,0,0:0:0:0:
320,192,94904,1,0,0:0:0:0:
448,192,94971,1,0,0:0:0:0:
64,192,94971,1,0,0:0:0:0:
192,192,95037,1,0,0:0:0:0:
320,192,95104,1,0,0:0:0:0:
192,192,95137,1,0,0:0:0:0:
64,192,95170,1,0,0:0:0:0:
320,192,95236,1,0,0:0:0:0:
448,192,95236,1,0,0:0:0:0:
192,192,95303,1,0,0:0:0:0:
448,192,95369,1,0,0:0:0:0:
192,192,95435,1,0,0:0:0:0:
448,192,95502,1,0,0:0:0:0:
64,192,95502,1,0,0:0:0:0:
320,192,95568,1,0,0:0:0:0:
448,192,95634,1,0,0:0:0:0:
192,192,95668,1,0,0:0:0:0:
320,192,95701,1,0,0:0:0:0:
64,192,95767,1,0,0:0:0:0:
448,192,95767,1,0,0:0:0:0:
192,192,95834,1,0,0:0:0:0:
64,192,95900,1,0,0:0:0:0:
448,192,95933,1,0,0:0:0:0:
320,192,95966,1,0,0:0:0:0:
192,192,96033,1,0,0:0:0:0:
64,192,96033,1,0,0:0:0:0:
448,192,96099,1,0,0:0:0:0:
320,192,96132,1,0,0:0:0:0:
192,192,96165,1,0,0:0:0:0:
448,192,96232,1,0,0:0:0:0:
64,192,96298,1,0,0:0:0:0:
192,192,96298,1,0,0:0:0:0:
448,192,96365,1,0,0:0:0:0:
320,192,96398,1,0,0:0:0:0:
64,192,96431,1,0,0:0:0:0:
192,192,96497,1,0,0:0:0:0:
448,192,96564,1,0,0:0:0:0:
64,192,96564,1,0,0:0:0:0:
320,192,96630,1,0,0:0:0:0:
192,192,96696,1,0,0:0:0:0:
320,192,96763,1,0,0:0:0:0:
192,192,96829,1,0,0:0:0:0:
64,192,96829,1,0,0:0:0:0:
320,192,96896,1,0,0:0:0:0:
192,192,96962,1,0,0:0:0:0:
64,192,96995,1,0,0:0:0:0:
320,192,97028,1,0,0:0:0:0:
448,192,97061,1,0,0:0:0:0:
192,192,97095,1,0,0:0:0:0:
64,192,97095,1,0,0:0:0:0:
320,192,97183,1,0,0:0:0:0:
448,192,97227,1,0,0:0:0:0:
192,192,97272,1,0,0:0:0:0:
320,192,97360,1,0,0:0:0:0:
448,192,97360,1,0,0:0:0:0:
192,192,97449,1,0,0:0:0:0:
448,192,97493,1,0,0:0:0:0:
320,192,97537,1,0,0:0:0:0:
192,192,97626,1,0,0:0:0:0:
64,192,97626,1,0,0:0:0:0:
320,192,97758,1,0,0:0:0:0:
64,192,97758,1,0,0:0:0:0:
448,192,97891,1,0,0:0:0:0:
192,192,97891,1,0,0:0:0:0:
320,192,98024,1,0,0:0:0:0:
64,192,98024,1,0,0:0:0:0:
192,192,98157,1,0,0:0:0:0:
320,192,98157,1,0,0:0:0:0:
448,192,98157,1,0,0:0:0:0:
64,192,98223,1,0,0:0:0:0:
448,192,98289,1,0,0:0:0:0:
192,192,98356,1,0,0:0:0:0:
320,192,98422,1,0,0:0:0:0:
448,192,98422,1,0,0:0:0:0:
64,192,98488,1,0,0:0:0:0:
192,192,98555,1,0,0:0:0:0:
320,192,98621,1,0,0:0:0:0:
64,192,98688,1,0,0:0:0:0:
448,192,98688,1,0,0:0:0:0:
192,192,98721,1,0,0:0:0:0:
320,192,98754,1,0,0:0:0:0:
64,192,98820,1,0,0:0:0:0:
320,192,98920,1,0,0:0:0:0:
448,192,98953,1,0,0:0:0:0:
64,192,98953,1,0,0:0:0:0:
192,192,99019,1,0,0:0:0:0:
320,192,99053,1,0,0:0:0:0:
448,192,99086,1,0,0:0:0:0:
192,192,99152,1,0,0:0:0:0:
64,192,99219,1,0,0:0:0:0:
448,192,99219,1,0,0:0:0:0:
320,192,99285,1,0,0:0:0:0:
192,192,99351,1,0,0:0:0:0:
320,192,99384,1,0,0:0:0:0:
448,192,99418,1,0,0:0:0:0:
192,192,99484,1,0,0:0:0:0:
64,192,99484,1,0,0:0:0:0:
320,192,99550,1,0,0:0:0:0:
64,192,99617,1,0,0:0:0:0:
320,192,99683,1,0,0:0:0:0:
64,192,99750,1,0,0:0:0:0:
448,192,99750,1,0,0:0:0:0:
192,192,99816,1,0,0:0:0:0:
64,192,99882,1,0,0:0:0:0:
320,192,99915,1,0,0:0:0:0:
192,192,99949,1,0,0:0:0:0:
448,192,100015,1,0,0:0:0:0:
64,192,100015,1,0,0:0:0:0:
320,192,100081,1,0,0:0:0:0:
448,192,100148,1,0,0:0:0:0:
64,192,100181,1,0,0:0:0:0:
192,192,100214,1,0,0:0:0:0:
320,192,100281,1,0,0:0:0:0:
448,192,100281,1,0,0:0:0:0:
64,192,100347,1,0,0:0:0:0:
192,192,100380,1,0,0:0:0:0:
320,192,100413,1,0,0:0:0:0:
64,192,100480,1,0,0:0:0:0:
448,192,100546,1,0,0:0:0:0:
320,192,100546,1,0,0:0:0:0:
64,192,100612,1,0,0:0:0:0:
192,192,100646,1,0,0:0:0:0:
448,192,100679,1,0,0:0:0:0:
320,192,100745,1,0,0:0:0:0:
64,192,100811,1,0,0:0:0:0:
448,192,100811,1,0,0:0:0:0:
192,192,100878,1,0,0:0:0:0:
320,192,100944,1,0,0:0:0:0:
192,192,101011,1,0,0:0:0:0:
320,192,101077,1,0,0:0:0:0:
448,192,101077,1,0,0:0:0:0:
192,192,101143,1,0,0:0:0:0:
320,192,101210,1,0,0:0:0:0:
448,192,101243,1,0,0:0:0:0:
192,192,101276,1,0,0:0:0:0:
64,192,101309,1,0,0:0:0:0:
320,192,101342,1,0,0:0:0:0:
448,192,101342,1,0,0:0:0:0:
192,192,101431,1,0,0:0:0:0:
64,192,101475,1,0,0:0:0:0:
320,192,101519,1,0,0:0:0:0:
192,192,101608,1,0,0:0:0:0:
64,192,101608,1,0,0:0:0:0:
320,192,101696,1,0,0:0:0:0:
64,192,101741,1,0,0:0:0:0:
192,192,101785,1,0,0:0:0:0:
448,192,101873,1,0,0:0:0:0:
320,192,101873,1,0,0:0:0:0:
192,192,101940,1,0,0:0:0:0:
320,192,102006,1,0,0:0:0:0:
192,192,102073,1,0,0:0:0:0:
448,192,102139,1,0,0:0:0:0:
320,192,102139,1,0,0:0:0:0:
192,192,102205,1,0,0:0:0:0:
320,192,102272,1,0,0:0:0:0:
192,192,102338,1,0,0:0:0:0:
320,192,102404,1,0,0:0:0:0:
448,192,102404,1,0,0:0:0:0:
64,192,102404,1,0,0:0:0:0:
448,192,102537,1,0,0:0:0:0:
64,192,102670,1,0,0:0:0:0:
64,192,102803,1,0,0:0:0:0:
320,192,102935,1,0,0:0:0:0:
320,192,103201,1,0,0:0:0:0:
192,192,103223,1,0,0:0:0:0:
64,192,103245,1,0,0:0:0:0:
64,192,103466,1,0,0:0:0:0:
320,192,103555,1,0,0:0:0:0:
64,192,103599,1,0,0:0:0:0:
192,192,103643,1,0,0:0:0:0:
320,192,103732,1,0,0:0:0:0:
192,192,103798,1,0,0:0:0:0:
320,192,103865,1,0,0:0:0:0:
192,192,103931,1,0,0:0:0:0:
320,192,103997,1,0,0:0:0:0:
64,192,104528,1,0,0:0:0:0:
448,192,104528,1,0,0:0:0:0:
192,192,104573,1,0,0:0:0:0:
320,192,104617,1,0,0:0:0:0:
448,192,104661,1,0,0:0:0:0:
64,192,104661,1,0,0:0:0:0:
192,192,104727,1,0,0:0:0:0:
448,192,104794,1,0,0:0:0:0:
320,192,104794,1,0,0:0:0:0:
64,192,104860,1,0,0:0:0:0:
320,192,104927,1,0,0:0:0:0:
448,192,104927,1,0,0:0:0:0:
192,192,104993,1,0,0:0:0:0:
64,192,105059,1,0,0:0:0:0:
448,192,105059,1,0,0:0:0:0:
320,192,105104,1,0,0:0:0:0:
192,192,105148,1,0,0:0:0:0:
64,192,105192,1,0,0:0:0:0:
320,192,105236,1,0,0:0:0:0:
448,192,105281,1,0,0:0:0:0:
192,192,105325,1,0,0:0:0:0:
64,192,105325,1,0,0:0:0:0:
320,192,105391,1,0,0:0:0:0:
64,192,105458,1,0,0:0:0:0:
192,192,105458,1,0,0:0:0:0:
448,192,105524,1,0,0:0:0:0:
320,192,105590,1,0,0:0:0:0:
192,192,105590,1,0,0:0:0:0:
64,192,105590,1,0,0:0:0:0:
448,192,105657,1,0,0:0:0:0:
320,192,105723,1,0,0:0:0:0:
64,192,105789,1,0,0:0:0:0:
192,192,105856,1,0,0:0:0:0:
320,192,105856,1,0,0:0:0:0:
448,192,105856,1,0,0:0:0:0:
64,192,105922,1,0,0:0:0:0:
192,192,105988,1,0,0:0:0:0:
320,192,106055,1,0,0:0:0:0:
448,192,106121,1,0,0:0:0:0:
192,192,106121,1,0,0:0:0:0:
64,192,106121,1,0,0:0:0:0:
320,192,106188,1,0,0:0:0:0:
448,192,106254,1,0,0:0:0:0:
64,192,106298,1,0,0:0:0:0:
192,192,106342,1,0,0:0:0:0:
448,192,106387,1,0,0:0:0:0:
320,192,106431,1,0,0:0:0:0:
64,192,106475,1,0,0:0:0:0:
448,192,106519,1,0,0:0:0:0:
320,192,106564,1,0,0:0:0:0:
192,192,106608,1,0,0:0:0:0:
448,192,106652,1,0,0:0:0:0:
64,192,106652,1,0,0:0:0:0:
320,192,106696,1,0,0:0:0:0:
192,192,106741,1,0,0:0:0:0:
64,192,106785,1,0,0:0:0:0:
320,192,106829,1,0,0:0:0:0:
448,192,106873,1,0,0:0:0:0:
64,192,106918,1,0,0:0:0:0:
192,192,106984,1,0,0:0:0:0:
320,192,107050,1,0,0:0:0:0:
448,192,107095,1,0,0:0:0:0:
64,192,107095,1,0,0:0:0:0:
192,192,107139,1,0,0:0:0:0:
320,192,107183,1,0,0:0:0:0:
64,192,107227,1,0,0:0:0:0:
192,192,107272,1,0,0:0:0:0:
320,192,107316,1,0,0:0:0:0:
448,192,107316,1,0,0:0:0:0:
64,192,107382,1,0,0:0:0:0:
320,192,107449,1,0,0:0:0:0:
448,192,107449,1,0,0:0:0:0:
64,192,107493,1,0,0:0:0:0:
192,192,107537,1,0,0:0:0:0:
320,192,107604,1,0,0:0:0:0:
448,192,107670,1,0,0:0:0:0:
192,192,107714,1,0,0:0:0:0:
64,192,107714,1,0,0:0:0:0:
448,192,107781,1,0,0:0:0:0:
192,192,107847,1,0,0:0:0:0:
64,192,107847,1,0,0:0:0:0:
320,192,107913,1,0,0:0:0:0:
64,192,107980,1,0,0:0:0:0:
192,192,107980,1,0,0:0:0:0:
448,192,108046,1,0,0:0:0:0:
64,192,108112,1,0,0:0:0:0:
192,192,108112,1,0,0:0:0:0:
320,192,108179,1,0,0:0:0:0:
64,192,108245,1,0,0:0:0:0:
448,192,108245,1,0,0:0:0:0:
192,192,108289,1,0,0:0:0:0:
448,192,108378,1,0,0:0:0:0:
320,192,108444,1,0,0:0:0:0:
192,192,108511,1,0,0:0:0:0:
64,192,108511,1,0,0:0:0:0:
448,192,108555,1,0,0:0:0:0:
320,192,108599,1,0,0:0:0:0:
64,192,108665,1,0,0:0:0:0:
192,192,108732,1,0,0:0:0:0:
320,192,108776,1,0,0:0:0:0:
448,192,108776,1,0,0:0:0:0:
64,192,108842,1,0,0:0:0:0:
320,192,108909,1,0,0:0:0:0:
448,192,108909,1,0,0:0:0:0:
192,192,108975,1,0,0:0:0:0:
448,192,109042,1,0,0:0:0:0:
320,192,109042,1,0,0:0:0:0:
64,192,109108,1,0,0:0:0:0:
448,192,109174,1,0,0:0:0:0:
320,192,109174,1,0,0:0:0:0:
192,192,109241,1,0,0:0:0:0:
64,192,109307,1,0,0:0:0:0:
448,192,109307,1,0,0:0:0:0:
320,192,109351,1,0,0:0:0:0:
64,192,109440,1,0,0:0:0:0:
192,192,109506,1,0,0:0:0:0:
320,192,109573,1,0,0:0:0:0:
448,192,109573,1,0,0:0:0:0:
64,192,109617,1,0,0:0:0:0:
192,192,109661,1,0,0:0:0:0:
448,192,109727,1,0,0:0:0:0:
320,192,109794,1,0,0:0:0:0:
192,192,109838,1,0,0:0:0:0:
64,192,109838,1,0,0:0:0:0:
448,192,109904,1,0,0:0:0:0:
192,192,109971,1,0,0:0:0:0:
64,192,109971,1,0,0:0:0:0:
320,192,110037,1,0,0:0:0:0:
64,192,110104,1,0,0:0:0:0:
192,192,110104,1,0,0:0:0:0:
448,192,110170,1,0,0:0:0:0:
64,192,110236,1,0,0:0:0:0:
192,192,110236,1,0,0:0:0:0:
320,192,110303,1,0,0:0:0:0:
448,192,110369,1,0,0:0:0:0:
64,192,110369,1,0,0:0:0:0:
192,192,110413,1,0,0:0:0:0:
448,192,110502,1,0,0:0:0:0:
192,192,110546,1,0,0:0:0:0:
320,192,110590,1,0,0:0:0:0:
64,192,110634,1,0,0:0:0:0:
192,192,110679,1,0,0:0:0:0:
448,192,110723,1,0,0:0:0:0:
64,192,110767,1,0,0:0:0:0:
448,192,110811,1,0,0:0:0:0:
64,192,110856,1,0,0:0:0:0:
320,192,110900,1,0,0:0:0:0:
192,192,110900,1,0,0:0:0:0:
448,192,110966,1,0,0:0:0:0:
192,192,111011,1,0,0:0:0:0:
320,192,111055,1,0,0:0:0:0:
448,192,111099,1,0,0:0:0:0:
192,192,111165,1,0,0:0:0:0:
64,192,111165,1,0,0:0:0:0:
320,192,111210,1,0,0:0:0:0:
64,192,111254,1,0,0:0:0:0:
192,192,111298,1,0,0:0:0:0:
320,192,111365,1,0,0:0:0:0:
448,192,111431,1,0,0:0:0:0:
64,192,111431,1,0,0:0:0:0:
192,192,111475,1,0,0:0:0:0:
448,192,111519,1,0,0:0:0:0:
320,192,111564,1,0,0:0:0:0:
192,192,111630,1,0,0:0:0:0:
64,192,111696,1,0,0:0:0:0:
448,192,111696,1,0,0:0:0:0:
320,192,111741,1,0,0:0:0:0:
64,192,111785,1,0,0:0:0:0:
192,192,111829,1,0,0:0:0:0:
320,192,111896,1,0,0:0:0:0:
448,192,111962,1,0,0:0:0:0:
64,192,111962,1,0,0:0:0:0:
192,192,112028,1,0,0:0:0:0:
448,192,112095,1,0,0:0:0:0:
320,192,112095,1,0,0:0:0:0:
192,192,112161,1,0,0:0:0:0:
64,192,112227,1,0,0:0:0:0:
448,192,112227,1,0,0:0:0:0:
320,192,112294,1,0,0:0:0:0:
448,192,112360,1,0,0:0:0:0:
192,192,112404,1,0,0:0:0:0:
320,192,112449,1,0,0:0:0:0:
448,192,112493,1,0,0:0:0:0:
64,192,112493,1,0,0:0:0:0:
192,192,112559,1,0,0:0:0:0:
64,192,112626,1,0,0:0:0:0:
320,192,112626,1,0,0:0:0:0:
448,192,112692,1,0,0:0:0:0:
192,192,112758,1,0,0:0:0:0:
64,192,112758,1,0,0:0:0:0:
320,192,112825,1,0,0:0:0:0:
64,192,112891,1,0,0:0:0:0:
448,192,112891,1,0,0:0:0:0:
192,192,112958,1,0,0:0:0:0:
448,192,113024,1,0,0:0:0:0:
320,192,113024,1,0,0:0:0:0:
64,192,113024,1,0,0:0:0:0:
192,192,113112,1,0,0:0:0:0:
320,192,113157,1,0,0:0:0:0:
448,192,113201,1,0,0:0:0:0:
320,192,113289,1,0,0:0:0:0:
192,192,113289,1,0,0:0:0:0:
64,192,113289,1,0,0:0:0:0:
448,192,113378,1,0,0:0:0:0:
192,192,113422,1,0,0:0:0:0:
64,192,113466,1,0,0:0:0:0:
192,192,113555,1,0,0:0:0:0:
320,192,113555,1,0,0:0:0:0:
448,192,113555,1,0,0:0:0:0:
64,192,113643,1,0,0:0:0:0:
448,192,113688,1,0,0:0:0:0:
320,192,113732,1,0,0:0:0:0:
448,192,113820,1,0,0:0:0:0:
192,192,113820,1,0,0:0:0:0:
64,192,113820,1,0,0:0:0:0:
320,192,113909,1,0,0:0:0:0:
64,192,113953,1,0,0:0:0:0:
192,192,113997,1,0,0:0:0:0:
64,192,114086,1,0,0:0:0:0:
448,192,114086,1,0,0:0:0:0:
320,192,114130,1,0,0:0:0:0:
192,192,114174,1,0,0:0:0:0:
64,192,114219,1,0,0:0:0:0:
192,192,114285,1,0,0:0:0:0:
320,192,114351,1,0,0:0:0:0:
448,192,114351,1,0,0:0:0:0:
64,192,114418,1,0,0:0:0:0:
192,192,114484,1,0,0:0:0:0:
448,192,114484,1,0,0:0:0:0:
320,192,114550,1,0,0:0:0:0:
448,192,114617,1,0,0:0:0:0:
64,192,114617,1,0,0:0:0:0:
192,192,114683,1,0,0:0:0:0:
320,192,114727,1,0,0:0:0:0:
448,192,114772,1,0,0:0:0:0:
192,192,114838,1,0,0:0:0:0:
64,192,114882,1,0,0:0:0:0:
448,192,114882,1,0,0:0:0:0:
320,192,114949,1,0,0:0:0:0:
192,192,114993,1,0,0:0:0:0:
64,192,115037,1,0,0:0:0:0:
320,192,115104,1,0,0:0:0:0:
64,192,115148,1,0,0:0:0:0:
448,192,115148,1,0,0:0:0:0:
192,192,115192,1,0,0:0:0:0:
320,192,115236,1,0,0:0:0:0:
448,192,115281,1,0,0:0:0:0:
192,192,115325,1,0,0:0:0:0:
64,192,115369,1,0,0:0:0:0:
448,192,115413,1,0,0:0:0:0:
320,192,115480,1,0,0:0:0:0:
192,192,115546,1,0,0:0:0:0:
64,192,115590,1,0,0:0:0:0:
448,192,115590,1,0,0:0:0:0:
320,192,115634,1,0,0:0:0:0:
192,192,115679,1,0,0:0:0:0:
448,192,115723,1,0,0:0:0:0:
320,192,115767,1,0,0:0:0:0:
192,192,115811,1,0,0:0:0:0:
64,192,115811,1,0,0:0:0:0:
448,192,115878,1,0,0:0:0:0:
192,192,115944,1,0,0:0:0:0:
64,192,115944,1,0,0:0:0:0:
448,192,115988,1,0,0:0:0:0:
320,192,116033,1,0,0:0:0:0:
192,192,116099,1,0,0:0:0:0:
64,192,116165,1,0,0:0:0:0:
320,192,116210,1,0,0:0:0:0:
448,192,116210,1,0,0:0:0:0:
64,192,116276,1,0,0:0:0:0:
320,192,116342,1,0,0:0:0:0:
448,192,116342,1,0,0:0:0:0:
192,192,116409,1,0,0:0:0:0:
448,192,116475,1,0,0:0:0:0:
320,192,116475,1,0,0:0:0:0:
64,192,116542,1,0,0:0:0:0:
448,192,116608,1,0,0:0:0:0:
320,192,116608,1,0,0:0:0:0:
192,192,116674,1,0,0:0:0:0:
448,192,116741,1,0,0:0:0:0:
64,192,116741,1,0,0:0:0:0:
320,192,116785,1,0,0:0:0:0:
64,192,116873,1,0,0:0:0:0:
192,192,116940,1,0,0:0:0:0:
320,192,117006,1,0,0:0:0:0:
448,192,117006,1,0,0:0:0:0:
64,192,117050,1,0,0:0:0:0:
192,192,117095,1,0,0:0:0:0:
448,192,117161,1,0,0:0:0:0:
320,192,117227,1,0,0:0:0:0:
192,192,117272,1,0,0:0:0:0:
64,192,117272,1,0,0:0:0:0:
448,192,117338,1,0,0:0:0:0:
192,192,117404,1,0,0:0:0:0:
64,192,117404,1,0,0:0:0:0:
320,192,117471,1,0,0:0:0:0:
64,192,117537,1,0,0:0:0:0:
192,192,117537,1,0,0:0:0:0:
448,192,117604,1,0,0:0:0:0:
64,192,117670,1,0,0:0:0:0:
192,192,117670,1,0,0:0:0:0:
320,192,117736,1,0,0:0:0:0:
448,192,117803,1,0,0:0:0:0:
64,192,117803,1,0,0:0:0:0:
192,192,117847,1,0,0:0:0:0:
448,192,117935,1,0,0:0:0:0:
320,192,118002,1,0,0:0:0:0:
192,192,118068,1,0,0:0:0:0:
64,192,118068,1,0,0:0:0:0:
448,192,118112,1,0,0:0:0:0:
320,192,118157,1,0,0:0:0:0:
64,192,118223,1,0,0:0:0:0:
192,192,118289,1,0,0:0:0:0:
320,192,118334,1,0,0:0:0:0:
448,192,118334,1,0,0:0:0:0:
64,192,118400,1,0,0:0:0:0:
320,192,118466,1,0,0:0:0:0:
448,192,118466,1,0,0:0:0:0:
192,192,118533,1,0,0:0:0:0:
448,192,118599,1,0,0:0:0:0:
320,192,118599,1,0,0:0:0:0:
64,192,118665,1,0,0:0:0:0:
448,192,118732,1,0,0:0:0:0:
320,192,118732,1,0,0:0:0:0:
192,192,118798,1,0,0:0:0:0:
64,192,118865,1,0,0:0:0:0:
448,192,118865,1,0,0:0:0:0:
320,192,118909,1,0,0:0:0:0:
64,192,118997,1,0,0:0:0:0:
192,192,118997,1,0,0:0:0:0:
320,192,119064,1,0,0:0:0:0:
448,192,119130,1,0,0:0:0:0:
64,192,119174,1,0,0:0:0:0:
448,192,119219,1,0,0:0:0:0:
320,192,119263,1,0,0:0:0:0:
64,192,119307,1,0,0:0:0:0:
192,192,119351,1,0,0:0:0:0:
448,192,119396,1,0,0:0:0:0:
320,192,119396,1,0,0:0:0:0:
192,192,119484,1,0,0:0:0:0:
64,192,119528,1,0,0:0:0:0:
320,192,119528,1,0,0:0:0:0:
448,192,119573,1,0,0:0:0:0:
192,192,119661,1,0,0:0:0:0:
64,192,119661,1,0,0:0:0:0:
320,192,119750,1,0,0:0:0:0:
448,192,119794,1,0,0:0:0:0:
192,192,119794,1,0,0:0:0:0:
64,192,119838,1,0,0:0:0:0:
448,192,119927,1,0,0:0:0:0:
320,192,119927,1,0,0:0:0:0:
192,192,119971,1,0,0:0:0:0:
64,192,120015,1,0,0:0:0:0:
320,192,120059,1,0,0:0:0:0:
192,192,120126,1,0,0:0:0:0:
448,192,120192,1,0,0:0:0:0:
64,192,120192,1,0,0:0:0:0:
192,192,120236,1,0,0:0:0:0:
320,192,120281,1,0,0:0:0:0:
448,192,120325,1,0,0:0:0:0:
192,192,120391,1,0,0:0:0:0:
64,192,120458,1,0,0:0:0:0:
448,192,120458,1,0,0:0:0:0:
320,192,120502,1,0,0:0:0:0:
192,192,120546,1,0,0:0:0:0:
64,192,120590,1,0,0:0:0:0:
320,192,120657,1,0,0:0:0:0:
64,192,120723,1,0,0:0:0:0:
448,192,120723,1,0,0:0:0:0:
320,192,120789,1,0,0:0:0:0:
192,192,120856,1,0,0:0:0:0:
64,192,120856,1,0,0:0:0:0:
320,192,120922,1,0,0:0:0:0:
448,192,120988,1,0,0:0:0:0:
64,192,120988,1,0,0:0:0:0:
192,192,121033,1,0,0:0:0:0:
320,192,121077,1,0,0:0:0:0:
448,192,121121,1,0,0:0:0:0:
192,192,121188,1,0,0:0:0:0:
320,192,121254,1,0,0:0:0:0:
448,192,121254,1,0,0:0:0:0:
64,192,121320,1,0,0:0:0:0:
192,192,121387,1,0,0:0:0:0:
448,192,121387,1,0,0:0:0:0:
320,192,121453,1,0,0:0:0:0:
64,192,121519,1,0,0:0:0:0:
448,192,121519,1,0,0:0:0:0:
192,192,121519,1,0,0:0:0:0:
320,192,121586,1,0,0:0:0:0:
64,192,121652,1,0,0:0:0:0:
192,192,121652,1,0,0:0:0:0:
320,192,121719,1,0,0:0:0:0:
448,192,121785,1,0,0:0:0:0:
64,192,121785,1,0,0:0:0:0:
192,192,121851,1,0,0:0:0:0:
64,192,121918,1,0,0:0:0:0:
320,192,121962,1,0,0:0:0:0:
192,192,122006,1,0,0:0:0:0:
64,192,122050,1,0,0:0:0:0:
448,192,122050,1,0,0:0:0:0:
320,192,122117,1,0,0:0:0:0:
448,192,122183,1,0,0:0:0:0:
192,192,122183,1,0,0:0:0:0:
64,192,122250,1,0,0:0:0:0:
320,192,122316,1,0,0:0:0:0:
448,192,122316,1,0,0:0:0:0:
192,192,122382,1,0,0:0:0:0:
64,192,122449,1,0,0:0:0:0:
320,192,122515,1,0,0:0:0:0:
64,192,122581,1,0,0:0:0:0:
448,192,122581,1,0,0:0:0:0:
192,192,122615,1,0,0:0:0:0:
320,192,122648,1,0,0:0:0:0:
64,192,122714,1,0,0:0:0:0:
192,192,122781,1,0,0:0:0:0:
448,192,122847,1,0,0:0:0:0:
64,192,122847,1,0,0:0:0:0:
320,192,122880,1,0,0:0:0:0:
192,192,122913,1,0,0:0:0:0:
448,192,122980,1,0,0:0:0:0:
320,192,123046,1,0,0:0:0:0:
64,192,123112,1,0,0:0:0:0:
448,192,123112,1,0,0:0:0:0:
192,192,123146,1,0,0:0:0:0:
320,192,123179,1,0,0:0:0:0:
64,192,123245,1,0,0:0:0:0:
192,192,123311,1,0,0:0:0:0:
64,192,123378,1,0,0:0:0:0:
448,192,123378,1,0,0:0:0:0:
320,192,123411,1,0,0:0:0:0:
192,192,123444,1,0,0:0:0:0:
448,192,123511,1,0,0:0:0:0:
320,192,123643,1,0,0:0:0:0:
448,192,123643,1,0,0:0:0:0:
192,192,123643,1,0,0:0:0:0:
64,192,123643,1,0,0:0:0:0:
320,192,123776,1,0,0:0:0:0:
192,192,123776,1,0,0:0:0:0:
64,192,123776,1,0,0:0:0:0:
64,192,123909,1,0,0:0:0:0:
192,192,123909,1,0,0:0:0:0:
64,192,124042,1,0,0:0:0:0:
320,192,124042,1,0,0:0:0:0:
448,192,124042,1,0,0:0:0:0:
192,192,124042,1,0,0:0:0:0:
448,192,124174,1,0,0:0:0:0:
320,192,124174,1,0,0:0:0:0:
192,192,124174,1,0,0:0:0:0:
448,192,124307,1,0,0:0:0:0:
320,192,124307,1,0,0:0:0:0:
448,192,124440,1,0,0:0:0:0:
192,192,124440,1,0,0:0:0:0:
64,192,124440,1,0,0:0:0:0:
320,192,124440,1,0,0:0:0:0:
320,192,124573,1,0,0:0:0:0:
192,192,124573,1,0,0:0:0:0:
64,192,124573,1,0,0:0:0:0:
64,192,124705,1,0,0:0:0:0:
192,192,124705,1,0,0:0:0:0:
64,192,124838,1,0,0:0:0:0:
320,192,124838,1,0,0:0:0:0:
448,192,124838,1,0,0:0:0:0:
192,192,124838,1,0,0:0:0:0:
448,192,124971,1,0,0:0:0:0:
320,192,124971,1,0,0:0:0:0:
192,192,124971,1,0,0:0:0:0:
448,192,125104,1,0,0:0:0:0:
320,192,125104,1,0,0:0:0:0:
448,192,125236,1,0,0:0:0:0:
320,192,125236,1,0,0:0:0:0:
192,192,125236,1,0,0:0:0:0:
64,192,125236,1,0,0:0:0:0:
64,192,125369,1,0,0:0:0:0:
448,192,125369,1,0,0:0:0:0:
192,192,125369,1,0,0:0:0:0:
320,192,125369,1,0,0:0:0:0:
192,192,125502,1,0,0:0:0:0:
320,192,125502,1,0,0:0:0:0:
64,192,125502,1,0,0:0:0:0:
448,192,125502,1,0,0:0:0:0:
320,192,125634,1,0,0:0:0:0:
192,192,125634,1,0,0:0:0:0:
64,192,125767,1,0,0:0:0:0:
192,192,125767,1,0,0:0:0:0:
448,192,125767,1,0,0:0:0:0:
320,192,125767,1,0,0:0:0:0:
64,192,125900,1,0,0:0:0:0:
192,192,125900,1,0,0:0:0:0:
320,192,125900,1,0,0:0:0:0:
192,192,126033,1,0,0:0:0:0:
64,192,126033,1,0,0:0:0:0:
448,192,126165,1,0,0:0:0:0:
320,192,126165,1,0,0:0:0:0:
64,192,126165,1,0,0:0:0:0:
192,192,126165,1,0,0:0:0:0:
192,192,126298,1,0,0:0:0:0:
320,192,126298,1,0,0:0:0:0:
448,192,126298,1,0,0:0:0:0:
320,192,126431,1,0,0:0:0:0:
448,192,126431,1,0,0:0:0:0:
448,192,126564,1,0,0:0:0:0:
192,192,126564,1,0,0:0:0:0:
64,192,126564,1,0,0:0:0:0:
320,192,126564,1,0,0:0:0:0:
320,192,126696,1,0,0:0:0:0:
192,192,126696,1,0,0:0:0:0:
64,192,126696,1,0,0:0:0:0:
64,192,126829,1,0,0:0:0:0:
192,192,126829,1,0,0:0:0:0:
64,192,126962,1,0,0:0:0:0:
320,192,126962,1,0,0:0:0:0:
448,192,126962,1,0,0:0:0:0:
192,192,126962,1,0,0:0:0:0:
448,192,127095,1,0,0:0:0:0:
320,192,127095,1,0,0:0:0:0:
192,192,127095,1,0,0:0:0:0:
448,192,127227,1,0,0:0:0:0:
320,192,127227,1,0,0:0:0:0:
64,192,127360,1,0,0:0:0:0:
192,192,127360,1,0,0:0:0:0:
448,192,127360,1,0,0:0:0:0:
320,192,127360,1,0,0:0:0:0:
192,192,127493,1,0,0:0:0:0:
64,192,127493,1,0,0:0:0:0:
320,192,127626,1,0,0:0:0:0:
192,192,127626,1,0,0:0:0:0:
448,192,127758,1,0,0:0:0:0:
320,192,127758,1,0,0:0:0:0:
192,192,127891,1,0,0:0:0:0:
448,192,127891,1,0,0:0:0:0:
64,192,127891,1,0,0:0:0:0:
320,192,127958,1,0,0:0:0:0:
64,192,128002,1,0,0:0:0:0:
448,192,128046,1,0,0:0:0:0:
192,192,128157,1,0,0:0:0:0:
320,192,128179,1,0,0:0:0:0:
448,192,128201,1,0,0:0:0:0:
320,192,128289,1,0,0:0:0:0:
192,192,128311,1,0,0:0:0:0:
64,192,128334,1,0,0:0:0:0:
320,192,128688,1,0,0:0:0:0:
64,192,128688,1,0,0:0:0:0:
448,192,128688,1,0,0:0:0:0:
192,192,128754,1,0,0:0:0:0:
448,192,128798,1,0,0:0:0:0:
64,192,128842,1,0,0:0:0:0:
320,192,128953,1,0,0:0:0:0:
192,192,128975,1,0,0:0:0:0:
64,192,128997,1,0,0:0:0:0:
192,192,129086,1,0,0:0:0:0:
320,192,129108,1,0,0:0:0:0:
448,192,129130,1,0,0:0:0:0:
64,192,129484,1,0,0:0:0:0:
448,192,129484,1,0,0:0:0:0:
192,192,129506,1,0,0:0:0:0:
320,192,129528,1,0,0:0:0:0:
448,192,129750,1,0,0:0:0:0:
320,192,129772,1,0,0:0:0:0:
192,192,129794,1,0,0:0:0:0:
64,192,129816,1,0,0:0:0:0:
64,192,130015,1,0,0:0:0:0:
448,192,130015,1,0,0:0:0:0:
192,192,130015,1,0,0:0:0:0:
320,192,130081,1,0,0:0:0:0:
64,192,130126,1,0,0:0:0:0:
448,192,130170,1,0,0:0:0:0:
192,192,130281,1,0,0:0:0:0:
320,192,130303,1,0,0:0:0:0:
448,192,130325,1,0,0:0:0:0:
320,192,130413,1,0,0:0:0:0:
192,192,130435,1,0,0:0:0:0:
64,192,130458,1,0,0:0:0:0:
448,192,130480,1,0,0:0:0:0:
448,192,130811,1,0,0:0:0:0:
64,192,130811,1,0,0:0:0:0:
320,192,130811,1,0,0:0:0:0:
192,192,130878,1,0,0:0:0:0:
448,192,130922,1,0,0:0:0:0:
64,192,130966,1,0,0:0:0:0:
320,192,131077,1,0,0:0:0:0:
192,192,131099,1,0,0:0:0:0:
64,192,131121,1,0,0:0:0:0:
192,192,131210,1,0,0:0:0:0:
320,192,131232,1,0,0:0:0:0:
448,192,131254,1,0,0:0:0:0:
64,192,131342,1,0,0:0:0:0:
192,192,131475,1,0,0:0:0:0:
448,192,131608,1,0,0:0:0:0:
64,192,131608,1,0,0:0:0:0:
192,192,131652,1,0,0:0:0:0:
320,192,131696,1,0,0:0:0:0:
448,192,131741,1,0,0:0:0:0:
192,192,131785,1,0,0:0:0:0:
320,192,131829,1,0,0:0:0:0:
64,192,131873,1,0,0:0:0:0:
192,192,131918,1,0,0:0:0:0:
320,192,131962,1,0,0:0:0:0:
448,192,132006,1,0,0:0:0:0:
192,192,132139,1,0,0:0:0:0:
448,192,132139,1,0,0:0:0:0:
64,192,132139,1,0,0:0:0:0:
320,192,132205,1,0,0:0:0:0:
64,192,132250,1,0,0:0:0:0:
448,192,132294,1,0,0:0:0:0:
192,192,132404,1,0,0:0:0:0:
320,192,132427,1,0,0:0:0:0:
448,192,132449,1,0,0:0:0:0:
320,192,132537,1,0,0:0:0:0:
192,192,132559,1,0,0:0:0:0:
64,192,132581,1,0,0:0:0:0:
320,192,132935,1,0,0:0:0:0:
64,192,132935,1,0,0:0:0:0:
448,192,132935,1,0,0:0:0:0:
192,192,133002,1,0,0:0:0:0:
448,192,133046,1,0,0:0:0:0:
64,192,133090,1,0,0:0:0:0:
320,192,133201,1,0,0:0:0:0:
192,192,133223,1,0,0:0:0:0:
64,192,133245,1,0,0:0:0:0:
192,192,133334,1,0,0:0:0:0:
320,192,133356,1,0,0:0:0:0:
448,192,133378,1,0,0:0:0:0:
64,192,133732,1,0,0:0:0:0:
448,192,133732,1,0,0:0:0:0:
192,192,133754,1,0,0:0:0:0:
320,192,133776,1,0,0:0:0:0:
448,192,133997,1,0,0:0:0:0:
320,192,134019,1,0,0:0:0:0:
192,192,134042,1,0,0:0:0:0:
64,192,134064,1,0,0:0:0:0:
64,192,134263,1,0,0:0:0:0:
448,192,134263,1,0,0:0:0:0:
192,192,134263,1,0,0:0:0:0:
320,192,134329,1,0,0:0:0:0:
64,192,134373,1,0,0:0:0:0:
448,192,134418,1,0,0:0:0:0:
192,192,134528,1,0,0:0:0:0:
320,192,134550,1,0,0:0:0:0:
448,192,134573,1,0,0:0:0:0:
320,192,134661,1,0,0:0:0:0:
192,192,134683,1,0,0:0:0:0:
64,192,134705,1,0,0:0:0:0:
448,192,134727,1,0,0:0:0:0:
64,192,134927,1,0,0:0:0:0:
448,192,134927,1,0,0:0:0:0:
192,192,134949,1,0,0:0:0:0:
320,192,134971,1,0,0:0:0:0:
448,192,135192,1,0,0:0:0:0:
64,192,135192,1,0,0:0:0:0:
320,192,135192,1,0,0:0:0:0:
192,192,135258,1,0,0:0:0:0:
448,192,135303,1,0,0:0:0:0:
64,192,135347,1,0,0:0:0:0:
320,192,135458,1,0,0:0:0:0:
192,192,135480,1,0,0:0:0:0:
64,192,135502,1,0,0:0:0:0:
192,192,135590,1,0,0:0:0:0:
320,192,135612,1,0,0:0:0:0:
448,192,135634,1,0,0:0:0:0:
64,192,135723,1,0,0:0:0:0:
448,192,135856,1,0,0:0:0:0:
64,192,135856,1,0,0:0:0:0:
192,192,135900,1,0,0:0:0:0:
320,192,135944,1,0,0:0:0:0:
448,192,135988,1,0,0:0:0:0:
192,192,136033,1,0,0:0:0:0:
320,192,136077,1,0,0:0:0:0:
64,192,136121,1,0,0:0:0:0:
192,192,136165,1,0,0:0:0:0:
320,192,136210,1,0,0:0:0:0:
448,192,136254,1,0,0:0:0:0:
192,192,136298,1,0,0:0:0:0:
320,192,136342,1,0,0:0:0:0:
64,192,136387,1,0,0:0:0:0:
448,192,136387,1,0,0:0:0:0:
192,192,136453,1,0,0:0:0:0:
320,192,136519,1,0,0:0:0:0:
192,192,136586,1,0,0:0:0:0:
320,192,136652,1,0,0:0:0:0:
192,192,136719,1,0,0:0:0:0:
320,192,136785,1,0,0:0:0:0:
192,192,136851,1,0,0:0:0:0:
320,192,136918,1,0,0:0:0:0:
192,192,137006,1,0,0:0:0:0:
320,192,137095,1,0,0:0:0:0:
192,192,137183,1,0,0:0:0:0:
320,192,137272,1,0,0:0:0:0:
192,192,137360,1,0,0:0:0:0:
320,192,137449,1,0,0:0:0:0:
192,192,137581,1,0,0:0:0:0:
320,192,137714,1,0,0:0:0:0:
192,192,137847,1,0,0:0:0:0:
320,192,137980,1,0,0:0:0:0:
192,192,138112,1,0,0:0:0:0:
320,192,138245,1,0,0:0:0:0:
192,192,138378,1,0,0:0:0:0:
448,192,138511,1,0,0:0:0:0:
320,192,138511,1,0,0:0:0:0:
64,192,138511,1,0,0:0:0:0:
192,192,138599,1,0,0:0:0:0:
320,192,138688,1,0,0:0:0:0:
192,192,138776,1,0,0:0:0:0:
448,192,138820,1,0,0:0:0:0:
320,192,138865,1,0,0:0:0:0:
192,192,138953,1,0,0:0:0:0:
320,192,139042,1,0,0:0:0:0:
448,192,139108,1,0,0:0:0:0:
192,192,139174,1,0,0:0:0:0:
64,192,139241,1,0,0:0:0:0:
320,192,139307,1,0,0:0:0:0:
192,192,139440,1,0,0:0:0:0:
448,192,139573,1,0,0:0:0:0:
64,192,139573,1,0,0:0:0:0:
320,192,139617,1,0,0:0:0:0:
192,192,139639,1,0,0:0:0:0:
320,192,139794,1,0,0:0:0:0:
448,192,139838,1,0,0:0:0:0:
320,192,139904,1,0,0:0:0:0:
192,192,139949,1,0,0:0:0:0:
64,192,139993,1,0,0:0:0:0:
320,192,140104,1,0,0:0:0:0:
192,192,140148,1,0,0:0:0:0:
64,192,140214,1,0,0:0:0:0:
192,192,140281,1,0,0:0:0:0:
320,192,140325,1,0,0:0:0:0:
448,192,140369,1,0,0:0:0:0:
320,192,140458,1,0,0:0:0:0:
192,192,140502,1,0,0:0:0:0:
64,192,140568,1,0,0:0:0:0:
320,192,140634,1,0,0:0:0:0:
448,192,140634,1,0,0:0:0:0:
64,192,140679,1,0,0:0:0:0:
192,192,140723,1,0,0:0:0:0:
320,192,140767,1,0,0:0:0:0:
448,192,140811,1,0,0:0:0:0:
64,192,140856,1,0,0:0:0:0:
320,192,140900,1,0,0:0:0:0:
448,192,140944,1,0,0:0:0:0:
192,192,140988,1,0,0:0:0:0:
320,192,141033,1,0,0:0:0:0:
448,192,141077,1,0,0:0:0:0:
64,192,141121,1,0,0:0:0:0:
192,192,141165,1,0,0:0:0:0:
320,192,141210,1,0,0:0:0:0:
64,192,141254,1,0,0:0:0:0:
192,192,141298,1,0,0:0:0:0:
448,192,141342,1,0,0:0:0:0:
64,192,141387,1,0,0:0:0:0:
320,192,141431,1,0,0:0:0:0:
448,192,141475,1,0,0:0:0:0:
192,192,141519,1,0,0:0:0:0:
320,192,141564,1,0,0:0:0:0:
448,192,141608,1,0,0:0:0:0:
64,192,141652,1,0,0:0:0:0:
192,192,141696,1,0,0:0:0:0:
448,192,141741,1,0,0:0:0:0:
320,192,141785,1,0,0:0:0:0:
192,192,141829,1,0,0:0:0:0:
64,192,141873,1,0,0:0:0:0:
448,192,141918,1,0,0:0:0:0:
320,192,141962,1,0,0:0:0:0:
192,192,142006,1,0,0:0:0:0:
448,192,142050,1,0,0:0:0:0:
320,192,142095,1,0,0:0:0:0:
64,192,142139,1,0,0:0:0:0:
448,192,142183,1,0,0:0:0:0:
192,192,142227,1,0,0:0:0:0:
64,192,142272,1,0,0:0:0:0:
320,192,142316,1,0,0:0:0:0:
192,192,142360,1,0,0:0:0:0:
64,192,142404,1,0,0:0:0:0:
448,192,142449,1,0,0:0:0:0:
320,192,142493,1,0,0:0:0:0:
192,192,142537,1,0,0:0:0:0:
448,192,142581,1,0,0:0:0:0:
320,192,142626,1,0,0:0:0:0:
192,192,142670,1,0,0:0:0:0:
64,192,142714,1,0,0:0:0:0:
320,192,142758,1,0,0:0:0:0:
448,192,142803,1,0,0:0:0:0:
192,192,142847,1,0,0:0:0:0:
320,192,142891,1,0,0:0:0:0:
448,192,142935,1,0,0:0:0:0:
64,192,142980,1,0,0:0:0:0:
192,192,143024,1,0,0:0:0:0:
320,192,143068,1,0,0:0:0:0:
448,192,143112,1,0,0:0:0:0:
192,192,143157,1,0,0:0:0:0:
320,192,143201,1,0,0:0:0:0:
64,192,143245,1,0,0:0:0:0:
192,192,143289,1,0,0:0:0:0:
448,192,143334,1,0,0:0:0:0:
64,192,143378,1,0,0:0:0:0:
320,192,143422,1,0,0:0:0:0:
448,192,143466,1,0,0:0:0:0:
192,192,143511,1,0,0:0:0:0:
320,192,143555,1,0,0:0:0:0:
448,192,143599,1,0,0:0:0:0:
64,192,143643,1,0,0:0:0:0:
192,192,143688,1,0,0:0:0:0:
320,192,143732,1,0,0:0:0:0:
448,192,143776,1,0,0:0:0:0:
64,192,143820,1,0,0:0:0:0:
64,192,144882,1,0,0:0:0:0:
448,192,144882,1,0,0:0:0:0:
64,192,145015,1,0,0:0:0:0:
64,192,145148,1,0,0:0:0:0:
64,192,145281,1,0,0:0:0:0:
64,192,145413,1,0,0:0:0:0:
320,192,145413,1,0,0:0:0:0:
64,192,145546,1,0,0:0:0:0:
64,192,145679,1,0,0:0:0:0:
64,192,145811,1,0,0:0:0:0:
64,192,145944,1,0,0:0:0:0:
448,192,145944,1,0,0:0:0:0:
448,192,146077,1,0,0:0:0:0:
64,192,146210,1,0,0:0:0:0:
448,192,146210,1,0,0:0:0:0:
64,192,146342,1,0,0:0:0:0:
64,192,146475,1,0,0:0:0:0:
64,192,146608,1,0,0:0:0:0:
64,192,146741,1,0,0:0:0:0:
64,192,146873,1,0,0:0:0:0:
448,192,147006,1,0,0:0:0:0:
448,192,147139,1,0,0:0:0:0:
192,192,147139,1,0,0:0:0:0:
448,192,147272,1,0,0:0:0:0:
448,192,147404,1,0,0:0:0:0:
448,192,147537,1,0,0:0:0:0:
64,192,147537,1,0,0:0:0:0:
448,192,147670,1,0,0:0:0:0:
448,192,147803,1,0,0:0:0:0:
448,192,147935,1,0,0:0:0:0:
64,192,148068,1,0,0:0:0:0:
448,192,148068,1,0,0:0:0:0:
64,192,148201,1,0,0:0:0:0:
64,192,148334,1,0,0:0:0:0:
448,192,148400,1,0,0:0:0:0:
64,192,148466,1,0,0:0:0:0:
448,192,148533,1,0,0:0:0:0:
320,192,148599,1,0,0:0:0:0:
192,192,148632,1,0,0:0:0:0:
64,192,148665,1,0,0:0:0:0:
320,192,148732,1,0,0:0:0:0:
64,192,148798,1,0,0:0:0:0:
192,192,148831,1,0,0:0:0:0:
448,192,148865,1,0,0:0:0:0:
64,192,149130,1,0,0:0:0:0:
192,192,149130,1,0,0:0:0:0:
448,192,149130,1,0,0:0:0:0:
64,192,149263,1,0,0:0:0:0:
320,192,149263,1,0,0:0:0:0:
64,192,149396,1,0,0:0:0:0:
192,192,149396,1,0,0:0:0:0:
320,192,149396,1,0,0:0:0:0:
64,192,149528,1,0,0:0:0:0:
448,192,149528,1,0,0:0:0:0:
64,192,149661,1,0,0:0:0:0:
448,192,149661,1,0,0:0:0:0:
192,192,149661,1,0,0:0:0:0:
320,192,149794,1,0,0:0:0:0:
448,192,149927,1,0,0:0:0:0:
192,192,149927,1,0,0:0:0:0:
320,192,150059,1,0,0:0:0:0:
192,192,150059,1,0,0:0:0:0:
448,192,150192,1,0,0:0:0:0:
320,192,150192,1,0,0:0:0:0:
64,192,150192,1,0,0:0:0:0:
448,192,150325,1,0,0:0:0:0:
192,192,150325,1,0,0:0:0:0:
448,192,150458,1,0,0:0:0:0:
320,192,150458,1,0,0:0:0:0:
192,192,150458,1,0,0:0:0:0:
448,192,150590,1,0,0:0:0:0:
64,192,150590,1,0,0:0:0:0:
448,192,150723,1,0,0:0:0:0:
64,192,150723,1,0,0:0:0:0:
320,192,150723,1,0,0:0:0:0:
192,192,150856,1,0,0:0:0:0:
64,192,150988,1,0,0:0:0:0:
320,192,150988,1,0,0:0:0:0:
192,192,151121,1,0,0:0:0:0:
320,192,151121,1,0,0:0:0:0:
448,192,151254,1,0,0:0:0:0:
192,192,151254,1,0,0:0:0:0:
64,192,151254,1,0,0:0:0:0:
320,192,151387,1,0,0:0:0:0:
64,192,151387,1,0,0:0:0:0:
320,192,151519,1,0,0:0:0:0:
192,192,151519,1,0,0:0:0:0:
64,192,151519,1,0,0:0:0:0:
448,192,151652,1,0,0:0:0:0:
64,192,151652,1,0,0:0:0:0:
320,192,151785,1,0,0:0:0:0:
448,192,151785,1,0,0:0:0:0:
64,192,151785,1,0,0:0:0:0:
192,192,151918,1,0,0:0:0:0:
320,192,152050,1,0,0:0:0:0:
192,192,152050,1,0,0:0:0:0:
448,192,152183,1,0,0:0:0:0:
448,192,152316,1,0,0:0:0:0:
64,192,152316,1,0,0:0:0:0:
192,192,152316,1,0,0:0:0:0:
64,192,152449,1,0,0:0:0:0:
192,192,152449,1,0,0:0:0:0:
320,192,152449,1,0,0:0:0:0:
192,192,152581,1,0,0:0:0:0:
320,192,152714,1,0,0:0:0:0:
448,192,152714,1,0,0:0:0:0:
64,192,152714,1,0,0:0:0:0:
448,192,152847,1,0,0:0:0:0:
192,192,152847,1,0,0:0:0:0:
320,192,152847,1,0,0:0:0:0:
320,192,152980,1,0,0:0:0:0:
192,192,153112,1,0,0:0:0:0:
64,192,153112,1,0,0:0:0:0:
448,192,153112,1,0,0:0:0:0:
320,192,153245,1,0,0:0:0:0:
448,192,153378,1,0,0:0:0:0:
320,192,153378,1,0,0:0:0:0:
64,192,153378,1,0,0:0:0:0:
448,192,153511,1,0,0:0:0:0:
192,192,153511,1,0,0:0:0:0:
448,192,153643,1,0,0:0:0:0:
320,192,153643,1,0,0:0:0:0:
192,192,153643,1,0,0:0:0:0:
448,192,153776,1,0,0:0:0:0:
64,192,153776,1,0,0:0:0:0:
448,192,153909,1,0,0:0:0:0:
64,192,153909,1,0,0:0:0:0:
320,192,153909,1,0,0:0:0:0:
192,192,154042,1,0,0:0:0:0:
64,192,154174,1,0,0:0:0:0:
320,192,154174,1,0,0:0:0:0:
192,192,154307,1,0,0:0:0:0:
320,192,154307,1,0,0:0:0:0:
64,192,154440,1,0,0:0:0:0:
192,192,154440,1,0,0:0:0:0:
448,192,154440,1,0,0:0:0:0:
64,192,154573,1,0,0:0:0:0:
320,192,154573,1,0,0:0:0:0:
64,192,154705,1,0,0:0:0:0:
192,192,154705,1,0,0:0:0:0:
320,192,154705,1,0,0:0:0:0:
64,192,154838,1,0,0:0:0:0:
448,192,154838,1,0,0:0:0:0:
64,192,154971,1,0,0:0:0:0:
448,192,154971,1,0,0:0:0:0:
320,192,154971,1,0,0:0:0:0:
320,192,155104,1,0,0:0:0:0:
192,192,155104,1,0,0:0:0:0:
448,192,155236,1,0,0:0:0:0:
320,192,155236,1,0,0:0:0:0:
320,192,155369,1,0,0:0:0:0:
192,192,155369,1,0,0:0:0:0:
448,192,155502,1,0,0:0:0:0:
192,192,155502,1,0,0:0:0:0:
64,192,155502,1,0,0:0:0:0:
448,192,155634,1,0,0:0:0:0:
320,192,155634,1,0,0:0:0:0:
448,192,155767,1,0,0:0:0:0:
320,192,155767,1,0,0:0:0:0:
192,192,155767,1,0,0:0:0:0:
448,192,155900,1,0,0:0:0:0:
64,192,155900,1,0,0:0:0:0:
448,192,156033,1,0,0:0:0:0:
64,192,156033,1,0,0:0:0:0:
320,192,156033,1,0,0:0:0:0:
192,192,156165,1,0,0:0:0:0:
64,192,156298,1,0,0:0:0:0:
320,192,156298,1,0,0:0:0:0:
320,192,156431,1,0,0:0:0:0:
448,192,156564,1,0,0:0:0:0:
64,192,156564,1,0,0:0:0:0:
192,192,156564,1,0,0:0:0:0:
320,192,156564,1,0,0:0:0:0:
64,192,156696,1,0,0:0:0:0:
192,192,156696,1,0,0:0:0:0:
320,192,156696,1,0,0:0:0:0:
192,192,156829,1,0,0:0:0:0:
448,192,156962,1,0,0:0:0:0:
64,192,156962,1,0,0:0:0:0:
320,192,156962,1,0,0:0:0:0:
192,192,156962,1,0,0:0:0:0:
448,192,157095,1,0,0:0:0:0:
64,192,157095,1,0,0:0:0:0:
320,192,157117,1,0,0:0:0:0:
192,192,157139,1,0,0:0:0:0:
320,192,157227,1,0,0:0:0:0:
64,192,157360,1,0,0:0:0:0:
448,192,157360,1,0,0:0:0:0:
192,192,157427,1,0,0:0:0:0:
320,192,157493,1,0,0:0:0:0:
64,192,157626,1,0,0:0:0:0:
192,192,157626,1,0,0:0:0:0:
448,192,157626,1,0,0:0:0:0:
320,192,157692,1,0,0:0:0:0:
192,192,157758,1,0,0:0:0:0:
64,192,157825,1,0,0:0:0:0:
320,192,157891,1,0,0:0:0:0:
448,192,157891,1,0,0:0:0:0:
64,192,157935,1,0,0:0:0:0:
192,192,157980,1,0,0:0:0:0:
448,192,158024,1,0,0:0:0:0:
192,192,158157,1,0,0:0:0:0:
64,192,158157,1,0,0:0:0:0:
448,192,158201,1,0,0:0:0:0:
320,192,158245,1,0,0:0:0:0:
64,192,158289,1,0,0:0:0:0:
320,192,158422,1,0,0:0:0:0:
448,192,158422,1,0,0:0:0:0:
192,192,158466,1,0,0:0:0:0:
64,192,158511,1,0,0:0:0:0:
448,192,158577,1,0,0:0:0:0:
320,192,158688,1,0,0:0:0:0:
64,192,158688,1,0,0:0:0:0:
192,192,158688,1,0,0:0:0:0:
448,192,158754,1,0,0:0:0:0:
192,192,158798,1,0,0:0:0:0:
64,192,158842,1,0,0:0:0:0:
320,192,158887,1,0,0:0:0:0:
448,192,158953,1,0,0:0:0:0:
64,192,158953,1,0,0:0:0:0:
192,192,158997,1,0,0:0:0:0:
320,192,159042,1,0,0:0:0:0:
448,192,159108,1,0,0:0:0:0:
320,192,159174,1,0,0:0:0:0:
192,192,159219,1,0,0:0:0:0:
64,192,159219,1,0,0:0:0:0:
448,192,159263,1,0,0:0:0:0:
320,192,159307,1,0,0:0:0:0:
64,192,159351,1,0,0:0:0:0:
448,192,159484,1,0,0:0:0:0:
320,192,159484,1,0,0:0:0:0:
192,192,159528,1,0,0:0:0:0:
64,192,159573,1,0,0:0:0:0:
448,192,159639,1,0,0:0:0:0:
64,192,159750,1,0,0:0:0:0:
320,192,159750,1,0,0:0:0:0:
192,192,159750,1,0,0:0:0:0:
448,192,159838,1,0,0:0:0:0:
320,192,159882,1,0,0:0:0:0:
192,192,159927,1,0,0:0:0:0:
320,192,160015,1,0,0:0:0:0:
448,192,160015,1,0,0:0:0:0:
64,192,160059,1,0,0:0:0:0:
192,192,160126,1,0,0:0:0:0:
320,192,160192,1,0,0:0:0:0:
192,192,160236,1,0,0:0:0:0:
64,192,160281,1,0,0:0:0:0:
448,192,160281,1,0,0:0:0:0:
320,192,160325,1,0,0:0:0:0:
192,192,160369,1,0,0:0:0:0:
320,192,160435,1,0,0:0:0:0:
448,192,160502,1,0,0:0:0:0:
192,192,160546,1,0,0:0:0:0:
64,192,160546,1,0,0:0:0:0:
320,192,160634,1,0,0:0:0:0:
192,192,160679,1,0,0:0:0:0:
64,192,160723,1,0,0:0:0:0:
320,192,160811,1,0,0:0:0:0:
448,192,160811,1,0,0:0:0:0:
192,192,160856,1,0,0:0:0:0:
320,192,160900,1,0,0:0:0:0:
64,192,160944,1,0,0:0:0:0:
192,192,160988,1,0,0:0:0:0:
448,192,161033,1,0,0:0:0:0:
320,192,161077,1,0,0:0:0:0:
64,192,161077,1,0,0:0:0:0:
192,192,161121,1,0,0:0:0:0:
448,192,161165,1,0,0:0:0:0:
320,192,161210,1,0,0:0:0:0:
64,192,161254,1,0,0:0:0:0:
448,192,161298,1,0,0:0:0:0:
64,192,161342,1,0,0:0:0:0:
192,192,161342,1,0,0:0:0:0:
320,192,161387,1,0,0:0:0:0:
448,192,161431,1,0,0:0:0:0:
64,192,161475,1,0,0:0:0:0:
192,192,161542,1,0,0:0:0:0:
320,192,161608,1,0,0:0:0:0:
448,192,161608,1,0,0:0:0:0:
320,192,161741,1,0,0:0:0:0:
448,192,161741,1,0,0:0:0:0:
192,192,161873,1,0,0:0:0:0:
64,192,161873,1,0,0:0:0:0:
448,192,161873,1,0,0:0:0:0:
320,192,162006,1,0,0:0:0:0:
192,192,162006,1,0,0:0:0:0:
448,192,162139,1,0,0:0:0:0:
320,192,162139,1,0,0:0:0:0:
448,192,162272,1,0,0:0:0:0:
192,192,162272,1,0,0:0:0:0:
320,192,162404,1,0,0:0:0:0:
192,192,162404,1,0,0:0:0:0:
64,192,162404,1,0,0:0:0:0:
192,192,162537,1,0,0:0:0:0:
64,192,162537,1,0,0:0:0:0:
64,192,162670,1,0,0:0:0:0:
448,192,162670,1,0,0:0:0:0:
192,192,162803,1,0,0:0:0:0:
320,192,162803,1,0,0:0:0:0:
320,192,162935,1,0,0:0:0:0:
448,192,162935,1,0,0:0:0:0:
64,192,162935,1,0,0:0:0:0:
448,192,163068,1,0,0:0:0:0:
64,192,163068,1,0,0:0:0:0:
320,192,163201,1,0,0:0:0:0:
192,192,163201,1,0,0:0:0:0:
192,192,163334,1,0,0:0:0:0:
64,192,163334,1,0,0:0:0:0:
64,192,163466,1,0,0:0:0:0:
448,192,163466,1,0,0:0:0:0:
320,192,163466,1,0,0:0:0:0:
320,192,163599,1,0,0:0:0:0:
448,192,163599,1,0,0:0:0:0:
320,192,163732,1,0,0:0:0:0:
192,192,163732,1,0,0:0:0:0:
192,192,163865,1,0,0:0:0:0:
64,192,163865,1,0,0:0:0:0:
192,192,163997,1,0,0:0:0:0:
64,192,163997,1,0,0:0:0:0:
448,192,163997,1,0,0:0:0:0:
320,192,163997,1,0,0:0:0:0:
320,192,164130,1,0,0:0:0:0:
192,192,164130,1,0,0:0:0:0:
448,192,164263,1,0,0:0:0:0:
320,192,164263,1,0,0:0:0:0:
448,192,164396,1,0,0:0:0:0:
192,192,164396,1,0,0:0:0:0:
320,192,164528,1,0,0:0:0:0:
192,192,164528,1,0,0:0:0:0:
64,192,164528,1,0,0:0:0:0:
192,192,164661,1,0,0:0:0:0:
64,192,164661,1,0,0:0:0:0:
64,192,164794,1,0,0:0:0:0:
448,192,164794,1,0,0:0:0:0:
192,192,164927,1,0,0:0:0:0:
320,192,164927,1,0,0:0:0:0:
320,192,165059,1,0,0:0:0:0:
448,192,165059,1,0,0:0:0:0:
64,192,165059,1,0,0:0:0:0:
448,192,165192,1,0,0:0:0:0:
64,192,165192,1,0,0:0:0:0:
320,192,165325,1,0,0:0:0:0:
192,192,165325,1,0,0:0:0:0:
192,192,165458,1,0,0:0:0:0:
64,192,165458,1,0,0:0:0:0:
64,192,165590,1,0,0:0:0:0:
448,192,165590,1,0,0:0:0:0:
320,192,165590,1,0,0:0:0:0:
320,192,165723,1,0,0:0:0:0:
448,192,165723,1,0,0:0:0:0:
320,192,165856,1,0,0:0:0:0:
192,192,165856,1,0,0:0:0:0:
64,192,165856,1,0,0:0:0:0:
192,192,165988,1,0,0:0:0:0:
64,192,165988,1,0,0:0:0:0:
448,192,166121,1,0,0:0:0:0:
320,192,166121,1,0,0:0:0:0:
64,192,166121,1,0,0:0:0:0:
192,192,166254,1,0,0:0:0:0:
64,192,166387,1,0,0:0:0:0:
320,192,166519,1,0,0:0:0:0:
192,192,166652,1,0,0:0:0:0:
64,192,166785,1,0,0:0:0:0:
320,192,166918,1,0,0:0:0:0:
448,192,167050,1,0,0:0:0:0:
64,192,167183,1,0,0:0:0:0:
192,192,167183,1,0,0:0:0:0:
320,192,167183,1,0,0:0:0:0:
448,192,167316,1,0,0:0:0:0:
192,192,167449,1,0,0:0:0:0:
64,192,167581,1,0,0:0:0:0:
320,192,167714,1,0,0:0:0:0:
448,192,167847,1,0,0:0:0:0:
192,192,167980,1,0,0:0:0:0:
320,192,168112,1,0,0:0:0:0:
448,192,168245,1,0,0:0:0:0:
192,192,168378,1,0,0:0:0:0:
320,192,168511,1,0,0:0:0:0:
64,192,168643,1,0,0:0:0:0:
192,192,168776,1,0,0:0:0:0:
320,192,168776,1,0,0:0:0:0:
448,192,168776,1,0,0:0:0:0:
64,192,168909,1,0,0:0:0:0:
320,192,169042,1,0,0:0:0:0:
448,192,169174,1,0,0:0:0:0:
192,192,169307,1,0,0:0:0:0:
320,192,169440,1,0,0:0:0:0:
448,192,169573,1,0,0:0:0:0:
320,192,169705,1,0,0:0:0:0:
192,192,169838,1,0,0:0:0:0:
448,192,169838,1,0,0:0:0:0:
64,192,169971,1,0,0:0:0:0:
320,192,170104,1,0,0:0:0:0:
64,192,170104,1,0,0:0:0:0:
448,192,170236,1,0,0:0:0:0:
192,192,170369,1,0,0:0:0:0:
320,192,170502,1,0,0:0:0:0:
448,192,170634,1,0,0:0:0:0:
320,192,170767,1,0,0:0:0:0:
192,192,170900,1,0,0:0:0:0:
64,192,170900,1,0,0:0:0:0:
448,192,170900,1,0,0:0:0:0:
320,192,171033,1,0,0:0:0:0:
192,192,171165,1,0,0:0:0:0:
64,192,171298,1,0,0:0:0:0:
192,192,171431,1,0,0:0:0:0:
320,192,171431,1,0,0:0:0:0:
448,192,171431,1,0,0:0:0:0:
64,192,171564,1,0,0:0:0:0:
320,192,171696,1,0,0:0:0:0:
448,192,171829,1,0,0:0:0:0:
192,192,171962,1,0,0:0:0:0:
64,192,171962,1,0,0:0:0:0:
320,192,172095,1,0,0:0:0:0:
448,192,172227,1,0,0:0:0:0:
64,192,172227,1,0,0:0:0:0:
64,192,172360,1,0,0:0:0:0:
192,192,172360,1,0,0:0:0:0:
320,192,172493,1,0,0:0:0:0:
64,192,172626,1,0,0:0:0:0:
448,192,172758,1,0,0:0:0:0:
320,192,172891,1,0,0:0:0:0:
192,192,173024,1,0,0:0:0:0:
64,192,173024,1,0,0:0:0:0:
448,192,173024,1,0,0:0:0:0:
320,192,173157,1,0,0:0:0:0:
192,192,173289,1,0,0:0:0:0:
448,192,173422,1,0,0:0:0:0:
64,192,173555,1,0,0:0:0:0:
192,192,173588,1,0,0:0:0:0:
320,192,173621,1,0,0:0:0:0:
448,192,173688,1,0,0:0:0:0:
320,192,173820,1,0,0:0:0:0:
448,192,173953,1,0,0:0:0:0:
320,192,174086,1,0,0:0:0:0:
192,192,174119,1,0,0:0:0:0:
64,192,174152,1,0,0:0:0:0:
448,192,174219,1,0,0:0:0:0:
320,192,174351,1,0,0:0:0:0:
448,192,174484,1,0,0:0:0:0:
320,192,174617,1,0,0:0:0:0:
448,192,174617,1,0,0:0:0:0:
192,192,175148,1,0,0:0:0:0:
64,192,175679,1,0,0:0:0:0:
448,192,175679,1,0,0:0:0:0:
320,192,175944,1,0,0:0:0:0:
192,192,176741,1,0,0:0:0:0:
320,192,177006,1,0,0:0:0:0:
448,192,177272,1,0,0:0:0:0:
448,192,177803,1,0,0:0:0:0:
64,192,177803,1,0,0:0:0:0:
320,192,178068,1,0,0:0:0:0:
192,192,178334,1,0,0:0:0:0:
64,192,178599,1,0,0:0:0:0:
448,192,178865,1,0,0:0:0:0:
320,192,178865,1,0,0:0:0:0:
448,192,179396,1,0,0:0:0:0:
320,192,179396,1,0,0:0:0:0:
64,192,179927,1,0,0:0:0:0:
448,192,179927,1,0,0:0:0:0:
192,192,180192,1,0,0:0:0:0:
320,192,180723,1,0,0:0:0:0:
320,192,180856,1,0,0:0:0:0:
320,192,181254,1,0,0:0:0:0:
192,192,181519,1,0,0:0:0:0:
64,192,181785,1,0,0:0:0:0:
320,192,182050,1,0,0:0:0:0:
448,192,182316,1,0,0:0:0:0:
64,192,184440,1,0,0:0:0:0:
192,192,184473,1,0,0:0:0:0:
448,192,184506,1,0,0:0:0:0:
320,192,184539,1,0,0:0:0:0:
64,192,184573,1,0,0:0:0:0:
192,192,184606,1,0,0:0:0:0:
448,192,184639,1,0,0:0:0:0:
320,192,184672,1,0,0:0:0:0:
64,192,184705,1,0,0:0:0:0:
192,192,184750,1,0,0:0:0:0:
448,192,184794,1,0,0:0:0:0:
320,192,184838,1,0,0:0:0:0:
192,192,184882,1,0,0:0:0:0:
448,192,184927,1,0,0:0:0:0:
64,192,184971,1,0,0:0:0:0:
320,192,185015,1,0,0:0:0:0:
64,192,185104,1,0,0:0:0:0:
320,192,185148,1,0,0:0:0:0:
64,192,185236,1,0,0:0:0:0:
192,192,185236,1,0,0:0:0:0:
448,192,185236,1,0,0:0:0:0:
320,192,185303,1,0,0:0:0:0:
448,192,185369,1,0,0:0:0:0:
192,192,185413,1,0,0:0:0:0:
64,192,185458,1,0,0:0:0:0:
320,192,185502,1,0,0:0:0:0:
192,192,185546,1,0,0:0:0:0:
448,192,185590,1,0,0:0:0:0:
64,192,185634,1,0,0:0:0:0:
320,192,185679,1,0,0:0:0:0:
192,192,185723,1,0,0:0:0:0:
64,192,185767,1,0,0:0:0:0:
448,192,185767,1,0,0:0:0:0:
320,192,185834,1,0,0:0:0:0:
192,192,185900,1,0,0:0:0:0:
64,192,185900,1,0,0:0:0:0:
320,192,185966,1,0,0:0:0:0:
448,192,186033,1,0,0:0:0:0:
64,192,186033,1,0,0:0:0:0:
192,192,186099,1,0,0:0:0:0:
448,192,186165,1,0,0:0:0:0:
320,192,186165,1,0,0:0:0:0:
192,192,186232,1,0,0:0:0:0:
64,192,186298,1,0,0:0:0:0:
448,192,186298,1,0,0:0:0:0:
320,192,186342,1,0,0:0:0:0:
192,192,186387,1,0,0:0:0:0:
320,192,186453,1,0,0:0:0:0:
448,192,186519,1,0,0:0:0:0:
64,192,186564,1,0,0:0:0:0:
192,192,186564,1,0,0:0:0:0:
320,192,186608,1,0,0:0:0:0:
64,192,186652,1,0,0:0:0:0:
192,192,186696,1,0,0:0:0:0:
320,192,186763,1,0,0:0:0:0:
448,192,186829,1,0,0:0:0:0:
64,192,186829,1,0,0:0:0:0:
192,192,186873,1,0,0:0:0:0:
320,192,186918,1,0,0:0:0:0:
192,192,186984,1,0,0:0:0:0:
64,192,187050,1,0,0:0:0:0:
448,192,187095,1,0,0:0:0:0:
320,192,187095,1,0,0:0:0:0:
192,192,187139,1,0,0:0:0:0:
448,192,187183,1,0,0:0:0:0:
320,192,187227,1,0,0:0:0:0:
192,192,187294,1,0,0:0:0:0:
64,192,187360,1,0,0:0:0:0:
448,192,187360,1,0,0:0:0:0:
320,192,187404,1,0,0:0:0:0:
192,192,187449,1,0,0:0:0:0:
64,192,187493,1,0,0:0:0:0:
320,192,187559,1,0,0:0:0:0:
64,192,187626,1,0,0:0:0:0:
448,192,187626,1,0,0:0:0:0:
192,192,187670,1,0,0:0:0:0:
320,192,187714,1,0,0:0:0:0:
448,192,187758,1,0,0:0:0:0:
192,192,187825,1,0,0:0:0:0:
448,192,187891,1,0,0:0:0:0:
64,192,187891,1,0,0:0:0:0:
192,192,187958,1,0,0:0:0:0:
320,192,188002,1,0,0:0:0:0:
448,192,188046,1,0,0:0:0:0:
192,192,188090,1,0,0:0:0:0:
64,192,188157,1,0,0:0:0:0:
320,192,188157,1,0,0:0:0:0:
448,192,188223,1,0,0:0:0:0:
64,192,188289,1,0,0:0:0:0:
192,192,188289,1,0,0:0:0:0:
320,192,188356,1,0,0:0:0:0:
448,192,188422,1,0,0:0:0:0:
192,192,188422,1,0,0:0:0:0:
64,192,188488,1,0,0:0:0:0:
320,192,188555,1,0,0:0:0:0:
192,192,188599,1,0,0:0:0:0:
448,192,188643,1,0,0:0:0:0:
64,192,188688,1,0,0:0:0:0:
192,192,188688,1,0,0:0:0:0:
320,192,188754,1,0,0:0:0:0:
448,192,188820,1,0,0:0:0:0:
64,192,188820,1,0,0:0:0:0:
192,192,188865,1,0,0:0:0:0:
320,192,188909,1,0,0:0:0:0:
448,192,188953,1,0,0:0:0:0:
64,192,188953,1,0,0:0:0:0:
192,192,189019,1,0,0:0:0:0:
320,192,189086,1,0,0:0:0:0:
64,192,189130,1,0,0:0:0:0:
192,192,189174,1,0,0:0:0:0:
448,192,189219,1,0,0:0:0:0:
320,192,189219,1,0,0:0:0:0:
64,192,189285,1,0,0:0:0:0:
320,192,189351,1,0,0:0:0:0:
448,192,189351,1,0,0:0:0:0:
192,192,189418,1,0,0:0:0:0:
64,192,189484,1,0,0:0:0:0:
320,192,189484,1,0,0:0:0:0:
448,192,189484,1,0,0:0:0:0:
192,192,189550,1,0,0:0:0:0:
448,192,189617,1,0,0:0:0:0:
320,192,189661,1,0,0:0:0:0:
192,192,189705,1,0,0:0:0:0:
448,192,189750,1,0,0:0:0:0:
64,192,189750,1,0,0:0:0:0:
320,192,189816,1,0,0:0:0:0:
192,192,189882,1,0,0:0:0:0:
64,192,189882,1,0,0:0:0:0:
448,192,189949,1,0,0:0:0:0:
64,192,190015,1,0,0:0:0:0:
192,192,190015,1,0,0:0:0:0:
320,192,190059,1,0,0:0:0:0:
448,192,190104,1,0,0:0:0:0:
192,192,190148,1,0,0:0:0:0:
320,192,190192,1,0,0:0:0:0:
64,192,190236,1,0,0:0:0:0:
192,192,190281,1,0,0:0:0:0:
448,192,190281,1,0,0:0:0:0:
320,192,190347,1,0,0:0:0:0:
448,192,190413,1,0,0:0:0:0:
64,192,190413,1,0,0:0:0:0:
192,192,190480,1,0,0:0:0:0:
64,192,190546,1,0,0:0:0:0:
448,192,190546,1,0,0:0:0:0:
320,192,190590,1,0,0:0:0:0:
192,192,190634,1,0,0:0:0:0:
448,192,190679,1,0,0:0:0:0:
320,192,190745,1,0,0:0:0:0:
448,192,190811,1,0,0:0:0:0:
64,192,190811,1,0,0:0:0:0:
192,192,190856,1,0,0:0:0:0:
320,192,190900,1,0,0:0:0:0:
64,192,190944,1,0,0:0:0:0:
192,192,191011,1,0,0:0:0:0:
64,192,191077,1,0,0:0:0:0:
448,192,191077,1,0,0:0:0:0:
320,192,191121,1,0,0:0:0:0:
192,192,191165,1,0,0:0:0:0:
448,192,191210,1,0,0:0:0:0:
64,192,191254,1,0,0:0:0:0:
192,192,191298,1,0,0:0:0:0:
320,192,191342,1,0,0:0:0:0:
448,192,191342,1,0,0:0:0:0:
192,192,191409,1,0,0:0:0:0:
64,192,191475,1,0,0:0:0:0:
320,192,191519,1,0,0:0:0:0:
192,192,191564,1,0,0:0:0:0:
64,192,191608,1,0,0:0:0:0:
448,192,191608,1,0,0:0:0:0:
320,192,191652,1,0,0:0:0:0:
192,192,191696,1,0,0:0:0:0:
448,192,191741,1,0,0:0:0:0:
64,192,191807,1,0,0:0:0:0:
192,192,191873,1,0,0:0:0:0:
320,192,191873,1,0,0:0:0:0:
448,192,191918,1,0,0:0:0:0:
64,192,191962,1,0,0:0:0:0:
320,192,192006,1,0,0:0:0:0:
192,192,192073,1,0,0:0:0:0:
448,192,192139,1,0,0:0:0:0:
64,192,192139,1,0,0:0:0:0:
192,192,192183,1,0,0:0:0:0:
320,192,192227,1,0,0:0:0:0:
448,192,192272,1,0,0:0:0:0:
320,192,192338,1,0,0:0:0:0:
448,192,192404,1,0,0:0:0:0:
64,192,192404,1,0,0:0:0:0:
192,192,192471,1,0,0:0:0:0:
64,192,192515,1,0,0:0:0:0:
320,192,192559,1,0,0:0:0:0:
192,192,192604,1,0,0:0:0:0:
64,192,192670,1,0,0:0:0:0:
320,192,192670,1,0,0:0:0:0:
448,192,192670,1,0,0:0:0:0:
192,192,192736,1,0,0:0:0:0:
448,192,192803,1,0,0:0:0:0:
320,192,192869,1,0,0:0:0:0:
448,192,192935,1,0,0:0:0:0:
192,192,192935,1,0,0:0:0:0:
64,192,192935,1,0,0:0:0:0:
320,192,193002,1,0,0:0:0:0:
64,192,193068,1,0,0:0:0:0:
192,192,193134,1,0,0:0:0:0:
320,192,193201,1,0,0:0:0:0:
448,192,193201,1,0,0:0:0:0:
64,192,193201,1,0,0:0:0:0:
192,192,193267,1,0,0:0:0:0:
448,192,193334,1,0,0:0:0:0:
320,192,193400,1,0,0:0:0:0:
64,192,193466,1,0,0:0:0:0:
448,192,193466,1,0,0:0:0:0:
192,192,193500,1,0,0:0:0:0:
320,192,193533,1,0,0:0:0:0:
64,192,193599,1,0,0:0:0:0:
448,192,193599,1,0,0:0:0:0:
192,192,193632,1,0,0:0:0:0:
320,192,193665,1,0,0:0:0:0:
64,192,193732,1,0,0:0:0:0:
448,192,193732,1,0,0:0:0:0:
192,192,193798,1,0,0:0:0:0:
320,192,193931,1,0,0:0:0:0:
192,192,193997,1,0,0:0:0:0:
320,192,194064,1,0,0:0:0:0:
192,192,194130,1,0,0:0:0:0:
64,192,194329,1,0,0:0:0:0:
192,192,194396,1,0,0:0:0:0:
64,192,194462,1,0,0:0:0:0:
64,192,194595,1,0,0:0:0:0:
448,192,194595,1,0,0:0:0:0:
320,192,194727,1,0,0:0:0:0:
448,192,194794,1,0,0:0:0:0:
320,192,194860,1,0,0:0:0:0:
448,192,194927,1,0,0:0:0:0:
192,192,194993,1,0,0:0:0:0:
320,192,195059,1,0,0:0:0:0:
192,192,195126,1,0,0:0:0:0:
320,192,195192,1,0,0:0:0:0:
64,192,195258,1,0,0:0:0:0:
192,192,195325,1,0,0:0:0:0:
192,192,195458,1,0,0:0:0:0:
448,192,195458,1,0,0:0:0:0:
320,192,195590,1,0,0:0:0:0:
64,192,195657,1,0,0:0:0:0:
64,192,195789,1,0,0:0:0:0:
320,192,195856,1,0,0:0:0:0:
64,192,195922,1,0,0:0:0:0:
320,192,196055,1,0,0:0:0:0:
192,192,196121,1,0,0:0:0:0:
320,192,196188,1,0,0:0:0:0:
192,192,196254,1,0,0:0:0:0:
448,192,196387,1,0,0:0:0:0:
320,192,196453,1,0,0:0:0:0:
448,192,196519,1,0,0:0:0:0:
320,192,196586,1,0,0:0:0:0:
448,192,196652,1,0,0:0:0:0:
448,192,196785,1,0,0:0:0:0:
64,192,196785,1,0,0:0:0:0:
320,192,196918,1,0,0:0:0:0:
64,192,196918,1,0,0:0:0:0:
192,192,197050,1,0,0:0:0:0:
320,192,197117,1,0,0:0:0:0:
192,192,197183,1,0,0:0:0:0:
320,192,197250,1,0,0:0:0:0:
192,192,197316,1,0,0:0:0:0:
320,192,197382,1,0,0:0:0:0:
448,192,197449,1,0,0:0:0:0:
64,192,197449,1,0,0:0:0:0:
192,192,197482,1,0,0:0:0:0:
320,192,197515,1,0,0:0:0:0:
320,192,197980,1,0,0:0:0:0:
448,192,197980,1,0,0:0:0:0:
192,192,198179,1,0,0:0:0:0:
320,192,198245,1,0,0:0:0:0:
192,192,198311,1,0,0:0:0:0:
320,192,198378,1,0,0:0:0:0:
448,192,198577,1,0,0:0:0:0:
320,192,198643,1,0,0:0:0:0:
448,192,198710,1,0,0:0:0:0:
448,192,198842,1,0,0:0:0:0:
64,192,198842,1,0,0:0:0:0:
192,192,198975,1,0,0:0:0:0:
64,192,199042,1,0,0:0:0:0:
192,192,199108,1,0,0:0:0:0:
64,192,199174,1,0,0:0:0:0:
320,192,199241,1,0,0:0:0:0:
192,192,199307,1,0,0:0:0:0:
320,192,199373,1,0,0:0:0:0:
192,192,199440,1,0,0:0:0:0:
448,192,199506,1,0,0:0:0:0:
320,192,199573,1,0,0:0:0:0:
448,192,199639,1,0,0:0:0:0:
320,192,199705,1,0,0:0:0:0:
64,192,199738,1,0,0:0:0:0:
448,192,199772,1,0,0:0:0:0:
192,192,199838,1,0,0:0:0:0:
320,192,199904,1,0,0:0:0:0:
320,192,200037,1,0,0:0:0:0:
192,192,200104,1,0,0:0:0:0:
64,192,200104,1,0,0:0:0:0:
320,192,200170,1,0,0:0:0:0:
192,192,200303,1,0,0:0:0:0:
448,192,200369,1,0,0:0:0:0:
192,192,200435,1,0,0:0:0:0:
448,192,200502,1,0,0:0:0:0:
192,192,200634,1,0,0:0:0:0:
320,192,200701,1,0,0:0:0:0:
192,192,200767,1,0,0:0:0:0:
320,192,200834,1,0,0:0:0:0:
192,192,200900,1,0,0:0:0:0:
448,192,200944,1,0,0:0:0:0:
64,192,200988,1,0,0:0:0:0:
320,192,201033,1,0,0:0:0:0:
192,192,201077,1,0,0:0:0:0:
64,192,201121,1,0,0:0:0:0:
448,192,201165,1,0,0:0:0:0:
320,192,201210,1,0,0:0:0:0:
192,192,201254,1,0,0:0:0:0:
448,192,201298,1,0,0:0:0:0:
64,192,201342,1,0,0:0:0:0:
192,192,201387,1,0,0:0:0:0:
320,192,201431,1,0,0:0:0:0:
64,192,201475,1,0,0:0:0:0:
448,192,201519,1,0,0:0:0:0:
320,192,201564,1,0,0:0:0:0:
192,192,201608,1,0,0:0:0:0:
448,192,201652,1,0,0:0:0:0:
64,192,201696,1,0,0:0:0:0:
192,192,201741,1,0,0:0:0:0:
448,192,201785,1,0,0:0:0:0:
320,192,201829,1,0,0:0:0:0:
64,192,201873,1,0,0:0:0:0:
192,192,201918,1,0,0:0:0:0:
320,192,201962,1,0,0:0:0:0:
448,192,202006,1,0,0:0:0:0:
192,192,202050,1,0,0:0:0:0:
64,192,202095,1,0,0:0:0:0:
448,192,202139,1,0,0:0:0:0:
320,192,202183,1,0,0:0:0:0:
64,192,202227,1,0,0:0:0:0:
192,192,202227,1,0,0:0:0:0:
448,192,202294,1,0,0:0:0:0:
320,192,202338,1,0,0:0:0:0:
192,192,202382,1,0,0:0:0:0:
64,192,202427,1,0,0:0:0:0:
320,192,202493,1,0,0:0:0:0:
448,192,202493,1,0,0:0:0:0:
192,192,202559,1,0,0:0:0:0:
320,192,202604,1,0,0:0:0:0:
64,192,202648,1,0,0:0:0:0:
192,192,202714,1,0,0:0:0:0:
64,192,202758,1,0,0:0:0:0:
448,192,202758,1,0,0:0:0:0:
320,192,202803,1,0,0:0:0:0:
192,192,202847,1,0,0:0:0:0:
320,192,202913,1,0,0:0:0:0:
448,192,202980,1,0,0:0:0:0:
192,192,203024,1,0,0:0:0:0:
64,192,203024,1,0,0:0:0:0:
320,192,203090,1,0,0:0:0:0:
448,192,203157,1,0,0:0:0:0:
64,192,203157,1,0,0:0:0:0:
192,192,203223,1,0,0:0:0:0:
320,192,203289,1,0,0:0:0:0:
448,192,203289,1,0,0:0:0:0:
64,192,203356,1,0,0:0:0:0:
448,192,203422,1,0,0:0:0:0:
320,192,203422,1,0,0:0:0:0:
192,192,203488,1,0,0:0:0:0:
320,192,203555,1,0,0:0:0:0:
448,192,203555,1,0,0:0:0:0:
64,192,203621,1,0,0:0:0:0:
192,192,203665,1,0,0:0:0:0:
448,192,203710,1,0,0:0:0:0:
320,192,203754,1,0,0:0:0:0:
192,192,203820,1,0,0:0:0:0:
64,192,203820,1,0,0:0:0:0:
320,192,203887,1,0,0:0:0:0:
192,192,203953,1,0,0:0:0:0:
64,192,203953,1,0,0:0:0:0:
448,192,204019,1,0,0:0:0:0:
64,192,204086,1,0,0:0:0:0:
192,192,204086,1,0,0:0:0:0:
320,192,204152,1,0,0:0:0:0:
448,192,204196,1,0,0:0:0:0:
192,192,204241,1,0,0:0:0:0:
320,192,204285,1,0,0:0:0:0:
64,192,204351,1,0,0:0:0:0:
448,192,204351,1,0,0:0:0:0:
320,192,204396,1,0,0:0:0:0:
192,192,204440,1,0,0:0:0:0:
64,192,204484,1,0,0:0:0:0:
320,192,204550,1,0,0:0:0:0:
448,192,204617,1,0,0:0:0:0:
64,192,204617,1,0,0:0:0:0:
192,192,204661,1,0,0:0:0:0:
320,192,204705,1,0,0:0:0:0:
64,192,204750,1,0,0:0:0:0:
192,192,204794,1,0,0:0:0:0:
320,192,204838,1,0,0:0:0:0:
448,192,204882,1,0,0:0:0:0:
64,192,204882,1,0,0:0:0:0:
192,192,204949,1,0,0:0:0:0:
448,192,205015,1,0,0:0:0:0:
192,192,205081,1,0,0:0:0:0:
448,192,205148,1,0,0:0:0:0:
64,192,205148,1,0,0:0:0:0:
320,192,205214,1,0,0:0:0:0:
64,192,205281,1,0,0:0:0:0:
320,192,205347,1,0,0:0:0:0:
64,192,205413,1,0,0:0:0:0:
448,192,205413,1,0,0:0:0:0:
192,192,205458,1,0,0:0:0:0:
320,192,205502,1,0,0:0:0:0:
448,192,205546,1,0,0:0:0:0:
192,192,205612,1,0,0:0:0:0:
64,192,205679,1,0,0:0:0:0:
448,192,205679,1,0,0:0:0:0:
192,192,205723,1,0,0:0:0:0:
320,192,205767,1,0,0:0:0:0:
448,192,205811,1,0,0:0:0:0:
192,192,205878,1,0,0:0:0:0:
64,192,205944,1,0,0:0:0:0:
448,192,205944,1,0,0:0:0:0:
320,192,205988,1,0,0:0:0:0:
192,192,206033,1,0,0:0:0:0:
64,192,206077,1,0,0:0:0:0:
320,192,206143,1,0,0:0:0:0:
64,192,206210,1,0,0:0:0:0:
448,192,206210,1,0,0:0:0:0:
320,192,206254,1,0,0:0:0:0:
192,192,206298,1,0,0:0:0:0:
64,192,206342,1,0,0:0:0:0:
320,192,206409,1,0,0:0:0:0:
64,192,206475,1,0,0:0:0:0:
448,192,206475,1,0,0:0:0:0:
192,192,206542,1,0,0:0:0:0:
320,192,206608,1,0,0:0:0:0:
448,192,206608,1,0,0:0:0:0:
64,192,206674,1,0,0:0:0:0:
320,192,206741,1,0,0:0:0:0:
448,192,206741,1,0,0:0:0:0:
192,192,206807,1,0,0:0:0:0:
64,192,206873,1,0,0:0:0:0:
448,192,206873,1,0,0:0:0:0:
320,192,206940,1,0,0:0:0:0:
192,192,207006,1,0,0:0:0:0:
64,192,207006,1,0,0:0:0:0:
448,192,207073,1,0,0:0:0:0:
192,192,207139,1,0,0:0:0:0:
320,192,207139,1,0,0:0:0:0:
64,192,207205,1,0,0:0:0:0:
192,192,207272,1,0,0:0:0:0:
320,192,207272,1,0,0:0:0:0:
448,192,207338,1,0,0:0:0:0:
192,192,207404,1,0,0:0:0:0:
64,192,207404,1,0,0:0:0:0:
448,192,207471,1,0,0:0:0:0:
320,192,207537,1,0,0:0:0:0:
64,192,207537,1,0,0:0:0:0:
192,192,207604,1,0,0:0:0:0:
448,192,207670,1,0,0:0:0:0:
320,192,207670,1,0,0:0:0:0:
64,192,207736,1,0,0:0:0:0:
320,192,207803,1,0,0:0:0:0:
448,192,207803,1,0,0:0:0:0:
64,192,207869,1,0,0:0:0:0:
192,192,207935,1,0,0:0:0:0:
320,192,207935,1,0,0:0:0:0:
448,192,208002,1,0,0:0:0:0:
192,192,208068,1,0,0:0:0:0:
64,192,208068,1,0,0:0:0:0:
320,192,208134,1,0,0:0:0:0:
448,192,208201,1,0,0:0:0:0:
64,192,208201,1,0,0:0:0:0:
192,192,208267,1,0,0:0:0:0:
64,192,208334,1,0,0:0:0:0:
320,192,208334,1,0,0:0:0:0:
448,192,208400,1,0,0:0:0:0:
64,192,208466,1,0,0:0:0:0:
192,192,208466,1,0,0:0:0:0:
320,192,208533,1,0,0:0:0:0:
192,192,208599,1,0,0:0:0:0:
448,192,208599,1,0,0:0:0:0:
64,192,208665,1,0,0:0:0:0:
320,192,208732,1,0,0:0:0:0:
448,192,208732,1,0,0:0:0:0:
64,192,208798,1,0,0:0:0:0:
192,192,208865,1,0,0:0:0:0:
320,192,208865,1,0,0:0:0:0:
448,192,208931,1,0,0:0:0:0:
192,192,208997,1,0,0:0:0:0:
64,192,208997,1,0,0:0:0:0:
448,192,209064,1,0,0:0:0:0:
320,192,209130,1,0,0:0:0:0:
64,192,209130,1,0,0:0:0:0:
192,192,209196,1,0,0:0:0:0:
320,192,209263,1,0,0:0:0:0:
448,192,209263,1,0,0:0:0:0:
192,192,209329,1,0,0:0:0:0:
64,192,209396,1,0,0:0:0:0:
448,192,209396,1,0,0:0:0:0:
320,192,209462,1,0,0:0:0:0:
64,192,209528,1,0,0:0:0:0:
192,192,209528,1,0,0:0:0:0:
320,192,209595,1,0,0:0:0:0:
64,192,209661,1,0,0:0:0:0:
448,192,209661,1,0,0:0:0:0:
192,192,209705,1,0,0:0:0:0:
320,192,209750,1,0,0:0:0:0:
448,192,209794,1,0,0:0:0:0:
192,192,209860,1,0,0:0:0:0:
64,192,209927,1,0,0:0:0:0:
448,192,209927,1,0,0:0:0:0:
192,192,209971,1,0,0:0:0:0:
320,192,210015,1,0,0:0:0:0:
448,192,210059,1,0,0:0:0:0:
192,192,210126,1,0,0:0:0:0:
64,192,210192,1,0,0:0:0:0:
448,192,210192,1,0,0:0:0:0:
320,192,210236,1,0,0:0:0:0:
192,192,210281,1,0,0:0:0:0:
64,192,210325,1,0,0:0:0:0:
320,192,210391,1,0,0:0:0:0:
64,192,210458,1,0,0:0:0:0:
448,192,210458,1,0,0:0:0:0:
320,192,210502,1,0,0:0:0:0:
192,192,210546,1,0,0:0:0:0:
64,192,210590,1,0,0:0:0:0:
320,192,210657,1,0,0:0:0:0:
64,192,210723,1,0,0:0:0:0:
448,192,210723,1,0,0:0:0:0:
192,192,210767,1,0,0:0:0:0:
320,192,210811,1,0,0:0:0:0:
448,192,210856,1,0,0:0:0:0:
320,192,210944,1,0,0:0:0:0:
192,192,210988,1,0,0:0:0:0:
64,192,211033,1,0,0:0:0:0:
320,192,211121,1,0,0:0:0:0:
448,192,211121,1,0,0:0:0:0:
192,192,211188,1,0,0:0:0:0:
64,192,211254,1,0,0:0:0:0:
448,192,211254,1,0,0:0:0:0:
320,192,211298,1,0,0:0:0:0:
192,192,211342,1,0,0:0:0:0:
64,192,211387,1,0,0:0:0:0:
192,192,211475,1,0,0:0:0:0:
320,192,211519,1,0,0:0:0:0:
448,192,211564,1,0,0:0:0:0:
320,192,211652,1,0,0:0:0:0:
192,192,211696,1,0,0:0:0:0:
448,192,211785,1,0,0:0:0:0:
64,192,211785,1,0,0:0:0:0:
320,192,211829,1,0,0:0:0:0:
192,192,211873,1,0,0:0:0:0:
64,192,211918,1,0,0:0:0:0:
192,192,212006,1,0,0:0:0:0:
320,192,212050,1,0,0:0:0:0:
448,192,212095,1,0,0:0:0:0:
192,192,212183,1,0,0:0:0:0:
64,192,212183,1,0,0:0:0:0:
320,192,212250,1,0,0:0:0:0:
448,192,212316,1,0,0:0:0:0:
64,192,212316,1,0,0:0:0:0:
192,192,212360,1,0,0:0:0:0:
320,192,212404,1,0,0:0:0:0:
448,192,212449,1,0,0:0:0:0:
320,192,212537,1,0,0:0:0:0:
192,192,212581,1,0,0:0:0:0:
64,192,212626,1,0,0:0:0:0:
192,192,212714,1,0,0:0:0:0:
320,192,212758,1,0,0:0:0:0:
64,192,212847,1,0,0:0:0:0:
448,192,212847,1,0,0:0:0:0:
192,192,212891,1,0,0:0:0:0:
320,192,212935,1,0,0:0:0:0:
448,192,212980,1,0,0:0:0:0:
320,192,213068,1,0,0:0:0:0:
192,192,213112,1,0,0:0:0:0:
64,192,213157,1,0,0:0:0:0:
320,192,213245,1,0,0:0:0:0:
448,192,213245,1,0,0:0:0:0:
192,192,213311,1,0,0:0:0:0:
64,192,213378,1,0,0:0:0:0:
448,192,213378,1,0,0:0:0:0:
320,192,213422,1,0,0:0:0:0:
192,192,213466,1,0,0:0:0:0:
64,192,213511,1,0,0:0:0:0:
192,192,213599,1,0,0:0:0:0:
320,192,213643,1,0,0:0:0:0:
448,192,213688,1,0,0:0:0:0:
320,192,213776,1,0,0:0:0:0:
192,192,213820,1,0,0:0:0:0:
448,192,213909,1,0,0:0:0:0:
64,192,213909,1,0,0:0:0:0:
320,192,213953,1,0,0:0:0:0:
192,192,213997,1,0,0:0:0:0:
64,192,214042,1,0,0:0:0:0:
192,192,214130,1,0,0:0:0:0:
320,192,214174,1,0,0:0:0:0:
448,192,214219,1,0,0:0:0:0:
192,192,214307,1,0,0:0:0:0:
64,192,214307,1,0,0:0:0:0:
320,192,214373,1,0,0:0:0:0:
448,192,214440,1,0,0:0:0:0:
64,192,214440,1,0,0:0:0:0:
192,192,214484,1,0,0:0:0:0:
320,192,214528,1,0,0:0:0:0:
448,192,214573,1,0,0:0:0:0:
320,192,214661,1,0,0:0:0:0:
192,192,214705,1,0,0:0:0:0:
64,192,214750,1,0,0:0:0:0:
192,192,214838,1,0,0:0:0:0:
320,192,214882,1,0,0:0:0:0:
448,192,214927,1,0,0:0:0:0:
64,192,214971,1,0,0:0:0:0:
192,192,215015,1,0,0:0:0:0:
448,192,215059,1,0,0:0:0:0:
320,192,215104,1,0,0:0:0:0:
192,192,215148,1,0,0:0:0:0:
64,192,215192,1,0,0:0:0:0:
320,192,215236,1,0,0:0:0:0:
448,192,215281,1,0,0:0:0:0:
192,192,215325,1,0,0:0:0:0:
320,192,215369,1,0,0:0:0:0:
448,192,215413,1,0,0:0:0:0:
192,192,215458,1,0,0:0:0:0:
64,192,215502,1,0,0:0:0:0:
320,192,215546,1,0,0:0:0:0:
192,192,215590,1,0,0:0:0:0:
64,192,215634,1,0,0:0:0:0:
448,192,215679,1,0,0:0:0:0:
320,192,215723,1,0,0:0:0:0:
192,192,215767,1,0,0:0:0:0:
64,192,215811,1,0,0:0:0:0:
448,192,215856,1,0,0:0:0:0:
320,192,215900,1,0,0:0:0:0:
192,192,215944,1,0,0:0:0:0:
64,192,215988,1,0,0:0:0:0:
448,192,216033,1,0,0:0:0:0:
320,192,216077,1,0,0:0:0:0:
64,192,216121,1,0,0:0:0:0:
192,192,216165,1,0,0:0:0:0:
320,192,216210,1,0,0:0:0:0:
448,192,216254,1,0,0:0:0:0:
64,192,216298,1,0,0:0:0:0:
192,192,216342,1,0,0:0:0:0:
320,192,216387,1,0,0:0:0:0:
448,192,216431,1,0,0:0:0:0:
192,192,216475,1,0,0:0:0:0:
320,192,216519,1,0,0:0:0:0:
448,192,216564,1,0,0:0:0:0:
64,192,216564,1,0,0:0:0:0:
192,192,216696,1,0,0:0:0:0:
320,192,216829,1,0,0:0:0:0:
320,192,216962,1,0,0:0:0:0:
64,192,217095,1,0,0:0:0:0:
448,192,217095,1,0,0:0:0:0:
320,192,217139,1,0,0:0:0:0:
192,192,217183,1,0,0:0:0:0:
64,192,217227,1,0,0:0:0:0:
320,192,217272,1,0,0:0:0:0:
192,192,217316,1,0,0:0:0:0:
448,192,217360,1,0,0:0:0:0:
64,192,217360,1,0,0:0:0:0:
320,192,217404,1,0,0:0:0:0:
192,192,217449,1,0,0:0:0:0:
448,192,217493,1,0,0:0:0:0:
320,192,217537,1,0,0:0:0:0:
192,192,217581,1,0,0:0:0:0:
64,192,217626,1,0,0:0:0:0:
320,192,217670,1,0,0:0:0:0:
448,192,217714,1,0,0:0:0:0:
192,192,217758,1,0,0:0:0:0:
320,192,217803,1,0,0:0:0:0:
448,192,217847,1,0,0:0:0:0:
64,192,217891,1,0,0:0:0:0:
320,192,217935,1,0,0:0:0:0:
192,192,217980,1,0,0:0:0:0:
64,192,218024,1,0,0:0:0:0:
320,192,218068,1,0,0:0:0:0:
448,192,218112,1,0,0:0:0:0:
192,192,218157,1,0,0:0:0:0:
64,192,218201,1,0,0:0:0:0:
320,192,218245,1,0,0:0:0:0:
448,192,218289,1,0,0:0:0:0:
192,192,218334,1,0,0:0:0:0:
320,192,218378,1,0,0:0:0:0:
64,192,218422,1,0,0:0:0:0:
448,192,218466,1,0,0:0:0:0:
192,192,218511,1,0,0:0:0:0:
320,192,218555,1,0,0:0:0:0:
64,192,218599,1,0,0:0:0:0:
448,192,218643,1,0,0:0:0:0:
192,192,218688,1,0,0:0:0:0:
320,192,218732,1,0,0:0:0:0:
64,192,218776,1,0,0:0:0:0:
448,192,218820,1,0,0:0:0:0:
192,192,218865,1,0,0:0:0:0:
320,192,218909,1,0,0:0:0:0:
64,192,218953,1,0,0:0:0:0:
448,192,218997,1,0,0:0:0:0:
192,192,219042,1,0,0:0:0:0:
320,192,219086,1,0,0:0:0:0:
64,192,219130,1,0,0:0:0:0:
448,192,219174,1,0,0:0:0:0:
192,192,219219,1,0,0:0:0:0:
320,192,219484,1,0,0:0:0:0:
192,192,219617,1,0,0:0:0:0:
64,192,219750,1,0,0:0:0:0:
64,192,219882,1,0,0:0:0:0:
192,192,220015,1,0,0:0:0:0:
192,192,220148,1,0,0:0:0:0:
320,192,220281,1,0,0:0:0:0:
448,192,220546,1,0,0:0:0:0:
448,192,221077,1,0,0:0:0:0:
320,192,221342,1,0,0:0:0:0:
320,192,221608,1,0,0:0:0:0:
64,192,221873,1,0,0:0:0:0:
64,192,222139,1,0,0:0:0:0:
64,192,222670,1,0,0:0:0:0:
192,192,222935,1,0,0:0:0:0:
320,192,223201,1,0,0:0:0:0:
192,192,223732,1,0,0:0:0:0:
320,192,223865,1,0,0:0:0:0:
448,192,223997,1,0,0:0:0:0:
320,192,224263,1,0,0:0:0:0:
320,192,224396,1,0,0:0:0:0:
192,192,224528,1,0,0:0:0:0:
64,192,224794,1,0,0:0:0:0:
64,192,225325,1,0,0:0:0:0:
320,192,225458,1,0,0:0:0:0:
192,192,225590,1,0,0:0:0:0:
320,192,225856,1,0,0:0:0:0:
448,192,226387,1,0,0:0:0:0:
64,192,226652,1,0,0:0:0:0:
448,192,226918,1,0,0:0:0:0:
320,192,227183,1,0,0:0:0:0:
192,192,227449,1,0,0:0:0:0:
448,192,227714,1,0,0:0:0:0:
192,192,228511,1,0,0:0:0:0:
320,192,228643,1,0,0:0:0:0:
448,192,228776,1,0,0:0:0:0:
320,192,229573,1,0,0:0:0:0:
192,192,229705,1,0,0:0:0:0:
64,192,229838,1,0,0:0:0:0:
64,192,230634,1,0,0:0:0:0:
192,192,230767,1,0,0:0:0:0:
448,192,230900,1,0,0:0:0:0:
320,192,231165,1,0,0:0:0:0:
192,192,231431,1,0,0:0:0:0:
320,192,231696,1,0,0:0:0:0:
64,192,231962,1,0,0:0:0:0:
192,192,232028,1,0,0:0:0:0:
320,192,232095,1,0,0:0:0:0:
448,192,232161,1,0,0:0:0:0:
448,192,232493,1,0,0:0:0:0:
320,192,232626,1,0,0:0:0:0:
192,192,232758,1,0,0:0:0:0:
448,192,232891,1,0,0:0:0:0:
64,192,233024,1,0,0:0:0:0:
192,192,233289,1,0,0:0:0:0:
320,192,233555,1,0,0:0:0:0:
448,192,233820,1,0,0:0:0:0:
64,192,234086,1,0,0:0:0:0:
192,192,234086,1,0,0:0:0:0:
320,192,234086,1,0,0:0:0:0:
448,192,234152,1,0,0:0:0:0:
320,192,234219,1,0,0:0:0:0:
192,192,234285,1,0,0:0:0:0:
64,192,234351,1,0,0:0:0:0:
448,192,234351,1,0,0:0:0:0:
320,192,234418,1,0,0:0:0:0:
64,192,234484,1,0,0:0:0:0:
192,192,234484,1,0,0:0:0:0:
448,192,234550,1,0,0:0:0:0:
320,192,234617,1,0,0:0:0:0:
192,192,234617,1,0,0:0:0:0:
64,192,234683,1,0,0:0:0:0:
320,192,234750,1,0,0:0:0:0:
448,192,234750,1,0,0:0:0:0:
192,192,234816,1,0,0:0:0:0:
64,192,234882,1,0,0:0:0:0:
448,192,234882,1,0,0:0:0:0:
320,192,234949,1,0,0:0:0:0:
64,192,235015,1,0,0:0:0:0:
192,192,235015,1,0,0:0:0:0:
320,192,235081,1,0,0:0:0:0:
448,192,235148,1,0,0:0:0:0:
64,192,235148,1,0,0:0:0:0:
192,192,235192,1,0,0:0:0:0:
320,192,235236,1,0,0:0:0:0:
448,192,235281,1,0,0:0:0:0:
192,192,235325,1,0,0:0:0:0:
320,192,235369,1,0,0:0:0:0:
448,192,235413,1,0,0:0:0:0:
192,192,235458,1,0,0:0:0:0:
320,192,235502,1,0,0:0:0:0:
64,192,235546,1,0,0:0:0:0:
192,192,235590,1,0,0:0:0:0:
320,192,235634,1,0,0:0:0:0:
448,192,235679,1,0,0:0:0:0:
64,192,235679,1,0,0:0:0:0:
192,192,235723,1,0,0:0:0:0:
320,192,235767,1,0,0:0:0:0:
64,192,235811,1,0,0:0:0:0:
192,192,235856,1,0,0:0:0:0:
320,192,235900,1,0,0:0:0:0:
448,192,235944,1,0,0:0:0:0:
64,192,235944,1,0,0:0:0:0:
192,192,235988,1,0,0:0:0:0:
320,192,236033,1,0,0:0:0:0:
448,192,236077,1,0,0:0:0:0:
192,192,236121,1,0,0:0:0:0:
320,192,236210,1,0,0:0:0:0:
448,192,236210,1,0,0:0:0:0:
64,192,236210,1,0,0:0:0:0:
192,192,236276,1,0,0:0:0:0:
320,192,236342,1,0,0:0:0:0:
448,192,236409,1,0,0:0:0:0:
192,192,236475,1,0,0:0:0:0:
64,192,236475,1,0,0:0:0:0:
448,192,236542,1,0,0:0:0:0:
64,192,236608,1,0,0:0:0:0:
192,192,236608,1,0,0:0:0:0:
320,192,236674,1,0,0:0:0:0:
448,192,236741,1,0,0:0:0:0:
64,192,236741,1,0,0:0:0:0:
192,192,236785,1,0,0:0:0:0:
320,192,236829,1,0,0:0:0:0:
448,192,236873,1,0,0:0:0:0:
192,192,236940,1,0,0:0:0:0:
64,192,237006,1,0,0:0:0:0:
320,192,237006,1,0,0:0:0:0:
448,192,237073,1,0,0:0:0:0:
64,192,237139,1,0,0:0:0:0:
192,192,237139,1,0,0:0:0:0:
320,192,237205,1,0,0:0:0:0:
448,192,237272,1,0,0:0:0:0:
64,192,237272,1,0,0:0:0:0:
192,192,237316,1,0,0:0:0:0:
448,192,237360,1,0,0:0:0:0:
320,192,237404,1,0,0:0:0:0:
192,192,237471,1,0,0:0:0:0:
64,192,237537,1,0,0:0:0:0:
448,192,237537,1,0,0:0:0:0:
320,192,237581,1,0,0:0:0:0:
64,192,237626,1,0,0:0:0:0:
192,192,237670,1,0,0:0:0:0:
320,192,237736,1,0,0:0:0:0:
64,192,237803,1,0,0:0:0:0:
448,192,237803,1,0,0:0:0:0:
192,192,237869,1,0,0:0:0:0:
320,192,237935,1,0,0:0:0:0:
64,192,238002,1,0,0:0:0:0:
448,192,238068,1,0,0:0:0:0:
192,192,238068,1,0,0:0:0:0:
320,192,238112,1,0,0:0:0:0:
64,192,238157,1,0,0:0:0:0:
448,192,238201,1,0,0:0:0:0:
192,192,238267,1,0,0:0:0:0:
64,192,238334,1,0,0:0:0:0:
448,192,238334,1,0,0:0:0:0:
320,192,238378,1,0,0:0:0:0:
192,192,238422,1,0,0:0:0:0:
64,192,238466,1,0,0:0:0:0:
320,192,238533,1,0,0:0:0:0:
448,192,238599,1,0,0:0:0:0:
64,192,238599,1,0,0:0:0:0:
192,192,238643,1,0,0:0:0:0:
320,192,238688,1,0,0:0:0:0:
448,192,238732,1,0,0:0:0:0:
192,192,238776,1,0,0:0:0:0:
64,192,238865,1,0,0:0:0:0:
448,192,238865,1,0,0:0:0:0:
320,192,238931,1,0,0:0:0:0:
64,192,238997,1,0,0:0:0:0:
192,192,239042,1,0,0:0:0:0:
320,192,239086,1,0,0:0:0:0:
448,192,239130,1,0,0:0:0:0:
64,192,239130,1,0,0:0:0:0:
192,192,239196,1,0,0:0:0:0:
448,192,239263,1,0,0:0:0:0:
320,192,239307,1,0,0:0:0:0:
192,192,239351,1,0,0:0:0:0:
64,192,239396,1,0,0:0:0:0:
448,192,239396,1,0,0:0:0:0:
320,192,239440,1,0,0:0:0:0:
192,192,239484,1,0,0:0:0:0:
64,192,239528,1,0,0:0:0:0:
320,192,239595,1,0,0:0:0:0:
192,192,239661,1,0,0:0:0:0:
64,192,239661,1,0,0:0:0:0:
448,192,239727,1,0,0:0:0:0:
320,192,239794,1,0,0:0:0:0:
192,192,239794,1,0,0:0:0:0:
64,192,239860,1,0,0:0:0:0:
320,192,239927,1,0,0:0:0:0:
448,192,239927,1,0,0:0:0:0:
64,192,239971,1,0,0:0:0:0:
192,192,240015,1,0,0:0:0:0:
320,192,240059,1,0,0:0:0:0:
448,192,240126,1,0,0:0:0:0:
64,192,240192,1,0,0:0:0:0:
192,192,240192,1,0,0:0:0:0:
448,192,240258,1,0,0:0:0:0:
64,192,240325,1,0,0:0:0:0:
320,192,240325,1,0,0:0:0:0:
192,192,240391,1,0,0:0:0:0:
64,192,240458,1,0,0:0:0:0:
448,192,240458,1,0,0:0:0:0:
320,192,240524,1,0,0:0:0:0:
192,192,240590,1,0,0:0:0:0:
64,192,240657,1,0,0:0:0:0:
320,192,240723,1,0,0:0:0:0:
448,192,240723,1,0,0:0:0:0:
64,192,240789,1,0,0:0:0:0:
448,192,240856,1,0,0:0:0:0:
320,192,240856,1,0,0:0:0:0:
192,192,240922,1,0,0:0:0:0:
64,192,240988,1,0,0:0:0:0:
448,192,240988,1,0,0:0:0:0:
320,192,241033,1,0,0:0:0:0:
192,192,241077,1,0,0:0:0:0:
64,192,241121,1,0,0:0:0:0:
320,192,241188,1,0,0:0:0:0:
448,192,241254,1,0,0:0:0:0:
192,192,241254,1,0,0:0:0:0:
64,192,241320,1,0,0:0:0:0:
448,192,241387,1,0,0:0:0:0:
320,192,241387,1,0,0:0:0:0:
192,192,241453,1,0,0:0:0:0:
64,192,241519,1,0,0:0:0:0:
448,192,241519,1,0,0:0:0:0:
320,192,241564,1,0,0:0:0:0:
64,192,241608,1,0,0:0:0:0:
192,192,241652,1,0,0:0:0:0:
320,192,241719,1,0,0:0:0:0:
448,192,241785,1,0,0:0:0:0:
64,192,241785,1,0,0:0:0:0:
192,192,241829,1,0,0:0:0:0:
448,192,241873,1,0,0:0:0:0:
320,192,241918,1,0,0:0:0:0:
192,192,241984,1,0,0:0:0:0:
448,192,242050,1,0,0:0:0:0:
64,192,242050,1,0,0:0:0:0:
320,192,242117,1,0,0:0:0:0:
192,192,242183,1,0,0:0:0:0:
448,192,242250,1,0,0:0:0:0:
64,192,242316,1,0,0:0:0:0:
320,192,242316,1,0,0:0:0:0:
192,192,242360,1,0,0:0:0:0:
448,192,242404,1,0,0:0:0:0:
64,192,242449,1,0,0:0:0:0:
320,192,242515,1,0,0:0:0:0:
448,192,242581,1,0,0:0:0:0:
64,192,242581,1,0,0:0:0:0:
192,192,242626,1,0,0:0:0:0:
320,192,242670,1,0,0:0:0:0:
448,192,242714,1,0,0:0:0:0:
192,192,242781,1,0,0:0:0:0:
64,192,242847,1,0,0:0:0:0:
448,192,242847,1,0,0:0:0:0:
320,192,242891,1,0,0:0:0:0:
192,192,242935,1,0,0:0:0:0:
64,192,242980,1,0,0:0:0:0:
320,192,243024,1,0,0:0:0:0:
448,192,243112,1,0,0:0:0:0:
64,192,243112,1,0,0:0:0:0:
192,192,243179,1,0,0:0:0:0:
448,192,243245,1,0,0:0:0:0:
320,192,243289,1,0,0:0:0:0:
192,192,243334,1,0,0:0:0:0:
64,192,243378,1,0,0:0:0:0:
448,192,243378,1,0,0:0:0:0:
320,192,243444,1,0,0:0:0:0:
64,192,243511,1,0,0:0:0:0:
192,192,243555,1,0,0:0:0:0:
320,192,243599,1,0,0:0:0:0:
448,192,243643,1,0,0:0:0:0:
64,192,243643,1,0,0:0:0:0:
192,192,243688,1,0,0:0:0:0:
320,192,243732,1,0,0:0:0:0:
448,192,243776,1,0,0:0:0:0:
192,192,243842,1,0,0:0:0:0:
320,192,243909,1,0,0:0:0:0:
448,192,243909,1,0,0:0:0:0:
64,192,243975,1,0,0:0:0:0:
192,192,244042,1,0,0:0:0:0:
320,192,244042,1,0,0:0:0:0:
448,192,244108,1,0,0:0:0:0:
192,192,244174,1,0,0:0:0:0:
64,192,244174,1,0,0:0:0:0:
448,192,244219,1,0,0:0:0:0:
320,192,244263,1,0,0:0:0:0:
192,192,244307,1,0,0:0:0:0:
64,192,244373,1,0,0:0:0:0:
448,192,244440,1,0,0:0:0:0:
320,192,244440,1,0,0:0:0:0:
64,192,244506,1,0,0:0:0:0:
192,192,244550,1,0,0:0:0:0:
320,192,244595,1,0,0:0:0:0:
448,192,244639,1,0,0:0:0:0:
64,192,244705,1,0,0:0:0:0:
192,192,244705,1,0,0:0:0:0:
320,192,244705,1,0,0:0:0:0:
448,192,244794,1,0,0:0:0:0:
320,192,244838,1,0,0:0:0:0:
192,192,244882,1,0,0:0:0:0:
448,192,244971,1,0,0:0:0:0:
64,192,244971,1,0,0:0:0:0:
192,192,245015,1,0,0:0:0:0:
320,192,245059,1,0,0:0:0:0:
448,192,245104,1,0,0:0:0:0:
192,192,245170,1,0,0:0:0:0:
64,192,245236,1,0,0:0:0:0:
320,192,245236,1,0,0:0:0:0:
448,192,245303,1,0,0:0:0:0:
64,192,245369,1,0,0:0:0:0:
192,192,245369,1,0,0:0:0:0:
320,192,245435,1,0,0:0:0:0:
448,192,245502,1,0,0:0:0:0:
64,192,245502,1,0,0:0:0:0:
192,192,245568,1,0,0:0:0:0:
320,192,245612,1,0,0:0:0:0:
448,192,245657,1,0,0:0:0:0:
192,192,245701,1,0,0:0:0:0:
64,192,245767,1,0,0:0:0:0:
448,192,245767,1,0,0:0:0:0:
320,192,245811,1,0,0:0:0:0:
192,192,245856,1,0,0:0:0:0:
64,192,245900,1,0,0:0:0:0:
320,192,245966,1,0,0:0:0:0:
64,192,246033,1,0,0:0:0:0:
448,192,246033,1,0,0:0:0:0:
192,192,246099,1,0,0:0:0:0:
448,192,246165,1,0,0:0:0:0:
320,192,246210,1,0,0:0:0:0:
192,192,246254,1,0,0:0:0:0:
64,192,246298,1,0,0:0:0:0:
448,192,246298,1,0,0:0:0:0:
320,192,246365,1,0,0:0:0:0:
448,192,246431,1,0,0:0:0:0:
192,192,246497,1,0,0:0:0:0:
64,192,246564,1,0,0:0:0:0:
448,192,246564,1,0,0:0:0:0:
320,192,246630,1,0,0:0:0:0:
192,192,246674,1,0,0:0:0:0:
64,192,246719,1,0,0:0:0:0:
320,192,246763,1,0,0:0:0:0:
448,192,246829,1,0,0:0:0:0:
64,192,246829,1,0,0:0:0:0:
192,192,246873,1,0,0:0:0:0:
320,192,246918,1,0,0:0:0:0:
448,192,246962,1,0,0:0:0:0:
192,192,247028,1,0,0:0:0:0:
448,192,247095,1,0,0:0:0:0:
64,192,247095,1,0,0:0:0:0:
320,192,247161,1,0,0:0:0:0:
64,192,247227,1,0,0:0:0:0:
192,192,247272,1,0,0:0:0:0:
320,192,247316,1,0,0:0:0:0:
64,192,247360,1,0,0:0:0:0:
448,192,247360,1,0,0:0:0:0:
192,192,247427,1,0,0:0:0:0:
320,192,247493,1,0,0:0:0:0:
192,192,247559,1,0,0:0:0:0:
64,192,247626,1,0,0:0:0:0:
448,192,247626,1,0,0:0:0:0:
320,192,247692,1,0,0:0:0:0:
192,192,247758,1,0,0:0:0:0:
64,192,247758,1,0,0:0:0:0:
320,192,247825,1,0,0:0:0:0:
448,192,247891,1,0,0:0:0:0:
64,192,247891,1,0,0:0:0:0:
192,192,247935,1,0,0:0:0:0:
320,192,247980,1,0,0:0:0:0:
448,192,248024,1,0,0:0:0:0:
192,192,248090,1,0,0:0:0:0:
64,192,248157,1,0,0:0:0:0:
448,192,248157,1,0,0:0:0:0:
320,192,248201,1,0,0:0:0:0:
192,192,248245,1,0,0:0:0:0:
64,192,248289,1,0,0:0:0:0:
320,192,248356,1,0,0:0:0:0:
448,192,248422,1,0,0:0:0:0:
64,192,248422,1,0,0:0:0:0:
192,192,248488,1,0,0:0:0:0:
320,192,248555,1,0,0:0:0:0:
448,192,248555,1,0,0:0:0:0:
192,192,248621,1,0,0:0:0:0:
64,192,248688,1,0,0:0:0:0:
448,192,248688,1,0,0:0:0:0:
320,192,248754,1,0,0:0:0:0:
64,192,248820,1,0,0:0:0:0:
192,192,248820,1,0,0:0:0:0:
320,192,248887,1,0,0:0:0:0:
64,192,248953,1,0,0:0:0:0:
448,192,248953,1,0,0:0:0:0:
192,192,248997,1,0,0:0:0:0:
320,192,249042,1,0,0:0:0:0:
448,192,249086,1,0,0:0:0:0:
320,192,249174,1,0,0:0:0:0:
192,192,249219,1,0,0:0:0:0:
448,192,249219,1,0,0:0:0:0:
64,192,249263,1,0,0:0:0:0:
320,192,249351,1,0,0:0:0:0:
192,192,249418,1,0,0:0:0:0:
448,192,249484,1,0,0:0:0:0:
64,192,249484,1,0,0:0:0:0:
320,192,249528,1,0,0:0:0:0:
192,192,249573,1,0,0:0:0:0:
64,192,249617,1,0,0:0:0:0:
192,192,249705,1,0,0:0:0:0:
320,192,249750,1,0,0:0:0:0:
64,192,249750,1,0,0:0:0:0:
448,192,249794,1,0,0:0:0:0:
192,192,249882,1,0,0:0:0:0:
320,192,249949,1,0,0:0:0:0:
64,192,250015,1,0,0:0:0:0:
448,192,250015,1,0,0:0:0:0:
192,192,250059,1,0,0:0:0:0:
320,192,250104,1,0,0:0:0:0:
448,192,250148,1,0,0:0:0:0:
320,192,250236,1,0,0:0:0:0:
192,192,250281,1,0,0:0:0:0:
448,192,250281,1,0,0:0:0:0:
64,192,250325,1,0,0:0:0:0:
320,192,250413,1,0,0:0:0:0:
192,192,250480,1,0,0:0:0:0:
448,192,250546,1,0,0:0:0:0:
64,192,250546,1,0,0:0:0:0:
320,192,250590,1,0,0:0:0:0:
192,192,250634,1,0,0:0:0:0:
64,192,250679,1,0,0:0:0:0:
192,192,250767,1,0,0:0:0:0:
64,192,250811,1,0,0:0:0:0:
320,192,250811,1,0,0:0:0:0:
448,192,250856,1,0,0:0:0:0:
192,192,250900,1,0,0:0:0:0:
64,192,250944,1,0,0:0:0:0:
320,192,250988,1,0,0:0:0:0:
448,192,251033,1,0,0:0:0:0:
192,192,251077,1,0,0:0:0:0:
64,192,251077,1,0,0:0:0:0:
320,192,251143,1,0,0:0:0:0:
192,192,251210,1,0,0:0:0:0:
64,192,251210,1,0,0:0:0:0:
448,192,251276,1,0,0:0:0:0:
64,192,251342,1,0,0:0:0:0:
192,192,251342,1,0,0:0:0:0:
320,192,251387,1,0,0:0:0:0:
448,192,251431,1,0,0:0:0:0:
64,192,251475,1,0,0:0:0:0:
192,192,251542,1,0,0:0:0:0:
320,192,251608,1,0,0:0:0:0:
448,192,251608,1,0,0:0:0:0:
192,192,251674,1,0,0:0:0:0:
320,192,251741,1,0,0:0:0:0:
448,192,251741,1,0,0:0:0:0:
64,192,251807,1,0,0:0:0:0:
448,192,251873,1,0,0:0:0:0:
320,192,251873,1,0,0:0:0:0:
192,192,251918,1,0,0:0:0:0:
64,192,251962,1,0,0:0:0:0:
448,192,252006,1,0,0:0:0:0:
320,192,252073,1,0,0:0:0:0:
64,192,252139,1,0,0:0:0:0:
192,192,252139,1,0,0:0:0:0:
448,192,252139,1,0,0:0:0:0:
320,192,252205,1,0,0:0:0:0:
64,192,252272,1,0,0:0:0:0:
192,192,252338,1,0,0:0:0:0:
64,192,252404,1,0,0:0:0:0:
320,192,252404,1,0,0:0:0:0:
448,192,252404,1,0,0:0:0:0:
192,192,252471,1,0,0:0:0:0:
448,192,252537,1,0,0:0:0:0:
320,192,252604,1,0,0:0:0:0:
448,192,252670,1,0,0:0:0:0:
192,192,252670,1,0,0:0:0:0:
64,192,252670,1,0,0:0:0:0:
320,192,252736,1,0,0:0:0:0:
64,192,252803,1,0,0:0:0:0:
192,192,252869,1,0,0:0:0:0:
448,192,252935,1,0,0:0:0:0:
64,192,252935,1,0,0:0:0:0:
320,192,252935,1,0,0:0:0:0:
192,192,253002,1,0,0:0:0:0:
448,192,253068,1,0,0:0:0:0:
320,192,253134,1,0,0:0:0:0:
64,192,253201,1,0,0:0:0:0:
448,192,253201,1,0,0:0:0:0:
192,192,253245,1,0,0:0:0:0:
320,192,253289,1,0,0:0:0:0:
448,192,253334,1,0,0:0:0:0:
64,192,253378,1,0,0:0:0:0:
320,192,253422,1,0,0:0:0:0:
192,192,253466,1,0,0:0:0:0:
64,192,253511,1,0,0:0:0:0:
448,192,253555,1,0,0:0:0:0:
320,192,253599,1,0,0:0:0:0:
192,192,253643,1,0,0:0:0:0:
448,192,253688,1,0,0:0:0:0:
64,192,253732,1,0,0:0:0:0:
192,192,253776,1,0,0:0:0:0:
320,192,253820,1,0,0:0:0:0:
448,192,253865,1,0,0:0:0:0:
64,192,253909,1,0,0:0:0:0:
320,192,253953,1,0,0:0:0:0:
192,192,253997,1,0,0:0:0:0:
64,192,254042,1,0,0:0:0:0:
448,192,254086,1,0,0:0:0:0:
320,192,254130,1,0,0:0:0:0:
192,192,254174,1,0,0:0:0:0:
448,192,254219,1,0,0:0:0:0:
64,192,254263,1,0,0:0:0:0:
320,192,254307,1,0,0:0:0:0:
448,192,254351,1,0,0:0:0:0:
64,192,254396,1,0,0:0:0:0:
192,192,254440,1,0,0:0:0:0:
320,192,254484,1,0,0:0:0:0:
448,192,254528,1,0,0:0:0:0:
64,192,254573,1,0,0:0:0:0:
192,192,254617,1,0,0:0:0:0:
320,192,254661,1,0,0:0:0:0:
64,192,254705,1,0,0:0:0:0:
448,192,254750,1,0,0:0:0:0:
320,192,254794,1,0,0:0:0:0:
192,192,254838,1,0,0:0:0:0:
448,192,254882,1,0,0:0:0:0:
64,192,254927,1,0,0:0:0:0:
192,192,254971,1,0,0:0:0:0:
320,192,255015,1,0,0:0:0:0:
448,192,255059,1,0,0:0:0:0:
64,192,255104,1,0,0:0:0:0:
320,192,255148,1,0,0:0:0:0:
448,192,255192,1,0,0:0:0:0:
192,192,255236,1,0,0:0:0:0:
64,192,255281,1,0,0:0:0:0:
320,192,255325,1,0,0:0:0:0:
448,192,255325,1,0,0:0:0:0:
192,192,255369,1,0,0:0:0:0:
64,192,255413,1,0,0:0:0:0:
320,192,255458,1,0,0:0:0:0:
448,192,255502,1,0,0:0:0:0:
192,192,255546,1,0,0:0:0:0:
320,192,255590,1,0,0:0:0:0:
448,192,255634,1,0,0:0:0:0:
192,192,255679,1,0,0:0:0:0:
64,192,255723,1,0,0:0:0:0:
448,192,255767,1,0,0:0:0:0:
320,192,255811,1,0,0:0:0:0:
64,192,255856,1,0,0:0:0:0:
448,192,255900,1,0,0:0:0:0:
192,192,255944,1,0,0:0:0:0:
64,192,255988,1,0,0:0:0:0:
320,192,256033,1,0,0:0:0:0:
448,192,256077,1,0,0:0:0:0:
192,192,256121,1,0,0:0:0:0:
64,192,256165,1,0,0:0:0:0:
320,192,256210,1,0,0:0:0:0:
448,192,256254,1,0,0:0:0:0:
192,192,256298,1,0,0:0:0:0:
64,192,256342,1,0,0:0:0:0:
320,192,256387,1,0,0:0:0:0:
192,192,256431,1,0,0:0:0:0:
448,192,256475,1,0,0:0:0:0:
320,192,256519,1,0,0:0:0:0:
64,192,256564,1,0,0:0:0:0:
192,192,256608,1,0,0:0:0:0:
448,192,256652,1,0,0:0:0:0:
320,192,256696,1,0,0:0:0:0:
64,192,256741,1,0,0:0:0:0:
448,192,256785,1,0,0:0:0:0:
192,192,256829,1,0,0:0:0:0:
64,192,256873,1,0,0:0:0:0:
320,192,256918,1,0,0:0:0:0:
192,192,256962,1,0,0:0:0:0:
448,192,257006,1,0,0:0:0:0:
320,192,257050,1,0,0:0:0:0:
64,192,257095,1,0,0:0:0:0:
448,192,257139,1,0,0:0:0:0:
192,192,257183,1,0,0:0:0:0:
64,192,257227,1,0,0:0:0:0:
320,192,257272,1,0,0:0:0:0:
448,192,257316,1,0,0:0:0:0:
192,192,257360,1,0,0:0:0:0:
64,192,257404,1,0,0:0:0:0:
320,192,257449,1,0,0:0:0:0:
64,192,265944,5,0,0:0:0:0:
64,192,266741,1,0,0:0:0:0:
192,192,266873,1,0,0:0:0:0:
320,192,267006,1,0,0:0:0:0:
448,192,267139,1,0,0:0:0:0:
320,192,267272,1,0,0:0:0:0:
192,192,267404,1,0,0:0:0:0:
64,192,267537,1,0,0:0:0:0:
64,192,267670,1,0,0:0:0:0:
192,192,267803,1,0,0:0:0:0:
320,192,267935,1,0,0:0:0:0:
448,192,268068,1,0,0:0:0:0:
320,192,268201,1,0,0:0:0:0:
192,192,268334,1,0,0:0:0:0:
64,192,268466,1,0,0:0:0:0:
448,192,268599,1,0,0:0:0:0:
448,192,268732,1,0,0:0:0:0:
320,192,268865,1,0,0:0:0:0:
320,192,268997,1,0,0:0:0:0:
192,192,269130,1,0,0:0:0:0:
64,192,269263,1,0,0:0:0:0:
192,192,269396,1,0,0:0:0:0:
320,192,269528,1,0,0:0:0:0:
448,192,269661,1,0,0:0:0:0:
320,192,269927,1,0,0:0:0:0:
192,192,270192,1,0,0:0:0:0:
64,192,270988,1,0,0:0:0:0:
192,192,271121,1,0,0:0:0:0:
448,192,271254,1,0,0:0:0:0:
448,192,271519,1,0,0:0:0:0:
448,192,271652,1,0,0:0:0:0:
448,192,271785,1,0,0:0:0:0:
320,192,272050,1,0,0:0:0:0:
192,192,272316,1,0,0:0:0:0:
320,192,273112,1,0,0:0:0:0:
192,192,273378,1,0,0:0:0:0:
448,192,274440,1,0,0:0:0:0:
448,192,275236,1,0,0:0:0:0:
448,192,275369,1,0,0:0:0:0:
320,192,275502,1,0,0:0:0:0:
192,192,275634,1,0,0:0:0:0:
64,192,275767,1,0,0:0:0:0:
192,192,276033,1,0,0:0:0:0:
448,192,276298,1,0,0:0:0:0:
448,192,276431,1,0,0:0:0:0:
320,192,276564,1,0,0:0:0:0:
192,192,276696,1,0,0:0:0:0:
64,192,276829,1,0,0:0:0:0:
192,192,277095,1,0,0:0:0:0:
320,192,277227,1,0,0:0:0:0:
448,192,277360,1,0,0:0:0:0:
448,192,277493,1,0,0:0:0:0:
320,192,277626,1,0,0:0:0:0:
192,192,277758,1,0,0:0:0:0:
64,192,277891,1,0,0:0:0:0:
192,192,278024,1,0,0:0:0:0:
320,192,278157,1,0,0:0:0:0:
448,192,278289,1,0,0:0:0:0:
320,192,278422,1,0,0:0:0:0:
192,192,278555,1,0,0:0:0:0:
64,192,278688,1,0,0:0:0:0:
192,192,279484,1,0,0:0:0:0:
320,192,279617,1,0,0:0:0:0:
448,192,279750,1,0,0:0:0:0:
448,192,280015,1,0,0:0:0:0:
448,192,280281,1,0,0:0:0:0:
320,192,280281,1,0,0:0:0:0:
448,192,280546,1,0,0:0:0:0:
320,192,280546,1,0,0:0:0:0:
192,192,280546,1,0,0:0:0:0:
192,192,280811,1,0,0:0:0:0:
320,192,280811,1,0,0:0:0:0:
448,192,280811,1,0,0:0:0:0:
64,192,280811,1,0,0:0:0:0:
192,192,280944,1,0,0:0:0:0:
320,192,281011,1,0,0:0:0:0:
448,192,281077,1,0,0:0:0:0:
64,192,281077,1,0,0:0:0:0:
192,192,281143,1,0,0:0:0:0:
448,192,281210,1,0,0:0:0:0:
320,192,281254,1,0,0:0:0:0:
192,192,281298,1,0,0:0:0:0:
64,192,281342,1,0,0:0:0:0:
448,192,281342,1,0,0:0:0:0:
320,192,281409,1,0,0:0:0:0:
64,192,281475,1,0,0:0:0:0:
192,192,281519,1,0,0:0:0:0:
320,192,281564,1,0,0:0:0:0:
448,192,281608,1,0,0:0:0:0:
64,192,281608,1,0,0:0:0:0:
192,192,281674,1,0,0:0:0:0:
448,192,281741,1,0,0:0:0:0:
320,192,281785,1,0,0:0:0:0:
192,192,281829,1,0,0:0:0:0:
64,192,281873,1,0,0:0:0:0:
448,192,281873,1,0,0:0:0:0:
320,192,281918,1,0,0:0:0:0:
192,192,281962,1,0,0:0:0:0:
64,192,282006,1,0,0:0:0:0:
320,192,282050,1,0,0:0:0:0:
192,192,282095,1,0,0:0:0:0:
448,192,282139,1,0,0:0:0:0:
320,192,282183,1,0,0:0:0:0:
64,192,282227,1,0,0:0:0:0:
192,192,282272,1,0,0:0:0:0:
320,192,282316,1,0,0:0:0:0:
448,192,282360,1,0,0:0:0:0:
192,192,282404,1,0,0:0:0:0:
320,192,282449,1,0,0:0:0:0:
64,192,282493,1,0,0:0:0:0:
192,192,282537,1,0,0:0:0:0:
448,192,282581,1,0,0:0:0:0:
320,192,282626,1,0,0:0:0:0:
64,192,282670,1,0,0:0:0:0:
192,192,282670,1,0,0:0:0:0:
448,192,282736,1,0,0:0:0:0:
64,192,282803,1,0,0:0:0:0:
320,192,282803,1,0,0:0:0:0:
192,192,282869,1,0,0:0:0:0:
448,192,282935,1,0,0:0:0:0:
64,192,282935,1,0,0:0:0:0:
320,192,282980,1,0,0:0:0:0:
192,192,283024,1,0,0:0:0:0:
64,192,283068,1,0,0:0:0:0:
320,192,283112,1,0,0:0:0:0:
448,192,283157,1,0,0:0:0:0:
64,192,283201,1,0,0:0:0:0:
192,192,283267,1,0,0:0:0:0:
320,192,283334,1,0,0:0:0:0:
448,192,283378,1,0,0:0:0:0:
64,192,283378,1,0,0:0:0:0:
192,192,283422,1,0,0:0:0:0:
320,192,283466,1,0,0:0:0:0:
64,192,283511,1,0,0:0:0:0:
192,192,283555,1,0,0:0:0:0:
320,192,283599,1,0,0:0:0:0:
448,192,283599,1,0,0:0:0:0:
64,192,283665,1,0,0:0:0:0:
320,192,283732,1,0,0:0:0:0:
448,192,283732,1,0,0:0:0:0:
64,192,283776,1,0,0:0:0:0:
192,192,283820,1,0,0:0:0:0:
320,192,283887,1,0,0:0:0:0:
448,192,283953,1,0,0:0:0:0:
192,192,283997,1,0,0:0:0:0:
64,192,283997,1,0,0:0:0:0:
448,192,284064,1,0,0:0:0:0:
192,192,284130,1,0,0:0:0:0:
64,192,284130,1,0,0:0:0:0:
320,192,284196,1,0,0:0:0:0:
64,192,284263,1,0,0:0:0:0:
192,192,284263,1,0,0:0:0:0:
448,192,284329,1,0,0:0:0:0:
64,192,284396,1,0,0:0:0:0:
192,192,284396,1,0,0:0:0:0:
320,192,284462,1,0,0:0:0:0:
64,192,284528,1,0,0:0:0:0:
448,192,284528,1,0,0:0:0:0:
192,192,284573,1,0,0:0:0:0:
448,192,284661,1,0,0:0:0:0:
320,192,284727,1,0,0:0:0:0:
192,192,284794,1,0,0:0:0:0:
64,192,284794,1,0,0:0:0:0:
448,192,284838,1,0,0:0:0:0:
320,192,284882,1,0,0:0:0:0:
64,192,284949,1,0,0:0:0:0:
192,192,285015,1,0,0:0:0:0:
320,192,285059,1,0,0:0:0:0:
448,192,285059,1,0,0:0:0:0:
64,192,285126,1,0,0:0:0:0:
320,192,285192,1,0,0:0:0:0:
448,192,285192,1,0,0:0:0:0:
192,192,285258,1,0,0:0:0:0:
448,192,285325,1,0,0:0:0:0:
320,192,285325,1,0,0:0:0:0:
64,192,285391,1,0,0:0:0:0:
448,192,285458,1,0,0:0:0:0:
320,192,285458,1,0,0:0:0:0:
192,192,285524,1,0,0:0:0:0:
64,192,285590,1,0,0:0:0:0:
448,192,285590,1,0,0:0:0:0:
320,192,285634,1,0,0:0:0:0:
64,192,285723,1,0,0:0:0:0:
192,192,285789,1,0,0:0:0:0:
320,192,285856,1,0,0:0:0:0:
448,192,285856,1,0,0:0:0:0:
64,192,285900,1,0,0:0:0:0:
192,192,285944,1,0,0:0:0:0:
448,192,286011,1,0,0:0:0:0:
320,192,286077,1,0,0:0:0:0:
192,192,286121,1,0,0:0:0:0:
64,192,286121,1,0,0:0:0:0:
448,192,286188,1,0,0:0:0:0:
192,192,286254,1,0,0:0:0:0:
64,192,286254,1,0,0:0:0:0:
320,192,286320,1,0,0:0:0:0:
64,192,286387,1,0,0:0:0:0:
192,192,286387,1,0,0:0:0:0:
448,192,286453,1,0,0:0:0:0:
64,192,286519,1,0,0:0:0:0:
192,192,286519,1,0,0:0:0:0:
320,192,286586,1,0,0:0:0:0:
448,192,286652,1,0,0:0:0:0:
64,192,286652,1,0,0:0:0:0:
192,192,286696,1,0,0:0:0:0:
448,192,286785,1,0,0:0:0:0:
192,192,286829,1,0,0:0:0:0:
320,192,286873,1,0,0:0:0:0:
64,192,286918,1,0,0:0:0:0:
192,192,286962,1,0,0:0:0:0:
448,192,287006,1,0,0:0:0:0:
64,192,287050,1,0,0:0:0:0:
448,192,287095,1,0,0:0:0:0:
64,192,287139,1,0,0:0:0:0:
320,192,287183,1,0,0:0:0:0:
192,192,287183,1,0,0:0:0:0:
448,192,287250,1,0,0:0:0:0:
192,192,287294,1,0,0:0:0:0:
320,192,287338,1,0,0:0:0:0:
448,192,287382,1,0,0:0:0:0:
192,192,287449,1,0,0:0:0:0:
64,192,287449,1,0,0:0:0:0:
320,192,287493,1,0,0:0:0:0:
64,192,287537,1,0,0:0:0:0:
192,192,287581,1,0,0:0:0:0:
320,192,287648,1,0,0:0:0:0:
448,192,287714,1,0,0:0:0:0:
64,192,287714,1,0,0:0:0:0:
192,192,287758,1,0,0:0:0:0:
448,192,287803,1,0,0:0:0:0:
320,192,287847,1,0,0:0:0:0:
192,192,287913,1,0,0:0:0:0:
64,192,287980,1,0,0:0:0:0:
448,192,287980,1,0,0:0:0:0:
320,192,288024,1,0,0:0:0:0:
64,192,288068,1,0,0:0:0:0:
192,192,288112,1,0,0:0:0:0:
320,192,288179,1,0,0:0:0:0:
448,192,288245,1,0,0:0:0:0:
64,192,288245,1,0,0:0:0:0:
192,192,288311,1,0,0:0:0:0:
448,192,288378,1,0,0:0:0:0:
320,192,288378,1,0,0:0:0:0:
192,192,288444,1,0,0:0:0:0:
64,192,288511,1,0,0:0:0:0:
448,192,288511,1,0,0:0:0:0:
320,192,288577,1,0,0:0:0:0:
448,192,288643,1,0,0:0:0:0:
192,192,288688,1,0,0:0:0:0:
320,192,288732,1,0,0:0:0:0:
448,192,288776,1,0,0:0:0:0:
64,192,288776,1,0,0:0:0:0:
192,192,288842,1,0,0:0:0:0:
64,192,288909,1,0,0:0:0:0:
320,192,288909,1,0,0:0:0:0:
448,192,288975,1,0,0:0:0:0:
192,192,289042,1,0,0:0:0:0:
64,192,289042,1,0,0:0:0:0:
320,192,289108,1,0,0:0:0:0:
64,192,289174,1,0,0:0:0:0:
448,192,289174,1,0,0:0:0:0:
192,192,289241,1,0,0:0:0:0:
448,192,289307,1,0,0:0:0:0:
320,192,289307,1,0,0:0:0:0:
64,192,289307,1,0,0:0:0:0:
192,192,289396,1,0,0:0:0:0:
320,192,289440,1,0,0:0:0:0:
448,192,289484,1,0,0:0:0:0:
320,192,289573,1,0,0:0:0:0:
192,192,289573,1,0,0:0:0:0:
64,192,289573,1,0,0:0:0:0:
448,192,289661,1,0,0:0:0:0:
192,192,289705,1,0,0:0:0:0:
64,192,289750,1,0,0:0:0:0:
192,192,289838,1,0,0:0:0:0:
320,192,289838,1,0,0:0:0:0:
448,192,289838,1,0,0:0:0:0:
64,192,289927,1,0,0:0:0:0:
448,192,289971,1,0,0:0:0:0:
320,192,290015,1,0,0:0:0:0:
448,192,290104,1,0,0:0:0:0:
192,192,290104,1,0,0:0:0:0:
64,192,290104,1,0,0:0:0:0:
320,192,290192,1,0,0:0:0:0:
64,192,290236,1,0,0:0:0:0:
192,192,290281,1,0,0:0:0:0:
64,192,290369,1,0,0:0:0:0:
448,192,290369,1,0,0:0:0:0:
320,192,290413,1,0,0:0:0:0:
192,192,290458,1,0,0:0:0:0:
64,192,290502,1,0,0:0:0:0:
192,192,290568,1,0,0:0:0:0:
320,192,290634,1,0,0:0:0:0:
448,192,290634,1,0,0:0:0:0:
64,192,290701,1,0,0:0:0:0:
192,192,290767,1,0,0:0:0:0:
448,192,290767,1,0,0:0:0:0:
320,192,290834,1,0,0:0:0:0:
448,192,290900,1,0,0:0:0:0:
64,192,290900,1,0,0:0:0:0:
192,192,290966,1,0,0:0:0:0:
320,192,291011,1,0,0:0:0:0:
448,192,291055,1,0,0:0:0:0:
192,192,291121,1,0,0:0:0:0:
64,192,291165,1,0,0:0:0:0:
448,192,291165,1,0,0:0:0:0:
320,192,291232,1,0,0:0:0:0:
192,192,291276,1,0,0:0:0:0:
64,192,291320,1,0,0:0:0:0:
320,192,291387,1,0,0:0:0:0:
64,192,291431,1,0,0:0:0:0:
448,192,291431,1,0,0:0:0:0:
192,192,291475,1,0,0:0:0:0:
320,192,291519,1,0,0:0:0:0:
448,192,291564,1,0,0:0:0:0:
192,192,291608,1,0,0:0:0:0:
64,192,291652,1,0,0:0:0:0:
448,192,291696,1,0,0:0:0:0:
320,192,291763,1,0,0:0:0:0:
192,192,291829,1,0,0:0:0:0:
64,192,291873,1,0,0:0:0:0:
448,192,291873,1,0,0:0:0:0:
320,192,291918,1,0,0:0:0:0:
192,192,291962,1,0,0:0:0:0:
448,192,292006,1,0,0:0:0:0:
320,192,292050,1,0,0:0:0:0:
192,192,292095,1,0,0:0:0:0:
64,192,292095,1,0,0:0:0:0:
448,192,292161,1,0,0:0:0:0:
192,192,292227,1,0,0:0:0:0:
64,192,292227,1,0,0:0:0:0:
448,192,292272,1,0,0:0:0:0:
320,192,292316,1,0,0:0:0:0:
192,192,292382,1,0,0:0:0:0:
64,192,292449,1,0,0:0:0:0:
320,192,292493,1,0,0:0:0:0:
448,192,292493,1,0,0:0:0:0:
64,192,292559,1,0,0:0:0:0:
320,192,292626,1,0,0:0:0:0:
448,192,292626,1,0,0:0:0:0:
192,192,292692,1,0,0:0:0:0:
448,192,292758,1,0,0:0:0:0:
320,192,292758,1,0,0:0:0:0:
64,192,292825,1,0,0:0:0:0:
448,192,292891,1,0,0:0:0:0:
320,192,292891,1,0,0:0:0:0:
192,192,292958,1,0,0:0:0:0:
448,192,293024,1,0,0:0:0:0:
64,192,293024,1,0,0:0:0:0:
320,192,293068,1,0,0:0:0:0:
64,192,293157,1,0,0:0:0:0:
192,192,293223,1,0,0:0:0:0:
320,192,293289,1,0,0:0:0:0:
448,192,293289,1,0,0:0:0:0:
64,192,293334,1,0,0:0:0:0:
192,192,293378,1,0,0:0:0:0:
448,192,293444,1,0,0:0:0:0:
320,192,293511,1,0,0:0:0:0:
192,192,293555,1,0,0:0:0:0:
64,192,293555,1,0,0:0:0:0:
448,192,293621,1,0,0:0:0:0:
192,192,293688,1,0,0:0:0:0:
64,192,293688,1,0,0:0:0:0:
320,192,293754,1,0,0:0:0:0:
64,192,293820,1,0,0:0:0:0:
192,192,293820,1,0,0:0:0:0:
448,192,293887,1,0,0:0:0:0:
64,192,293953,1,0,0:0:0:0:
192,192,293953,1,0,0:0:0:0:
320,192,294019,1,0,0:0:0:0:
448,192,294086,1,0,0:0:0:0:
64,192,294086,1,0,0:0:0:0:
192,192,294130,1,0,0:0:0:0:
448,192,294219,1,0,0:0:0:0:
320,192,294285,1,0,0:0:0:0:
192,192,294351,1,0,0:0:0:0:
64,192,294351,1,0,0:0:0:0:
448,192,294396,1,0,0:0:0:0:
320,192,294440,1,0,0:0:0:0:
64,192,294506,1,0,0:0:0:0:
192,192,294573,1,0,0:0:0:0:
320,192,294617,1,0,0:0:0:0:
448,192,294617,1,0,0:0:0:0:
64,192,294683,1,0,0:0:0:0:
320,192,294750,1,0,0:0:0:0:
448,192,294750,1,0,0:0:0:0:
192,192,294816,1,0,0:0:0:0:
448,192,294882,1,0,0:0:0:0:
320,192,294882,1,0,0:0:0:0:
64,192,294949,1,0,0:0:0:0:
448,192,295015,1,0,0:0:0:0:
320,192,295015,1,0,0:0:0:0:
192,192,295081,1,0,0:0:0:0:
64,192,295148,1,0,0:0:0:0:
448,192,295148,1,0,0:0:0:0:
320,192,295192,1,0,0:0:0:0:
64,192,295281,1,0,0:0:0:0:
192,192,295281,1,0,0:0:0:0:
320,192,295347,1,0,0:0:0:0:
448,192,295413,1,0,0:0:0:0:
64,192,295458,1,0,0:0:0:0:
448,192,295502,1,0,0:0:0:0:
320,192,295546,1,0,0:0:0:0:
64,192,295590,1,0,0:0:0:0:
192,192,295634,1,0,0:0:0:0:
448,192,295679,1,0,0:0:0:0:
320,192,295679,1,0,0:0:0:0:
192,192,295767,1,0,0:0:0:0:
64,192,295811,1,0,0:0:0:0:
320,192,295811,1,0,0:0:0:0:
448,192,295856,1,0,0:0:0:0:
192,192,295944,1,0,0:0:0:0:
64,192,295944,1,0,0:0:0:0:
320,192,296033,1,0,0:0:0:0:
448,192,296077,1,0,0:0:0:0:
192,192,296077,1,0,0:0:0:0:
64,192,296121,1,0,0:0:0:0:
448,192,296210,1,0,0:0:0:0:
320,192,296210,1,0,0:0:0:0:
192,192,296254,1,0,0:0:0:0:
64,192,296298,1,0,0:0:0:0:
320,192,296342,1,0,0:0:0:0:
192,192,296409,1,0,0:0:0:0:
448,192,296475,1,0,0:0:0:0:
64,192,296475,1,0,0:0:0:0:
192,192,296519,1,0,0:0:0:0:
320,192,296564,1,0,0:0:0:0:
448,192,296608,1,0,0:0:0:0:
192,192,296674,1,0,0:0:0:0:
64,192,296741,1,0,0:0:0:0:
448,192,296741,1,0,0:0:0:0:
320,192,296785,1,0,0:0:0:0:
192,192,296829,1,0,0:0:0:0:
64,192,296873,1,0,0:0:0:0:
320,192,296940,1,0,0:0:0:0:
64,192,297006,1,0,0:0:0:0:
448,192,297006,1,0,0:0:0:0:
320,192,297073,1,0,0:0:0:0:
192,192,297139,1,0,0:0:0:0:
64,192,297139,1,0,0:0:0:0:
320,192,297205,1,0,0:0:0:0:
448,192,297272,1,0,0:0:0:0:
64,192,297272,1,0,0:0:0:0:
192,192,297316,1,0,0:0:0:0:
320,192,297360,1,0,0:0:0:0:
448,192,297404,1,0,0:0:0:0:
192,192,297471,1,0,0:0:0:0:
320,192,297537,1,0,0:0:0:0:
448,192,297537,1,0,0:0:0:0:
64,192,297604,1,0,0:0:0:0:
192,192,297670,1,0,0:0:0:0:
448,192,297670,1,0,0:0:0:0:
320,192,297736,1,0,0:0:0:0:
64,192,297803,1,0,0:0:0:0:
448,192,297803,1,0,0:0:0:0:
192,192,297803,1,0,0:0:0:0:
320,192,297869,1,0,0:0:0:0:
64,192,297935,1,0,0:0:0:0:
192,192,297935,1,0,0:0:0:0:
320,192,298002,1,0,0:0:0:0:
448,192,298068,1,0,0:0:0:0:
64,192,298068,1,0,0:0:0:0:
192,192,298134,1,0,0:0:0:0:
64,192,298201,1,0,0:0:0:0:
320,192,298245,1,0,0:0:0:0:
192,192,298289,1,0,0:0:0:0:
64,192,298334,1,0,0:0:0:0:
448,192,298334,1,0,0:0:0:0:
320,192,298400,1,0,0:0:0:0:
448,192,298466,1,0,0:0:0:0:
192,192,298466,1,0,0:0:0:0:
64,192,298533,1,0,0:0:0:0:
320,192,298599,1,0,0:0:0:0:
448,192,298599,1,0,0:0:0:0:
192,192,298665,1,0,0:0:0:0:
64,192,298732,1,0,0:0:0:0:
320,192,298798,1,0,0:0:0:0:
64,192,298865,1,0,0:0:0:0:
448,192,298865,1,0,0:0:0:0:
192,192,298898,1,0,0:0:0:0:
320,192,298931,1,0,0:0:0:0:
64,192,298997,1,0,0:0:0:0:
192,192,299064,1,0,0:0:0:0:
448,192,299130,1,0,0:0:0:0:
64,192,299130,1,0,0:0:0:0:
320,192,299163,1,0,0:0:0:0:
192,192,299196,1,0,0:0:0:0:
448,192,299263,1,0,0:0:0:0:
320,192,299329,1,0,0:0:0:0:
64,192,299396,1,0,0:0:0:0:
448,192,299396,1,0,0:0:0:0:
192,192,299429,1,0,0:0:0:0:
320,192,299462,1,0,0:0:0:0:
64,192,299528,1,0,0:0:0:0:
192,192,299595,1,0,0:0:0:0:
64,192,299661,1,0,0:0:0:0:
448,192,299661,1,0,0:0:0:0:
320,192,299694,1,0,0:0:0:0:
192,192,299727,1,0,0:0:0:0:
448,192,299794,1,0,0:0:0:0:
64,192,299927,1,0,0:0:0:0:
192,192,299927,1,0,0:0:0:0:
448,192,299927,1,0,0:0:0:0:
320,192,299927,1,0,0:0:0:0:
64,192,300059,1,0,0:0:0:0:
192,192,300059,1,0,0:0:0:0:
320,192,300059,1,0,0:0:0:0:
192,192,300192,1,0,0:0:0:0:
64,192,300192,1,0,0:0:0:0:
448,192,300325,1,0,0:0:0:0:
320,192,300325,1,0,0:0:0:0:
64,192,300325,1,0,0:0:0:0:
192,192,300325,1,0,0:0:0:0:
192,192,300458,1,0,0:0:0:0:
320,192,300458,1,0,0:0:0:0:
448,192,300458,1,0,0:0:0:0:
320,192,300590,1,0,0:0:0:0:
448,192,300590,1,0,0:0:0:0:
448,192,300723,1,0,0:0:0:0:
192,192,300723,1,0,0:0:0:0:
64,192,300723,1,0,0:0:0:0:
320,192,300723,1,0,0:0:0:0:
320,192,300856,1,0,0:0:0:0:
192,192,300856,1,0,0:0:0:0:
64,192,300856,1,0,0:0:0:0:
64,192,300988,1,0,0:0:0:0:
192,192,300988,1,0,0:0:0:0:
64,192,301121,1,0,0:0:0:0:
320,192,301121,1,0,0:0:0:0:
448,192,301121,1,0,0:0:0:0:
192,192,301121,1,0,0:0:0:0:
448,192,301254,1,0,0:0:0:0:
320,192,301254,1,0,0:0:0:0:
192,192,301254,1,0,0:0:0:0:
448,192,301387,1,0,0:0:0:0:
320,192,301387,1,0,0:0:0:0:
448,192,301519,1,0,0:0:0:0:
320,192,301519,1,0,0:0:0:0:
192,192,301519,1,0,0:0:0:0:
64,192,301519,1,0,0:0:0:0:
64,192,301652,1,0,0:0:0:0:
448,192,301652,1,0,0:0:0:0:
192,192,301652,1,0,0:0:0:0:
320,192,301652,1,0,0:0:0:0:
192,192,301785,1,0,0:0:0:0:
320,192,301785,1,0,0:0:0:0:
64,192,301785,1,0,0:0:0:0:
448,192,301785,1,0,0:0:0:0:
320,192,301918,1,0,0:0:0:0:
192,192,301918,1,0,0:0:0:0:
64,192,302050,1,0,0:0:0:0:
192,192,302050,1,0,0:0:0:0:
448,192,302050,1,0,0:0:0:0:
320,192,302050,1,0,0:0:0:0:
64,192,302183,1,0,0:0:0:0:
192,192,302183,1,0,0:0:0:0:
320,192,302183,1,0,0:0:0:0:
192,192,302316,1,0,0:0:0:0:
64,192,302316,1,0,0:0:0:0:
448,192,302449,1,0,0:0:0:0:
320,192,302449,1,0,0:0:0:0:
64,192,302449,1,0,0:0:0:0:
192,192,302449,1,0,0:0:0:0:
192,192,302581,1,0,0:0:0:0:
320,192,302581,1,0,0:0:0:0:
448,192,302581,1,0,0:0:0:0:
320,192,302714,1,0,0:0:0:0:
448,192,302714,1,0,0:0:0:0:
448,192,302847,1,0,0:0:0:0:
192,192,302847,1,0,0:0:0:0:
64,192,302847,1,0,0:0:0:0:
320,192,302847,1,0,0:0:0:0:
320,192,302980,1,0,0:0:0:0:
192,192,302980,1,0,0:0:0:0:
64,192,302980,1,0,0:0:0:0:
64,192,303112,1,0,0:0:0:0:
192,192,303112,1,0,0:0:0:0:
64,192,303245,1,0,0:0:0:0:
320,192,303245,1,0,0:0:0:0:
448,192,303245,1,0,0:0:0:0:
192,192,303245,1,0,0:0:0:0:
448,192,303378,1,0,0:0:0:0:
320,192,303378,1,0,0:0:0:0:
192,192,303378,1,0,0:0:0:0:
448,192,303511,1,0,0:0:0:0:
320,192,303511,1,0,0:0:0:0:
64,192,303643,1,0,0:0:0:0:
448,192,303643,1,0,0:0:0:0:
320,192,303643,1,0,0:0:0:0:
192,192,303643,1,0,0:0:0:0:
192,192,303776,1,0,0:0:0:0:
64,192,303776,1,0,0:0:0:0:
192,192,303909,1,0,0:0:0:0:
320,192,303909,1,0,0:0:0:0:
448,192,304042,1,0,0:0:0:0:
320,192,304042,1,0,0:0:0:0:
192,192,304174,1,0,0:0:0:0:
64,192,304174,1,0,0:0:0:0:
320,192,304174,1,0,0:0:0:0:
448,192,304174,1,0,0:0:0:0:
192,192,304307,1,0,0:0:0:0:
64,192,304307,1,0,0:0:0:0:
448,192,304307,1,0,0:0:0:0:
192,192,304440,1,0,0:0:0:0:
64,192,304440,1,0,0:0:0:0:
320,192,304440,1,0,0:0:0:0:
320,192,304573,1,0,0:0:0:0:
448,192,304573,1,0,0:0:0:0:
192,192,304573,1,0,0:0:0:0:
64,192,304573,1,0,0:0:0:0:
320,192,304705,1,0,0:0:0:0:
64,192,304705,1,0,0:0:0:0:
448,192,304705,1,0,0:0:0:0:
192,192,304838,1,0,0:0:0:0:
320,192,304838,1,0,0:0:0:0:
448,192,304838,1,0,0:0:0:0:
320,192,304971,1,0,0:0:0:0:
448,192,304971,1,0,0:0:0:0:
192,192,304971,1,0,0:0:0:0:
64,192,304971,1,0,0:0:0:0:
64,192,305104,1,0,0:0:0:0:
448,192,305104,1,0,0:0:0:0:
192,192,305104,1,0,0:0:0:0:
64,192,305236,1,0,0:0:0:0:
192,192,305236,1,0,0:0:0:0:
320,192,305236,1,0,0:0:0:0:
320,192,305369,1,0,0:0:0:0:
448,192,305369,1,0,0:0:0:0:
192,192,305369,1,0,0:0:0:0:
64,192,305369,1,0,0:0:0:0:
320,192,305502,1,0,0:0:0:0:
64,192,305502,1,0,0:0:0:0:
448,192,305502,1,0,0:0:0:0:
192,192,305634,1,0,0:0:0:0:
320,192,305634,1,0,0:0:0:0:
448,192,305634,1,0,0:0:0:0:
64,192,305767,1,0,0:0:0:0:
192,192,305767,1,0,0:0:0:0:
320,192,305767,1,0,0:0:0:0:
448,192,305767,1,0,0:0:0:0:
448,192,305900,1,0,0:0:0:0:
320,192,305900,1,0,0:0:0:0:
192,192,305900,1,0,0:0:0:0:
64,192,305900,1,0,0:0:0:0:
448,192,306033,1,0,0:0:0:0:
320,192,306033,1,0,0:0:0:0:
192,192,306033,1,0,0:0:0:0:
64,192,306033,1,0,0:0:0:0:
192,192,306165,1,0,0:0:0:0:
320,192,306165,1,0,0:0:0:0:
64,192,306298,1,0,0:0:0:0:
448,192,306298,1,0,0:0:0:0:
192,192,306320,1,0,0:0:0:0:
320,192,306342,1,0,0:0:0:0:
64,192,306431,1,0,0:0:0:0:
448,192,306431,1,0,0:0:0:0:
192,192,306453,1,0,0:0:0:0:
64,192,306564,1,0,0:0:0:0:
192,192,306586,1,0,0:0:0:0:
320,192,306608,1,0,0:0:0:0:
448,192,306696,1,0,0:0:0:0:
64,192,306696,1,0,0:0:0:0:
320,192,306719,1,0,0:0:0:0:
192,192,306741,1,0,0:0:0:0:
448,192,306829,1,0,0:0:0:0:
64,192,306829,1,0,0:0:0:0:
320,192,306851,1,0,0:0:0:0:
448,192,306962,1,0,0:0:0:0:
320,192,306984,1,0,0:0:0:0:
192,192,307006,1,0,0:0:0:0:
448,192,307095,1,0,0:0:0:0:
64,192,307095,1,0,0:0:0:0:
192,192,307117,1,0,0:0:0:0:
320,192,307139,1,0,0:0:0:0:
448,192,307227,1,0,0:0:0:0:
64,192,307227,1,0,0:0:0:0:
192,192,307250,1,0,0:0:0:0:
64,192,307360,1,0,0:0:0:0:
192,192,307382,1,0,0:0:0:0:
320,192,307404,1,0,0:0:0:0:
64,192,307493,1,0,0:0:0:0:
448,192,307493,1,0,0:0:0:0:
192,192,307515,1,0,0:0:0:0:
320,192,307537,1,0,0:0:0:0:
64,192,307626,1,0,0:0:0:0:
448,192,307626,1,0,0:0:0:0:
192,192,307648,1,0,0:0:0:0:
64,192,307758,1,0,0:0:0:0:
192,192,307781,1,0,0:0:0:0:
320,192,307803,1,0,0:0:0:0:
64,192,307891,1,0,0:0:0:0:
448,192,307891,1,0,0:0:0:0:
192,192,307913,1,0,0:0:0:0:
320,192,307935,1,0,0:0:0:0:
448,192,308024,1,0,0:0:0:0:
192,192,308068,1,0,0:0:0:0:
320,192,308112,1,0,0:0:0:0:
448,192,308157,1,0,0:0:0:0:
64,192,308157,1,0,0:0:0:0:
192,192,308201,1,0,0:0:0:0:
320,192,308245,1,0,0:0:0:0:
64,192,308289,1,0,0:0:0:0:
192,192,308356,1,0,0:0:0:0:
320,192,308422,1,0,0:0:0:0:
64,192,308422,1,0,0:0:0:0:
448,192,308422,1,0,0:0:0:0:
192,192,308488,1,0,0:0:0:0:
448,192,308533,1,0,0:0:0:0:
64,192,308577,1,0,0:0:0:0:
320,192,308688,1,0,0:0:0:0:
192,192,308710,1,0,0:0:0:0:
64,192,308732,1,0,0:0:0:0:
192,192,308820,1,0,0:0:0:0:
320,192,308842,1,0,0:0:0:0:
448,192,308865,1,0,0:0:0:0:
192,192,309219,1,0,0:0:0:0:
448,192,309219,1,0,0:0:0:0:
64,192,309219,1,0,0:0:0:0:
320,192,309285,1,0,0:0:0:0:
64,192,309329,1,0,0:0:0:0:
448,192,309373,1,0,0:0:0:0:
192,192,309484,1,0,0:0:0:0:
320,192,309506,1,0,0:0:0:0:
448,192,309528,1,0,0:0:0:0:
320,192,309617,1,0,0:0:0:0:
192,192,309639,1,0,0:0:0:0:
64,192,309661,1,0,0:0:0:0:
448,192,310015,1,0,0:0:0:0:
64,192,310015,1,0,0:0:0:0:
320,192,310037,1,0,0:0:0:0:
192,192,310059,1,0,0:0:0:0:
64,192,310281,1,0,0:0:0:0:
192,192,310303,1,0,0:0:0:0:
320,192,310325,1,0,0:0:0:0:
448,192,310347,1,0,0:0:0:0:
448,192,310546,1,0,0:0:0:0:
64,192,310546,1,0,0:0:0:0:
320,192,310546,1,0,0:0:0:0:
192,192,310612,1,0,0:0:0:0:
448,192,310657,1,0,0:0:0:0:
64,192,310701,1,0,0:0:0:0:
320,192,310811,1,0,0:0:0:0:
192,192,310834,1,0,0:0:0:0:
64,192,310856,1,0,0:0:0:0:
192,192,310944,1,0,0:0:0:0:
320,192,310966,1,0,0:0:0:0:
448,192,310988,1,0,0:0:0:0:
64,192,311011,1,0,0:0:0:0:
64,192,311342,1,0,0:0:0:0:
448,192,311342,1,0,0:0:0:0:
192,192,311342,1,0,0:0:0:0:
320,192,311409,1,0,0:0:0:0:
64,192,311453,1,0,0:0:0:0:
448,192,311497,1,0,0:0:0:0:
192,192,311608,1,0,0:0:0:0:
320,192,311630,1,0,0:0:0:0:
448,192,311652,1,0,0:0:0:0:
320,192,311741,1,0,0:0:0:0:
192,192,311763,1,0,0:0:0:0:
64,192,311785,1,0,0:0:0:0:
448,192,311873,1,0,0:0:0:0:
320,192,312006,1,0,0:0:0:0:
64,192,312139,1,0,0:0:0:0:
448,192,312139,1,0,0:0:0:0:
192,192,312183,1,0,0:0:0:0:
320,192,312227,1,0,0:0:0:0:
448,192,312272,1,0,0:0:0:0:
192,192,312316,1,0,0:0:0:0:
320,192,312360,1,0,0:0:0:0:
64,192,312404,1,0,0:0:0:0:
192,192,312449,1,0,0:0:0:0:
320,192,312493,1,0,0:0:0:0:
448,192,312537,1,0,0:0:0:0:
320,192,312670,1,0,0:0:0:0:
64,192,312670,1,0,0:0:0:0:
448,192,312670,1,0,0:0:0:0:
192,192,312736,1,0,0:0:0:0:
448,192,312781,1,0,0:0:0:0:
64,192,312825,1,0,0:0:0:0:
320,192,312935,1,0,0:0:0:0:
192,192,312958,1,0,0:0:0:0:
64,192,312980,1,0,0:0:0:0:
192,192,313068,1,0,0:0:0:0:
320,192,313090,1,0,0:0:0:0:
448,192,313112,1,0,0:0:0:0:
192,192,313466,1,0,0:0:0:0:
448,192,313466,1,0,0:0:0:0:
64,192,313466,1,0,0:0:0:0:
320,192,313533,1,0,0:0:0:0:
64,192,313577,1,0,0:0:0:0:
448,192,313621,1,0,0:0:0:0:
192,192,313732,1,0,0:0:0:0:
320,192,313754,1,0,0:0:0:0:
448,192,313776,1,0,0:0:0:0:
320,192,313865,1,0,0:0:0:0:
192,192,313887,1,0,0:0:0:0:
64,192,313909,1,0,0:0:0:0:
448,192,314263,1,0,0:0:0:0:
64,192,314263,1,0,0:0:0:0:
320,192,314285,1,0,0:0:0:0:
192,192,314307,1,0,0:0:0:0:
64,192,314528,1,0,0:0:0:0:
192,192,314550,1,0,0:0:0:0:
320,192,314573,1,0,0:0:0:0:
448,192,314595,1,0,0:0:0:0:
448,192,314794,1,0,0:0:0:0:
64,192,314794,1,0,0:0:0:0:
320,192,314794,1,0,0:0:0:0:
192,192,314860,1,0,0:0:0:0:
448,192,314904,1,0,0:0:0:0:
64,192,314949,1,0,0:0:0:0:
320,192,315059,1,0,0:0:0:0:
192,192,315081,1,0,0:0:0:0:
64,192,315104,1,0,0:0:0:0:
192,192,315192,1,0,0:0:0:0:
320,192,315214,1,0,0:0:0:0:
448,192,315236,1,0,0:0:0:0:
64,192,315258,1,0,0:0:0:0:
448,192,315458,1,0,0:0:0:0:
64,192,315458,1,0,0:0:0:0:
320,192,315480,1,0,0:0:0:0:
192,192,315502,1,0,0:0:0:0:
64,192,315723,1,0,0:0:0:0:
448,192,315723,1,0,0:0:0:0:
192,192,315723,1,0,0:0:0:0:
320,192,315789,1,0,0:0:0:0:
64,192,315834,1,0,0:0:0:0:
448,192,315878,1,0,0:0:0:0:
192,192,315988,1,0,0:0:0:0:
320,192,316011,1,0,0:0:0:0:
448,192,316033,1,0,0:0:0:0:
320,192,316121,1,0,0:0:0:0:
192,192,316143,1,0,0:0:0:0:
64,192,316165,1,0,0:0:0:0:
448,192,316254,1,0,0:0:0:0:
64,192,316387,1,0,0:0:0:0:
448,192,316387,1,0,0:0:0:0:
320,192,316431,1,0,0:0:0:0:
192,192,316475,1,0,0:0:0:0:
64,192,316519,1,0,0:0:0:0:
320,192,316564,1,0,0:0:0:0:
192,192,316608,1,0,0:0:0:0:
448,192,316652,1,0,0:0:0:0:
320,192,316696,1,0,0:0:0:0:
192,192,316741,1,0,0:0:0:0:
64,192,316785,1,0,0:0:0:0:
320,192,316829,1,0,0:0:0:0:
192,192,316873,1,0,0:0:0:0:
64,192,316918,1,0,0:0:0:0:
448,192,316918,1,0,0:0:0:0:
320,192,316984,1,0,0:0:0:0:
192,192,317050,1,0,0:0:0:0:
320,192,317117,1,0,0:0:0:0:
192,192,317183,1,0,0:0:0:0:
320,192,317250,1,0,0:0:0:0:
192,192,317316,1,0,0:0:0:0:
320,192,317382,1,0,0:0:0:0:
192,192,317449,1,0,0:0:0:0:
320,192,317537,1,0,0:0:0:0:
192,192,317626,1,0,0:0:0:0:
320,192,317714,1,0,0:0:0:0:
192,192,317803,1,0,0:0:0:0:
320,192,317891,1,0,0:0:0:0:
192,192,317980,1,0,0:0:0:0:
320,192,318046,1,0,0:0:0:0:
192,192,318112,1,0,0:0:0:0:
320,192,318179,1,0,0:0:0:0:
448,192,318212,1,0,0:0:0:0:
192,192,318245,1,0,0:0:0:0:
64,192,318278,1,0,0:0:0:0:
448,192,318378,1,0,0:0:0:0:
64,192,318444,1,0,0:0:0:0:
