osu file format v14

[General]
AudioFilename: audio.mp3
AudioLeadIn: 0
PreviewTime: 106652
Countdown: 0
SampleSet: None
StackLeniency: 0.7
Mode: 3
LetterboxInBreaks: 0
SpecialStyle: 0
WidescreenStoryboard: 1

[Editor]
Bookmarks: 17449,34440,55679,72670,89661,102404,106652,127891,136387,157626,166121,185236,193732,202227,219219,236210,257449,280811,308422
DistanceSpacing: 1.7
BeatDivisor: 12
GridSize: 4
TimelineZoom: 3.499999

[Metadata]
Title:Happppy song
TitleUnicode:Happppy song
Artist:SOOOO
ArtistUnicode:SOOOO
Creator:[GB]V1do
Version:I am sooo happpy, (cut)
Source:
Tags:vocaloid producer kagamine len 鏡音レン
BeatmapID:4537638
BeatmapSetID:2150406

[Difficulty]
HPDrainRate:8
CircleSize:4
OverallDifficulty:7
ApproachRate:5
SliderMultiplier:1.4
SliderTickRate:1

[Events]
//Background and Video events
0,0,"aw-she-cute.png",0,0
//Break Periods
//Storyboard Layer 0 (Background)
//Storyboard Layer 1 (Fail)
//Storyboard Layer 2 (Pass)
//Storyboard Layer 3 (Foreground)
//Storyboard Layer 4 (Overlay)
//Storyboard Sound Samples

[TimingPoints]
458,265.486725663717,4,1,0,0,1,0
34440,-100,4,1,0,0,0,1
51365,-100,4,1,0,0,0,0
51431,-100,4,1,0,0,0,1
51763,-100,4,1,0,0,0,0
51829,-100,4,1,0,0,0,1
52161,-100,4,1,0,0,0,0
52227,-100,4,1,0,0,0,1
52559,-100,4,1,0,0,0,0
52626,-100,4,1,0,0,0,1
52958,-100,4,1,0,0,0,0
53024,-100,4,1,0,0,0,1
53488,-100,4,1,0,0,0,0
53555,-100,4,1,0,0,0,1
53887,-100,4,1,0,0,0,0
53953,-100,4,1,0,0,0,1
54285,-100,4,1,0,0,0,0
54351,-100,4,1,0,0,0,1
54683,-100,4,1,0,0,0,0
54750,-100,4,1,0,0,0,1
55081,-100,4,1,0,0,0,0
55148,-100,4,1,0,0,0,1
55679,-100,4,1,0,0,0,0
106652,-100,4,1,0,0,0,1
123577,-100,4,1,0,0,0,0
123643,-100,4,1,0,0,0,1
123975,-100,4,1,0,0,0,0
124042,-100,4,1,0,0,0,1
124373,-100,4,1,0,0,0,0
124440,-100,4,1,0,0,0,1
124772,-100,4,1,0,0,0,0
124838,-100,4,1,0,0,0,1
125170,-100,4,1,0,0,0,0
125236,-100,4,1,0,0,0,1
125701,-100,4,1,0,0,0,0
125767,-100,4,1,0,0,0,1
126099,-100,4,1,0,0,0,0
126165,-100,4,1,0,0,0,1
126497,-100,4,1,0,0,0,0
126564,-100,4,1,0,0,0,1
126896,-100,4,1,0,0,0,0
126962,-100,4,1,0,0,0,1
127294,-100,4,1,0,0,0,0
127360,-100,4,1,0,0,0,1
127891,-100,4,1,0,0,0,0
282935,-100,4,1,0,0,0,1
299860,-100,4,1,0,0,0,0
299927,-100,4,1,0,0,0,1
300258,-100,4,1,0,0,0,0
300325,-100,4,1,0,0,0,1
300657,-100,4,1,0,0,0,0
300723,-100,4,1,0,0,0,1
301055,-100,4,1,0,0,0,0
301121,-100,4,1,0,0,0,1
301453,-100,4,1,0,0,0,0
301519,-100,4,1,0,0,0,1
301984,-100,4,1,0,0,0,0
302050,-100,4,1,0,0,0,1
302382,-100,4,1,0,0,0,0
302449,-100,4,1,0,0,0,1
302781,-100,4,1,0,0,0,0
302847,-100,4,1,0,0,0,1
303179,-100,4,1,0,0,0,0
303245,-100,4,1,0,0,0,1
303577,-100,4,1,0,0,0,0
303643,-100,4,1,0,0,0,1
304108,-100,4,1,0,0,0,0
304174,-100,4,1,0,0,0,1
304506,-100,4,1,0,0,0,0
304573,-100,4,1,0,0,0,1
304904,-100,4,1,0,0,0,0
304971,-100,4,1,0,0,0,1
305303,-100,4,1,0,0,0,0
305369,-100,4,1,0,0,0,1
305701,-100,4,1,0,0,0,0
305767,-100,4,1,0,0,0,1
306232,-100,4,1,0,0,0,0
306298,-100,4,1,0,0,0,1
306630,-100,4,1,0,0,0,0
306696,-100,4,1,0,0,0,1
307028,-100,4,1,0,0,0,0
307095,-100,4,1,0,0,0,1
307427,-100,4,1,0,0,0,0
307493,-100,4,1,0,0,0,1
307825,-100,4,1,0,0,0,0
307891,-100,4,1,0,0,0,1
308422,-100,4,1,0,0,0,0

[HitObjects]
64,192,17183,5,0,0:0:0:0:
192,192,17316,1,0,0:0:0:0:
320,192,17449,1,0,0:0:0:0:
64,192,17449,1,0,0:0:0:0:
448,192,17449,1,0,0:0:0:0:
192,192,17581,1,0,0:0:0:0:
192,192,17714,1,0,0:0:0:0:
64,192,17714,1,0,0:0:0:0:
64,192,17847,1,0,0:0:0:0:
192,192,17913,1,0,0:0:0:0:
448,192,17980,1,0,0:0:0:0:
320,192,17980,1,0,0:0:0:0:
192,192,18112,1,0,0:0:0:0:
320,192,18179,1,0,0:0:0:0:
64,192,18245,1,0,0:0:0:0:
448,192,18245,1,0,0:0:0:0:
64,192,18378,1,0,0:0:0:0:
192,192,18511,1,0,0:0:0:0:
320,192,18511,1,0,0:0:0:0:
192,192,18643,1,0,0:0:0:0:
320,192,18776,1,0,0:0:0:0:
64,192,18776,1,0,0:0:0:0:
320,192,18909,1,0,0:0:0:0:
448,192,19042,1,0,0:0:0:0:
192,192,19042,1,0,0:0:0:0:
448,192,19174,1,0,0:0:0:0:
320,192,19241,1,0,0:0:0:0:
64,192,19307,1,0,0:0:0:0:
192,192,19307,1,0,0:0:0:0:
192,192,19440,1,0,0:0:0:0:
448,192,19573,1,0,0:0:0:0:
64,192,19573,1,0,0:0:0:0:
320,192,19617,1,0,0:0:0:0:
192,192,19661,1,0,0:0:0:0:
64,192,19705,1,0,0:0:0:0:
320,192,19750,1,0,0:0:0:0:
192,192,19794,1,0,0:0:0:0:
448,192,19838,1,0,0:0:0:0:
64,192,19882,1,0,0:0:0:0:
192,192,19927,1,0,0:0:0:0:
320,192,19971,1,0,0:0:0:0:
448,192,20015,1,0,0:0:0:0:
64,192,20059,1,0,0:0:0:0:
192,192,20104,1,0,0:0:0:0:
320,192,20148,1,0,0:0:0:0:
64,192,20192,1,0,0:0:0:0:
448,192,20236,1,0,0:0:0:0:
320,192,20281,1,0,0:0:0:0:
192,192,20325,1,0,0:0:0:0:
64,192,20369,1,0,0:0:0:0:
448,192,20413,1,0,0:0:0:0:
192,192,20458,1,0,0:0:0:0:
320,192,20502,1,0,0:0:0:0:
448,192,20546,1,0,0:0:0:0:
64,192,20590,1,0,0:0:0:0:
192,192,20634,1,0,0:0:0:0:
320,192,20679,1,0,0:0:0:0:
64,192,20723,1,0,0:0:0:0:
448,192,20767,1,0,0:0:0:0:
320,192,20811,1,0,0:0:0:0:
192,192,20856,1,0,0:0:0:0:
64,192,20900,1,0,0:0:0:0:
448,192,20944,1,0,0:0:0:0:
320,192,20988,1,0,0:0:0:0:
192,192,21033,1,0,0:0:0:0:
64,192,21077,1,0,0:0:0:0:
448,192,21121,1,0,0:0:0:0:
192,192,21165,1,0,0:0:0:0:
320,192,21210,1,0,0:0:0:0:
448,192,21254,1,0,0:0:0:0:
64,192,21298,1,0,0:0:0:0:
192,192,21342,1,0,0:0:0:0:
320,192,21387,1,0,0:0:0:0:
448,192,21431,1,0,0:0:0:0:
192,192,21475,1,0,0:0:0:0:
64,192,21519,1,0,0:0:0:0:
448,192,21564,1,0,0:0:0:0:
320,192,21608,1,0,0:0:0:0:
192,192,21696,1,0,0:0:0:0:
448,192,21696,1,0,0:0:0:0:
64,192,21696,1,0,0:0:0:0:
320,192,21829,1,0,0:0:0:0:
320,192,21962,1,0,0:0:0:0:
448,192,21962,1,0,0:0:0:0:
448,192,22095,1,0,0:0:0:0:
320,192,22161,1,0,0:0:0:0:
64,192,22227,1,0,0:0:0:0:
192,192,22227,1,0,0:0:0:0:
320,192,22360,1,0,0:0:0:0:
192,192,22427,1,0,0:0:0:0:
448,192,22493,1,0,0:0:0:0:
64,192,22493,1,0,0:0:0:0:
448,192,22626,1,0,0:0:0:0:
320,192,22758,1,0,0:0:0:0:
192,192,22758,1,0,0:0:0:0:
320,192,22891,1,0,0:0:0:0:
192,192,23024,1,0,0:0:0:0:
448,192,23024,1,0,0:0:0:0:
192,192,23157,1,0,0:0:0:0:
64,192,23289,1,0,0:0:0:0:
320,192,23289,1,0,0:0:0:0:
64,192,23422,1,0,0:0:0:0:
192,192,23488,1,0,0:0:0:0:
448,192,23555,1,0,0:0:0:0:
320,192,23555,1,0,0:0:0:0:
320,192,23688,1,0,0:0:0:0:
64,192,23820,1,0,0:0:0:0:
448,192,23820,1,0,0:0:0:0:
320,192,23873,1,0,0:0:0:0:
64,192,23927,1,0,0:0:0:0:
192,192,23980,1,0,0:0:0:0:
320,192,24033,1,0,0:0:0:0:
448,192,24086,1,0,0:0:0:0:
192,192,24139,1,0,0:0:0:0:
448,192,24192,1,0,0:0:0:0:
192,192,24245,1,0,0:0:0:0:
320,192,24298,1,0,0:0:0:0:
448,192,24351,1,0,0:0:0:0:
64,192,24351,1,0,0:0:0:0:
192,192,24404,1,0,0:0:0:0:
448,192,24458,1,0,0:0:0:0:
320,192,24511,1,0,0:0:0:0:
192,192,24564,1,0,0:0:0:0:
64,192,24617,1,0,0:0:0:0:
320,192,24670,1,0,0:0:0:0:
64,192,24723,1,0,0:0:0:0:
320,192,24776,1,0,0:0:0:0:
192,192,24829,1,0,0:0:0:0:
64,192,24882,1,0,0:0:0:0:
448,192,24882,1,0,0:0:0:0:
320,192,24935,1,0,0:0:0:0:
64,192,24988,1,0,0:0:0:0:
192,192,25042,1,0,0:0:0:0:
320,192,25095,1,0,0:0:0:0:
448,192,25148,1,0,0:0:0:0:
192,192,25201,1,0,0:0:0:0:
320,192,25254,1,0,0:0:0:0:
192,192,25307,1,0,0:0:0:0:
320,192,25360,1,0,0:0:0:0:
448,192,25413,1,0,0:0:0:0:
64,192,25413,1,0,0:0:0:0:
192,192,25466,1,0,0:0:0:0:
448,192,25519,1,0,0:0:0:0:
320,192,25573,1,0,0:0:0:0:
192,192,25626,1,0,0:0:0:0:
64,192,25679,1,0,0:0:0:0:
448,192,25732,1,0,0:0:0:0:
64,192,25785,1,0,0:0:0:0:
448,192,25838,1,0,0:0:0:0:
192,192,25891,1,0,0:0:0:0:
320,192,25944,1,0,0:0:0:0:
64,192,25944,1,0,0:0:0:0:
448,192,25944,1,0,0:0:0:0:
192,192,26210,1,0,0:0:0:0:
64,192,26210,1,0,0:0:0:0:
64,192,26342,1,0,0:0:0:0:
192,192,26409,1,0,0:0:0:0:
448,192,26475,1,0,0:0:0:0:
320,192,26475,1,0,0:0:0:0:
192,192,26608,1,0,0:0:0:0:
320,192,26674,1,0,0:0:0:0:
64,192,26741,1,0,0:0:0:0:
448,192,26741,1,0,0:0:0:0:
64,192,26873,1,0,0:0:0:0:
192,192,27006,1,0,0:0:0:0:
320,192,27006,1,0,0:0:0:0:
192,192,27139,1,0,0:0:0:0:
320,192,27272,1,0,0:0:0:0:
64,192,27272,1,0,0:0:0:0:
320,192,27404,1,0,0:0:0:0:
448,192,27537,1,0,0:0:0:0:
64,192,27537,1,0,0:0:0:0:
192,192,27581,1,0,0:0:0:0:
320,192,27626,1,0,0:0:0:0:
448,192,27670,1,0,0:0:0:0:
320,192,27736,1,0,0:0:0:0:
64,192,27803,1,0,0:0:0:0:
192,192,27803,1,0,0:0:0:0:
192,192,27935,1,0,0:0:0:0:
64,192,28068,1,0,0:0:0:0:
448,192,28068,1,0,0:0:0:0:
320,192,28112,1,0,0:0:0:0:
192,192,28157,1,0,0:0:0:0:
448,192,28201,1,0,0:0:0:0:
192,192,28245,1,0,0:0:0:0:
64,192,28245,1,0,0:0:0:0:
320,192,28311,1,0,0:0:0:0:
64,192,28378,1,0,0:0:0:0:
448,192,28422,1,0,0:0:0:0:
320,192,28444,1,0,0:0:0:0:
192,192,28488,1,0,0:0:0:0:
64,192,28555,1,0,0:0:0:0:
320,192,28577,1,0,0:0:0:0:
448,192,28643,1,0,0:0:0:0:
192,192,28688,1,0,0:0:0:0:
64,192,28688,1,0,0:0:0:0:
320,192,28754,1,0,0:0:0:0:
448,192,28820,1,0,0:0:0:0:
192,192,28820,1,0,0:0:0:0:
64,192,28887,1,0,0:0:0:0:
320,192,28953,1,0,0:0:0:0:
448,192,28953,1,0,0:0:0:0:
192,192,28997,1,0,0:0:0:0:
64,192,29064,1,0,0:0:0:0:
320,192,29064,1,0,0:0:0:0:
448,192,29130,1,0,0:0:0:0:
192,192,29174,1,0,0:0:0:0:
64,192,29174,1,0,0:0:0:0:
320,192,29263,1,0,0:0:0:0:
448,192,29263,1,0,0:0:0:0:
192,192,29329,1,0,0:0:0:0:
448,192,29396,1,0,0:0:0:0:
64,192,29396,1,0,0:0:0:0:
192,192,29440,1,0,0:0:0:0:
320,192,29484,1,0,0:0:0:0:
448,192,29528,1,0,0:0:0:0:
192,192,29573,1,0,0:0:0:0:
320,192,29617,1,0,0:0:0:0:
448,192,29661,1,0,0:0:0:0:
64,192,29705,1,0,0:0:0:0:
192,192,29750,1,0,0:0:0:0:
320,192,29794,1,0,0:0:0:0:
64,192,29838,1,0,0:0:0:0:
192,192,29882,1,0,0:0:0:0:
320,192,29927,1,0,0:0:0:0:
448,192,29971,1,0,0:0:0:0:
64,192,30015,1,0,0:0:0:0:
192,192,30059,1,0,0:0:0:0:
320,192,30104,1,0,0:0:0:0:
192,192,30192,1,0,0:0:0:0:
448,192,30192,1,0,0:0:0:0:
64,192,30192,1,0,0:0:0:0:
320,192,30458,1,0,0:0:0:0:
448,192,30458,1,0,0:0:0:0:
448,192,30590,1,0,0:0:0:0:
320,192,30657,1,0,0:0:0:0:
64,192,30723,1,0,0:0:0:0:
192,192,30723,1,0,0:0:0:0:
320,192,30856,1,0,0:0:0:0:
192,192,30922,1,0,0:0:0:0:
448,192,30988,1,0,0:0:0:0:
64,192,30988,1,0,0:0:0:0:
448,192,31121,1,0,0:0:0:0:
320,192,31254,1,0,0:0:0:0:
192,192,31254,1,0,0:0:0:0:
320,192,31387,1,0,0:0:0:0:
192,192,31519,1,0,0:0:0:0:
448,192,31519,1,0,0:0:0:0:
192,192,31652,1,0,0:0:0:0:
64,192,31785,1,0,0:0:0:0:
320,192,31785,1,0,0:0:0:0:
64,192,31918,1,0,0:0:0:0:
192,192,31984,1,0,0:0:0:0:
448,192,32050,1,0,0:0:0:0:
320,192,32050,1,0,0:0:0:0:
320,192,32183,1,0,0:0:0:0:
64,192,32316,1,0,0:0:0:0:
448,192,32316,1,0,0:0:0:0:
192,192,32360,1,0,0:0:0:0:
320,192,32404,1,0,0:0:0:0:
448,192,32449,1,0,0:0:0:0:
192,192,32515,1,0,0:0:0:0:
64,192,32581,1,0,0:0:0:0:
448,192,32581,1,0,0:0:0:0:
320,192,32626,1,0,0:0:0:0:
192,192,32670,1,0,0:0:0:0:
64,192,32714,1,0,0:0:0:0:
320,192,32781,1,0,0:0:0:0:
448,192,32847,1,0,0:0:0:0:
64,192,32847,1,0,0:0:0:0:
192,192,32891,1,0,0:0:0:0:
320,192,32935,1,0,0:0:0:0:
64,192,33002,1,0,0:0:0:0:
192,192,33068,1,0,0:0:0:0:
448,192,33112,1,0,0:0:0:0:
64,192,33112,1,0,0:0:0:0:
320,192,33157,1,0,0:0:0:0:
192,192,33201,1,0,0:0:0:0:
448,192,33267,1,0,0:0:0:0:
320,192,33334,1,0,0:0:0:0:
448,192,33378,1,0,0:0:0:0:
64,192,33378,1,0,0:0:0:0:
192,192,33422,1,0,0:0:0:0:
320,192,33466,1,0,0:0:0:0:
448,192,33511,1,0,0:0:0:0:
192,192,33555,1,0,0:0:0:0:
320,192,33599,1,0,0:0:0:0:
64,192,33643,1,0,0:0:0:0:
448,192,33688,1,0,0:0:0:0:
320,192,33732,1,0,0:0:0:0:
192,192,33776,1,0,0:0:0:0:
320,192,33909,1,0,0:0:0:0:
64,192,34440,1,0,0:0:0:0:
448,192,34440,1,0,0:0:0:0:
192,192,34484,1,0,0:0:0:0:
320,192,34528,1,0,0:0:0:0:
448,192,34573,1,0,0:0:0:0:
192,192,34617,1,0,0:0:0:0:
64,192,34661,1,0,0:0:0:0:
448,192,34705,1,0,0:0:0:0:
320,192,34772,1,0,0:0:0:0:
192,192,34838,1,0,0:0:0:0:
64,192,34882,1,0,0:0:0:0:
448,192,34882,1,0,0:0:0:0:
320,192,34927,1,0,0:0:0:0:
192,192,34971,1,0,0:0:0:0:
448,192,35015,1,0,0:0:0:0:
320,192,35059,1,0,0:0:0:0:
192,192,35104,1,0,0:0:0:0:
64,192,35104,1,0,0:0:0:0:
448,192,35170,1,0,0:0:0:0:
192,192,35236,1,0,0:0:0:0:
64,192,35236,1,0,0:0:0:0:
448,192,35281,1,0,0:0:0:0:
320,192,35325,1,0,0:0:0:0:
192,192,35391,1,0,0:0:0:0:
64,192,35458,1,0,0:0:0:0:
320,192,35502,1,0,0:0:0:0:
448,192,35502,1,0,0:0:0:0:
64,192,35568,1,0,0:0:0:0:
320,192,35634,1,0,0:0:0:0:
448,192,35634,1,0,0:0:0:0:
192,192,35701,1,0,0:0:0:0:
448,192,35767,1,0,0:0:0:0:
320,192,35767,1,0,0:0:0:0:
64,192,35834,1,0,0:0:0:0:
448,192,35900,1,0,0:0:0:0:
320,192,35900,1,0,0:0:0:0:
192,192,35966,1,0,0:0:0:0:
448,192,36033,1,0,0:0:0:0:
64,192,36033,1,0,0:0:0:0:
320,192,36077,1,0,0:0:0:0:
64,192,36165,1,0,0:0:0:0:
192,192,36232,1,0,0:0:0:0:
320,192,36298,1,0,0:0:0:0:
448,192,36298,1,0,0:0:0:0:
64,192,36342,1,0,0:0:0:0:
192,192,36387,1,0,0:0:0:0:
448,192,36453,1,0,0:0:0:0:
320,192,36519,1,0,0:0:0:0:
192,192,36564,1,0,0:0:0:0:
64,192,36564,1,0,0:0:0:0:
448,192,36630,1,0,0:0:0:0:
192,192,36696,1,0,0:0:0:0:
64,192,36696,1,0,0:0:0:0:
320,192,36763,1,0,0:0:0:0:
64,192,36829,1,0,0:0:0:0:
192,192,36829,1,0,0:0:0:0:
448,192,36896,1,0,0:0:0:0:
64,192,36962,1,0,0:0:0:0:
192,192,36962,1,0,0:0:0:0:
320,192,37028,1,0,0:0:0:0:
448,192,37095,1,0,0:0:0:0:
64,192,37095,1,0,0:0:0:0:
192,192,37139,1,0,0:0:0:0:
448,192,37227,1,0,0:0:0:0:
320,192,37294,1,0,0:0:0:0:
192,192,37360,1,0,0:0:0:0:
64,192,37360,1,0,0:0:0:0:
448,192,37404,1,0,0:0:0:0:
320,192,37449,1,0,0:0:0:0:
64,192,37515,1,0,0:0:0:0:
192,192,37581,1,0,0:0:0:0:
320,192,37626,1,0,0:0:0:0:
448,192,37626,1,0,0:0:0:0:
64,192,37692,1,0,0:0:0:0:
320,192,37758,1,0,0:0:0:0:
448,192,37758,1,0,0:0:0:0:
192,192,37825,1,0,0:0:0:0:
448,192,37891,1,0,0:0:0:0:
320,192,37891,1,0,0:0:0:0:
64,192,37958,1,0,0:0:0:0:
448,192,38024,1,0,0:0:0:0:
320,192,38024,1,0,0:0:0:0:
192,192,38090,1,0,0:0:0:0:
64,192,38157,1,0,0:0:0:0:
448,192,38157,1,0,0:0:0:0:
320,192,38201,1,0,0:0:0:0:
64,192,38289,1,0,0:0:0:0:
320,192,38334,1,0,0:0:0:0:
192,192,38378,1,0,0:0:0:0:
448,192,38422,1,0,0:0:0:0:
320,192,38466,1,0,0:0:0:0:
64,192,38511,1,0,0:0:0:0:
448,192,38555,1,0,0:0:0:0:
64,192,38599,1,0,0:0:0:0:
448,192,38643,1,0,0:0:0:0:
192,192,38688,1,0,0:0:0:0:
320,192,38688,1,0,0:0:0:0:
64,192,38754,1,0,0:0:0:0:
320,192,38798,1,0,0:0:0:0:
192,192,38842,1,0,0:0:0:0:
64,192,38887,1,0,0:0:0:0:
320,192,38953,1,0,0:0:0:0:
448,192,38953,1,0,0:0:0:0:
192,192,38997,1,0,0:0:0:0:
448,192,39042,1,0,0:0:0:0:
320,192,39086,1,0,0:0:0:0:
192,192,39152,1,0,0:0:0:0:
64,192,39219,1,0,0:0:0:0:
448,192,39219,1,0,0:0:0:0:
320,192,39263,1,0,0:0:0:0:
64,192,39307,1,0,0:0:0:0:
192,192,39351,1,0,0:0:0:0:
320,192,39418,1,0,0:0:0:0:
448,192,39484,1,0,0:0:0:0:
64,192,39484,1,0,0:0:0:0:
192,192,39528,1,0,0:0:0:0:
448,192,39573,1,0,0:0:0:0:
320,192,39617,1,0,0:0:0:0:
192,192,39683,1,0,0:0:0:0:
64,192,39750,1,0,0:0:0:0:
448,192,39750,1,0,0:0:0:0:
320,192,39816,1,0,0:0:0:0:
64,192,39882,1,0,0:0:0:0:
192,192,39882,1,0,0:0:0:0:
320,192,39949,1,0,0:0:0:0:
448,192,40015,1,0,0:0:0:0:
64,192,40015,1,0,0:0:0:0:
192,192,40081,1,0,0:0:0:0:
64,192,40148,1,0,0:0:0:0:
320,192,40192,1,0,0:0:0:0:
192,192,40236,1,0,0:0:0:0:
64,192,40281,1,0,0:0:0:0:
448,192,40281,1,0,0:0:0:0:
320,192,40347,1,0,0:0:0:0:
448,192,40413,1,0,0:0:0:0:
192,192,40413,1,0,0:0:0:0:
64,192,40480,1,0,0:0:0:0:
320,192,40546,1,0,0:0:0:0:
448,192,40546,1,0,0:0:0:0:
192,192,40612,1,0,0:0:0:0:
448,192,40679,1,0,0:0:0:0:
64,192,40679,1,0,0:0:0:0:
320,192,40745,1,0,0:0:0:0:
64,192,40811,1,0,0:0:0:0:
192,192,40811,1,0,0:0:0:0:
448,192,40811,1,0,0:0:0:0:
320,192,40900,1,0,0:0:0:0:
192,192,40944,1,0,0:0:0:0:
64,192,40988,1,0,0:0:0:0:
192,192,41077,1,0,0:0:0:0:
320,192,41077,1,0,0:0:0:0:
448,192,41077,1,0,0:0:0:0:
64,192,41165,1,0,0:0:0:0:
320,192,41210,1,0,0:0:0:0:
448,192,41254,1,0,0:0:0:0:
320,192,41342,1,0,0:0:0:0:
192,192,41342,1,0,0:0:0:0:
64,192,41342,1,0,0:0:0:0:
448,192,41431,1,0,0:0:0:0:
64,192,41475,1,0,0:0:0:0:
192,192,41519,1,0,0:0:0:0:
64,192,41608,1,0,0:0:0:0:
320,192,41608,1,0,0:0:0:0:
448,192,41608,1,0,0:0:0:0:
192,192,41696,1,0,0:0:0:0:
448,192,41741,1,0,0:0:0:0:
320,192,41785,1,0,0:0:0:0:
448,192,41873,1,0,0:0:0:0:
64,192,41873,1,0,0:0:0:0:
192,192,41918,1,0,0:0:0:0:
320,192,41962,1,0,0:0:0:0:
448,192,42006,1,0,0:0:0:0:
320,192,42073,1,0,0:0:0:0:
192,192,42139,1,0,0:0:0:0:
64,192,42139,1,0,0:0:0:0:
448,192,42205,1,0,0:0:0:0:
320,192,42272,1,0,0:0:0:0:
64,192,42272,1,0,0:0:0:0:
192,192,42338,1,0,0:0:0:0:
64,192,42404,1,0,0:0:0:0:
448,192,42404,1,0,0:0:0:0:
320,192,42471,1,0,0:0:0:0:
192,192,42515,1,0,0:0:0:0:
64,192,42559,1,0,0:0:0:0:
320,192,42626,1,0,0:0:0:0:
448,192,42670,1,0,0:0:0:0:
64,192,42670,1,0,0:0:0:0:
192,192,42736,1,0,0:0:0:0:
320,192,42781,1,0,0:0:0:0:
448,192,42825,1,0,0:0:0:0:
192,192,42891,1,0,0:0:0:0:
448,192,42935,1,0,0:0:0:0:
64,192,42935,1,0,0:0:0:0:
320,192,42980,1,0,0:0:0:0:
192,192,43024,1,0,0:0:0:0:
64,192,43068,1,0,0:0:0:0:
320,192,43112,1,0,0:0:0:0:
448,192,43157,1,0,0:0:0:0:
64,192,43201,1,0,0:0:0:0:
192,192,43267,1,0,0:0:0:0:
320,192,43334,1,0,0:0:0:0:
448,192,43378,1,0,0:0:0:0:
64,192,43378,1,0,0:0:0:0:
192,192,43422,1,0,0:0:0:0:
320,192,43466,1,0,0:0:0:0:
64,192,43511,1,0,0:0:0:0:
192,192,43555,1,0,0:0:0:0:
320,192,43599,1,0,0:0:0:0:
448,192,43599,1,0,0:0:0:0:
64,192,43665,1,0,0:0:0:0:
320,192,43732,1,0,0:0:0:0:
448,192,43732,1,0,0:0:0:0:
64,192,43776,1,0,0:0:0:0:
192,192,43820,1,0,0:0:0:0:
320,192,43887,1,0,0:0:0:0:
448,192,43953,1,0,0:0:0:0:
192,192,43997,1,0,0:0:0:0:
64,192,43997,1,0,0:0:0:0:
448,192,44064,1,0,0:0:0:0:
192,192,44130,1,0,0:0:0:0:
64,192,44130,1,0,0:0:0:0:
320,192,44196,1,0,0:0:0:0:
64,192,44263,1,0,0:0:0:0:
192,192,44263,1,0,0:0:0:0:
448,192,44329,1,0,0:0:0:0:
64,192,44396,1,0,0:0:0:0:
192,192,44396,1,0,0:0:0:0:
320,192,44462,1,0,0:0:0:0:
64,192,44528,1,0,0:0:0:0:
448,192,44528,1,0,0:0:0:0:
192,192,44573,1,0,0:0:0:0:
448,192,44661,1,0,0:0:0:0:
320,192,44727,1,0,0:0:0:0:
192,192,44794,1,0,0:0:0:0:
64,192,44794,1,0,0:0:0:0:
448,192,44838,1,0,0:0:0:0:
320,192,44882,1,0,0:0:0:0:
64,192,44949,1,0,0:0:0:0:
192,192,45015,1,0,0:0:0:0:
320,192,45059,1,0,0:0:0:0:
448,192,45059,1,0,0:0:0:0:
64,192,45126,1,0,0:0:0:0:
320,192,45192,1,0,0:0:0:0:
448,192,45192,1,0,0:0:0:0:
192,192,45258,1,0,0:0:0:0:
448,192,45325,1,0,0:0:0:0:
320,192,45325,1,0,0:0:0:0:
64,192,45391,1,0,0:0:0:0:
448,192,45458,1,0,0:0:0:0:
320,192,45458,1,0,0:0:0:0:
192,192,45524,1,0,0:0:0:0:
64,192,45590,1,0,0:0:0:0:
448,192,45590,1,0,0:0:0:0:
320,192,45634,1,0,0:0:0:0:
64,192,45723,1,0,0:0:0:0:
192,192,45789,1,0,0:0:0:0:
320,192,45856,1,0,0:0:0:0:
448,192,45856,1,0,0:0:0:0:
64,192,45900,1,0,0:0:0:0:
192,192,45944,1,0,0:0:0:0:
448,192,46011,1,0,0:0:0:0:
320,192,46077,1,0,0:0:0:0:
192,192,46121,1,0,0:0:0:0:
64,192,46121,1,0,0:0:0:0:
448,192,46188,1,0,0:0:0:0:
192,192,46254,1,0,0:0:0:0:
64,192,46254,1,0,0:0:0:0:
320,192,46320,1,0,0:0:0:0:
64,192,46387,1,0,0:0:0:0:
192,192,46387,1,0,0:0:0:0:
448,192,46453,1,0,0:0:0:0:
64,192,46519,1,0,0:0:0:0:
192,192,46519,1,0,0:0:0:0:
320,192,46586,1,0,0:0:0:0:
448,192,46652,1,0,0:0:0:0:
64,192,46652,1,0,0:0:0:0:
192,192,46696,1,0,0:0:0:0:
448,192,46785,1,0,0:0:0:0:
320,192,46785,1,0,0:0:0:0:
192,192,46851,1,0,0:0:0:0:
64,192,46918,1,0,0:0:0:0:
448,192,46962,1,0,0:0:0:0:
64,192,47006,1,0,0:0:0:0:
192,192,47050,1,0,0:0:0:0:
448,192,47095,1,0,0:0:0:0:
320,192,47139,1,0,0:0:0:0:
64,192,47183,1,0,0:0:0:0:
192,192,47183,1,0,0:0:0:0:
320,192,47272,1,0,0:0:0:0:
448,192,47316,1,0,0:0:0:0:
192,192,47316,1,0,0:0:0:0:
64,192,47360,1,0,0:0:0:0:
320,192,47449,1,0,0:0:0:0:
448,192,47449,1,0,0:0:0:0:
192,192,47537,1,0,0:0:0:0:
64,192,47581,1,0,0:0:0:0:
320,192,47581,1,0,0:0:0:0:
448,192,47626,1,0,0:0:0:0:
64,192,47714,1,0,0:0:0:0:
192,192,47714,1,0,0:0:0:0:
320,192,47758,1,0,0:0:0:0:
448,192,47803,1,0,0:0:0:0:
192,192,47847,1,0,0:0:0:0:
320,192,47913,1,0,0:0:0:0:
64,192,47980,1,0,0:0:0:0:
448,192,47980,1,0,0:0:0:0:
320,192,48024,1,0,0:0:0:0:
192,192,48068,1,0,0:0:0:0:
64,192,48112,1,0,0:0:0:0:
320,192,48179,1,0,0:0:0:0:
448,192,48245,1,0,0:0:0:0:
64,192,48245,1,0,0:0:0:0:
192,192,48289,1,0,0:0:0:0:
320,192,48334,1,0,0:0:0:0:
448,192,48378,1,0,0:0:0:0:
192,192,48444,1,0,0:0:0:0:
448,192,48511,1,0,0:0:0:0:
64,192,48511,1,0,0:0:0:0:
192,192,48577,1,0,0:0:0:0:
320,192,48643,1,0,0:0:0:0:
448,192,48643,1,0,0:0:0:0:
192,192,48710,1,0,0:0:0:0:
64,192,48776,1,0,0:0:0:0:
448,192,48776,1,0,0:0:0:0:
320,192,48820,1,0,0:0:0:0:
192,192,48865,1,0,0:0:0:0:
64,192,48909,1,0,0:0:0:0:
320,192,48975,1,0,0:0:0:0:
192,192,49042,1,0,0:0:0:0:
64,192,49042,1,0,0:0:0:0:
448,192,49108,1,0,0:0:0:0:
320,192,49174,1,0,0:0:0:0:
64,192,49174,1,0,0:0:0:0:
192,192,49241,1,0,0:0:0:0:
448,192,49307,1,0,0:0:0:0:
64,192,49307,1,0,0:0:0:0:
320,192,49307,1,0,0:0:0:0:
192,192,49373,1,0,0:0:0:0:
448,192,49440,1,0,0:0:0:0:
320,192,49440,1,0,0:0:0:0:
192,192,49506,1,0,0:0:0:0:
64,192,49573,1,0,0:0:0:0:
448,192,49573,1,0,0:0:0:0:
320,192,49639,1,0,0:0:0:0:
448,192,49705,1,0,0:0:0:0:
192,192,49750,1,0,0:0:0:0:
320,192,49794,1,0,0:0:0:0:
448,192,49838,1,0,0:0:0:0:
64,192,49838,1,0,0:0:0:0:
192,192,49904,1,0,0:0:0:0:
64,192,49971,1,0,0:0:0:0:
320,192,49971,1,0,0:0:0:0:
448,192,50037,1,0,0:0:0:0:
192,192,50104,1,0,0:0:0:0:
64,192,50104,1,0,0:0:0:0:
320,192,50170,1,0,0:0:0:0:
448,192,50236,1,0,0:0:0:0:
192,192,50303,1,0,0:0:0:0:
448,192,50369,1,0,0:0:0:0:
64,192,50369,1,0,0:0:0:0:
320,192,50402,1,0,0:0:0:0:
192,192,50435,1,0,0:0:0:0:
448,192,50502,1,0,0:0:0:0:
320,192,50568,1,0,0:0:0:0:
64,192,50634,1,0,0:0:0:0:
448,192,50634,1,0,0:0:0:0:
192,192,50668,1,0,0:0:0:0:
320,192,50701,1,0,0:0:0:0:
64,192,50767,1,0,0:0:0:0:
192,192,50834,1,0,0:0:0:0:
448,192,50900,1,0,0:0:0:0:
64,192,50900,1,0,0:0:0:0:
320,192,50933,1,0,0:0:0:0:
192,192,50966,1,0,0:0:0:0:
448,192,51033,1,0,0:0:0:0:
320,192,51099,1,0,0:0:0:0:
448,192,51165,1,0,0:0:0:0:
64,192,51165,1,0,0:0:0:0:
192,192,51199,1,0,0:0:0:0:
320,192,51232,1,0,0:0:0:0:
64,192,51298,1,0,0:0:0:0:
192,192,51431,1,0,0:0:0:0:
64,192,51431,1,0,0:0:0:0:
320,192,51431,1,0,0:0:0:0:
448,192,51431,1,0,0:0:0:0:
192,192,51564,1,0,0:0:0:0:
320,192,51564,1,0,0:0:0:0:
448,192,51564,1,0,0:0:0:0:
448,192,51696,1,0,0:0:0:0:
320,192,51696,1,0,0:0:0:0:
448,192,51829,1,0,0:0:0:0:
192,192,51829,1,0,0:0:0:0:
64,192,51829,1,0,0:0:0:0:
320,192,51829,1,0,0:0:0:0:
64,192,51962,1,0,0:0:0:0:
192,192,51962,1,0,0:0:0:0:
320,192,51962,1,0,0:0:0:0:
64,192,52095,1,0,0:0:0:0:
192,192,52095,1,0,0:0:0:0:
64,192,52227,1,0,0:0:0:0:
320,192,52227,1,0,0:0:0:0:
448,192,52227,1,0,0:0:0:0:
192,192,52227,1,0,0:0:0:0:
192,192,52360,1,0,0:0:0:0:
320,192,52360,1,0,0:0:0:0:
448,192,52360,1,0,0:0:0:0:
448,192,52493,1,0,0:0:0:0:
320,192,52493,1,0,0:0:0:0:
448,192,52626,1,0,0:0:0:0:
192,192,52626,1,0,0:0:0:0:
64,192,52626,1,0,0:0:0:0:
320,192,52626,1,0,0:0:0:0:
64,192,52758,1,0,0:0:0:0:
192,192,52758,1,0,0:0:0:0:
320,192,52758,1,0,0:0:0:0:
64,192,52891,1,0,0:0:0:0:
192,192,52891,1,0,0:0:0:0:
64,192,53024,1,0,0:0:0:0:
192,192,53024,1,0,0:0:0:0:
320,192,53024,1,0,0:0:0:0:
448,192,53024,1,0,0:0:0:0:
448,192,53157,1,0,0:0:0:0:
64,192,53157,1,0,0:0:0:0:
320,192,53157,1,0,0:0:0:0:
192,192,53157,1,0,0:0:0:0:
320,192,53289,1,0,0:0:0:0:
192,192,53289,1,0,0:0:0:0:
448,192,53289,1,0,0:0:0:0:
64,192,53289,1,0,0:0:0:0:
192,192,53422,1,0,0:0:0:0:
320,192,53422,1,0,0:0:0:0:
448,192,53555,1,0,0:0:0:0:
320,192,53555,1,0,0:0:0:0:
64,192,53555,1,0,0:0:0:0:
192,192,53555,1,0,0:0:0:0:
448,192,53688,1,0,0:0:0:0:
320,192,53688,1,0,0:0:0:0:
192,192,53688,1,0,0:0:0:0:
320,192,53820,1,0,0:0:0:0:
448,192,53820,1,0,0:0:0:0:
64,192,53953,1,0,0:0:0:0:
192,192,53953,1,0,0:0:0:0:
448,192,53953,1,0,0:0:0:0:
320,192,53953,1,0,0:0:0:0:
320,192,54086,1,0,0:0:0:0:
192,192,54086,1,0,0:0:0:0:
64,192,54086,1,0,0:0:0:0:
192,192,54219,1,0,0:0:0:0:
64,192,54219,1,0,0:0:0:0:
64,192,54351,1,0,0:0:0:0:
320,192,54351,1,0,0:0:0:0:
448,192,54351,1,0,0:0:0:0:
192,192,54351,1,0,0:0:0:0:
192,192,54484,1,0,0:0:0:0:
320,192,54484,1,0,0:0:0:0:
448,192,54484,1,0,0:0:0:0:
448,192,54617,1,0,0:0:0:0:
320,192,54617,1,0,0:0:0:0:
448,192,54750,1,0,0:0:0:0:
192,192,54750,1,0,0:0:0:0:
64,192,54750,1,0,0:0:0:0:
320,192,54750,1,0,0:0:0:0:
64,192,54882,1,0,0:0:0:0:
192,192,54882,1,0,0:0:0:0:
320,192,54882,1,0,0:0:0:0:
64,192,55015,1,0,0:0:0:0:
192,192,55015,1,0,0:0:0:0:
448,192,55148,1,0,0:0:0:0:
320,192,55148,1,0,0:0:0:0:
64,192,55148,1,0,0:0:0:0:
192,192,55148,1,0,0:0:0:0:
320,192,55281,1,0,0:0:0:0:
448,192,55281,1,0,0:0:0:0:
192,192,55413,1,0,0:0:0:0:
320,192,55413,1,0,0:0:0:0:
64,192,55546,1,0,0:0:0:0:
192,192,55546,1,0,0:0:0:0:
64,192,55679,1,0,0:0:0:0:
448,192,55679,1,0,0:0:0:0:
320,192,55679,1,0,0:0:0:0:
192,192,55745,1,0,0:0:0:0:
448,192,55811,1,0,0:0:0:0:
192,192,55878,1,0,0:0:0:0:
64,192,55944,1,0,0:0:0:0:
448,192,55944,1,0,0:0:0:0:
320,192,56011,1,0,0:0:0:0:
448,192,56077,1,0,0:0:0:0:
320,192,56143,1,0,0:0:0:0:
192,192,56210,1,0,0:0:0:0:
64,192,56210,1,0,0:0:0:0:
448,192,56276,1,0,0:0:0:0:
320,192,56342,1,0,0:0:0:0:
192,192,56409,1,0,0:0:0:0:
64,192,56475,1,0,0:0:0:0:
320,192,56475,1,0,0:0:0:0:
448,192,56542,1,0,0:0:0:0:
192,192,56608,1,0,0:0:0:0:
320,192,56674,1,0,0:0:0:0:
448,192,56741,1,0,0:0:0:0:
64,192,56741,1,0,0:0:0:0:
192,192,56741,1,0,0:0:0:0:
320,192,56807,1,0,0:0:0:0:
64,192,56873,1,0,0:0:0:0:
320,192,56940,1,0,0:0:0:0:
448,192,57006,1,0,0:0:0:0:
64,192,57006,1,0,0:0:0:0:
192,192,57073,1,0,0:0:0:0:
64,192,57139,1,0,0:0:0:0:
192,192,57205,1,0,0:0:0:0:
320,192,57272,1,0,0:0:0:0:
448,192,57272,1,0,0:0:0:0:
64,192,57338,1,0,0:0:0:0:
192,192,57404,1,0,0:0:0:0:
320,192,57471,1,0,0:0:0:0:
448,192,57537,1,0,0:0:0:0:
192,192,57537,1,0,0:0:0:0:
64,192,57604,1,0,0:0:0:0:
320,192,57670,1,0,0:0:0:0:
192,192,57736,1,0,0:0:0:0:
320,192,57803,1,0,0:0:0:0:
448,192,57803,1,0,0:0:0:0:
64,192,57803,1,0,0:0:0:0:
192,192,57869,1,0,0:0:0:0:
448,192,57935,1,0,0:0:0:0:
192,192,58002,1,0,0:0:0:0:
448,192,58068,1,0,0:0:0:0:
64,192,58068,1,0,0:0:0:0:
320,192,58134,1,0,0:0:0:0:
448,192,58201,1,0,0:0:0:0:
320,192,58267,1,0,0:0:0:0:
64,192,58334,1,0,0:0:0:0:
192,192,58334,1,0,0:0:0:0:
448,192,58400,1,0,0:0:0:0:
320,192,58466,1,0,0:0:0:0:
192,192,58533,1,0,0:0:0:0:
448,192,58599,1,0,0:0:0:0:
64,192,58599,1,0,0:0:0:0:
320,192,58665,1,0,0:0:0:0:
192,192,58732,1,0,0:0:0:0:
448,192,58798,1,0,0:0:0:0:
192,192,58865,1,0,0:0:0:0:
64,192,58865,1,0,0:0:0:0:
320,192,58865,1,0,0:0:0:0:
448,192,58931,1,0,0:0:0:0:
64,192,58997,1,0,0:0:0:0:
448,192,59064,1,0,0:0:0:0:
64,192,59130,1,0,0:0:0:0:
320,192,59130,1,0,0:0:0:0:
192,192,59196,1,0,0:0:0:0:
64,192,59263,1,0,0:0:0:0:
192,192,59329,1,0,0:0:0:0:
448,192,59396,1,0,0:0:0:0:
320,192,59396,1,0,0:0:0:0:
64,192,59462,1,0,0:0:0:0:
192,192,59528,1,0,0:0:0:0:
320,192,59595,1,0,0:0:0:0:
64,192,59661,1,0,0:0:0:0:
448,192,59661,1,0,0:0:0:0:
192,192,59727,1,0,0:0:0:0:
320,192,59794,1,0,0:0:0:0:
64,192,59860,1,0,0:0:0:0:
192,192,59927,1,0,0:0:0:0:
448,192,59927,1,0,0:0:0:0:
320,192,59927,1,0,0:0:0:0:
64,192,59993,1,0,0:0:0:0:
448,192,60059,1,0,0:0:0:0:
192,192,60126,1,0,0:0:0:0:
64,192,60192,1,0,0:0:0:0:
448,192,60192,1,0,0:0:0:0:
320,192,60258,1,0,0:0:0:0:
448,192,60325,1,0,0:0:0:0:
320,192,60391,1,0,0:0:0:0:
64,192,60458,1,0,0:0:0:0:
192,192,60458,1,0,0:0:0:0:
448,192,60524,1,0,0:0:0:0:
320,192,60590,1,0,0:0:0:0:
64,192,60657,1,0,0:0:0:0:
192,192,60723,1,0,0:0:0:0:
448,192,60723,1,0,0:0:0:0:
320,192,60789,1,0,0:0:0:0:
64,192,60856,1,0,0:0:0:0:
448,192,60922,1,0,0:0:0:0:
320,192,60988,1,0,0:0:0:0:
192,192,60988,1,0,0:0:0:0:
64,192,60988,1,0,0:0:0:0:
448,192,61055,1,0,0:0:0:0:
192,192,61121,1,0,0:0:0:0:
320,192,61188,1,0,0:0:0:0:
448,192,61254,1,0,0:0:0:0:
192,192,61254,1,0,0:0:0:0:
64,192,61320,1,0,0:0:0:0:
192,192,61387,1,0,0:0:0:0:
64,192,61453,1,0,0:0:0:0:
320,192,61519,1,0,0:0:0:0:
448,192,61519,1,0,0:0:0:0:
192,192,61586,1,0,0:0:0:0:
64,192,61652,1,0,0:0:0:0:
320,192,61719,1,0,0:0:0:0:
448,192,61785,1,0,0:0:0:0:
64,192,61785,1,0,0:0:0:0:
192,192,61851,1,0,0:0:0:0:
320,192,61918,1,0,0:0:0:0:
64,192,61984,1,0,0:0:0:0:
320,192,62050,1,0,0:0:0:0:
448,192,62050,1,0,0:0:0:0:
192,192,62050,1,0,0:0:0:0:
64,192,62117,1,0,0:0:0:0:
448,192,62183,1,0,0:0:0:0:
64,192,62250,1,0,0:0:0:0:
448,192,62316,1,0,0:0:0:0:
192,192,62316,1,0,0:0:0:0:
320,192,62382,1,0,0:0:0:0:
448,192,62449,1,0,0:0:0:0:
320,192,62515,1,0,0:0:0:0:
192,192,62581,1,0,0:0:0:0:
64,192,62581,1,0,0:0:0:0:
448,192,62648,1,0,0:0:0:0:
320,192,62714,1,0,0:0:0:0:
64,192,62781,1,0,0:0:0:0:
448,192,62847,1,0,0:0:0:0:
192,192,62847,1,0,0:0:0:0:
320,192,62913,1,0,0:0:0:0:
64,192,62980,1,0,0:0:0:0:
448,192,63046,1,0,0:0:0:0:
64,192,63112,1,0,0:0:0:0:
192,192,63112,1,0,0:0:0:0:
320,192,63112,1,0,0:0:0:0:
448,192,63179,1,0,0:0:0:0:
192,192,63245,1,0,0:0:0:0:
448,192,63311,1,0,0:0:0:0:
192,192,63378,1,0,0:0:0:0:
320,192,63378,1,0,0:0:0:0:
64,192,63444,1,0,0:0:0:0:
192,192,63511,1,0,0:0:0:0:
64,192,63577,1,0,0:0:0:0:
320,192,63643,1,0,0:0:0:0:
448,192,63643,1,0,0:0:0:0:
192,192,63710,1,0,0:0:0:0:
64,192,63776,1,0,0:0:0:0:
448,192,63842,1,0,0:0:0:0:
192,192,63909,1,0,0:0:0:0:
320,192,63909,1,0,0:0:0:0:
448,192,63975,1,0,0:0:0:0:
64,192,64042,1,0,0:0:0:0:
320,192,64108,1,0,0:0:0:0:
64,192,64174,1,0,0:0:0:0:
192,192,64174,1,0,0:0:0:0:
448,192,64174,1,0,0:0:0:0:
320,192,64241,1,0,0:0:0:0:
192,192,64307,1,0,0:0:0:0:
320,192,64373,1,0,0:0:0:0:
192,192,64440,1,0,0:0:0:0:
448,192,64440,1,0,0:0:0:0:
64,192,64506,1,0,0:0:0:0:
192,192,64573,1,0,0:0:0:0:
64,192,64639,1,0,0:0:0:0:
448,192,64705,1,0,0:0:0:0:
320,192,64705,1,0,0:0:0:0:
192,192,64772,1,0,0:0:0:0:
64,192,64838,1,0,0:0:0:0:
320,192,64904,1,0,0:0:0:0:
192,192,64971,1,0,0:0:0:0:
448,192,64971,1,0,0:0:0:0:
64,192,65037,1,0,0:0:0:0:
320,192,65104,1,0,0:0:0:0:
192,192,65170,1,0,0:0:0:0:
320,192,65236,1,0,0:0:0:0:
448,192,65236,1,0,0:0:0:0:
64,192,65236,1,0,0:0:0:0:
192,192,65303,1,0,0:0:0:0:
448,192,65369,1,0,0:0:0:0:
64,192,65435,1,0,0:0:0:0:
448,192,65502,1,0,0:0:0:0:
192,192,65502,1,0,0:0:0:0:
320,192,65568,1,0,0:0:0:0:
448,192,65634,1,0,0:0:0:0:
320,192,65701,1,0,0:0:0:0:
64,192,65767,1,0,0:0:0:0:
192,192,65767,1,0,0:0:0:0:
448,192,65834,1,0,0:0:0:0:
320,192,65900,1,0,0:0:0:0:
192,192,65966,1,0,0:0:0:0:
320,192,66033,1,0,0:0:0:0:
64,192,66033,1,0,0:0:0:0:
448,192,66099,1,0,0:0:0:0:
192,192,66165,1,0,0:0:0:0:
320,192,66232,1,0,0:0:0:0:
448,192,66298,1,0,0:0:0:0:
64,192,66298,1,0,0:0:0:0:
192,192,66298,1,0,0:0:0:0:
320,192,66365,1,0,0:0:0:0:
64,192,66431,1,0,0:0:0:0:
320,192,66497,1,0,0:0:0:0:
448,192,66564,1,0,0:0:0:0:
64,192,66564,1,0,0:0:0:0:
192,192,66630,1,0,0:0:0:0:
64,192,66696,1,0,0:0:0:0:
192,192,66763,1,0,0:0:0:0:
320,192,66829,1,0,0:0:0:0:
448,192,66829,1,0,0:0:0:0:
64,192,66896,1,0,0:0:0:0:
192,192,66962,1,0,0:0:0:0:
320,192,67028,1,0,0:0:0:0:
448,192,67095,1,0,0:0:0:0:
64,192,67095,1,0,0:0:0:0:
192,192,67161,1,0,0:0:0:0:
320,192,67227,1,0,0:0:0:0:
64,192,67294,1,0,0:0:0:0:
192,192,67360,1,0,0:0:0:0:
448,192,67360,1,0,0:0:0:0:
320,192,67360,1,0,0:0:0:0:
64,192,67427,1,0,0:0:0:0:
448,192,67493,1,0,0:0:0:0:
64,192,67559,1,0,0:0:0:0:
192,192,67626,1,0,0:0:0:0:
448,192,67626,1,0,0:0:0:0:
320,192,67692,1,0,0:0:0:0:
448,192,67758,1,0,0:0:0:0:
320,192,67825,1,0,0:0:0:0:
192,192,67891,1,0,0:0:0:0:
64,192,67891,1,0,0:0:0:0:
448,192,67958,1,0,0:0:0:0:
320,192,68024,1,0,0:0:0:0:
192,192,68090,1,0,0:0:0:0:
64,192,68157,1,0,0:0:0:0:
448,192,68157,1,0,0:0:0:0:
320,192,68223,1,0,0:0:0:0:
192,192,68289,1,0,0:0:0:0:
448,192,68356,1,0,0:0:0:0:
320,192,68422,1,0,0:0:0:0:
64,192,68422,1,0,0:0:0:0:
192,192,68422,1,0,0:0:0:0:
448,192,68488,1,0,0:0:0:0:
64,192,68555,1,0,0:0:0:0:
320,192,68621,1,0,0:0:0:0:
448,192,68688,1,0,0:0:0:0:
64,192,68688,1,0,0:0:0:0:
192,192,68754,1,0,0:0:0:0:
64,192,68820,1,0,0:0:0:0:
192,192,68887,1,0,0:0:0:0:
448,192,68953,1,0,0:0:0:0:
320,192,68953,1,0,0:0:0:0:
64,192,69019,1,0,0:0:0:0:
192,192,69086,1,0,0:0:0:0:
448,192,69152,1,0,0:0:0:0:
320,192,69219,1,0,0:0:0:0:
64,192,69219,1,0,0:0:0:0:
192,192,69285,1,0,0:0:0:0:
448,192,69351,1,0,0:0:0:0:
64,192,69418,1,0,0:0:0:0:
192,192,69484,1,0,0:0:0:0:
320,192,69484,1,0,0:0:0:0:
448,192,69484,1,0,0:0:0:0:
64,192,69550,1,0,0:0:0:0:
320,192,69617,1,0,0:0:0:0:
192,192,69683,1,0,0:0:0:0:
64,192,69750,1,0,0:0:0:0:
320,192,69750,1,0,0:0:0:0:
448,192,69816,1,0,0:0:0:0:
320,192,69882,1,0,0:0:0:0:
448,192,69949,1,0,0:0:0:0:
192,192,70015,1,0,0:0:0:0:
64,192,70015,1,0,0:0:0:0:
320,192,70081,1,0,0:0:0:0:
448,192,70148,1,0,0:0:0:0:
192,192,70214,1,0,0:0:0:0:
64,192,70281,1,0,0:0:0:0:
448,192,70281,1,0,0:0:0:0:
320,192,70347,1,0,0:0:0:0:
192,192,70413,1,0,0:0:0:0:
448,192,70480,1,0,0:0:0:0:
192,192,70546,1,0,0:0:0:0:
64,192,70546,1,0,0:0:0:0:
320,192,70546,1,0,0:0:0:0:
448,192,70612,1,0,0:0:0:0:
64,192,70679,1,0,0:0:0:0:
448,192,70745,1,0,0:0:0:0:
64,192,70811,1,0,0:0:0:0:
320,192,70811,1,0,0:0:0:0:
192,192,70878,1,0,0:0:0:0:
64,192,70944,1,0,0:0:0:0:
192,192,71011,1,0,0:0:0:0:
320,192,71077,1,0,0:0:0:0:
448,192,71077,1,0,0:0:0:0:
64,192,71143,1,0,0:0:0:0:
192,192,71210,1,0,0:0:0:0:
448,192,71276,1,0,0:0:0:0:
64,192,71342,1,0,0:0:0:0:
320,192,71342,1,0,0:0:0:0:
192,192,71409,1,0,0:0:0:0:
448,192,71475,1,0,0:0:0:0:
64,192,71542,1,0,0:0:0:0:
448,192,71608,1,0,0:0:0:0:
320,192,71608,1,0,0:0:0:0:
192,192,71608,1,0,0:0:0:0:
64,192,71674,1,0,0:0:0:0:
320,192,71741,1,0,0:0:0:0:
64,192,71807,1,0,0:0:0:0:
320,192,71873,1,0,0:0:0:0:
192,192,71873,1,0,0:0:0:0:
448,192,71940,1,0,0:0:0:0:
320,192,72006,1,0,0:0:0:0:
448,192,72073,1,0,0:0:0:0:
64,192,72139,1,0,0:0:0:0:
192,192,72139,1,0,0:0:0:0:
320,192,72205,1,0,0:0:0:0:
448,192,72272,1,0,0:0:0:0:
192,192,72338,1,0,0:0:0:0:
320,192,72404,1,0,0:0:0:0:
64,192,72404,1,0,0:0:0:0:
448,192,72471,1,0,0:0:0:0:
192,192,72537,1,0,0:0:0:0:
448,192,72604,1,0,0:0:0:0:
64,192,72670,1,0,0:0:0:0:
192,192,72670,1,0,0:0:0:0:
320,192,72803,1,0,0:0:0:0:
448,192,72935,1,0,0:0:0:0:
64,192,72935,1,0,0:0:0:0:
64,192,73068,1,0,0:0:0:0:
320,192,73068,1,0,0:0:0:0:
192,192,73201,1,0,0:0:0:0:
64,192,73334,1,0,0:0:0:0:
320,192,73334,1,0,0:0:0:0:
448,192,73466,1,0,0:0:0:0:
192,192,73599,1,0,0:0:0:0:
64,192,73732,1,0,0:0:0:0:
192,192,73865,1,0,0:0:0:0:
448,192,73997,1,0,0:0:0:0:
320,192,73997,1,0,0:0:0:0:
192,192,74130,1,0,0:0:0:0:
448,192,74263,1,0,0:0:0:0:
64,192,74263,1,0,0:0:0:0:
320,192,74396,1,0,0:0:0:0:
448,192,74396,1,0,0:0:0:0:
192,192,74528,1,0,0:0:0:0:
64,192,74661,1,0,0:0:0:0:
320,192,74794,1,0,0:0:0:0:
192,192,74927,1,0,0:0:0:0:
448,192,75059,1,0,0:0:0:0:
320,192,75192,1,0,0:0:0:0:
64,192,75325,1,0,0:0:0:0:
192,192,75458,1,0,0:0:0:0:
320,192,75590,1,0,0:0:0:0:
448,192,75723,1,0,0:0:0:0:
64,192,75856,1,0,0:0:0:0:
192,192,75988,1,0,0:0:0:0:
320,192,76121,1,0,0:0:0:0:
192,192,76254,1,0,0:0:0:0:
64,192,76387,1,0,0:0:0:0:
320,192,76519,1,0,0:0:0:0:
448,192,76652,1,0,0:0:0:0:
192,192,76652,1,0,0:0:0:0:
448,192,76785,1,0,0:0:0:0:
64,192,76785,1,0,0:0:0:0:
448,192,76918,1,0,0:0:0:0:
320,192,76918,1,0,0:0:0:0:
64,192,76918,1,0,0:0:0:0:
192,192,76984,1,0,0:0:0:0:
320,192,77050,1,0,0:0:0:0:
64,192,77117,1,0,0:0:0:0:
448,192,77183,1,0,0:0:0:0:
192,192,77183,1,0,0:0:0:0:
448,192,77316,1,0,0:0:0:0:
320,192,77316,1,0,0:0:0:0:
192,192,77449,1,0,0:0:0:0:
448,192,77581,1,0,0:0:0:0:
64,192,77581,1,0,0:0:0:0:
320,192,77714,1,0,0:0:0:0:
192,192,77847,1,0,0:0:0:0:
448,192,77980,1,0,0:0:0:0:
320,192,78112,1,0,0:0:0:0:
64,192,78245,1,0,0:0:0:0:
192,192,78245,1,0,0:0:0:0:
320,192,78378,1,0,0:0:0:0:
64,192,78511,1,0,0:0:0:0:
192,192,78511,1,0,0:0:0:0:
64,192,78643,1,0,0:0:0:0:
448,192,78643,1,0,0:0:0:0:
320,192,78776,1,0,0:0:0:0:
192,192,78909,1,0,0:0:0:0:
64,192,79042,1,0,0:0:0:0:
448,192,79042,1,0,0:0:0:0:
320,192,79174,1,0,0:0:0:0:
192,192,79307,1,0,0:0:0:0:
448,192,79440,1,0,0:0:0:0:
320,192,79573,1,0,0:0:0:0:
64,192,79705,1,0,0:0:0:0:
192,192,79838,1,0,0:0:0:0:
320,192,79971,1,0,0:0:0:0:
448,192,80104,1,0,0:0:0:0:
192,192,80236,1,0,0:0:0:0:
448,192,80236,1,0,0:0:0:0:
192,192,80369,1,0,0:0:0:0:
320,192,80435,1,0,0:0:0:0:
320,192,80568,1,0,0:0:0:0:
64,192,80634,1,0,0:0:0:0:
64,192,80767,1,0,0:0:0:0:
448,192,80900,1,0,0:0:0:0:
448,192,81033,1,0,0:0:0:0:
64,192,81165,1,0,0:0:0:0:
320,192,81165,1,0,0:0:0:0:
192,192,81165,1,0,0:0:0:0:
448,192,81232,1,0,0:0:0:0:
320,192,81298,1,0,0:0:0:0:
192,192,81365,1,0,0:0:0:0:
448,192,81431,1,0,0:0:0:0:
64,192,81431,1,0,0:0:0:0:
64,192,81564,1,0,0:0:0:0:
320,192,81564,1,0,0:0:0:0:
192,192,81696,1,0,0:0:0:0:
64,192,81829,1,0,0:0:0:0:
320,192,81829,1,0,0:0:0:0:
448,192,81962,1,0,0:0:0:0:
192,192,82095,1,0,0:0:0:0:
64,192,82227,1,0,0:0:0:0:
448,192,82294,1,0,0:0:0:0:
192,192,82360,1,0,0:0:0:0:
64,192,82427,1,0,0:0:0:0:
448,192,82493,1,0,0:0:0:0:
320,192,82493,1,0,0:0:0:0:
64,192,82592,1,0,0:0:0:0:
192,192,82626,1,0,0:0:0:0:
320,192,82659,1,0,0:0:0:0:
448,192,82758,1,0,0:0:0:0:
64,192,82758,1,0,0:0:0:0:
320,192,82891,1,0,0:0:0:0:
448,192,82891,1,0,0:0:0:0:
64,192,82924,1,0,0:0:0:0:
192,192,83024,1,0,0:0:0:0:
320,192,83057,1,0,0:0:0:0:
448,192,83090,1,0,0:0:0:0:
64,192,83157,1,0,0:0:0:0:
320,192,83289,1,0,0:0:0:0:
192,192,83422,1,0,0:0:0:0:
448,192,83555,1,0,0:0:0:0:
320,192,83688,1,0,0:0:0:0:
64,192,83820,1,0,0:0:0:0:
192,192,83953,1,0,0:0:0:0:
320,192,84086,1,0,0:0:0:0:
448,192,84219,1,0,0:0:0:0:
64,192,84351,1,0,0:0:0:0:
448,192,84384,1,0,0:0:0:0:
320,192,84418,1,0,0:0:0:0:
192,192,84484,1,0,0:0:0:0:
448,192,84517,1,0,0:0:0:0:
64,192,84550,1,0,0:0:0:0:
320,192,84617,1,0,0:0:0:0:
448,192,84650,1,0,0:0:0:0:
64,192,84683,1,0,0:0:0:0:
192,192,84750,1,0,0:0:0:0:
320,192,84783,1,0,0:0:0:0:
448,192,84816,1,0,0:0:0:0:
64,192,84882,1,0,0:0:0:0:
192,192,84882,1,0,0:0:0:0:
448,192,84971,1,0,0:0:0:0:
320,192,85015,1,0,0:0:0:0:
64,192,85059,1,0,0:0:0:0:
448,192,85148,1,0,0:0:0:0:
192,192,85148,1,0,0:0:0:0:
320,192,85236,1,0,0:0:0:0:
448,192,85281,1,0,0:0:0:0:
64,192,85281,1,0,0:0:0:0:
192,192,85325,1,0,0:0:0:0:
448,192,85413,1,0,0:0:0:0:
320,192,85413,1,0,0:0:0:0:
64,192,85413,1,0,0:0:0:0:
192,192,85480,1,0,0:0:0:0:
320,192,85546,1,0,0:0:0:0:
64,192,85612,1,0,0:0:0:0:
448,192,85679,1,0,0:0:0:0:
192,192,85679,1,0,0:0:0:0:
448,192,85811,1,0,0:0:0:0:
320,192,85811,1,0,0:0:0:0:
192,192,85944,1,0,0:0:0:0:
448,192,86077,1,0,0:0:0:0:
64,192,86077,1,0,0:0:0:0:
320,192,86210,1,0,0:0:0:0:
192,192,86342,1,0,0:0:0:0:
448,192,86475,1,0,0:0:0:0:
320,192,86608,1,0,0:0:0:0:
64,192,86741,1,0,0:0:0:0:
192,192,86741,1,0,0:0:0:0:
320,192,86873,1,0,0:0:0:0:
64,192,87006,1,0,0:0:0:0:
192,192,87006,1,0,0:0:0:0:
64,192,87139,1,0,0:0:0:0:
448,192,87139,1,0,0:0:0:0:
320,192,87272,1,0,0:0:0:0:
192,192,87404,1,0,0:0:0:0:
448,192,87537,1,0,0:0:0:0:
64,192,87537,1,0,0:0:0:0:
192,192,87581,1,0,0:0:0:0:
320,192,87626,1,0,0:0:0:0:
448,192,87670,1,0,0:0:0:0:
192,192,87714,1,0,0:0:0:0:
320,192,87758,1,0,0:0:0:0:
448,192,87803,1,0,0:0:0:0:
64,192,87803,1,0,0:0:0:0:
192,192,87869,1,0,0:0:0:0:
448,192,87935,1,0,0:0:0:0:
320,192,87935,1,0,0:0:0:0:
192,192,88002,1,0,0:0:0:0:
64,192,88068,1,0,0:0:0:0:
448,192,88068,1,0,0:0:0:0:
320,192,88112,1,0,0:0:0:0:
192,192,88157,1,0,0:0:0:0:
64,192,88201,1,0,0:0:0:0:
320,192,88245,1,0,0:0:0:0:
192,192,88289,1,0,0:0:0:0:
64,192,88334,1,0,0:0:0:0:
448,192,88334,1,0,0:0:0:0:
320,192,88400,1,0,0:0:0:0:
64,192,88466,1,0,0:0:0:0:
192,192,88466,1,0,0:0:0:0:
320,192,88533,1,0,0:0:0:0:
448,192,88599,1,0,0:0:0:0:
64,192,88599,1,0,0:0:0:0:
192,192,88643,1,0,0:0:0:0:
320,192,88688,1,0,0:0:0:0:
448,192,88732,1,0,0:0:0:0:
192,192,88776,1,0,0:0:0:0:
320,192,88820,1,0,0:0:0:0:
64,192,88865,1,0,0:0:0:0:
448,192,88909,1,0,0:0:0:0:
320,192,88953,1,0,0:0:0:0:
192,192,88997,1,0,0:0:0:0:
64,192,89042,1,0,0:0:0:0:
320,192,89086,1,0,0:0:0:0:
448,192,89130,1,0,0:0:0:0:
192,192,89174,1,0,0:0:0:0:
320,192,89219,1,0,0:0:0:0:
64,192,89263,1,0,0:0:0:0:
192,192,89307,1,0,0:0:0:0:
448,192,89351,1,0,0:0:0:0:
320,192,89396,1,0,0:0:0:0:
448,192,89440,1,0,0:0:0:0:
320,192,89484,1,0,0:0:0:0:
192,192,89528,1,0,0:0:0:0:
64,192,89573,1,0,0:0:0:0:
192,192,89661,1,0,0:0:0:0:
320,192,89661,1,0,0:0:0:0:
448,192,89661,1,0,0:0:0:0:
64,192,89727,1,0,0:0:0:0:
448,192,89794,1,0,0:0:0:0:
192,192,89860,1,0,0:0:0:0:
320,192,89927,1,0,0:0:0:0:
448,192,89927,1,0,0:0:0:0:
64,192,89993,1,0,0:0:0:0:
192,192,90059,1,0,0:0:0:0:
320,192,90126,1,0,0:0:0:0:
64,192,90192,1,0,0:0:0:0:
448,192,90192,1,0,0:0:0:0:
192,192,90225,1,0,0:0:0:0:
320,192,90258,1,0,0:0:0:0:
64,192,90325,1,0,0:0:0:0:
320,192,90424,1,0,0:0:0:0:
448,192,90458,1,0,0:0:0:0:
64,192,90458,1,0,0:0:0:0:
192,192,90524,1,0,0:0:0:0:
320,192,90557,1,0,0:0:0:0:
448,192,90590,1,0,0:0:0:0:
192,192,90657,1,0,0:0:0:0:
64,192,90723,1,0,0:0:0:0:
448,192,90723,1,0,0:0:0:0:
320,192,90789,1,0,0:0:0:0:
192,192,90856,1,0,0:0:0:0:
320,192,90889,1,0,0:0:0:0:
448,192,90922,1,0,0:0:0:0:
192,192,90988,1,0,0:0:0:0:
64,192,90988,1,0,0:0:0:0:
320,192,91055,1,0,0:0:0:0:
64,192,91121,1,0,0:0:0:0:
320,192,91188,1,0,0:0:0:0:
64,192,91254,1,0,0:0:0:0:
448,192,91254,1,0,0:0:0:0:
192,192,91320,1,0,0:0:0:0:
64,192,91387,1,0,0:0:0:0:
320,192,91420,1,0,0:0:0:0:
192,192,91453,1,0,0:0:0:0:
448,192,91519,1,0,0:0:0:0:
64,192,91519,1,0,0:0:0:0:
320,192,91586,1,0,0:0:0:0:
448,192,91652,1,0,0:0:0:0:
64,192,91685,1,0,0:0:0:0:
192,192,91719,1,0,0:0:0:0:
320,192,91785,1,0,0:0:0:0:
448,192,91785,1,0,0:0:0:0:
64,192,91851,1,0,0:0:0:0:
192,192,91884,1,0,0:0:0:0:
320,192,91918,1,0,0:0:0:0:
64,192,91984,1,0,0:0:0:0:
448,192,92050,1,0,0:0:0:0:
320,192,92050,1,0,0:0:0:0:
64,192,92117,1,0,0:0:0:0:
192,192,92150,1,0,0:0:0:0:
448,192,92183,1,0,0:0:0:0:
320,192,92250,1,0,0:0:0:0:
64,192,92316,1,0,0:0:0:0:
448,192,92316,1,0,0:0:0:0:
192,192,92382,1,0,0:0:0:0:
320,192,92449,1,0,0:0:0:0:
192,192,92515,1,0,0:0:0:0:
320,192,92581,1,0,0:0:0:0:
448,192,92581,1,0,0:0:0:0:
192,192,92648,1,0,0:0:0:0:
320,192,92714,1,0,0:0:0:0:
448,192,92747,1,0,0:0:0:0:
192,192,92781,1,0,0:0:0:0:
64,192,92814,1,0,0:0:0:0:
320,192,92847,1,0,0:0:0:0:
448,192,92847,1,0,0:0:0:0:
192,192,92935,1,0,0:0:0:0:
64,192,92980,1,0,0:0:0:0:
320,192,93024,1,0,0:0:0:0:
192,192,93112,1,0,0:0:0:0:
64,192,93112,1,0,0:0:0:0:
320,192,93201,1,0,0:0:0:0:
64,192,93245,1,0,0:0:0:0:
192,192,93289,1,0,0:0:0:0:
320,192,93378,1,0,0:0:0:0:
448,192,93378,1,0,0:0:0:0:
192,192,93511,1,0,0:0:0:0:
448,192,93511,1,0,0:0:0:0:
64,192,93643,1,0,0:0:0:0:
320,192,93643,1,0,0:0:0:0:
192,192,93776,1,0,0:0:0:0:
448,192,93776,1,0,0:0:0:0:
320,192,93909,1,0,0:0:0:0:
192,192,93909,1,0,0:0:0:0:
64,192,93909,1,0,0:0:0:0:
448,192,93975,1,0,0:0:0:0:
64,192,94042,1,0,0:0:0:0:
320,192,94108,1,0,0:0:0:0:
192,192,94174,1,0,0:0:0:0:
64,192,94174,1,0,0:0:0:0:
448,192,94241,1,0,0:0:0:0:
320,192,94307,1,0,0:0:0:0:
192,192,94373,1,0,0:0:0:0:
448,192,94440,1,0,0:0:0:0:
64,192,94440,1,0,0:0:0:0:
320,192,94473,1,0,0:0:0:0:
192,192,94506,1,0,0:0:0:0:
448,192,94573,1,0,0:0:0:0:
192,192,94672,1,0,0:0:0:0:
64,192,94705,1,0,0:0:0:0:
448,192,94705,1,0,0:0:0:0:
320,192,94772,1,0,0:0:0:0:
192,192,94805,1,0,0:0:0:0:
64,192,94838,1,0,0:0:0:0:
320,192,94904,1,0,0:0:0:0:
448,192,94971,1,0,0:0:0:0:
64,192,94971,1,0,0:0:0:0:
192,192,95037,1,0,0:0:0:0:
320,192,95104,1,0,0:0:0:0:
192,192,95137,1,0,0:0:0:0:
64,192,95170,1,0,0:0:0:0:
320,192,95236,1,0,0:0:0:0:
448,192,95236,1,0,0:0:0:0:
192,192,95303,1,0,0:0:0:0:
448,192,95369,1,0,0:0:0:0:
192,192,95435,1,0,0:0:0:0:
448,192,95502,1,0,0:0:0:0:
64,192,95502,1,0,0:0:0:0:
320,192,95568,1,0,0:0:0:0:
448,192,95634,1,0,0:0:0:0:
192,192,95668,1,0,0:0:0:0:
320,192,95701,1,0,0:0:0:0:
64,192,95767,1,0,0:0:0:0:
448,192,95767,1,0,0:0:0:0:
192,192,95834,1,0,0:0:0:0:
64,192,95900,1,0,0:0:0:0:
448,192,95933,1,0,0:0:0:0:
320,192,95966,1,0,0:0:0:0:
192,192,96033,1,0,0:0:0:0:
64,192,96033,1,0,0:0:0:0:
448,192,96099,1,0,0:0:0:0:
320,192,96132,1,0,0:0:0:0:
192,192,96165,1,0,0:0:0:0:
448,192,96232,1,0,0:0:0:0:
64,192,96298,1,0,0:0:0:0:
192,192,96298,1,0,0:0:0:0:
448,192,96365,1,0,0:0:0:0:
320,192,96398,1,0,0:0:0:0:
64,192,96431,1,0,0:0:0:0:
192,192,96497,1,0,0:0:0:0:
448,192,96564,1,0,0:0:0:0:
64,192,96564,1,0,0:0:0:0:
320,192,96630,1,0,0:0:0:0:
192,192,96696,1,0,0:0:0:0:
320,192,96763,1,0,0:0:0:0:
192,192,96829,1,0,0:0:0:0:
64,192,96829,1,0,0:0:0:0:
320,192,96896,1,0,0:0:0:0:
192,192,96962,1,0,0:0:0:0:
64,192,96995,1,0,0:0:0:0:
320,192,97028,1,0,0:0:0:0:
448,192,97061,1,0,0:0:0:0:
192,192,97095,1,0,0:0:0:0:
64,192,97095,1,0,0:0:0:0:
320,192,97183,1,0,0:0:0:0:
448,192,97227,1,0,0:0:0:0:
192,192,97272,1,0,0:0:0:0:
320,192,97360,1,0,0:0:0:0:
448,192,97360,1,0,0:0:0:0:
192,192,97449,1,0,0:0:0:0:
448,192,97493,1,0,0:0:0:0:
320,192,97537,1,0,0:0:0:0:
192,192,97626,1,0,0:0:0:0:
64,192,97626,1,0,0:0:0:0:
320,192,97758,1,0,0:0:0:0:
64,192,97758,1,0,0:0:0:0:
448,192,97891,1,0,0:0:0:0:
192,192,97891,1,0,0:0:0:0:
320,192,98024,1,0,0:0:0:0:
64,192,98024,1,0,0:0:0:0:
192,192,98157,1,0,0:0:0:0:
320,192,98157,1,0,0:0:0:0:
448,192,98157,1,0,0:0:0:0:
64,192,98223,1,0,0:0:0:0:
448,192,98289,1,0,0:0:0:0:
192,192,98356,1,0,0:0:0:0:
320,192,98422,1,0,0:0:0:0:
448,192,98422,1,0,0:0:0:0:
64,192,98488,1,0,0:0:0:0:
192,192,98555,1,0,0:0:0:0:
320,192,98621,1,0,0:0:0:0:
64,192,98688,1,0,0:0:0:0:
448,192,98688,1,0,0:0:0:0:
192,192,98721,1,0,0:0:0:0:
320,192,98754,1,0,0:0:0:0:
64,192,98820,1,0,0:0:0:0:
320,192,98920,1,0,0:0:0:0:
448,192,98953,1,0,0:0:0:0:
64,192,98953,1,0,0:0:0:0:
192,192,99019,1,0,0:0:0:0:
320,192,99053,1,0,0:0:0:0:
448,192,99086,1,0,0:0:0:0:
192,192,99152,1,0,0:0:0:0:
64,192,99219,1,0,0:0:0:0:
448,192,99219,1,0,0:0:0:0:
320,192,99285,1,0,0:0:0:0:
192,192,99351,1,0,0:0:0:0:
320,192,99384,1,0,0:0:0:0:
448,192,99418,1,0,0:0:0:0:
192,192,99484,1,0,0:0:0:0:
64,192,99484,1,0,0:0:0:0:
320,192,99550,1,0,0:0:0:0:
64,192,99617,1,0,0:0:0:0:
320,192,99683,1,0,0:0:0:0:
64,192,99750,1,0,0:0:0:0:
448,192,99750,1,0,0:0:0:0:
192,192,99816,1,0,0:0:0:0:
64,192,99882,1,0,0:0:0:0:
320,192,99915,1,0,0:0:0:0:
192,192,99949,1,0,0:0:0:0:
448,192,100015,1,0,0:0:0:0:
64,192,100015,1,0,0:0:0:0:
320,192,100081,1,0,0:0:0:0:
448,192,100148,1,0,0:0:0:0:
64,192,100181,1,0,0:0:0:0:
192,192,100214,1,0,0:0:0:0:
320,192,100281,1,0,0:0:0:0:
448,192,100281,1,0,0:0:0:0:
64,192,100347,1,0,0:0:0:0:
192,192,100380,1,0,0:0:0:0:
320,192,100413,1,0,0:0:0:0:
64,192,100480,1,0,0:0:0:0:
448,192,100546,1,0,0:0:0:0:
320,192,100546,1,0,0:0:0:0:
64,192,100612,1,0,0:0:0:0:
192,192,100646,1,0,0:0:0:0:
448,192,100679,1,0,0:0:0:0:
320,192,100745,1,0,0:0:0:0:
64,192,100811,1,0,0:0:0:0:
448,192,100811,1,0,0:0:0:0:
192,192,100878,1,0,0:0:0:0:
320,192,100944,1,0,0:0:0:0:
192,192,101011,1,0,0:0:0:0:
320,192,101077,1,0,0:0:0:0:
448,192,101077,1,0,0:0:0:0:
192,192,101143,1,0,0:0:0:0:
320,192,101210,1,0,0:0:0:0:
448,192,101243,1,0,0:0:0:0:
192,192,101276,1,0,0:0:0:0:
64,192,101309,1,0,0:0:0:0:
320,192,101342,1,0,0:0:0:0:
448,192,101342,1,0,0:0:0:0:
192,192,101431,1,0,0:0:0:0:
64,192,101475,1,0,0:0:0:0:
320,192,101519,1,0,0:0:0:0:
192,192,101608,1,0,0:0:0:0:
64,192,101608,1,0,0:0:0:0:
320,192,101696,1,0,0:0:0:0:
64,192,101741,1,0,0:0:0:0:
192,192,101785,1,0,0:0:0:0:
448,192,101873,1,0,0:0:0:0:
320,192,101873,1,0,0:0:0:0:
192,192,101940,1,0,0:0:0:0:
320,192,102006,1,0,0:0:0:0:
192,192,102073,1,0,0:0:0:0:
448,192,102139,1,0,0:0:0:0:
320,192,102139,1,0,0:0:0:0:
192,192,102205,1,0,0:0:0:0:
320,192,102272,1,0,0:0:0:0:
192,192,102338,1,0,0:0:0:0:
320,192,102404,1,0,0:0:0:0:
448,192,102404,1,0,0:0:0:0:
64,192,102404,1,0,0:0:0:0:
448,192,102537,1,0,0:0:0:0:
64,192,102670,1,0,0:0:0:0:
64,192,102803,1,0,0:0:0:0:
320,192,102935,1,0,0:0:0:0:
320,192,103201,1,0,0:0:0:0:
192,192,103223,1,0,0:0:0:0:
64,192,103245,1,0,0:0:0:0:
64,192,103466,1,0,0:0:0:0:
320,192,103555,1,0,0:0:0:0:
64,192,103599,1,0,0:0:0:0:
192,192,103643,1,0,0:0:0:0:
320,192,103732,1,0,0:0:0:0:
192,192,103798,1,0,0:0:0:0:
320,192,103865,1,0,0:0:0:0:
192,192,103931,1,0,0:0:0:0:
320,192,103997,1,0,0:0:0:0:
64,192,104528,1,0,0:0:0:0:
448,192,104528,1,0,0:0:0:0:
192,192,104573,1,0,0:0:0:0:
320,192,104617,1,0,0:0:0:0:
448,192,104661,1,0,0:0:0:0:
64,192,104661,1,0,0:0:0:0:
192,192,104727,1,0,0:0:0:0:
448,192,104794,1,0,0:0:0:0:
320,192,104794,1,0,0:0:0:0:
64,192,104860,1,0,0:0:0:0:
320,192,104927,1,0,0:0:0:0:
448,192,104927,1,0,0:0:0:0:
192,192,104993,1,0,0:0:0:0:
64,192,105059,1,0,0:0:0:0:
448,192,105059,1,0,0:0:0:0:
320,192,105104,1,0,0:0:0:0:
192,192,105148,1,0,0:0:0:0:
64,192,105192,1,0,0:0:0:0:
320,192,105236,1,0,0:0:0:0:
448,192,105281,1,0,0:0:0:0:
192,192,105325,1,0,0:0:0:0:
64,192,105325,1,0,0:0:0:0:
320,192,105391,1,0,0:0:0:0:
64,192,105458,1,0,0:0:0:0:
192,192,105458,1,0,0:0:0:0:
448,192,105524,1,0,0:0:0:0:
320,192,105590,1,0,0:0:0:0:
192,192,105590,1,0,0:0:0:0:
64,192,105590,1,0,0:0:0:0:
448,192,105657,1,0,0:0:0:0:
320,192,105723,1,0,0:0:0:0:
64,192,105789,1,0,0:0:0:0:
192,192,105856,1,0,0:0:0:0:
320,192,105856,1,0,0:0:0:0:
448,192,105856,1,0,0:0:0:0:
64,192,105922,1,0,0:0:0:0:
192,192,105988,1,0,0:0:0:0:
320,192,106055,1,0,0:0:0:0:
448,192,106121,1,0,0:0:0:0:
192,192,106121,1,0,0:0:0:0:
64,192,106121,1,0,0:0:0:0:
320,192,106188,1,0,0:0:0:0:
448,192,106254,1,0,0:0:0:0:
64,192,106298,1,0,0:0:0:0:
192,192,106342,1,0,0:0:0:0:
448,192,106387,1,0,0:0:0:0:
320,192,106431,1,0,0:0:0:0:
64,192,106475,1,0,0:0:0:0:
448,192,106519,1,0,0:0:0:0:
320,192,106564,1,0,0:0:0:0:
192,192,106608,1,0,0:0:0:0:
448,192,106652,1,0,0:0:0:0:
64,192,106652,1,0,0:0:0:0:
320,192,106696,1,0,0:0:0:0:
192,192,106741,1,0,0:0:0:0:
64,192,106785,1,0,0:0:0:0:
320,192,106829,1,0,0:0:0:0:
448,192,106873,1,0,0:0:0:0:
64,192,106918,1,0,0:0:0:0:
192,192,106984,1,0,0:0:0:0:
320,192,107050,1,0,0:0:0:0:
448,192,107095,1,0,0:0:0:0:
64,192,107095,1,0,0:0:0:0:
192,192,107139,1,0,0:0:0:0:
320,192,107183,1,0,0:0:0:0:
64,192,107227,1,0,0:0:0:0:
192,192,107272,1,0,0:0:0:0:
320,192,107316,1,0,0:0:0:0:
448,192,107316,1,0,0:0:0:0:
64,192,107382,1,0,0:0:0:0:
320,192,107449,1,0,0:0:0:0:
448,192,107449,1,0,0:0:0:0:
64,192,107493,1,0,0:0:0:0:
192,192,107537,1,0,0:0:0:0:
320,192,107604,1,0,0:0:0:0:
448,192,107670,1,0,0:0:0:0:
192,192,107714,1,0,0:0:0:0:
64,192,107714,1,0,0:0:0:0:
448,192,107781,1,0,0:0:0:0:
192,192,107847,1,0,0:0:0:0:
64,192,107847,1,0,0:0:0:0:
320,192,107913,1,0,0:0:0:0:
64,192,107980,1,0,0:0:0:0:
192,192,107980,1,0,0:0:0:0:
448,192,108046,1,0,0:0:0:0:
64,192,108112,1,0,0:0:0:0:
192,192,108112,1,0,0:0:0:0:
320,192,108179,1,0,0:0:0:0:
64,192,108245,1,0,0:0:0:0:
448,192,108245,1,0,0:0:0:0:
192,192,108289,1,0,0:0:0:0:
448,192,108378,1,0,0:0:0:0:
320,192,108444,1,0,0:0:0:0:
192,192,108511,1,0,0:0:0:0:
64,192,108511,1,0,0:0:0:0:
448,192,108555,1,0,0:0:0:0:
320,192,108599,1,0,0:0:0:0:
64,192,108665,1,0,0:0:0:0:
192,192,108732,1,0,0:0:0:0:
320,192,108776,1,0,0:0:0:0:
448,192,108776,1,0,0:0:0:0:
64,192,108842,1,0,0:0:0:0:
320,192,108909,1,0,0:0:0:0:
448,192,108909,1,0,0:0:0:0:
192,192,108975,1,0,0:0:0:0:
448,192,109042,1,0,0:0:0:0:
320,192,109042,1,0,0:0:0:0:
64,192,109108,1,0,0:0:0:0:
448,192,109174,1,0,0:0:0:0:
320,192,109174,1,0,0:0:0:0:
192,192,109241,1,0,0:0:0:0:
64,192,109307,1,0,0:0:0:0:
448,192,109307,1,0,0:0:0:0:
320,192,109351,1,0,0:0:0:0:
64,192,109440,1,0,0:0:0:0:
192,192,109506,1,0,0:0:0:0:
320,192,109573,1,0,0:0:0:0:
448,192,109573,1,0,0:0:0:0:
64,192,109617,1,0,0:0:0:0:
192,192,109661,1,0,0:0:0:0:
448,192,109727,1,0,0:0:0:0:
320,192,109794,1,0,0:0:0:0:
192,192,109838,1,0,0:0:0:0:
64,192,109838,1,0,0:0:0:0:
448,192,109904,1,0,0:0:0:0:
192,192,109971,1,0,0:0:0:0:
64,192,109971,1,0,0:0:0:0:
320,192,110037,1,0,0:0:0:0:
64,192,110104,1,0,0:0:0:0:
192,192,110104,1,0,0:0:0:0:
448,192,110170,1,0,0:0:0:0:
64,192,110236,1,0,0:0:0:0:
192,192,110236,1,0,0:0:0:0:
320,192,110303,1,0,0:0:0:0:
448,192,110369,1,0,0:0:0:0:
64,192,110369,1,0,0:0:0:0:
192,192,110413,1,0,0:0:0:0:
448,192,110502,1,0,0:0:0:0:
192,192,110546,1,0,0:0:0:0:
320,192,110590,1,0,0:0:0:0:
64,192,110634,1,0,0:0:0:0:
192,192,110679,1,0,0:0:0:0:
448,192,110723,1,0,0:0:0:0:
64,192,110767,1,0,0:0:0:0:
448,192,110811,1,0,0:0:0:0:
64,192,110856,1,0,0:0:0:0:
320,192,110900,1,0,0:0:0:0:
192,192,110900,1,0,0:0:0:0:
448,192,110966,1,0,0:0:0:0:
192,192,111011,1,0,0:0:0:0:
320,192,111055,1,0,0:0:0:0:
448,192,111099,1,0,0:0:0:0:
192,192,111165,1,0,0:0:0:0:
64,192,111165,1,0,0:0:0:0:
320,192,111210,1,0,0:0:0:0:
64,192,111254,1,0,0:0:0:0:
192,192,111298,1,0,0:0:0:0:
320,192,111365,1,0,0:0:0:0:
448,192,111431,1,0,0:0:0:0:
64,192,111431,1,0,0:0:0:0:
192,192,111475,1,0,0:0:0:0:
448,192,111519,1,0,0:0:0:0:
320,192,111564,1,0,0:0:0:0:
192,192,111630,1,0,0:0:0:0:
64,192,111696,1,0,0:0:0:0:
448,192,111696,1,0,0:0:0:0:
320,192,111741,1,0,0:0:0:0:
64,192,111785,1,0,0:0:0:0:
192,192,111829,1,0,0:0:0:0:
320,192,111896,1,0,0:0:0:0:
448,192,111962,1,0,0:0:0:0:
64,192,111962,1,0,0:0:0:0:
192,192,112028,1,0,0:0:0:0:
448,192,112095,1,0,0:0:0:0:
320,192,112095,1,0,0:0:0:0:
192,192,112161,1,0,0:0:0:0:
64,192,112227,1,0,0:0:0:0:
448,192,112227,1,0,0:0:0:0:
320,192,112294,1,0,0:0:0:0:
448,192,112360,1,0,0:0:0:0:
192,192,112404,1,0,0:0:0:0:
320,192,112449,1,0,0:0:0:0:
448,192,112493,1,0,0:0:0:0:
64,192,112493,1,0,0:0:0:0:
192,192,112559,1,0,0:0:0:0:
64,192,112626,1,0,0:0:0:0:
320,192,112626,1,0,0:0:0:0:
448,192,112692,1,0,0:0:0:0:
192,192,112758,1,0,0:0:0:0:
64,192,112758,1,0,0:0:0:0:
320,192,112825,1,0,0:0:0:0:
64,192,112891,1,0,0:0:0:0:
448,192,112891,1,0,0:0:0:0:
192,192,112958,1,0,0:0:0:0:
448,192,113024,1,0,0:0:0:0:
320,192,113024,1,0,0:0:0:0:
64,192,113024,1,0,0:0:0:0:
192,192,113112,1,0,0:0:0:0:
320,192,113157,1,0,0:0:0:0:
448,192,113201,1,0,0:0:0:0:
320,192,113289,1,0,0:0:0:0:
192,192,113289,1,0,0:0:0:0:
64,192,113289,1,0,0:0:0:0:
448,192,113378,1,0,0:0:0:0:
192,192,113422,1,0,0:0:0:0:
64,192,113466,1,0,0:0:0:0:
192,192,113555,1,0,0:0:0:0:
320,192,113555,1,0,0:0:0:0:
448,192,113555,1,0,0:0:0:0:
64,192,113643,1,0,0:0:0:0:
448,192,113688,1,0,0:0:0:0:
320,192,113732,1,0,0:0:0:0:
448,192,113820,1,0,0:0:0:0:
192,192,113820,1,0,0:0:0:0:
64,192,113820,1,0,0:0:0:0:
320,192,113909,1,0,0:0:0:0:
64,192,113953,1,0,0:0:0:0:
192,192,113997,1,0,0:0:0:0:
64,192,114086,1,0,0:0:0:0:
448,192,114086,1,0,0:0:0:0:
320,192,114130,1,0,0:0:0:0:
192,192,114174,1,0,0:0:0:0:
64,192,114219,1,0,0:0:0:0:
192,192,114285,1,0,0:0:0:0:
320,192,114351,1,0,0:0:0:0:
448,192,114351,1,0,0:0:0:0:
64,192,114418,1,0,0:0:0:0:
192,192,114484,1,0,0:0:0:0:
448,192,114484,1,0,0:0:0:0:
320,192,114550,1,0,0:0:0:0:
448,192,114617,1,0,0:0:0:0:
64,192,114617,1,0,0:0:0:0:
192,192,114683,1,0,0:0:0:0:
320,192,114727,1,0,0:0:0:0:
448,192,114772,1,0,0:0:0:0:
192,192,114838,1,0,0:0:0:0:
64,192,114882,1,0,0:0:0:0:
448,192,114882,1,0,0:0:0:0:
320,192,114949,1,0,0:0:0:0:
192,192,114993,1,0,0:0:0:0:
64,192,115037,1,0,0:0:0:0:
320,192,115104,1,0,0:0:0:0:
64,192,115148,1,0,0:0:0:0:
448,192,115148,1,0,0:0:0:0:
192,192,115192,1,0,0:0:0:0:
320,192,115236,1,0,0:0:0:0:
448,192,115281,1,0,0:0:0:0:
192,192,115325,1,0,0:0:0:0:
64,192,115369,1,0,0:0:0:0:
448,192,115413,1,0,0:0:0:0:
320,192,115480,1,0,0:0:0:0:
192,192,115546,1,0,0:0:0:0:
64,192,115590,1,0,0:0:0:0:
448,192,115590,1,0,0:0:0:0:
320,192,115634,1,0,0:0:0:0:
192,192,115679,1,0,0:0:0:0:
448,192,115723,1,0,0:0:0:0:
320,192,115767,1,0,0:0:0:0:
192,192,115811,1,0,0:0:0:0:
64,192,115811,1,0,0:0:0:0:
448,192,115878,1,0,0:0:0:0:
192,192,115944,1,0,0:0:0:0:
64,192,115944,1,0,0:0:0:0:
448,192,115988,1,0,0:0:0:0:
320,192,116033,1,0,0:0:0:0:
192,192,116099,1,0,0:0:0:0:
64,192,116165,1,0,0:0:0:0:
320,192,116210,1,0,0:0:0:0:
448,192,116210,1,0,0:0:0:0:
64,192,116276,1,0,0:0:0:0:
320,192,116342,1,0,0:0:0:0:
448,192,116342,1,0,0:0:0:0:
192,192,116409,1,0,0:0:0:0:
448,192,116475,1,0,0:0:0:0:
320,192,116475,1,0,0:0:0:0:
64,192,116542,1,0,0:0:0:0:
448,192,116608,1,0,0:0:0:0:
320,192,116608,1,0,0:0:0:0:
192,192,116674,1,0,0:0:0:0:
448,192,116741,1,0,0:0:0:0:
64,192,116741,1,0,0:0:0:0:
320,192,116785,1,0,0:0:0:0:
64,192,116873,1,0,0:0:0:0:
192,192,116940,1,0,0:0:0:0:
320,192,117006,1,0,0:0:0:0:
448,192,117006,1,0,0:0:0:0:
64,192,117050,1,0,0:0:0:0:
192,192,117095,1,0,0:0:0:0:
448,192,117161,1,0,0:0:0:0:
320,192,117227,1,0,0:0:0:0:
192,192,117272,1,0,0:0:0:0:
64,192,117272,1,0,0:0:0:0:
448,192,117338,1,0,0:0:0:0:
192,192,117404,1,0,0:0:0:0:
64,192,117404,1,0,0:0:0:0:
320,192,117471,1,0,0:0:0:0:
64,192,117537,1,0,0:0:0:0:
192,192,117537,1,0,0:0:0:0:
448,192,117604,1,0,0:0:0:0:
64,192,117670,1,0,0:0:0:0:
192,192,117670,1,0,0:0:0:0:
320,192,117736,1,0,0:0:0:0:
448,192,117803,1,0,0:0:0:0:
64,192,117803,1,0,0:0:0:0:
192,192,117847,1,0,0:0:0:0:
448,192,117935,1,0,0:0:0:0:
320,192,118002,1,0,0:0:0:0:
192,192,118068,1,0,0:0:0:0:
64,192,118068,1,0,0:0:0:0:
448,192,118112,1,0,0:0:0:0:
320,192,118157,1,0,0:0:0:0:
64,192,118223,1,0,0:0:0:0:
192,192,118289,1,0,0:0:0:0:
320,192,118334,1,0,0:0:0:0:
448,192,118334,1,0,0:0:0:0:
64,192,118400,1,0,0:0:0:0:
320,192,118466,1,0,0:0:0:0:
448,192,118466,1,0,0:0:0:0:
192,192,118533,1,0,0:0:0:0:
448,192,118599,1,0,0:0:0:0:
320,192,118599,1,0,0:0:0:0:
64,192,118665,1,0,0:0:0:0:
448,192,118732,1,0,0:0:0:0:
320,192,118732,1,0,0:0:0:0:
192,192,118798,1,0,0:0:0:0:
64,192,118865,1,0,0:0:0:0:
448,192,118865,1,0,0:0:0:0:
320,192,118909,1,0,0:0:0:0:
64,192,118997,1,0,0:0:0:0:
192,192,118997,1,0,0:0:0:0:
320,192,119064,1,0,0:0:0:0:
448,192,119130,1,0,0:0:0:0:
64,192,119174,1,0,0:0:0:0:
448,192,119219,1,0,0:0:0:0:
320,192,119263,1,0,0:0:0:0:
64,192,119307,1,0,0:0:0:0:
192,192,119351,1,0,0:0:0:0:
448,192,119396,1,0,0:0:0:0:
320,192,119396,1,0,0:0:0:0:
192,192,119484,1,0,0:0:0:0:
64,192,119528,1,0,0:0:0:0:
320,192,119528,1,0,0:0:0:0:
448,192,119573,1,0,0:0:0:0:
192,192,119661,1,0,0:0:0:0:
64,192,119661,1,0,0:0:0:0:
320,192,119750,1,0,0:0:0:0:
448,192,119794,1,0,0:0:0:0:
192,192,119794,1,0,0:0:0:0:
64,192,119838,1,0,0:0:0:0:
448,192,119927,1,0,0:0:0:0:
320,192,119927,1,0,0:0:0:0:
192,192,119971,1,0,0:0:0:0:
64,192,120015,1,0,0:0:0:0:
320,192,120059,1,0,0:0:0:0:
192,192,120126,1,0,0:0:0:0:
448,192,120192,1,0,0:0:0:0:
64,192,120192,1,0,0:0:0:0:
192,192,120236,1,0,0:0:0:0:
320,192,120281,1,0,0:0:0:0:
448,192,120325,1,0,0:0:0:0:
192,192,120391,1,0,0:0:0:0:
64,192,120458,1,0,0:0:0:0:
448,192,120458,1,0,0:0:0:0:
320,192,120502,1,0,0:0:0:0:
192,192,120546,1,0,0:0:0:0:
64,192,120590,1,0,0:0:0:0:
320,192,120657,1,0,0:0:0:0:
64,192,120723,1,0,0:0:0:0:
448,192,120723,1,0,0:0:0:0:
320,192,120789,1,0,0:0:0:0:
192,192,120856,1,0,0:0:0:0:
64,192,120856,1,0,0:0:0:0:
320,192,120922,1,0,0:0:0:0:
448,192,120988,1,0,0:0:0:0:
64,192,120988,1,0,0:0:0:0:
192,192,121033,1,0,0:0:0:0:
320,192,121077,1,0,0:0:0:0:
448,192,121121,1,0,0:0:0:0:
192,192,121188,1,0,0:0:0:0:
320,192,121254,1,0,0:0:0:0:
448,192,121254,1,0,0:0:0:0:
64,192,121320,1,0,0:0:0:0:
192,192,121387,1,0,0:0:0:0:
448,192,121387,1,0,0:0:0:0:
320,192,121453,1,0,0:0:0:0:
64,192,121519,1,0,0:0:0:0:
448,192,121519,1,0,0:0:0:0:
192,192,121519,1,0,0:0:0:0:
320,192,121586,1,0,0:0:0:0:
64,192,121652,1,0,0:0:0:0:
192,192,121652,1,0,0:0:0:0:
320,192,121719,1,0,0:0:0:0:
448,192,121785,1,0,0:0:0:0:
64,192,121785,1,0,0:0:0:0:
192,192,121851,1,0,0:0:0:0:
64,192,121918,1,0,0:0:0:0:
320,192,121962,1,0,0:0:0:0:
192,192,122006,1,0,0:0:0:0:
64,192,122050,1,0,0:0:0:0:
448,192,122050,1,0,0:0:0:0:
320,192,122117,1,0,0:0:0:0:
448,192,122183,1,0,0:0:0:0:
192,192,122183,1,0,0:0:0:0:
64,192,122250,1,0,0:0:0:0:
320,192,122316,1,0,0:0:0:0:
448,192,122316,1,0,0:0:0:0:
192,192,122382,1,0,0:0:0:0:
64,192,122449,1,0,0:0:0:0:
320,192,122515,1,0,0:0:0:0:
64,192,122581,1,0,0:0:0:0:
448,192,122581,1,0,0:0:0:0:
192,192,122615,1,0,0:0:0:0:
320,192,122648,1,0,0:0:0:0:
64,192,122714,1,0,0:0:0:0:
192,192,122781,1,0,0:0:0:0:
448,192,122847,1,0,0:0:0:0:
64,192,122847,1,0,0:0:0:0:
320,192,122880,1,0,0:0:0:0:
192,192,122913,1,0,0:0:0:0:
448,192,122980,1,0,0:0:0:0:
320,192,123046,1,0,0:0:0:0:
64,192,123112,1,0,0:0:0:0:
448,192,123112,1,0,0:0:0:0:
192,192,123146,1,0,0:0:0:0:
320,192,123179,1,0,0:0:0:0:
64,192,123245,1,0,0:0:0:0:
192,192,123311,1,0,0:0:0:0:
64,192,123378,1,0,0:0:0:0:
448,192,123378,1,0,0:0:0:0:
320,192,123411,1,0,0:0:0:0:
192,192,123444,1,0,0:0:0:0:
448,192,123511,1,0,0:0:0:0:
320,192,123643,1,0,0:0:0:0:
448,192,123643,1,0,0:0:0:0:
192,192,123643,1,0,0:0:0:0:
64,192,123643,1,0,0:0:0:0:
320,192,123776,1,0,0:0:0:0:
192,192,123776,1,0,0:0:0:0:
64,192,123776,1,0,0:0:0:0:
64,192,123909,1,0,0:0:0:0:
192,192,123909,1,0,0:0:0:0:
64,192,124042,1,0,0:0:0:0:
320,192,124042,1,0,0:0:0:0:
448,192,124042,1,0,0:0:0:0:
192,192,124042,1,0,0:0:0:0:
448,192,124174,1,0,0:0:0:0:
320,192,124174,1,0,0:0:0:0:
192,192,124174,1,0,0:0:0:0:
448,192,124307,1,0,0:0:0:0:
320,192,124307,1,0,0:0:0:0:
448,192,124440,1,0,0:0:0:0:
192,192,124440,1,0,0:0:0:0:
64,192,124440,1,0,0:0:0:0:
320,192,124440,1,0,0:0:0:0:
320,192,124573,1,0,0:0:0:0:
192,192,124573,1,0,0:0:0:0:
64,192,124573,1,0,0:0:0:0:
64,192,124705,1,0,0:0:0:0:
192,192,124705,1,0,0:0:0:0:
64,192,124838,1,0,0:0:0:0:
320,192,124838,1,0,0:0:0:0:
448,192,124838,1,0,0:0:0:0:
192,192,124838,1,0,0:0:0:0:
448,192,124971,1,0,0:0:0:0:
320,192,124971,1,0,0:0:0:0:
192,192,124971,1,0,0:0:0:0:
448,192,125104,1,0,0:0:0:0:
320,192,125104,1,0,0:0:0:0:
448,192,125236,1,0,0:0:0:0:
320,192,125236,1,0,0:0:0:0:
192,192,125236,1,0,0:0:0:0:
64,192,125236,1,0,0:0:0:0:
64,192,125369,1,0,0:0:0:0:
448,192,125369,1,0,0:0:0:0:
192,192,125369,1,0,0:0:0:0:
320,192,125369,1,0,0:0:0:0:
192,192,125502,1,0,0:0:0:0:
320,192,125502,1,0,0:0:0:0:
64,192,125502,1,0,0:0:0:0:
448,192,125502,1,0,0:0:0:0:
320,192,125634,1,0,0:0:0:0:
192,192,125634,1,0,0:0:0:0:
64,192,125767,1,0,0:0:0:0:
192,192,125767,1,0,0:0:0:0:
448,192,125767,1,0,0:0:0:0:
320,192,125767,1,0,0:0:0:0:
64,192,125900,1,0,0:0:0:0:
192,192,125900,1,0,0:0:0:0:
320,192,125900,1,0,0:0:0:0:
192,192,126033,1,0,0:0:0:0:
64,192,126033,1,0,0:0:0:0:
448,192,126165,1,0,0:0:0:0:
320,192,126165,1,0,0:0:0:0:
64,192,126165,1,0,0:0:0:0:
192,192,126165,1,0,0:0:0:0:
192,192,126298,1,0,0:0:0:0:
320,192,126298,1,0,0:0:0:0:
448,192,126298,1,0,0:0:0:0:
320,192,126431,1,0,0:0:0:0:
448,192,126431,1,0,0:0:0:0:
448,192,126564,1,0,0:0:0:0:
192,192,126564,1,0,0:0:0:0:
64,192,126564,1,0,0:0:0:0:
320,192,126564,1,0,0:0:0:0:
320,192,126696,1,0,0:0:0:0:
192,192,126696,1,0,0:0:0:0:
64,192,126696,1,0,0:0:0:0:
64,192,126829,1,0,0:0:0:0:
192,192,126829,1,0,0:0:0:0:
64,192,126962,1,0,0:0:0:0:
320,192,126962,1,0,0:0:0:0:
448,192,126962,1,0,0:0:0:0:
192,192,126962,1,0,0:0:0:0:
448,192,127095,1,0,0:0:0:0:
320,192,127095,1,0,0:0:0:0:
192,192,127095,1,0,0:0:0:0:
448,192,127227,1,0,0:0:0:0:
320,192,127227,1,0,0:0:0:0:
64,192,127360,1,0,0:0:0:0:
192,192,127360,1,0,0:0:0:0:
448,192,127360,1,0,0:0:0:0:
320,192,127360,1,0,0:0:0:0:
192,192,127493,1,0,0:0:0:0:
64,192,127493,1,0,0:0:0:0:
320,192,127626,1,0,0:0:0:0:
192,192,127626,1,0,0:0:0:0:
448,192,127758,1,0,0:0:0:0:
320,192,127758,1,0,0:0:0:0:
192,192,127891,1,0,0:0:0:0:
448,192,127891,1,0,0:0:0:0:
64,192,127891,1,0,0:0:0:0:
320,192,127958,1,0,0:0:0:0:
64,192,128002,1,0,0:0:0:0:
448,192,128046,1,0,0:0:0:0:
192,192,128157,1,0,0:0:0:0:
320,192,128179,1,0,0:0:0:0:
448,192,128201,1,0,0:0:0:0:
320,192,128289,1,0,0:0:0:0:
192,192,128311,1,0,0:0:0:0:
64,192,128334,1,0,0:0:0:0:
320,192,128688,1,0,0:0:0:0:
64,192,128688,1,0,0:0:0:0:
448,192,128688,1,0,0:0:0:0:
192,192,128754,1,0,0:0:0:0:
448,192,128798,1,0,0:0:0:0:
64,192,128842,1,0,0:0:0:0:
320,192,128953,1,0,0:0:0:0:
192,192,128975,1,0,0:0:0:0:
64,192,128997,1,0,0:0:0:0:
192,192,129086,1,0,0:0:0:0:
320,192,129108,1,0,0:0:0:0:
448,192,129130,1,0,0:0:0:0:
64,192,129484,1,0,0:0:0:0:
448,192,129484,1,0,0:0:0:0:
192,192,129506,1,0,0:0:0:0:
320,192,129528,1,0,0:0:0:0:
448,192,129750,1,0,0:0:0:0:
320,192,129772,1,0,0:0:0:0:
192,192,129794,1,0,0:0:0:0:
64,192,129816,1,0,0:0:0:0:
64,192,130015,1,0,0:0:0:0:
448,192,130015,1,0,0:0:0:0:
192,192,130015,1,0,0:0:0:0:
320,192,130081,1,0,0:0:0:0:
64,192,130126,1,0,0:0:0:0:
448,192,130170,1,0,0:0:0:0:
192,192,130281,1,0,0:0:0:0:
320,192,130303,1,0,0:0:0:0:
448,192,130325,1,0,0:0:0:0:
320,192,130413,1,0,0:0:0:0:
192,192,130435,1,0,0:0:0:0:
64,192,130458,1,0,0:0:0:0:
448,192,130480,1,0,0:0:0:0:
448,192,130811,1,0,0:0:0:0:
64,192,130811,1,0,0:0:0:0:
320,192,130811,1,0,0:0:0:0:
192,192,130878,1,0,0:0:0:0:
448,192,130922,1,0,0:0:0:0:
64,192,130966,1,0,0:0:0:0:
320,192,131077,1,0,0:0:0:0:
192,192,131099,1,0,0:0:0:0:
64,192,131121,1,0,0:0:0:0:
192,192,131210,1,0,0:0:0:0:
320,192,131232,1,0,0:0:0:0:
448,192,131254,1,0,0:0:0:0:
64,192,131342,1,0,0:0:0:0:
192,192,131475,1,0,0:0:0:0:
448,192,131608,1,0,0:0:0:0:
64,192,131608,1,0,0:0:0:0:
192,192,131652,1,0,0:0:0:0:
320,192,131696,1,0,0:0:0:0:
448,192,131741,1,0,0:0:0:0:
192,192,131785,1,0,0:0:0:0:
320,192,131829,1,0,0:0:0:0:
64,192,131873,1,0,0:0:0:0:
192,192,131918,1,0,0:0:0:0:
320,192,131962,1,0,0:0:0:0:
448,192,132006,1,0,0:0:0:0:
192,192,132139,1,0,0:0:0:0:
448,192,132139,1,0,0:0:0:0:
64,192,132139,1,0,0:0:0:0:
320,192,132205,1,0,0:0:0:0:
64,192,132250,1,0,0:0:0:0:
448,192,132294,1,0,0:0:0:0:
192,192,132404,1,0,0:0:0:0:
320,192,132427,1,0,0:0:0:0:
448,192,132449,1,0,0:0:0:0:
320,192,132537,1,0,0:0:0:0:
192,192,132559,1,0,0:0:0:0:
64,192,132581,1,0,0:0:0:0:
320,192,132935,1,0,0:0:0:0:
64,192,132935,1,0,0:0:0:0:
448,192,132935,1,0,0:0:0:0:
192,192,133002,1,0,0:0:0:0:
448,192,133046,1,0,0:0:0:0:
64,192,133090,1,0,0:0:0:0:
320,192,133201,1,0,0:0:0:0:
192,192,133223,1,0,0:0:0:0:
64,192,133245,1,0,0:0:0:0:
192,192,133334,1,0,0:0:0:0:
320,192,133356,1,0,0:0:0:0:
448,192,133378,1,0,0:0:0:0:
64,192,133732,1,0,0:0:0:0:
448,192,133732,1,0,0:0:0:0:
192,192,133754,1,0,0:0:0:0:
320,192,133776,1,0,0:0:0:0:
448,192,133997,1,0,0:0:0:0:
320,192,134019,1,0,0:0:0:0:
192,192,134042,1,0,0:0:0:0:
64,192,134064,1,0,0:0:0:0:
64,192,134263,1,0,0:0:0:0:
448,192,134263,1,0,0:0:0:0:
192,192,134263,1,0,0:0:0:0:
320,192,134329,1,0,0:0:0:0:
64,192,134373,1,0,0:0:0:0:
448,192,134418,1,0,0:0:0:0:
192,192,134528,1,0,0:0:0:0:
320,192,134550,1,0,0:0:0:0:
448,192,134573,1,0,0:0:0:0:
320,192,134661,1,0,0:0:0:0:
192,192,134683,1,0,0:0:0:0:
64,192,134705,1,0,0:0:0:0:
448,192,134727,1,0,0:0:0:0:
64,192,134927,1,0,0:0:0:0:
448,192,134927,1,0,0:0:0:0:
192,192,134949,1,0,0:0:0:0:
320,192,134971,1,0,0:0:0:0:
448,192,135192,1,0,0:0:0:0:
64,192,135192,1,0,0:0:0:0:
320,192,135192,1,0,0:0:0:0:
192,192,135258,1,0,0:0:0:0:
448,192,135303,1,0,0:0:0:0:
64,192,135347,1,0,0:0:0:0:
320,192,135458,1,0,0:0:0:0:
192,192,135480,1,0,0:0:0:0:
64,192,135502,1,0,0:0:0:0:
192,192,135590,1,0,0:0:0:0:
320,192,135612,1,0,0:0:0:0:
448,192,135634,1,0,0:0:0:0:
64,192,135723,1,0,0:0:0:0:
448,192,135856,1,0,0:0:0:0:
64,192,135856,1,0,0:0:0:0:
192,192,135900,1,0,0:0:0:0:
320,192,135944,1,0,0:0:0:0:
448,192,135988,1,0,0:0:0:0:
192,192,136033,1,0,0:0:0:0:
320,192,136077,1,0,0:0:0:0:
64,192,136121,1,0,0:0:0:0:
192,192,136165,1,0,0:0:0:0:
320,192,136210,1,0,0:0:0:0:
448,192,136254,1,0,0:0:0:0:
192,192,136298,1,0,0:0:0:0:
320,192,136342,1,0,0:0:0:0:
64,192,136387,1,0,0:0:0:0:
448,192,136387,1,0,0:0:0:0:
