osu file format v14

[General]
AudioFilename: audio.mp3
AudioLeadIn: 0
PreviewTime: 106652
Countdown: 0
SampleSet: Normal
StackLeniency: 0.7
Mode: 3
LetterboxInBreaks: 0
SpecialStyle: 0
WidescreenStoryboard: 0

[Editor]
Bookmarks: 17449,34440,55679,72670,89661,102404,106652,127891,136387,157626,166121,185236,193732,202227,219219,236210,257449,280811,308422
DistanceSpacing: 1.7
BeatDivisor: 12
GridSize: 4
TimelineZoom: 3.499999

[Metadata]
Title:Happppy song
TitleUnicode:Happppy song
Artist:SOOOO
ArtistUnicode:SOOOO
Creator:[GB]V1do
Version:bLessiNg to this world.
Source:
Tags:vocaloid producer kagamine len 鏡音レン
BeatmapID:4530495
BeatmapSetID:2150406

[Difficulty]
HPDrainRate:8
CircleSize:4
OverallDifficulty:7
ApproachRate:5
SliderMultiplier:1.4
SliderTickRate:1

[Events]
//Background and Video events
0,0,"aw-she-cute.png",0,0
//Break Periods
2,257715,264744
//Storyboard Layer 0 (Background)
//Storyboard Layer 1 (Fail)
//Storyboard Layer 2 (Pass)
//Storyboard Layer 3 (Foreground)
//Storyboard Layer 4 (Overlay)
//Storyboard Sound Samples

[TimingPoints]
458,265.486725663717,4,1,0,0,1,0
34440,-100,4,1,0,0,0,1
51365,-100,4,1,0,0,0,0
51431,-100,4,1,0,0,0,1
51763,-100,4,1,0,0,0,0
51829,-100,4,1,0,0,0,1
52161,-100,4,1,0,0,0,0
52227,-100,4,1,0,0,0,1
52559,-100,4,1,0,0,0,0
52626,-100,4,1,0,0,0,1
52958,-100,4,1,0,0,0,0
53024,-100,4,1,0,0,0,1
53488,-100,4,1,0,0,0,0
53555,-100,4,1,0,0,0,1
53887,-100,4,1,0,0,0,0
53953,-100,4,1,0,0,0,1
54285,-100,4,1,0,0,0,0
54351,-100,4,1,0,0,0,1
54683,-100,4,1,0,0,0,0
54750,-100,4,1,0,0,0,1
55081,-100,4,1,0,0,0,0
55148,-100,4,1,0,0,0,1
55679,-100,4,1,0,0,0,0
106652,-100,4,1,0,0,0,1
123577,-100,4,1,0,0,0,0
123643,-100,4,1,0,0,0,1
123975,-100,4,1,0,0,0,0
124042,-100,4,1,0,0,0,1
124373,-100,4,1,0,0,0,0
124440,-100,4,1,0,0,0,1
124772,-100,4,1,0,0,0,0
124838,-100,4,1,0,0,0,1
125170,-100,4,1,0,0,0,0
125236,-100,4,1,0,0,0,1
125701,-100,4,1,0,0,0,0
125767,-100,4,1,0,0,0,1
126099,-100,4,1,0,0,0,0
126165,-100,4,1,0,0,0,1
126497,-100,4,1,0,0,0,0
126564,-100,4,1,0,0,0,1
126896,-100,4,1,0,0,0,0
126962,-100,4,1,0,0,0,1
127294,-100,4,1,0,0,0,0
127360,-100,4,1,0,0,0,1
127891,-100,4,1,0,0,0,0
282935,-100,4,1,0,0,0,1
299860,-100,4,1,0,0,0,0
299927,-100,4,1,0,0,0,1
300258,-100,4,1,0,0,0,0
300325,-100,4,1,0,0,0,1
300657,-100,4,1,0,0,0,0
300723,-100,4,1,0,0,0,1
301055,-100,4,1,0,0,0,0
301121,-100,4,1,0,0,0,1
301453,-100,4,1,0,0,0,0
301519,-100,4,1,0,0,0,1
301984,-100,4,1,0,0,0,0
302050,-100,4,1,0,0,0,1
302382,-100,4,1,0,0,0,0
302449,-100,4,1,0,0,0,1
302781,-100,4,1,0,0,0,0
302847,-100,4,1,0,0,0,1
303179,-100,4,1,0,0,0,0
303245,-100,4,1,0,0,0,1
303577,-100,4,1,0,0,0,0
303643,-100,4,1,0,0,0,1
304108,-100,4,1,0,0,0,0
304174,-100,4,1,0,0,0,1
304506,-100,4,1,0,0,0,0
304573,-100,4,1,0,0,0,1
304904,-100,4,1,0,0,0,0
304971,-100,4,1,0,0,0,1
305303,-100,4,1,0,0,0,0
305369,-100,4,1,0,0,0,1
305701,-100,4,1,0,0,0,0
305767,-100,4,1,0,0,0,1
306232,-100,4,1,0,0,0,0
306298,-100,4,1,0,0,0,1
306630,-100,4,1,0,0,0,0
306696,-100,4,1,0,0,0,1
307028,-100,4,1,0,0,0,0
307095,-100,4,1,0,0,0,1
307427,-100,4,1,0,0,0,0
307493,-100,4,1,0,0,0,1
307825,-100,4,1,0,0,0,0
307891,-100,4,1,0,0,0,1
308422,-100,4,1,0,0,0,0

[HitObjects]
64,192,17183,128,0,17250:0:0:0:0:
192,192,17316,128,0,17382:0:0:0:0:
320,192,17449,128,0,17714:0:0:0:0:
64,192,17449,128,0,17648:0:0:0:0:
448,192,17449,128,0,17847:0:0:0:0:
192,192,17581,128,0,17648:0:0:0:0:
192,192,17714,128,0,17847:0:0:0:0:
64,192,17714,128,0,17781:0:0:0:0:
64,192,17847,128,0,18046:0:0:0:0:
192,192,17913,128,0,17980:0:0:0:0:
448,192,17980,128,0,18179:0:0:0:0:
320,192,17980,128,0,18112:0:0:0:0:
192,192,18112,128,0,18444:0:0:0:0:
320,192,18179,128,0,18378:0:0:0:0:
64,192,18245,128,0,18311:0:0:0:0:
448,192,18245,128,0,18511:0:0:0:0:
64,192,18378,128,0,18444:0:0:0:0:
192,192,18511,128,0,18577:0:0:0:0:
320,192,18511,128,0,18577:0:0:0:0:
192,192,18643,128,0,18710:0:0:0:0:
320,192,18776,128,0,18842:0:0:0:0:
64,192,18776,128,0,19241:0:0:0:0:
320,192,18909,128,0,18975:0:0:0:0:
448,192,19042,128,0,19108:0:0:0:0:
192,192,19042,128,0,19241:0:0:0:0:
448,192,19174,128,0,19241:0:0:0:0:
320,192,19241,128,0,19440:0:0:0:0:
64,192,19307,128,0,19440:0:0:0:0:
192,192,19307,128,0,19373:0:0:0:0:
192,192,19440,128,0,19506:0:0:0:0:
448,192,19573,128,0,19772:0:0:0:0:
64,192,19573,128,0,19639:0:0:0:0:
320,192,19617,128,0,19683:0:0:0:0:
192,192,19661,128,0,19727:0:0:0:0:
64,192,19705,128,0,19816:0:0:0:0:
320,192,19750,128,0,19904:0:0:0:0:
192,192,19794,128,0,19860:0:0:0:0:
448,192,19838,128,0,19949:0:0:0:0:
64,192,19882,128,0,19993:0:0:0:0:
192,192,19927,128,0,20037:0:0:0:0:
320,192,19971,128,0,20081:0:0:0:0:
448,192,20015,128,0,20170:0:0:0:0:
64,192,20059,128,0,20126:0:0:0:0:
192,192,20104,128,0,20258:0:0:0:0:
320,192,20148,128,0,20214:0:0:0:0:
64,192,20192,128,0,20303:0:0:0:0:
448,192,20236,128,0,20347:0:0:0:0:
320,192,20281,128,0,20435:0:0:0:0:
192,192,20325,128,0,20391:0:0:0:0:
64,192,20369,128,0,20524:0:0:0:0:
448,192,20413,128,0,20480:0:0:0:0:
192,192,20458,128,0,20568:0:0:0:0:
320,192,20502,128,0,20612:0:0:0:0:
448,192,20546,128,0,20701:0:0:0:0:
64,192,20590,128,0,20657:0:0:0:0:
192,192,20634,128,0,20789:0:0:0:0:
320,192,20679,128,0,20745:0:0:0:0:
64,192,20723,128,0,20834:0:0:0:0:
448,192,20767,128,0,20878:0:0:0:0:
320,192,20811,128,0,20922:0:0:0:0:
192,192,20856,128,0,20966:0:0:0:0:
64,192,20900,128,0,21011:0:0:0:0:
448,192,20944,128,0,21055:0:0:0:0:
320,192,20988,128,0,21143:0:0:0:0:
192,192,21033,128,0,21099:0:0:0:0:
64,192,21077,128,0,21232:0:0:0:0:
448,192,21121,128,0,21188:0:0:0:0:
192,192,21165,128,0,21276:0:0:0:0:
320,192,21210,128,0,21320:0:0:0:0:
448,192,21254,128,0,21365:0:0:0:0:
64,192,21298,128,0,21453:0:0:0:0:
192,192,21342,128,0,21409:0:0:0:0:
320,192,21387,128,0,21542:0:0:0:0:
448,192,21431,128,0,21497:0:0:0:0:
192,192,21475,128,0,21586:0:0:0:0:
64,192,21519,128,0,21630:0:0:0:0:
448,192,21564,128,0,21630:0:0:0:0:
320,192,21608,128,0,21696:0:0:0:0:
192,192,21696,128,0,21962:0:0:0:0:
448,192,21696,128,0,21896:0:0:0:0:
64,192,21696,128,0,22095:0:0:0:0:
320,192,21829,128,0,21896:0:0:0:0:
320,192,21962,128,0,22095:0:0:0:0:
448,192,21962,128,0,22028:0:0:0:0:
448,192,22095,128,0,22294:0:0:0:0:
320,192,22161,128,0,22227:0:0:0:0:
64,192,22227,128,0,22427:0:0:0:0:
192,192,22227,128,0,22360:0:0:0:0:
320,192,22360,128,0,22692:0:0:0:0:
192,192,22427,128,0,22626:0:0:0:0:
448,192,22493,128,0,22559:0:0:0:0:
64,192,22493,128,0,22758:0:0:0:0:
448,192,22626,128,0,22692:0:0:0:0:
320,192,22758,128,0,22825:0:0:0:0:
192,192,22758,128,0,22825:0:0:0:0:
320,192,22891,128,0,22958:0:0:0:0:
192,192,23024,128,0,23090:0:0:0:0:
448,192,23024,128,0,23488:0:0:0:0:
192,192,23157,128,0,23223:0:0:0:0:
64,192,23289,128,0,23356:0:0:0:0:
320,192,23289,128,0,23488:0:0:0:0:
64,192,23422,128,0,23488:0:0:0:0:
192,192,23488,128,0,23688:0:0:0:0:
448,192,23555,128,0,23688:0:0:0:0:
320,192,23555,128,0,23621:0:0:0:0:
320,192,23688,128,0,23754:0:0:0:0:
64,192,23820,128,0,23873:0:0:0:0:
448,192,23820,128,0,23927:0:0:0:0:
320,192,23873,128,0,23980:0:0:0:0:
64,192,23927,128,0,24033:0:0:0:0:
192,192,23980,128,0,24086:0:0:0:0:
320,192,24033,128,0,24139:0:0:0:0:
448,192,24086,128,0,24139:0:0:0:0:
192,192,24139,128,0,24192:0:0:0:0:
448,192,24192,128,0,24298:0:0:0:0:
192,192,24245,128,0,24351:0:0:0:0:
320,192,24298,128,0,24458:0:0:0:0:
448,192,24351,128,0,24404:0:0:0:0:
64,192,24351,128,0,24564:0:0:0:0:
192,192,24404,128,0,24511:0:0:0:0:
448,192,24458,128,0,24564:0:0:0:0:
320,192,24511,128,0,24617:0:0:0:0:
192,192,24564,128,0,24670:0:0:0:0:
64,192,24617,128,0,24670:0:0:0:0:
320,192,24670,128,0,24723:0:0:0:0:
64,192,24723,128,0,24776:0:0:0:0:
320,192,24776,128,0,24829:0:0:0:0:
192,192,24829,128,0,24988:0:0:0:0:
64,192,24882,128,0,24935:0:0:0:0:
448,192,24882,128,0,24988:0:0:0:0:
320,192,24935,128,0,25042:0:0:0:0:
64,192,24988,128,0,25095:0:0:0:0:
192,192,25042,128,0,25148:0:0:0:0:
320,192,25095,128,0,25201:0:0:0:0:
448,192,25148,128,0,25254:0:0:0:0:
192,192,25201,128,0,25254:0:0:0:0:
320,192,25254,128,0,25307:0:0:0:0:
192,192,25307,128,0,25413:0:0:0:0:
320,192,25360,128,0,25519:0:0:0:0:
448,192,25413,128,0,25466:0:0:0:0:
64,192,25413,128,0,25519:0:0:0:0:
192,192,25466,128,0,25573:0:0:0:0:
448,192,25519,128,0,25626:0:0:0:0:
320,192,25573,128,0,25679:0:0:0:0:
192,192,25626,128,0,25732:0:0:0:0:
64,192,25679,128,0,25732:0:0:0:0:
448,192,25732,128,0,25785:0:0:0:0:
64,192,25785,128,0,25891:0:0:0:0:
448,192,25838,128,0,25891:0:0:0:0:
192,192,25891,128,0,25944:0:0:0:0:
320,192,25944,128,0,26210:0:0:0:0:
64,192,25944,128,0,26143:0:0:0:0:
448,192,25944,128,0,26342:0:0:0:0:
192,192,26210,128,0,26342:0:0:0:0:
64,192,26210,128,0,26276:0:0:0:0:
64,192,26342,128,0,26542:0:0:0:0:
192,192,26409,128,0,26475:0:0:0:0:
448,192,26475,128,0,26674:0:0:0:0:
320,192,26475,128,0,26608:0:0:0:0:
192,192,26608,128,0,26940:0:0:0:0:
320,192,26674,128,0,26873:0:0:0:0:
64,192,26741,128,0,26807:0:0:0:0:
448,192,26741,128,0,27006:0:0:0:0:
64,192,26873,128,0,26940:0:0:0:0:
192,192,27006,128,0,27073:0:0:0:0:
320,192,27006,128,0,27073:0:0:0:0:
192,192,27139,128,0,27205:0:0:0:0:
320,192,27272,128,0,27338:0:0:0:0:
64,192,27272,128,0,27471:0:0:0:0:
320,192,27404,128,0,27471:0:0:0:0:
448,192,27537,128,0,27604:0:0:0:0:
64,192,27537,128,0,27736:0:0:0:0:
192,192,27581,128,0,27736:0:0:0:0:
320,192,27626,128,0,27670:0:0:0:0:
448,192,27670,128,0,27736:0:0:0:0:
320,192,27736,128,0,27935:0:0:0:0:
64,192,27803,128,0,27935:0:0:0:0:
192,192,27803,128,0,27869:0:0:0:0:
192,192,27935,128,0,28002:0:0:0:0:
64,192,28068,128,0,28179:0:0:0:0:
448,192,28068,128,0,28134:0:0:0:0:
320,192,28112,128,0,28245:0:0:0:0:
192,192,28157,128,0,28201:0:0:0:0:
448,192,28201,128,0,28289:0:0:0:0:
192,192,28245,128,0,28422:0:0:0:0:
64,192,28245,128,0,28311:0:0:0:0:
320,192,28311,128,0,28378:0:0:0:0:
64,192,28378,128,0,28488:0:0:0:0:
448,192,28422,128,0,28555:0:0:0:0:
320,192,28444,128,0,28511:0:0:0:0:
192,192,28488,128,0,28599:0:0:0:0:
64,192,28555,128,0,28621:0:0:0:0:
320,192,28577,128,0,28688:0:0:0:0:
448,192,28643,128,0,28754:0:0:0:0:
192,192,28688,128,0,28754:0:0:0:0:
64,192,28688,128,0,28820:0:0:0:0:
320,192,28754,128,0,28865:0:0:0:0:
448,192,28820,128,0,28887:0:0:0:0:
192,192,28820,128,0,28931:0:0:0:0:
64,192,28887,128,0,28997:0:0:0:0:
320,192,28953,128,0,28997:0:0:0:0:
448,192,28953,128,0,29042:0:0:0:0:
192,192,28997,128,0,29108:0:0:0:0:
64,192,29064,128,0,29108:0:0:0:0:
320,192,29064,128,0,29196:0:0:0:0:
448,192,29130,128,0,29196:0:0:0:0:
192,192,29174,128,0,29263:0:0:0:0:
64,192,29174,128,0,29329:0:0:0:0:
320,192,29263,128,0,29418:0:0:0:0:
448,192,29263,128,0,29329:0:0:0:0:
192,192,29329,128,0,29373:0:0:0:0:
448,192,29396,128,0,29462:0:0:0:0:
64,192,29396,128,0,29639:0:0:0:0:
192,192,29440,128,0,29506:0:0:0:0:
320,192,29484,128,0,29550:0:0:0:0:
448,192,29528,128,0,29595:0:0:0:0:
192,192,29573,128,0,29683:0:0:0:0:
320,192,29617,128,0,29727:0:0:0:0:
448,192,29661,128,0,29904:0:0:0:0:
64,192,29705,128,0,29772:0:0:0:0:
192,192,29750,128,0,29816:0:0:0:0:
320,192,29794,128,0,29860:0:0:0:0:
64,192,29838,128,0,29949:0:0:0:0:
192,192,29882,128,0,29993:0:0:0:0:
320,192,29927,128,0,30037:0:0:0:0:
448,192,29971,128,0,30081:0:0:0:0:
64,192,30015,128,0,30126:0:0:0:0:
192,192,30059,128,0,30126:0:0:0:0:
320,192,30104,128,0,30192:0:0:0:0:
192,192,30192,128,0,30458:0:0:0:0:
448,192,30192,128,0,30391:0:0:0:0:
64,192,30192,128,0,30590:0:0:0:0:
320,192,30458,128,0,30590:0:0:0:0:
448,192,30458,128,0,30524:0:0:0:0:
448,192,30590,128,0,30789:0:0:0:0:
320,192,30657,128,0,30723:0:0:0:0:
64,192,30723,128,0,30922:0:0:0:0:
192,192,30723,128,0,30856:0:0:0:0:
320,192,30856,128,0,31188:0:0:0:0:
192,192,30922,128,0,31121:0:0:0:0:
448,192,30988,128,0,31055:0:0:0:0:
64,192,30988,128,0,31254:0:0:0:0:
448,192,31121,128,0,31188:0:0:0:0:
320,192,31254,128,0,31320:0:0:0:0:
192,192,31254,128,0,31320:0:0:0:0:
320,192,31387,128,0,31453:0:0:0:0:
192,192,31519,128,0,31586:0:0:0:0:
448,192,31519,128,0,31984:0:0:0:0:
192,192,31652,128,0,31719:0:0:0:0:
64,192,31785,128,0,31851:0:0:0:0:
320,192,31785,128,0,31984:0:0:0:0:
64,192,31918,128,0,31984:0:0:0:0:
192,192,31984,128,0,32183:0:0:0:0:
448,192,32050,128,0,32183:0:0:0:0:
320,192,32050,128,0,32117:0:0:0:0:
320,192,32183,128,0,32250:0:0:0:0:
64,192,32316,128,0,32515:0:0:0:0:
448,192,32316,128,0,32382:0:0:0:0:
192,192,32360,128,0,32449:0:0:0:0:
320,192,32404,128,0,32559:0:0:0:0:
448,192,32449,128,0,32515:0:0:0:0:
192,192,32515,128,0,32604:0:0:0:0:
64,192,32581,128,0,32648:0:0:0:0:
448,192,32581,128,0,32781:0:0:0:0:
320,192,32626,128,0,32714:0:0:0:0:
192,192,32670,128,0,32825:0:0:0:0:
64,192,32714,128,0,32781:0:0:0:0:
320,192,32781,128,0,32869:0:0:0:0:
448,192,32847,128,0,33046:0:0:0:0:
64,192,32847,128,0,32935:0:0:0:0:
192,192,32891,128,0,33002:0:0:0:0:
320,192,32935,128,0,33090:0:0:0:0:
64,192,33002,128,0,33046:0:0:0:0:
192,192,33068,128,0,33134:0:0:0:0:
448,192,33112,128,0,33201:0:0:0:0:
64,192,33112,128,0,33311:0:0:0:0:
320,192,33157,128,0,33267:0:0:0:0:
192,192,33201,128,0,33356:0:0:0:0:
448,192,33267,128,0,33311:0:0:0:0:
320,192,33334,128,0,33400:0:0:0:0:
448,192,33378,128,0,33444:0:0:0:0:
64,192,33378,128,0,33577:0:0:0:0:
192,192,33422,128,0,33488:0:0:0:0:
320,192,33466,128,0,33533:0:0:0:0:
448,192,33511,128,0,33621:0:0:0:0:
192,192,33555,128,0,33710:0:0:0:0:
320,192,33599,128,0,33665:0:0:0:0:
64,192,33643,128,0,33776:0:0:0:0:
448,192,33688,128,0,33776:0:0:0:0:
320,192,33732,128,0,33820:0:0:0:0:
192,192,33776,128,0,33909:0:0:0:0:
320,192,33909,128,0,34108:0:0:0:0:
64,192,34440,128,0,34595:0:0:0:0:
448,192,34440,128,0,34506:0:0:0:0:
192,192,34484,128,0,34550:0:0:0:0:
320,192,34528,128,0,34705:0:0:0:0:
448,192,34573,128,0,34639:0:0:0:0:
192,192,34617,128,0,34772:0:0:0:0:
64,192,34661,128,0,34772:0:0:0:0:
448,192,34705,128,0,34816:0:0:0:0:
320,192,34772,128,0,34860:0:0:0:0:
192,192,34838,128,0,34904:0:0:0:0:
64,192,34882,128,0,34971:0:0:0:0:
448,192,34882,128,0,34949:0:0:0:0:
320,192,34927,128,0,34993:0:0:0:0:
192,192,34971,128,0,35037:0:0:0:0:
448,192,35015,128,0,35081:0:0:0:0:
320,192,35059,128,0,35126:0:0:0:0:
192,192,35104,128,0,35170:0:0:0:0:
64,192,35104,128,0,35170:0:0:0:0:
448,192,35170,128,0,35236:0:0:0:0:
192,192,35236,128,0,35325:0:0:0:0:
64,192,35236,128,0,35391:0:0:0:0:
448,192,35281,128,0,35435:0:0:0:0:
320,192,35325,128,0,35435:0:0:0:0:
192,192,35391,128,0,35502:0:0:0:0:
64,192,35458,128,0,35502:0:0:0:0:
320,192,35502,128,0,35568:0:0:0:0:
448,192,35502,128,0,35568:0:0:0:0:
64,192,35568,128,0,35701:0:0:0:0:
320,192,35634,128,0,35701:0:0:0:0:
448,192,35634,128,0,35701:0:0:0:0:
192,192,35701,128,0,35834:0:0:0:0:
448,192,35767,128,0,35834:0:0:0:0:
320,192,35767,128,0,35834:0:0:0:0:
64,192,35834,128,0,35966:0:0:0:0:
448,192,35900,128,0,35966:0:0:0:0:
320,192,35900,128,0,36011:0:0:0:0:
192,192,35966,128,0,36165:0:0:0:0:
448,192,36033,128,0,36232:0:0:0:0:
64,192,36033,128,0,36099:0:0:0:0:
320,192,36077,128,0,36232:0:0:0:0:
64,192,36165,128,0,36298:0:0:0:0:
192,192,36232,128,0,36298:0:0:0:0:
320,192,36298,128,0,36453:0:0:0:0:
448,192,36298,128,0,36387:0:0:0:0:
64,192,36342,128,0,36497:0:0:0:0:
192,192,36387,128,0,36497:0:0:0:0:
448,192,36453,128,0,36564:0:0:0:0:
320,192,36519,128,0,36630:0:0:0:0:
192,192,36564,128,0,36630:0:0:0:0:
64,192,36564,128,0,36630:0:0:0:0:
448,192,36630,128,0,36763:0:0:0:0:
192,192,36696,128,0,36763:0:0:0:0:
64,192,36696,128,0,36763:0:0:0:0:
320,192,36763,128,0,36896:0:0:0:0:
64,192,36829,128,0,36896:0:0:0:0:
192,192,36829,128,0,36896:0:0:0:0:
448,192,36896,128,0,37028:0:0:0:0:
64,192,36962,128,0,37028:0:0:0:0:
192,192,36962,128,0,37073:0:0:0:0:
320,192,37028,128,0,37227:0:0:0:0:
448,192,37095,128,0,37161:0:0:0:0:
64,192,37095,128,0,37294:0:0:0:0:
192,192,37139,128,0,37294:0:0:0:0:
448,192,37227,128,0,37360:0:0:0:0:
320,192,37294,128,0,37360:0:0:0:0:
192,192,37360,128,0,37515:0:0:0:0:
64,192,37360,128,0,37449:0:0:0:0:
448,192,37404,128,0,37559:0:0:0:0:
320,192,37449,128,0,37559:0:0:0:0:
64,192,37515,128,0,37626:0:0:0:0:
192,192,37581,128,0,37692:0:0:0:0:
320,192,37626,128,0,37692:0:0:0:0:
448,192,37626,128,0,37692:0:0:0:0:
64,192,37692,128,0,37825:0:0:0:0:
320,192,37758,128,0,37825:0:0:0:0:
448,192,37758,128,0,37825:0:0:0:0:
192,192,37825,128,0,37958:0:0:0:0:
448,192,37891,128,0,37958:0:0:0:0:
320,192,37891,128,0,37958:0:0:0:0:
64,192,37958,128,0,38090:0:0:0:0:
448,192,38024,128,0,38090:0:0:0:0:
320,192,38024,128,0,38134:0:0:0:0:
192,192,38090,128,0,38245:0:0:0:0:
64,192,38157,128,0,38223:0:0:0:0:
448,192,38157,128,0,38356:0:0:0:0:
320,192,38201,128,0,38267:0:0:0:0:
64,192,38289,128,0,38422:0:0:0:0:
320,192,38334,128,0,38400:0:0:0:0:
192,192,38378,128,0,38533:0:0:0:0:
448,192,38422,128,0,38488:0:0:0:0:
320,192,38466,128,0,38577:0:0:0:0:
64,192,38511,128,0,38555:0:0:0:0:
448,192,38555,128,0,38599:0:0:0:0:
64,192,38599,128,0,38688:0:0:0:0:
448,192,38643,128,0,38688:0:0:0:0:
192,192,38688,128,0,38776:0:0:0:0:
320,192,38688,128,0,38732:0:0:0:0:
64,192,38754,128,0,38820:0:0:0:0:
320,192,38798,128,0,38887:0:0:0:0:
192,192,38842,128,0,38931:0:0:0:0:
64,192,38887,128,0,39086:0:0:0:0:
320,192,38953,128,0,39019:0:0:0:0:
448,192,38953,128,0,38997:0:0:0:0:
192,192,38997,128,0,39086:0:0:0:0:
448,192,39042,128,0,39152:0:0:0:0:
320,192,39086,128,0,39196:0:0:0:0:
192,192,39152,128,0,39263:0:0:0:0:
64,192,39219,128,0,39263:0:0:0:0:
448,192,39219,128,0,39351:0:0:0:0:
320,192,39263,128,0,39351:0:0:0:0:
64,192,39307,128,0,39418:0:0:0:0:
192,192,39351,128,0,39462:0:0:0:0:
320,192,39418,128,0,39528:0:0:0:0:
448,192,39484,128,0,39528:0:0:0:0:
64,192,39484,128,0,39683:0:0:0:0:
192,192,39528,128,0,39617:0:0:0:0:
448,192,39573,128,0,39683:0:0:0:0:
320,192,39617,128,0,39750:0:0:0:0:
192,192,39683,128,0,39750:0:0:0:0:
64,192,39750,128,0,39816:0:0:0:0:
448,192,39750,128,0,39949:0:0:0:0:
320,192,39816,128,0,39882:0:0:0:0:
64,192,39882,128,0,39949:0:0:0:0:
192,192,39882,128,0,40015:0:0:0:0:
320,192,39949,128,0,40126:0:0:0:0:
448,192,40015,128,0,40214:0:0:0:0:
64,192,40015,128,0,40081:0:0:0:0:
192,192,40081,128,0,40170:0:0:0:0:
64,192,40148,128,0,40214:0:0:0:0:
320,192,40192,128,0,40281:0:0:0:0:
192,192,40236,128,0,40347:0:0:0:0:
64,192,40281,128,0,40413:0:0:0:0:
448,192,40281,128,0,40347:0:0:0:0:
320,192,40347,128,0,40480:0:0:0:0:
448,192,40413,128,0,40480:0:0:0:0:
192,192,40413,128,0,40546:0:0:0:0:
64,192,40480,128,0,40612:0:0:0:0:
320,192,40546,128,0,40679:0:0:0:0:
448,192,40546,128,0,40612:0:0:0:0:
192,192,40612,128,0,40745:0:0:0:0:
448,192,40679,128,0,40745:0:0:0:0:
64,192,40679,128,0,40745:0:0:0:0:
320,192,40745,128,0,40834:0:0:0:0:
64,192,40811,128,0,40922:0:0:0:0:
192,192,40811,128,0,40878:0:0:0:0:
448,192,40811,128,0,41011:0:0:0:0:
320,192,40900,128,0,41011:0:0:0:0:
192,192,40944,128,0,41011:0:0:0:0:
64,192,40988,128,0,41099:0:0:0:0:
192,192,41077,128,0,41276:0:0:0:0:
320,192,41077,128,0,41143:0:0:0:0:
448,192,41077,128,0,41188:0:0:0:0:
64,192,41165,128,0,41276:0:0:0:0:
320,192,41210,128,0,41276:0:0:0:0:
448,192,41254,128,0,41342:0:0:0:0:
320,192,41342,128,0,41542:0:0:0:0:
192,192,41342,128,0,41453:0:0:0:0:
64,192,41342,128,0,41409:0:0:0:0:
448,192,41431,128,0,41542:0:0:0:0:
64,192,41475,128,0,41542:0:0:0:0:
192,192,41519,128,0,41630:0:0:0:0:
64,192,41608,128,0,41807:0:0:0:0:
320,192,41608,128,0,41719:0:0:0:0:
448,192,41608,128,0,41674:0:0:0:0:
192,192,41696,128,0,41851:0:0:0:0:
448,192,41741,128,0,41807:0:0:0:0:
320,192,41785,128,0,41896:0:0:0:0:
448,192,41873,128,0,41940:0:0:0:0:
64,192,41873,128,0,42073:0:0:0:0:
192,192,41918,128,0,42073:0:0:0:0:
320,192,41962,128,0,42006:0:0:0:0:
448,192,42006,128,0,42139:0:0:0:0:
320,192,42073,128,0,42205:0:0:0:0:
192,192,42139,128,0,42272:0:0:0:0:
64,192,42139,128,0,42205:0:0:0:0:
448,192,42205,128,0,42338:0:0:0:0:
320,192,42272,128,0,42404:0:0:0:0:
64,192,42272,128,0,42338:0:0:0:0:
192,192,42338,128,0,42449:0:0:0:0:
64,192,42404,128,0,42493:0:0:0:0:
448,192,42404,128,0,42604:0:0:0:0:
320,192,42471,128,0,42559:0:0:0:0:
192,192,42515,128,0,42670:0:0:0:0:
64,192,42559,128,0,42604:0:0:0:0:
320,192,42626,128,0,42714:0:0:0:0:
448,192,42670,128,0,42758:0:0:0:0:
64,192,42670,128,0,42869:0:0:0:0:
192,192,42736,128,0,42825:0:0:0:0:
320,192,42781,128,0,42913:0:0:0:0:
448,192,42825,128,0,42869:0:0:0:0:
192,192,42891,128,0,42958:0:0:0:0:
448,192,42935,128,0,43090:0:0:0:0:
64,192,42935,128,0,43002:0:0:0:0:
320,192,42980,128,0,43046:0:0:0:0:
192,192,43024,128,0,43201:0:0:0:0:
64,192,43068,128,0,43134:0:0:0:0:
320,192,43112,128,0,43267:0:0:0:0:
448,192,43157,128,0,43267:0:0:0:0:
64,192,43201,128,0,43311:0:0:0:0:
192,192,43267,128,0,43356:0:0:0:0:
320,192,43334,128,0,43400:0:0:0:0:
448,192,43378,128,0,43466:0:0:0:0:
64,192,43378,128,0,43444:0:0:0:0:
192,192,43422,128,0,43488:0:0:0:0:
320,192,43466,128,0,43533:0:0:0:0:
64,192,43511,128,0,43577:0:0:0:0:
192,192,43555,128,0,43621:0:0:0:0:
320,192,43599,128,0,43665:0:0:0:0:
448,192,43599,128,0,43665:0:0:0:0:
64,192,43665,128,0,43732:0:0:0:0:
320,192,43732,128,0,43820:0:0:0:0:
448,192,43732,128,0,43887:0:0:0:0:
64,192,43776,128,0,43931:0:0:0:0:
192,192,43820,128,0,43931:0:0:0:0:
320,192,43887,128,0,43997:0:0:0:0:
448,192,43953,128,0,43997:0:0:0:0:
192,192,43997,128,0,44064:0:0:0:0:
64,192,43997,128,0,44064:0:0:0:0:
448,192,44064,128,0,44196:0:0:0:0:
192,192,44130,128,0,44196:0:0:0:0:
64,192,44130,128,0,44196:0:0:0:0:
320,192,44196,128,0,44329:0:0:0:0:
64,192,44263,128,0,44329:0:0:0:0:
192,192,44263,128,0,44329:0:0:0:0:
448,192,44329,128,0,44462:0:0:0:0:
64,192,44396,128,0,44462:0:0:0:0:
192,192,44396,128,0,44506:0:0:0:0:
320,192,44462,128,0,44661:0:0:0:0:
64,192,44528,128,0,44727:0:0:0:0:
448,192,44528,128,0,44595:0:0:0:0:
192,192,44573,128,0,44727:0:0:0:0:
448,192,44661,128,0,44794:0:0:0:0:
320,192,44727,128,0,44794:0:0:0:0:
192,192,44794,128,0,44949:0:0:0:0:
64,192,44794,128,0,44882:0:0:0:0:
448,192,44838,128,0,44993:0:0:0:0:
320,192,44882,128,0,44993:0:0:0:0:
64,192,44949,128,0,45059:0:0:0:0:
192,192,45015,128,0,45126:0:0:0:0:
320,192,45059,128,0,45126:0:0:0:0:
448,192,45059,128,0,45126:0:0:0:0:
64,192,45126,128,0,45258:0:0:0:0:
320,192,45192,128,0,45258:0:0:0:0:
448,192,45192,128,0,45258:0:0:0:0:
192,192,45258,128,0,45391:0:0:0:0:
448,192,45325,128,0,45391:0:0:0:0:
320,192,45325,128,0,45391:0:0:0:0:
64,192,45391,128,0,45524:0:0:0:0:
448,192,45458,128,0,45524:0:0:0:0:
320,192,45458,128,0,45568:0:0:0:0:
192,192,45524,128,0,45723:0:0:0:0:
64,192,45590,128,0,45657:0:0:0:0:
448,192,45590,128,0,45789:0:0:0:0:
320,192,45634,128,0,45789:0:0:0:0:
64,192,45723,128,0,45856:0:0:0:0:
192,192,45789,128,0,45856:0:0:0:0:
320,192,45856,128,0,46011:0:0:0:0:
448,192,45856,128,0,45944:0:0:0:0:
64,192,45900,128,0,46055:0:0:0:0:
192,192,45944,128,0,46055:0:0:0:0:
448,192,46011,128,0,46121:0:0:0:0:
320,192,46077,128,0,46188:0:0:0:0:
192,192,46121,128,0,46188:0:0:0:0:
64,192,46121,128,0,46188:0:0:0:0:
448,192,46188,128,0,46320:0:0:0:0:
192,192,46254,128,0,46320:0:0:0:0:
64,192,46254,128,0,46320:0:0:0:0:
320,192,46320,128,0,46453:0:0:0:0:
64,192,46387,128,0,46453:0:0:0:0:
192,192,46387,128,0,46453:0:0:0:0:
448,192,46453,128,0,46586:0:0:0:0:
64,192,46519,128,0,46586:0:0:0:0:
192,192,46519,128,0,46630:0:0:0:0:
320,192,46586,128,0,46719:0:0:0:0:
448,192,46652,128,0,46719:0:0:0:0:
64,192,46652,128,0,46851:0:0:0:0:
192,192,46696,128,0,46763:0:0:0:0:
448,192,46785,128,0,46851:0:0:0:0:
320,192,46785,128,0,46984:0:0:0:0:
192,192,46851,128,0,46940:0:0:0:0:
64,192,46918,128,0,46962:0:0:0:0:
448,192,46962,128,0,47050:0:0:0:0:
64,192,47006,128,0,47117:0:0:0:0:
192,192,47050,128,0,47117:0:0:0:0:
448,192,47095,128,0,47183:0:0:0:0:
320,192,47139,128,0,47183:0:0:0:0:
64,192,47183,128,0,47294:0:0:0:0:
192,192,47183,128,0,47250:0:0:0:0:
320,192,47272,128,0,47382:0:0:0:0:
448,192,47316,128,0,47382:0:0:0:0:
192,192,47316,128,0,47471:0:0:0:0:
64,192,47360,128,0,47515:0:0:0:0:
320,192,47449,128,0,47515:0:0:0:0:
448,192,47449,128,0,47559:0:0:0:0:
192,192,47537,128,0,47648:0:0:0:0:
64,192,47581,128,0,47648:0:0:0:0:
320,192,47581,128,0,47692:0:0:0:0:
448,192,47626,128,0,47736:0:0:0:0:
64,192,47714,128,0,47781:0:0:0:0:
192,192,47714,128,0,47781:0:0:0:0:
320,192,47758,128,0,47847:0:0:0:0:
448,192,47803,128,0,47913:0:0:0:0:
192,192,47847,128,0,48002:0:0:0:0:
320,192,47913,128,0,47958:0:0:0:0:
64,192,47980,128,0,48046:0:0:0:0:
448,192,47980,128,0,48112:0:0:0:0:
320,192,48024,128,0,48112:0:0:0:0:
192,192,48068,128,0,48223:0:0:0:0:
64,192,48112,128,0,48179:0:0:0:0:
320,192,48179,128,0,48267:0:0:0:0:
448,192,48245,128,0,48311:0:0:0:0:
64,192,48245,128,0,48378:0:0:0:0:
192,192,48289,128,0,48378:0:0:0:0:
320,192,48334,128,0,48511:0:0:0:0:
448,192,48378,128,0,48444:0:0:0:0:
192,192,48444,128,0,48511:0:0:0:0:
448,192,48511,128,0,48577:0:0:0:0:
64,192,48511,128,0,48710:0:0:0:0:
192,192,48577,128,0,48643:0:0:0:0:
320,192,48643,128,0,48754:0:0:0:0:
448,192,48643,128,0,48710:0:0:0:0:
192,192,48710,128,0,48798:0:0:0:0:
64,192,48776,128,0,48842:0:0:0:0:
448,192,48776,128,0,48865:0:0:0:0:
320,192,48820,128,0,48909:0:0:0:0:
192,192,48865,128,0,48975:0:0:0:0:
64,192,48909,128,0,48975:0:0:0:0:
320,192,48975,128,0,49108:0:0:0:0:
192,192,49042,128,0,49174:0:0:0:0:
64,192,49042,128,0,49108:0:0:0:0:
448,192,49108,128,0,49241:0:0:0:0:
320,192,49174,128,0,49241:0:0:0:0:
64,192,49174,128,0,49241:0:0:0:0:
192,192,49241,128,0,49307:0:0:0:0:
448,192,49307,128,0,49373:0:0:0:0:
64,192,49307,128,0,49506:0:0:0:0:
320,192,49307,128,0,49373:0:0:0:0:
192,192,49373,128,0,49440:0:0:0:0:
448,192,49440,128,0,49506:0:0:0:0:
320,192,49440,128,0,49573:0:0:0:0:
192,192,49506,128,0,49683:0:0:0:0:
64,192,49573,128,0,49772:0:0:0:0:
448,192,49573,128,0,49639:0:0:0:0:
320,192,49639,128,0,49727:0:0:0:0:
448,192,49705,128,0,49772:0:0:0:0:
192,192,49750,128,0,49838:0:0:0:0:
320,192,49794,128,0,49904:0:0:0:0:
448,192,49838,128,0,49971:0:0:0:0:
64,192,49838,128,0,49904:0:0:0:0:
192,192,49904,128,0,50037:0:0:0:0:
64,192,49971,128,0,50037:0:0:0:0:
320,192,49971,128,0,50104:0:0:0:0:
448,192,50037,128,0,50170:0:0:0:0:
192,192,50104,128,0,50236:0:0:0:0:
64,192,50104,128,0,50303:0:0:0:0:
320,192,50170,128,0,50336:0:0:0:0:
448,192,50236,128,0,50303:0:0:0:0:
192,192,50303,128,0,50369:0:0:0:0:
448,192,50369,128,0,50435:0:0:0:0:
64,192,50369,128,0,50568:0:0:0:0:
320,192,50402,128,0,50502:0:0:0:0:
192,192,50435,128,0,50601:0:0:0:0:
448,192,50502,128,0,50568:0:0:0:0:
320,192,50568,128,0,50634:0:0:0:0:
64,192,50634,128,0,50701:0:0:0:0:
448,192,50634,128,0,50834:0:0:0:0:
192,192,50668,128,0,50767:0:0:0:0:
320,192,50701,128,0,50867:0:0:0:0:
64,192,50767,128,0,50834:0:0:0:0:
192,192,50834,128,0,50900:0:0:0:0:
448,192,50900,128,0,50966:0:0:0:0:
64,192,50900,128,0,51099:0:0:0:0:
320,192,50933,128,0,51033:0:0:0:0:
192,192,50966,128,0,51132:0:0:0:0:
448,192,51033,128,0,51099:0:0:0:0:
320,192,51099,128,0,51165:0:0:0:0:
448,192,51165,128,0,51365:0:0:0:0:
64,192,51165,128,0,51232:0:0:0:0:
192,192,51199,128,0,51365:0:0:0:0:
320,192,51232,128,0,51365:0:0:0:0:
64,192,51298,128,0,51365:0:0:0:0:
192,192,51431,128,0,51497:0:0:0:0:
64,192,51431,128,0,51763:0:0:0:0:
320,192,51431,128,0,51497:0:0:0:0:
448,192,51431,128,0,51497:0:0:0:0:
192,192,51564,128,0,51763:0:0:0:0:
320,192,51564,128,0,51630:0:0:0:0:
448,192,51564,128,0,51630:0:0:0:0:
448,192,51696,128,0,51763:0:0:0:0:
320,192,51696,128,0,51763:0:0:0:0:
448,192,51829,128,0,52161:0:0:0:0:
192,192,51829,128,0,51896:0:0:0:0:
64,192,51829,128,0,51896:0:0:0:0:
320,192,51829,128,0,51896:0:0:0:0:
64,192,51962,128,0,52028:0:0:0:0:
192,192,51962,128,0,52028:0:0:0:0:
320,192,51962,128,0,52161:0:0:0:0:
64,192,52095,128,0,52161:0:0:0:0:
192,192,52095,128,0,52161:0:0:0:0:
64,192,52227,128,0,52559:0:0:0:0:
320,192,52227,128,0,52294:0:0:0:0:
448,192,52227,128,0,52294:0:0:0:0:
192,192,52227,128,0,52294:0:0:0:0:
192,192,52360,128,0,52559:0:0:0:0:
320,192,52360,128,0,52427:0:0:0:0:
448,192,52360,128,0,52427:0:0:0:0:
448,192,52493,128,0,52559:0:0:0:0:
320,192,52493,128,0,52559:0:0:0:0:
448,192,52626,128,0,52958:0:0:0:0:
192,192,52626,128,0,52692:0:0:0:0:
64,192,52626,128,0,52692:0:0:0:0:
320,192,52626,128,0,52692:0:0:0:0:
64,192,52758,128,0,52825:0:0:0:0:
192,192,52758,128,0,52825:0:0:0:0:
320,192,52758,128,0,52958:0:0:0:0:
64,192,52891,128,0,52958:0:0:0:0:
192,192,52891,128,0,52958:0:0:0:0:
64,192,53024,128,0,53090:0:0:0:0:
192,192,53024,128,0,53090:0:0:0:0:
320,192,53024,128,0,53090:0:0:0:0:
448,192,53024,128,0,53090:0:0:0:0:
448,192,53157,128,0,53223:0:0:0:0:
64,192,53157,128,0,53223:0:0:0:0:
320,192,53157,128,0,53223:0:0:0:0:
192,192,53157,128,0,53223:0:0:0:0:
320,192,53289,128,0,53356:0:0:0:0:
192,192,53289,128,0,53356:0:0:0:0:
448,192,53289,128,0,53356:0:0:0:0:
64,192,53289,128,0,53356:0:0:0:0:
192,192,53422,128,0,53488:0:0:0:0:
320,192,53422,128,0,53488:0:0:0:0:
448,192,53555,128,0,53621:0:0:0:0:
320,192,53555,128,0,53621:0:0:0:0:
64,192,53555,128,0,53887:0:0:0:0:
192,192,53555,128,0,53621:0:0:0:0:
448,192,53688,128,0,53754:0:0:0:0:
320,192,53688,128,0,53754:0:0:0:0:
192,192,53688,128,0,53887:0:0:0:0:
320,192,53820,128,0,53887:0:0:0:0:
448,192,53820,128,0,53887:0:0:0:0:
64,192,53953,128,0,54019:0:0:0:0:
192,192,53953,128,0,54019:0:0:0:0:
448,192,53953,128,0,54285:0:0:0:0:
320,192,53953,128,0,54019:0:0:0:0:
320,192,54086,128,0,54285:0:0:0:0:
192,192,54086,128,0,54152:0:0:0:0:
64,192,54086,128,0,54152:0:0:0:0:
192,192,54219,128,0,54285:0:0:0:0:
64,192,54219,128,0,54285:0:0:0:0:
64,192,54351,128,0,54683:0:0:0:0:
320,192,54351,128,0,54418:0:0:0:0:
448,192,54351,128,0,54418:0:0:0:0:
192,192,54351,128,0,54418:0:0:0:0:
192,192,54484,128,0,54683:0:0:0:0:
320,192,54484,128,0,54550:0:0:0:0:
448,192,54484,128,0,54550:0:0:0:0:
448,192,54617,128,0,54683:0:0:0:0:
320,192,54617,128,0,54683:0:0:0:0:
448,192,54750,128,0,55081:0:0:0:0:
192,192,54750,128,0,54816:0:0:0:0:
64,192,54750,128,0,54816:0:0:0:0:
320,192,54750,128,0,54816:0:0:0:0:
64,192,54882,128,0,54949:0:0:0:0:
192,192,54882,128,0,54949:0:0:0:0:
320,192,54882,128,0,55081:0:0:0:0:
64,192,55015,128,0,55081:0:0:0:0:
192,192,55015,128,0,55081:0:0:0:0:
448,192,55148,128,0,55214:0:0:0:0:
320,192,55148,128,0,55214:0:0:0:0:
64,192,55148,128,0,55480:0:0:0:0:
192,192,55148,128,0,55347:0:0:0:0:
320,192,55281,128,0,55347:0:0:0:0:
448,192,55281,128,0,55612:0:0:0:0:
192,192,55413,128,0,55480:0:0:0:0:
320,192,55413,128,0,55612:0:0:0:0:
64,192,55546,128,0,55612:0:0:0:0:
192,192,55546,128,0,55612:0:0:0:0:
64,192,55679,128,0,55878:0:0:0:0:
448,192,55679,128,0,55745:0:0:0:0:
320,192,55679,128,0,55944:0:0:0:0:
192,192,55745,128,0,55811:0:0:0:0:
448,192,55811,128,0,55878:0:0:0:0:
192,192,55878,128,0,56143:0:0:0:0:
64,192,55944,128,0,56143:0:0:0:0:
448,192,55944,128,0,56011:0:0:0:0:
320,192,56011,128,0,56077:0:0:0:0:
448,192,56077,128,0,56210:0:0:0:0:
320,192,56143,128,0,56276:0:0:0:0:
192,192,56210,128,0,56342:0:0:0:0:
64,192,56210,128,0,56409:0:0:0:0:
448,192,56276,128,0,56475:0:0:0:0:
320,192,56342,128,0,56409:0:0:0:0:
192,192,56409,128,0,56542:0:0:0:0:
64,192,56475,128,0,56674:0:0:0:0:
320,192,56475,128,0,56608:0:0:0:0:
448,192,56542,128,0,56674:0:0:0:0:
192,192,56608,128,0,56674:0:0:0:0:
320,192,56674,128,0,56741:0:0:0:0:
448,192,56741,128,0,56940:0:0:0:0:
64,192,56741,128,0,56807:0:0:0:0:
192,192,56741,128,0,57006:0:0:0:0:
320,192,56807,128,0,56873:0:0:0:0:
64,192,56873,128,0,56940:0:0:0:0:
320,192,56940,128,0,57205:0:0:0:0:
448,192,57006,128,0,57205:0:0:0:0:
64,192,57006,128,0,57073:0:0:0:0:
192,192,57073,128,0,57139:0:0:0:0:
64,192,57139,128,0,57272:0:0:0:0:
192,192,57205,128,0,57338:0:0:0:0:
320,192,57272,128,0,57404:0:0:0:0:
448,192,57272,128,0,57471:0:0:0:0:
64,192,57338,128,0,57537:0:0:0:0:
192,192,57404,128,0,57471:0:0:0:0:
320,192,57471,128,0,57604:0:0:0:0:
448,192,57537,128,0,57736:0:0:0:0:
192,192,57537,128,0,57670:0:0:0:0:
64,192,57604,128,0,57736:0:0:0:0:
320,192,57670,128,0,57736:0:0:0:0:
192,192,57736,128,0,57803:0:0:0:0:
320,192,57803,128,0,58068:0:0:0:0:
448,192,57803,128,0,57869:0:0:0:0:
64,192,57803,128,0,58002:0:0:0:0:
192,192,57869,128,0,57935:0:0:0:0:
448,192,57935,128,0,58002:0:0:0:0:
192,192,58002,128,0,58267:0:0:0:0:
448,192,58068,128,0,58134:0:0:0:0:
64,192,58068,128,0,58267:0:0:0:0:
320,192,58134,128,0,58201:0:0:0:0:
448,192,58201,128,0,58334:0:0:0:0:
320,192,58267,128,0,58400:0:0:0:0:
64,192,58334,128,0,58533:0:0:0:0:
192,192,58334,128,0,58466:0:0:0:0:
448,192,58400,128,0,58533:0:0:0:0:
320,192,58466,128,0,58599:0:0:0:0:
192,192,58533,128,0,58665:0:0:0:0:
448,192,58599,128,0,58732:0:0:0:0:
64,192,58599,128,0,58798:0:0:0:0:
320,192,58665,128,0,58798:0:0:0:0:
192,192,58732,128,0,58798:0:0:0:0:
448,192,58798,128,0,58865:0:0:0:0:
192,192,58865,128,0,59130:0:0:0:0:
64,192,58865,128,0,58931:0:0:0:0:
320,192,58865,128,0,59064:0:0:0:0:
448,192,58931,128,0,58997:0:0:0:0:
64,192,58997,128,0,59064:0:0:0:0:
448,192,59064,128,0,59329:0:0:0:0:
64,192,59130,128,0,59196:0:0:0:0:
320,192,59130,128,0,59329:0:0:0:0:
192,192,59196,128,0,59263:0:0:0:0:
64,192,59263,128,0,59396:0:0:0:0:
192,192,59329,128,0,59462:0:0:0:0:
448,192,59396,128,0,59595:0:0:0:0:
320,192,59396,128,0,59528:0:0:0:0:
64,192,59462,128,0,59595:0:0:0:0:
192,192,59528,128,0,59661:0:0:0:0:
320,192,59595,128,0,59727:0:0:0:0:
64,192,59661,128,0,59794:0:0:0:0:
448,192,59661,128,0,59860:0:0:0:0:
192,192,59727,128,0,59860:0:0:0:0:
320,192,59794,128,0,59860:0:0:0:0:
64,192,59860,128,0,59927:0:0:0:0:
192,192,59927,128,0,60059:0:0:0:0:
448,192,59927,128,0,59993:0:0:0:0:
320,192,59927,128,0,60192:0:0:0:0:
64,192,59993,128,0,60126:0:0:0:0:
448,192,60059,128,0,60126:0:0:0:0:
192,192,60126,128,0,60391:0:0:0:0:
64,192,60192,128,0,60391:0:0:0:0:
448,192,60192,128,0,60258:0:0:0:0:
320,192,60258,128,0,60325:0:0:0:0:
448,192,60325,128,0,60458:0:0:0:0:
320,192,60391,128,0,60524:0:0:0:0:
64,192,60458,128,0,60590:0:0:0:0:
192,192,60458,128,0,60657:0:0:0:0:
448,192,60524,128,0,60657:0:0:0:0:
320,192,60590,128,0,60723:0:0:0:0:
64,192,60657,128,0,60789:0:0:0:0:
192,192,60723,128,0,60922:0:0:0:0:
448,192,60723,128,0,60856:0:0:0:0:
320,192,60789,128,0,60922:0:0:0:0:
64,192,60856,128,0,60922:0:0:0:0:
448,192,60922,128,0,60988:0:0:0:0:
320,192,60988,128,0,61121:0:0:0:0:
192,192,60988,128,0,61055:0:0:0:0:
64,192,60988,128,0,61254:0:0:0:0:
448,192,61055,128,0,61188:0:0:0:0:
192,192,61121,128,0,61188:0:0:0:0:
320,192,61188,128,0,61453:0:0:0:0:
448,192,61254,128,0,61453:0:0:0:0:
192,192,61254,128,0,61320:0:0:0:0:
64,192,61320,128,0,61387:0:0:0:0:
192,192,61387,128,0,61519:0:0:0:0:
64,192,61453,128,0,61586:0:0:0:0:
320,192,61519,128,0,61652:0:0:0:0:
448,192,61519,128,0,61719:0:0:0:0:
192,192,61586,128,0,61785:0:0:0:0:
64,192,61652,128,0,61719:0:0:0:0:
320,192,61719,128,0,61851:0:0:0:0:
448,192,61785,128,0,61984:0:0:0:0:
64,192,61785,128,0,61918:0:0:0:0:
192,192,61851,128,0,61984:0:0:0:0:
320,192,61918,128,0,61984:0:0:0:0:
64,192,61984,128,0,62050:0:0:0:0:
320,192,62050,128,0,62316:0:0:0:0:
448,192,62050,128,0,62117:0:0:0:0:
192,192,62050,128,0,62250:0:0:0:0:
64,192,62117,128,0,62183:0:0:0:0:
448,192,62183,128,0,62250:0:0:0:0:
64,192,62250,128,0,62515:0:0:0:0:
448,192,62316,128,0,62382:0:0:0:0:
192,192,62316,128,0,62515:0:0:0:0:
320,192,62382,128,0,62449:0:0:0:0:
448,192,62449,128,0,62581:0:0:0:0:
320,192,62515,128,0,62648:0:0:0:0:
192,192,62581,128,0,62781:0:0:0:0:
64,192,62581,128,0,62714:0:0:0:0:
448,192,62648,128,0,62781:0:0:0:0:
320,192,62714,128,0,62847:0:0:0:0:
64,192,62781,128,0,62913:0:0:0:0:
448,192,62847,128,0,62980:0:0:0:0:
192,192,62847,128,0,63046:0:0:0:0:
320,192,62913,128,0,63046:0:0:0:0:
64,192,62980,128,0,63046:0:0:0:0:
448,192,63046,128,0,63112:0:0:0:0:
64,192,63112,128,0,63378:0:0:0:0:
192,192,63112,128,0,63179:0:0:0:0:
320,192,63112,128,0,63311:0:0:0:0:
448,192,63179,128,0,63245:0:0:0:0:
192,192,63245,128,0,63311:0:0:0:0:
448,192,63311,128,0,63577:0:0:0:0:
192,192,63378,128,0,63444:0:0:0:0:
320,192,63378,128,0,63577:0:0:0:0:
64,192,63444,128,0,63511:0:0:0:0:
192,192,63511,128,0,63643:0:0:0:0:
64,192,63577,128,0,63710:0:0:0:0:
320,192,63643,128,0,63842:0:0:0:0:
448,192,63643,128,0,63776:0:0:0:0:
192,192,63710,128,0,63842:0:0:0:0:
64,192,63776,128,0,63975:0:0:0:0:
448,192,63842,128,0,63909:0:0:0:0:
192,192,63909,128,0,64108:0:0:0:0:
320,192,63909,128,0,64042:0:0:0:0:
448,192,63975,128,0,64108:0:0:0:0:
64,192,64042,128,0,64108:0:0:0:0:
320,192,64108,128,0,64174:0:0:0:0:
64,192,64174,128,0,64440:0:0:0:0:
192,192,64174,128,0,64241:0:0:0:0:
448,192,64174,128,0,64373:0:0:0:0:
320,192,64241,128,0,64307:0:0:0:0:
192,192,64307,128,0,64373:0:0:0:0:
320,192,64373,128,0,64639:0:0:0:0:
192,192,64440,128,0,64506:0:0:0:0:
448,192,64440,128,0,64639:0:0:0:0:
64,192,64506,128,0,64573:0:0:0:0:
192,192,64573,128,0,64705:0:0:0:0:
64,192,64639,128,0,64772:0:0:0:0:
448,192,64705,128,0,64904:0:0:0:0:
320,192,64705,128,0,64838:0:0:0:0:
192,192,64772,128,0,64904:0:0:0:0:
64,192,64838,128,0,64971:0:0:0:0:
320,192,64904,128,0,65037:0:0:0:0:
192,192,64971,128,0,65104:0:0:0:0:
448,192,64971,128,0,65170:0:0:0:0:
64,192,65037,128,0,65170:0:0:0:0:
320,192,65104,128,0,65170:0:0:0:0:
192,192,65170,128,0,65236:0:0:0:0:
320,192,65236,128,0,65502:0:0:0:0:
448,192,65236,128,0,65303:0:0:0:0:
64,192,65236,128,0,65369:0:0:0:0:
192,192,65303,128,0,65435:0:0:0:0:
448,192,65369,128,0,65435:0:0:0:0:
64,192,65435,128,0,65701:0:0:0:0:
448,192,65502,128,0,65568:0:0:0:0:
192,192,65502,128,0,65701:0:0:0:0:
320,192,65568,128,0,65634:0:0:0:0:
448,192,65634,128,0,65767:0:0:0:0:
320,192,65701,128,0,65834:0:0:0:0:
64,192,65767,128,0,65966:0:0:0:0:
192,192,65767,128,0,65900:0:0:0:0:
448,192,65834,128,0,66033:0:0:0:0:
320,192,65900,128,0,65966:0:0:0:0:
192,192,65966,128,0,66099:0:0:0:0:
320,192,66033,128,0,66165:0:0:0:0:
64,192,66033,128,0,66232:0:0:0:0:
448,192,66099,128,0,66232:0:0:0:0:
192,192,66165,128,0,66232:0:0:0:0:
320,192,66232,128,0,66298:0:0:0:0:
448,192,66298,128,0,66497:0:0:0:0:
64,192,66298,128,0,66365:0:0:0:0:
192,192,66298,128,0,66564:0:0:0:0:
320,192,66365,128,0,66431:0:0:0:0:
64,192,66431,128,0,66497:0:0:0:0:
320,192,66497,128,0,66763:0:0:0:0:
448,192,66564,128,0,66763:0:0:0:0:
64,192,66564,128,0,66630:0:0:0:0:
192,192,66630,128,0,66696:0:0:0:0:
64,192,66696,128,0,66829:0:0:0:0:
192,192,66763,128,0,66896:0:0:0:0:
320,192,66829,128,0,66962:0:0:0:0:
448,192,66829,128,0,67028:0:0:0:0:
64,192,66896,128,0,67028:0:0:0:0:
192,192,66962,128,0,67095:0:0:0:0:
320,192,67028,128,0,67161:0:0:0:0:
448,192,67095,128,0,67294:0:0:0:0:
64,192,67095,128,0,67227:0:0:0:0:
192,192,67161,128,0,67294:0:0:0:0:
320,192,67227,128,0,67294:0:0:0:0:
64,192,67294,128,0,67360:0:0:0:0:
192,192,67360,128,0,67559:0:0:0:0:
448,192,67360,128,0,67427:0:0:0:0:
320,192,67360,128,0,67626:0:0:0:0:
64,192,67427,128,0,67493:0:0:0:0:
448,192,67493,128,0,67559:0:0:0:0:
64,192,67559,128,0,67825:0:0:0:0:
192,192,67626,128,0,67825:0:0:0:0:
448,192,67626,128,0,67692:0:0:0:0:
320,192,67692,128,0,67758:0:0:0:0:
448,192,67758,128,0,67891:0:0:0:0:
320,192,67825,128,0,67958:0:0:0:0:
192,192,67891,128,0,68024:0:0:0:0:
64,192,67891,128,0,68090:0:0:0:0:
448,192,67958,128,0,68090:0:0:0:0:
320,192,68024,128,0,68157:0:0:0:0:
192,192,68090,128,0,68223:0:0:0:0:
64,192,68157,128,0,68356:0:0:0:0:
448,192,68157,128,0,68289:0:0:0:0:
320,192,68223,128,0,68356:0:0:0:0:
192,192,68289,128,0,68356:0:0:0:0:
448,192,68356,128,0,68422:0:0:0:0:
320,192,68422,128,0,68555:0:0:0:0:
64,192,68422,128,0,68488:0:0:0:0:
192,192,68422,128,0,68688:0:0:0:0:
448,192,68488,128,0,68621:0:0:0:0:
64,192,68555,128,0,68621:0:0:0:0:
320,192,68621,128,0,68887:0:0:0:0:
448,192,68688,128,0,68887:0:0:0:0:
64,192,68688,128,0,68754:0:0:0:0:
192,192,68754,128,0,68820:0:0:0:0:
64,192,68820,128,0,68953:0:0:0:0:
192,192,68887,128,0,69019:0:0:0:0:
448,192,68953,128,0,69086:0:0:0:0:
320,192,68953,128,0,69152:0:0:0:0:
64,192,69019,128,0,69152:0:0:0:0:
192,192,69086,128,0,69219:0:0:0:0:
448,192,69152,128,0,69285:0:0:0:0:
320,192,69219,128,0,69418:0:0:0:0:
64,192,69219,128,0,69351:0:0:0:0:
192,192,69285,128,0,69418:0:0:0:0:
448,192,69351,128,0,69418:0:0:0:0:
64,192,69418,128,0,69484:0:0:0:0:
192,192,69484,128,0,69617:0:0:0:0:
320,192,69484,128,0,69550:0:0:0:0:
448,192,69484,128,0,69750:0:0:0:0:
64,192,69550,128,0,69683:0:0:0:0:
320,192,69617,128,0,69683:0:0:0:0:
192,192,69683,128,0,69949:0:0:0:0:
64,192,69750,128,0,69949:0:0:0:0:
320,192,69750,128,0,69816:0:0:0:0:
448,192,69816,128,0,69882:0:0:0:0:
320,192,69882,128,0,70015:0:0:0:0:
448,192,69949,128,0,70081:0:0:0:0:
192,192,70015,128,0,70148:0:0:0:0:
64,192,70015,128,0,70214:0:0:0:0:
320,192,70081,128,0,70281:0:0:0:0:
448,192,70148,128,0,70214:0:0:0:0:
192,192,70214,128,0,70347:0:0:0:0:
64,192,70281,128,0,70480:0:0:0:0:
448,192,70281,128,0,70413:0:0:0:0:
320,192,70347,128,0,70480:0:0:0:0:
192,192,70413,128,0,70480:0:0:0:0:
448,192,70480,128,0,70546:0:0:0:0:
192,192,70546,128,0,70811:0:0:0:0:
64,192,70546,128,0,70612:0:0:0:0:
320,192,70546,128,0,70745:0:0:0:0:
448,192,70612,128,0,70679:0:0:0:0:
64,192,70679,128,0,70745:0:0:0:0:
448,192,70745,128,0,71011:0:0:0:0:
64,192,70811,128,0,70878:0:0:0:0:
320,192,70811,128,0,71011:0:0:0:0:
192,192,70878,128,0,70944:0:0:0:0:
64,192,70944,128,0,71077:0:0:0:0:
192,192,71011,128,0,71143:0:0:0:0:
320,192,71077,128,0,71276:0:0:0:0:
448,192,71077,128,0,71210:0:0:0:0:
64,192,71143,128,0,71276:0:0:0:0:
192,192,71210,128,0,71342:0:0:0:0:
448,192,71276,128,0,71409:0:0:0:0:
64,192,71342,128,0,71475:0:0:0:0:
320,192,71342,128,0,71542:0:0:0:0:
192,192,71409,128,0,71542:0:0:0:0:
448,192,71475,128,0,71542:0:0:0:0:
64,192,71542,128,0,71608:0:0:0:0:
448,192,71608,128,0,71873:0:0:0:0:
320,192,71608,128,0,71674:0:0:0:0:
192,192,71608,128,0,71807:0:0:0:0:
64,192,71674,128,0,71741:0:0:0:0:
320,192,71741,128,0,71807:0:0:0:0:
64,192,71807,128,0,72073:0:0:0:0:
320,192,71873,128,0,71940:0:0:0:0:
192,192,71873,128,0,72073:0:0:0:0:
448,192,71940,128,0,72006:0:0:0:0:
320,192,72006,128,0,72139:0:0:0:0:
448,192,72073,128,0,72205:0:0:0:0:
64,192,72139,128,0,72338:0:0:0:0:
192,192,72139,128,0,72272:0:0:0:0:
320,192,72205,128,0,72338:0:0:0:0:
448,192,72272,128,0,72404:0:0:0:0:
192,192,72338,128,0,72471:0:0:0:0:
320,192,72404,128,0,72670:0:0:0:0:
64,192,72404,128,0,72604:0:0:0:0:
448,192,72471,128,0,72537:0:0:0:0:
192,192,72537,128,0,72604:0:0:0:0:
448,192,72604,128,0,72670:0:0:0:0:
64,192,72670,128,0,72869:0:0:0:0:
192,192,72670,128,0,72736:0:0:0:0:
320,192,72803,128,0,72869:0:0:0:0:
448,192,72935,128,0,73002:0:0:0:0:
64,192,72935,128,0,73002:0:0:0:0:
64,192,73068,128,0,73267:0:0:0:0:
320,192,73068,128,0,73134:0:0:0:0:
192,192,73201,128,0,73267:0:0:0:0:
64,192,73334,128,0,73400:0:0:0:0:
320,192,73334,128,0,73400:0:0:0:0:
448,192,73466,128,0,73533:0:0:0:0:
192,192,73599,128,0,73665:0:0:0:0:
64,192,73732,128,0,73798:0:0:0:0:
192,192,73865,128,0,73931:0:0:0:0:
448,192,73997,128,0,74196:0:0:0:0:
320,192,73997,128,0,74064:0:0:0:0:
192,192,74130,128,0,74196:0:0:0:0:
448,192,74263,128,0,74329:0:0:0:0:
64,192,74263,128,0,74329:0:0:0:0:
320,192,74396,128,0,74462:0:0:0:0:
448,192,74396,128,0,74595:0:0:0:0:
192,192,74528,128,0,74595:0:0:0:0:
64,192,74661,128,0,74727:0:0:0:0:
320,192,74794,128,0,74860:0:0:0:0:
192,192,74927,128,0,74993:0:0:0:0:
448,192,75059,128,0,75126:0:0:0:0:
320,192,75192,128,0,75258:0:0:0:0:
64,192,75325,128,0,75391:0:0:0:0:
192,192,75458,128,0,75524:0:0:0:0:
320,192,75590,128,0,75657:0:0:0:0:
448,192,75723,128,0,75789:0:0:0:0:
64,192,75856,128,0,75922:0:0:0:0:
192,192,75988,128,0,76055:0:0:0:0:
320,192,76121,128,0,76188:0:0:0:0:
192,192,76254,128,0,76320:0:0:0:0:
64,192,76387,128,0,76453:0:0:0:0:
320,192,76519,128,0,76586:0:0:0:0:
448,192,76652,128,0,76719:0:0:0:0:
192,192,76652,128,0,76719:0:0:0:0:
448,192,76785,128,0,76851:0:0:0:0:
64,192,76785,128,0,76851:0:0:0:0:
448,192,76918,128,0,77117:0:0:0:0:
320,192,76918,128,0,76984:0:0:0:0:
64,192,76918,128,0,77050:0:0:0:0:
192,192,76984,128,0,77117:0:0:0:0:
320,192,77050,128,0,77183:0:0:0:0:
64,192,77117,128,0,77183:0:0:0:0:
448,192,77183,128,0,77250:0:0:0:0:
192,192,77183,128,0,77250:0:0:0:0:
448,192,77316,128,0,77515:0:0:0:0:
320,192,77316,128,0,77382:0:0:0:0:
192,192,77449,128,0,77515:0:0:0:0:
448,192,77581,128,0,77648:0:0:0:0:
64,192,77581,128,0,77648:0:0:0:0:
320,192,77714,128,0,77781:0:0:0:0:
192,192,77847,128,0,77913:0:0:0:0:
448,192,77980,128,0,78046:0:0:0:0:
320,192,78112,128,0,78179:0:0:0:0:
64,192,78245,128,0,78444:0:0:0:0:
192,192,78245,128,0,78311:0:0:0:0:
320,192,78378,128,0,78444:0:0:0:0:
64,192,78511,128,0,78577:0:0:0:0:
192,192,78511,128,0,78577:0:0:0:0:
64,192,78643,128,0,78842:0:0:0:0:
448,192,78643,128,0,78710:0:0:0:0:
320,192,78776,128,0,78842:0:0:0:0:
192,192,78909,128,0,78975:0:0:0:0:
64,192,79042,128,0,79108:0:0:0:0:
448,192,79042,128,0,79108:0:0:0:0:
320,192,79174,128,0,79241:0:0:0:0:
192,192,79307,128,0,79373:0:0:0:0:
448,192,79440,128,0,79506:0:0:0:0:
320,192,79573,128,0,79639:0:0:0:0:
64,192,79705,128,0,79772:0:0:0:0:
192,192,79838,128,0,79904:0:0:0:0:
320,192,79971,128,0,80037:0:0:0:0:
448,192,80104,128,0,80170:0:0:0:0:
192,192,80236,128,0,80303:0:0:0:0:
448,192,80236,128,0,80834:0:0:0:0:
192,192,80369,128,0,80900:0:0:0:0:
320,192,80435,128,0,80502:0:0:0:0:
320,192,80568,128,0,80900:0:0:0:0:
64,192,80634,128,0,80701:0:0:0:0:
64,192,80767,128,0,80900:0:0:0:0:
448,192,80900,128,0,80966:0:0:0:0:
448,192,81033,128,0,81099:0:0:0:0:
64,192,81165,128,0,81365:0:0:0:0:
320,192,81165,128,0,81232:0:0:0:0:
192,192,81165,128,0,81298:0:0:0:0:
448,192,81232,128,0,81365:0:0:0:0:
320,192,81298,128,0,81431:0:0:0:0:
192,192,81365,128,0,81431:0:0:0:0:
448,192,81431,128,0,81497:0:0:0:0:
64,192,81431,128,0,81497:0:0:0:0:
64,192,81564,128,0,81763:0:0:0:0:
320,192,81564,128,0,81630:0:0:0:0:
192,192,81696,128,0,81763:0:0:0:0:
64,192,81829,128,0,81896:0:0:0:0:
320,192,81829,128,0,81896:0:0:0:0:
448,192,81962,128,0,82028:0:0:0:0:
192,192,82095,128,0,82161:0:0:0:0:
64,192,82227,128,0,82294:0:0:0:0:
448,192,82294,128,0,82360:0:0:0:0:
192,192,82360,128,0,82427:0:0:0:0:
64,192,82427,128,0,82493:0:0:0:0:
448,192,82493,128,0,82692:0:0:0:0:
320,192,82493,128,0,82559:0:0:0:0:
64,192,82592,128,0,82659:0:0:0:0:
192,192,82626,128,0,82692:0:0:0:0:
320,192,82659,128,0,82725:0:0:0:0:
448,192,82758,128,0,82825:0:0:0:0:
64,192,82758,128,0,82825:0:0:0:0:
320,192,82891,128,0,82958:0:0:0:0:
448,192,82891,128,0,83024:0:0:0:0:
64,192,82924,128,0,83024:0:0:0:0:
192,192,83024,128,0,83157:0:0:0:0:
320,192,83057,128,0,83190:0:0:0:0:
448,192,83090,128,0,83223:0:0:0:0:
64,192,83157,128,0,83223:0:0:0:0:
320,192,83289,128,0,83356:0:0:0:0:
192,192,83422,128,0,83488:0:0:0:0:
448,192,83555,128,0,83621:0:0:0:0:
320,192,83688,128,0,83754:0:0:0:0:
64,192,83820,128,0,83887:0:0:0:0:
192,192,83953,128,0,84019:0:0:0:0:
320,192,84086,128,0,84152:0:0:0:0:
448,192,84219,128,0,84285:0:0:0:0:
64,192,84351,128,0,84418:0:0:0:0:
448,192,84384,128,0,84451:0:0:0:0:
320,192,84418,128,0,84484:0:0:0:0:
192,192,84484,128,0,84550:0:0:0:0:
448,192,84517,128,0,84584:0:0:0:0:
64,192,84550,128,0,84617:0:0:0:0:
320,192,84617,128,0,84683:0:0:0:0:
448,192,84650,128,0,84716:0:0:0:0:
64,192,84683,128,0,84750:0:0:0:0:
192,192,84750,128,0,84816:0:0:0:0:
320,192,84783,128,0,84849:0:0:0:0:
448,192,84816,128,0,84882:0:0:0:0:
64,192,84882,128,0,84949:0:0:0:0:
192,192,84882,128,0,84949:0:0:0:0:
448,192,84971,128,0,85037:0:0:0:0:
320,192,85015,128,0,85081:0:0:0:0:
64,192,85059,128,0,85126:0:0:0:0:
448,192,85148,128,0,85214:0:0:0:0:
192,192,85148,128,0,85214:0:0:0:0:
320,192,85236,128,0,85303:0:0:0:0:
448,192,85281,128,0,85347:0:0:0:0:
64,192,85281,128,0,85347:0:0:0:0:
192,192,85325,128,0,85391:0:0:0:0:
448,192,85413,128,0,85612:0:0:0:0:
320,192,85413,128,0,85480:0:0:0:0:
64,192,85413,128,0,85546:0:0:0:0:
192,192,85480,128,0,85612:0:0:0:0:
320,192,85546,128,0,85679:0:0:0:0:
64,192,85612,128,0,85679:0:0:0:0:
448,192,85679,128,0,85745:0:0:0:0:
192,192,85679,128,0,85745:0:0:0:0:
448,192,85811,128,0,86011:0:0:0:0:
320,192,85811,128,0,85878:0:0:0:0:
192,192,85944,128,0,86011:0:0:0:0:
448,192,86077,128,0,86143:0:0:0:0:
64,192,86077,128,0,86143:0:0:0:0:
320,192,86210,128,0,86276:0:0:0:0:
192,192,86342,128,0,86409:0:0:0:0:
448,192,86475,128,0,86542:0:0:0:0:
320,192,86608,128,0,86674:0:0:0:0:
64,192,86741,128,0,86940:0:0:0:0:
192,192,86741,128,0,86807:0:0:0:0:
320,192,86873,128,0,86940:0:0:0:0:
64,192,87006,128,0,87073:0:0:0:0:
192,192,87006,128,0,87073:0:0:0:0:
64,192,87139,128,0,87338:0:0:0:0:
448,192,87139,128,0,87205:0:0:0:0:
320,192,87272,128,0,87338:0:0:0:0:
192,192,87404,128,0,87471:0:0:0:0:
448,192,87537,128,0,87604:0:0:0:0:
64,192,87537,128,0,87736:0:0:0:0:
192,192,87581,128,0,87648:0:0:0:0:
320,192,87626,128,0,87692:0:0:0:0:
448,192,87670,128,0,87736:0:0:0:0:
192,192,87714,128,0,87781:0:0:0:0:
320,192,87758,128,0,87825:0:0:0:0:
448,192,87803,128,0,87869:0:0:0:0:
64,192,87803,128,0,87935:0:0:0:0:
192,192,87869,128,0,87935:0:0:0:0:
448,192,87935,128,0,88002:0:0:0:0:
320,192,87935,128,0,88046:0:0:0:0:
192,192,88002,128,0,88090:0:0:0:0:
64,192,88068,128,0,88134:0:0:0:0:
448,192,88068,128,0,88267:0:0:0:0:
320,192,88112,128,0,88179:0:0:0:0:
192,192,88157,128,0,88223:0:0:0:0:
64,192,88201,128,0,88267:0:0:0:0:
320,192,88245,128,0,88311:0:0:0:0:
192,192,88289,128,0,88356:0:0:0:0:
64,192,88334,128,0,88400:0:0:0:0:
448,192,88334,128,0,88466:0:0:0:0:
320,192,88400,128,0,88466:0:0:0:0:
64,192,88466,128,0,88533:0:0:0:0:
192,192,88466,128,0,88577:0:0:0:0:
320,192,88533,128,0,88621:0:0:0:0:
448,192,88599,128,0,88665:0:0:0:0:
64,192,88599,128,0,88665:0:0:0:0:
192,192,88643,128,0,88710:0:0:0:0:
320,192,88688,128,0,88754:0:0:0:0:
448,192,88732,128,0,88798:0:0:0:0:
192,192,88776,128,0,88931:0:0:0:0:
320,192,88820,128,0,88887:0:0:0:0:
64,192,88865,128,0,88975:0:0:0:0:
448,192,88909,128,0,88975:0:0:0:0:
320,192,88953,128,0,89019:0:0:0:0:
192,192,88997,128,0,89108:0:0:0:0:
64,192,89042,128,0,89152:0:0:0:0:
320,192,89086,128,0,89152:0:0:0:0:
448,192,89130,128,0,89285:0:0:0:0:
192,192,89174,128,0,89241:0:0:0:0:
320,192,89219,128,0,89329:0:0:0:0:
64,192,89263,128,0,89396:0:0:0:0:
192,192,89307,128,0,89440:0:0:0:0:
448,192,89351,128,0,89396:0:0:0:0:
320,192,89396,128,0,89440:0:0:0:0:
448,192,89440,128,0,89595:0:0:0:0:
320,192,89484,128,0,89595:0:0:0:0:
192,192,89528,128,0,89595:0:0:0:0:
64,192,89573,128,0,89661:0:0:0:0:
192,192,89661,128,0,89794:0:0:0:0:
320,192,89661,128,0,89860:0:0:0:0:
448,192,89661,128,0,89727:0:0:0:0:
64,192,89727,128,0,89927:0:0:0:0:
448,192,89794,128,0,89860:0:0:0:0:
192,192,89860,128,0,89927:0:0:0:0:
320,192,89927,128,0,90059:0:0:0:0:
448,192,89927,128,0,90126:0:0:0:0:
64,192,89993,128,0,90126:0:0:0:0:
192,192,90059,128,0,90159:0:0:0:0:
320,192,90126,128,0,90192:0:0:0:0:
64,192,90192,128,0,90258:0:0:0:0:
448,192,90192,128,0,90391:0:0:0:0:
192,192,90225,128,0,90458:0:0:0:0:
320,192,90258,128,0,90358:0:0:0:0:
64,192,90325,128,0,90391:0:0:0:0:
320,192,90424,128,0,90491:0:0:0:0:
448,192,90458,128,0,90524:0:0:0:0:
64,192,90458,128,0,90557:0:0:0:0:
192,192,90524,128,0,90590:0:0:0:0:
320,192,90557,128,0,90723:0:0:0:0:
448,192,90590,128,0,90657:0:0:0:0:
192,192,90657,128,0,90756:0:0:0:0:
64,192,90723,128,0,90789:0:0:0:0:
448,192,90723,128,0,90856:0:0:0:0:
320,192,90789,128,0,90839:0:0:0:0:
192,192,90856,128,0,90922:0:0:0:0:
320,192,90889,128,0,90955:0:0:0:0:
448,192,90922,128,0,90988:0:0:0:0:
192,192,90988,128,0,91188:0:0:0:0:
64,192,90988,128,0,91055:0:0:0:0:
320,192,91055,128,0,91121:0:0:0:0:
64,192,91121,128,0,91188:0:0:0:0:
320,192,91188,128,0,91354:0:0:0:0:
64,192,91254,128,0,91320:0:0:0:0:
448,192,91254,128,0,91453:0:0:0:0:
192,192,91320,128,0,91387:0:0:0:0:
64,192,91387,128,0,91453:0:0:0:0:
320,192,91420,128,0,91519:0:0:0:0:
192,192,91453,128,0,91519:0:0:0:0:
448,192,91519,128,0,91586:0:0:0:0:
64,192,91519,128,0,91619:0:0:0:0:
320,192,91586,128,0,91719:0:0:0:0:
448,192,91652,128,0,91719:0:0:0:0:
64,192,91685,128,0,91785:0:0:0:0:
192,192,91719,128,0,91818:0:0:0:0:
320,192,91785,128,0,91851:0:0:0:0:
448,192,91785,128,0,91984:0:0:0:0:
64,192,91851,128,0,91918:0:0:0:0:
192,192,91884,128,0,92084:0:0:0:0:
320,192,91918,128,0,91984:0:0:0:0:
64,192,91984,128,0,92050:0:0:0:0:
448,192,92050,128,0,92117:0:0:0:0:
320,192,92050,128,0,92183:0:0:0:0:
64,192,92117,128,0,92250:0:0:0:0:
192,192,92150,128,0,92283:0:0:0:0:
448,192,92183,128,0,92250:0:0:0:0:
320,192,92250,128,0,92316:0:0:0:0:
64,192,92316,128,0,92714:0:0:0:0:
448,192,92316,128,0,92515:0:0:0:0:
192,192,92382,128,0,92449:0:0:0:0:
320,192,92449,128,0,92515:0:0:0:0:
192,192,92515,128,0,92581:0:0:0:0:
320,192,92581,128,0,92648:0:0:0:0:
448,192,92581,128,0,92681:0:0:0:0:
192,192,92648,128,0,92714:0:0:0:0:
320,192,92714,128,0,92781:0:0:0:0:
448,192,92747,128,0,92797:0:0:0:0:
192,192,92781,128,0,92847:0:0:0:0:
64,192,92814,128,0,92863:0:0:0:0:
320,192,92847,128,0,92958:0:0:0:0:
448,192,92847,128,0,93311:0:0:0:0:
192,192,92935,128,0,93046:0:0:0:0:
64,192,92980,128,0,93046:0:0:0:0:
320,192,93024,128,0,93134:0:0:0:0:
192,192,93112,128,0,93223:0:0:0:0:
64,192,93112,128,0,93179:0:0:0:0:
320,192,93201,128,0,93311:0:0:0:0:
64,192,93245,128,0,93577:0:0:0:0:
192,192,93289,128,0,93444:0:0:0:0:
320,192,93378,128,0,93577:0:0:0:0:
448,192,93378,128,0,93444:0:0:0:0:
192,192,93511,128,0,93710:0:0:0:0:
448,192,93511,128,0,93577:0:0:0:0:
64,192,93643,128,0,93710:0:0:0:0:
320,192,93643,128,0,93842:0:0:0:0:
192,192,93776,128,0,93842:0:0:0:0:
448,192,93776,128,0,93909:0:0:0:0:
320,192,93909,128,0,94042:0:0:0:0:
192,192,93909,128,0,94108:0:0:0:0:
64,192,93909,128,0,93975:0:0:0:0:
448,192,93975,128,0,94174:0:0:0:0:
64,192,94042,128,0,94108:0:0:0:0:
320,192,94108,128,0,94174:0:0:0:0:
192,192,94174,128,0,94307:0:0:0:0:
64,192,94174,128,0,94373:0:0:0:0:
448,192,94241,128,0,94373:0:0:0:0:
320,192,94307,128,0,94407:0:0:0:0:
192,192,94373,128,0,94440:0:0:0:0:
448,192,94440,128,0,94506:0:0:0:0:
64,192,94440,128,0,94639:0:0:0:0:
320,192,94473,128,0,94705:0:0:0:0:
192,192,94506,128,0,94606:0:0:0:0:
448,192,94573,128,0,94639:0:0:0:0:
192,192,94672,128,0,94738:0:0:0:0:
64,192,94705,128,0,94772:0:0:0:0:
448,192,94705,128,0,94805:0:0:0:0:
320,192,94772,128,0,94838:0:0:0:0:
192,192,94805,128,0,94971:0:0:0:0:
64,192,94838,128,0,94904:0:0:0:0:
320,192,94904,128,0,95004:0:0:0:0:
448,192,94971,128,0,95037:0:0:0:0:
64,192,94971,128,0,95104:0:0:0:0:
192,192,95037,128,0,95087:0:0:0:0:
320,192,95104,128,0,95170:0:0:0:0:
192,192,95137,128,0,95203:0:0:0:0:
64,192,95170,128,0,95236:0:0:0:0:
320,192,95236,128,0,95435:0:0:0:0:
448,192,95236,128,0,95303:0:0:0:0:
192,192,95303,128,0,95369:0:0:0:0:
448,192,95369,128,0,95435:0:0:0:0:
192,192,95435,128,0,95601:0:0:0:0:
448,192,95502,128,0,95568:0:0:0:0:
64,192,95502,128,0,95701:0:0:0:0:
320,192,95568,128,0,95634:0:0:0:0:
448,192,95634,128,0,95701:0:0:0:0:
192,192,95668,128,0,95767:0:0:0:0:
320,192,95701,128,0,95767:0:0:0:0:
64,192,95767,128,0,95834:0:0:0:0:
448,192,95767,128,0,95867:0:0:0:0:
192,192,95834,128,0,95966:0:0:0:0:
64,192,95900,128,0,95966:0:0:0:0:
448,192,95933,128,0,96033:0:0:0:0:
320,192,95966,128,0,96066:0:0:0:0:
192,192,96033,128,0,96099:0:0:0:0:
64,192,96033,128,0,96232:0:0:0:0:
448,192,96099,128,0,96165:0:0:0:0:
320,192,96132,128,0,96331:0:0:0:0:
192,192,96165,128,0,96232:0:0:0:0:
448,192,96232,128,0,96298:0:0:0:0:
64,192,96298,128,0,96365:0:0:0:0:
192,192,96298,128,0,96431:0:0:0:0:
448,192,96365,128,0,96497:0:0:0:0:
320,192,96398,128,0,96531:0:0:0:0:
64,192,96431,128,0,96497:0:0:0:0:
192,192,96497,128,0,96564:0:0:0:0:
448,192,96564,128,0,96962:0:0:0:0:
64,192,96564,128,0,96763:0:0:0:0:
320,192,96630,128,0,96696:0:0:0:0:
192,192,96696,128,0,96763:0:0:0:0:
320,192,96763,128,0,96829:0:0:0:0:
192,192,96829,128,0,96896:0:0:0:0:
64,192,96829,128,0,96929:0:0:0:0:
320,192,96896,128,0,96962:0:0:0:0:
192,192,96962,128,0,97028:0:0:0:0:
64,192,96995,128,0,97045:0:0:0:0:
320,192,97028,128,0,97095:0:0:0:0:
448,192,97061,128,0,97111:0:0:0:0:
192,192,97095,128,0,97205:0:0:0:0:
64,192,97095,128,0,97559:0:0:0:0:
320,192,97183,128,0,97294:0:0:0:0:
448,192,97227,128,0,97294:0:0:0:0:
192,192,97272,128,0,97382:0:0:0:0:
320,192,97360,128,0,97471:0:0:0:0:
448,192,97360,128,0,97427:0:0:0:0:
192,192,97449,128,0,97559:0:0:0:0:
448,192,97493,128,0,97825:0:0:0:0:
320,192,97537,128,0,97692:0:0:0:0:
192,192,97626,128,0,97825:0:0:0:0:
64,192,97626,128,0,97692:0:0:0:0:
320,192,97758,128,0,97958:0:0:0:0:
64,192,97758,128,0,97825:0:0:0:0:
448,192,97891,128,0,97958:0:0:0:0:
192,192,97891,128,0,98090:0:0:0:0:
320,192,98024,128,0,98090:0:0:0:0:
64,192,98024,128,0,98157:0:0:0:0:
192,192,98157,128,0,98289:0:0:0:0:
320,192,98157,128,0,98356:0:0:0:0:
448,192,98157,128,0,98223:0:0:0:0:
64,192,98223,128,0,98422:0:0:0:0:
448,192,98289,128,0,98356:0:0:0:0:
192,192,98356,128,0,98422:0:0:0:0:
320,192,98422,128,0,98555:0:0:0:0:
448,192,98422,128,0,98621:0:0:0:0:
64,192,98488,128,0,98621:0:0:0:0:
192,192,98555,128,0,98654:0:0:0:0:
320,192,98621,128,0,98688:0:0:0:0:
64,192,98688,128,0,98754:0:0:0:0:
448,192,98688,128,0,98887:0:0:0:0:
192,192,98721,128,0,98953:0:0:0:0:
320,192,98754,128,0,98854:0:0:0:0:
64,192,98820,128,0,98887:0:0:0:0:
320,192,98920,128,0,98986:0:0:0:0:
448,192,98953,128,0,99019:0:0:0:0:
64,192,98953,128,0,99053:0:0:0:0:
192,192,99019,128,0,99086:0:0:0:0:
320,192,99053,128,0,99219:0:0:0:0:
448,192,99086,128,0,99152:0:0:0:0:
192,192,99152,128,0,99252:0:0:0:0:
64,192,99219,128,0,99285:0:0:0:0:
448,192,99219,128,0,99351:0:0:0:0:
320,192,99285,128,0,99335:0:0:0:0:
192,192,99351,128,0,99418:0:0:0:0:
320,192,99384,128,0,99451:0:0:0:0:
448,192,99418,128,0,99484:0:0:0:0:
192,192,99484,128,0,99683:0:0:0:0:
64,192,99484,128,0,99550:0:0:0:0:
320,192,99550,128,0,99617:0:0:0:0:
64,192,99617,128,0,99683:0:0:0:0:
320,192,99683,128,0,99849:0:0:0:0:
64,192,99750,128,0,99816:0:0:0:0:
448,192,99750,128,0,99949:0:0:0:0:
192,192,99816,128,0,99882:0:0:0:0:
64,192,99882,128,0,99949:0:0:0:0:
320,192,99915,128,0,100015:0:0:0:0:
192,192,99949,128,0,100015:0:0:0:0:
448,192,100015,128,0,100081:0:0:0:0:
64,192,100015,128,0,100115:0:0:0:0:
320,192,100081,128,0,100214:0:0:0:0:
448,192,100148,128,0,100214:0:0:0:0:
64,192,100181,128,0,100281:0:0:0:0:
192,192,100214,128,0,100314:0:0:0:0:
320,192,100281,128,0,100347:0:0:0:0:
448,192,100281,128,0,100480:0:0:0:0:
64,192,100347,128,0,100413:0:0:0:0:
192,192,100380,128,0,100579:0:0:0:0:
320,192,100413,128,0,100480:0:0:0:0:
64,192,100480,128,0,100546:0:0:0:0:
448,192,100546,128,0,100612:0:0:0:0:
320,192,100546,128,0,100679:0:0:0:0:
64,192,100612,128,0,100745:0:0:0:0:
192,192,100646,128,0,100778:0:0:0:0:
448,192,100679,128,0,100745:0:0:0:0:
320,192,100745,128,0,100811:0:0:0:0:
64,192,100811,128,0,101210:0:0:0:0:
448,192,100811,128,0,101011:0:0:0:0:
192,192,100878,128,0,100944:0:0:0:0:
320,192,100944,128,0,101011:0:0:0:0:
192,192,101011,128,0,101077:0:0:0:0:
320,192,101077,128,0,101143:0:0:0:0:
448,192,101077,128,0,101177:0:0:0:0:
192,192,101143,128,0,101210:0:0:0:0:
320,192,101210,128,0,101276:0:0:0:0:
448,192,101243,128,0,101293:0:0:0:0:
192,192,101276,128,0,101342:0:0:0:0:
64,192,101309,128,0,101359:0:0:0:0:
320,192,101342,128,0,101453:0:0:0:0:
448,192,101342,128,0,101807:0:0:0:0:
192,192,101431,128,0,101542:0:0:0:0:
64,192,101475,128,0,101542:0:0:0:0:
320,192,101519,128,0,101630:0:0:0:0:
192,192,101608,128,0,101719:0:0:0:0:
64,192,101608,128,0,101674:0:0:0:0:
320,192,101696,128,0,101807:0:0:0:0:
64,192,101741,128,0,102139:0:0:0:0:
192,192,101785,128,0,101873:0:0:0:0:
448,192,101873,128,0,101940:0:0:0:0:
320,192,101873,128,0,101940:0:0:0:0:
192,192,101940,128,0,102006:0:0:0:0:
320,192,102006,128,0,102073:0:0:0:0:
192,192,102073,128,0,102139:0:0:0:0:
448,192,102139,128,0,102338:0:0:0:0:
320,192,102139,128,0,102205:0:0:0:0:
192,192,102205,128,0,102272:0:0:0:0:
320,192,102272,128,0,102338:0:0:0:0:
192,192,102338,128,0,102404:0:0:0:0:
320,192,102404,128,0,102471:0:0:0:0:
448,192,102404,128,0,102471:0:0:0:0:
64,192,102404,128,0,102471:0:0:0:0:
448,192,102537,128,0,102604:0:0:0:0:
64,192,102670,128,0,102736:0:0:0:0:
64,192,102803,128,0,102869:0:0:0:0:
320,192,102935,128,0,103134:0:0:0:0:
320,192,103201,128,0,103466:0:0:0:0:
192,192,103223,128,0,103555:0:0:0:0:
64,192,103245,128,0,103400:0:0:0:0:
64,192,103466,128,0,103533:0:0:0:0:
320,192,103555,128,0,103643:0:0:0:0:
64,192,103599,128,0,103665:0:0:0:0:
192,192,103643,128,0,103732:0:0:0:0:
320,192,103732,128,0,103798:0:0:0:0:
192,192,103798,128,0,103865:0:0:0:0:
320,192,103865,128,0,103931:0:0:0:0:
192,192,103931,128,0,103997:0:0:0:0:
320,192,103997,128,0,104130:0:0:0:0:
64,192,104528,128,0,104595:0:0:0:0:
448,192,104528,128,0,104595:0:0:0:0:
192,192,104573,128,0,104661:0:0:0:0:
320,192,104617,128,0,104727:0:0:0:0:
448,192,104661,128,0,104727:0:0:0:0:
64,192,104661,128,0,104794:0:0:0:0:
192,192,104727,128,0,104860:0:0:0:0:
448,192,104794,128,0,104860:0:0:0:0:
320,192,104794,128,0,104860:0:0:0:0:
64,192,104860,128,0,104993:0:0:0:0:
320,192,104927,128,0,105037:0:0:0:0:
448,192,104927,128,0,104993:0:0:0:0:
192,192,104993,128,0,105081:0:0:0:0:
64,192,105059,128,0,105126:0:0:0:0:
448,192,105059,128,0,105214:0:0:0:0:
320,192,105104,128,0,105170:0:0:0:0:
192,192,105148,128,0,105258:0:0:0:0:
64,192,105192,128,0,105258:0:0:0:0:
320,192,105236,128,0,105325:0:0:0:0:
448,192,105281,128,0,105391:0:0:0:0:
192,192,105325,128,0,105391:0:0:0:0:
64,192,105325,128,0,105391:0:0:0:0:
320,192,105391,128,0,105524:0:0:0:0:
64,192,105458,128,0,105524:0:0:0:0:
192,192,105458,128,0,105524:0:0:0:0:
448,192,105524,128,0,105590:0:0:0:0:
320,192,105590,128,0,105657:0:0:0:0:
192,192,105590,128,0,105789:0:0:0:0:
64,192,105590,128,0,105723:0:0:0:0:
448,192,105657,128,0,105789:0:0:0:0:
320,192,105723,128,0,105789:0:0:0:0:
64,192,105789,128,0,105856:0:0:0:0:
192,192,105856,128,0,105922:0:0:0:0:
320,192,105856,128,0,105988:0:0:0:0:
448,192,105856,128,0,106055:0:0:0:0:
64,192,105922,128,0,106055:0:0:0:0:
192,192,105988,128,0,106055:0:0:0:0:
320,192,106055,128,0,106121:0:0:0:0:
448,192,106121,128,0,106188:0:0:0:0:
192,192,106121,128,0,106276:0:0:0:0:
64,192,106121,128,0,106232:0:0:0:0:
320,192,106188,128,0,106365:0:0:0:0:
448,192,106254,128,0,106320:0:0:0:0:
64,192,106298,128,0,106409:0:0:0:0:
192,192,106342,128,0,106542:0:0:0:0:
448,192,106387,128,0,106453:0:0:0:0:
320,192,106431,128,0,106497:0:0:0:0:
64,192,106475,128,0,106586:0:0:0:0:
448,192,106519,128,0,106586:0:0:0:0:
320,192,106564,128,0,106630:0:0:0:0:
192,192,106608,128,0,106674:0:0:0:0:
448,192,106652,128,0,106807:0:0:0:0:
64,192,106652,128,0,106719:0:0:0:0:
320,192,106696,128,0,106763:0:0:0:0:
192,192,106741,128,0,106918:0:0:0:0:
64,192,106785,128,0,106851:0:0:0:0:
320,192,106829,128,0,106984:0:0:0:0:
448,192,106873,128,0,106984:0:0:0:0:
64,192,106918,128,0,107028:0:0:0:0:
192,192,106984,128,0,107073:0:0:0:0:
320,192,107050,128,0,107117:0:0:0:0:
448,192,107095,128,0,107183:0:0:0:0:
64,192,107095,128,0,107161:0:0:0:0:
192,192,107139,128,0,107205:0:0:0:0:
320,192,107183,128,0,107250:0:0:0:0:
64,192,107227,128,0,107294:0:0:0:0:
192,192,107272,128,0,107338:0:0:0:0:
320,192,107316,128,0,107382:0:0:0:0:
448,192,107316,128,0,107382:0:0:0:0:
64,192,107382,128,0,107449:0:0:0:0:
320,192,107449,128,0,107537:0:0:0:0:
448,192,107449,128,0,107604:0:0:0:0:
64,192,107493,128,0,107648:0:0:0:0:
192,192,107537,128,0,107648:0:0:0:0:
320,192,107604,128,0,107714:0:0:0:0:
448,192,107670,128,0,107714:0:0:0:0:
192,192,107714,128,0,107781:0:0:0:0:
64,192,107714,128,0,107781:0:0:0:0:
448,192,107781,128,0,107913:0:0:0:0:
192,192,107847,128,0,107913:0:0:0:0:
64,192,107847,128,0,107913:0:0:0:0:
320,192,107913,128,0,108046:0:0:0:0:
64,192,107980,128,0,108046:0:0:0:0:
192,192,107980,128,0,108046:0:0:0:0:
448,192,108046,128,0,108179:0:0:0:0:
64,192,108112,128,0,108179:0:0:0:0:
192,192,108112,128,0,108223:0:0:0:0:
320,192,108179,128,0,108378:0:0:0:0:
64,192,108245,128,0,108444:0:0:0:0:
448,192,108245,128,0,108311:0:0:0:0:
192,192,108289,128,0,108444:0:0:0:0:
448,192,108378,128,0,108511:0:0:0:0:
320,192,108444,128,0,108511:0:0:0:0:
192,192,108511,128,0,108665:0:0:0:0:
64,192,108511,128,0,108599:0:0:0:0:
448,192,108555,128,0,108710:0:0:0:0:
320,192,108599,128,0,108710:0:0:0:0:
64,192,108665,128,0,108776:0:0:0:0:
192,192,108732,128,0,108842:0:0:0:0:
320,192,108776,128,0,108842:0:0:0:0:
448,192,108776,128,0,108842:0:0:0:0:
64,192,108842,128,0,108975:0:0:0:0:
320,192,108909,128,0,108975:0:0:0:0:
448,192,108909,128,0,108975:0:0:0:0:
192,192,108975,128,0,109108:0:0:0:0:
448,192,109042,128,0,109108:0:0:0:0:
320,192,109042,128,0,109108:0:0:0:0:
64,192,109108,128,0,109241:0:0:0:0:
448,192,109174,128,0,109241:0:0:0:0:
320,192,109174,128,0,109285:0:0:0:0:
192,192,109241,128,0,109440:0:0:0:0:
64,192,109307,128,0,109373:0:0:0:0:
448,192,109307,128,0,109506:0:0:0:0:
320,192,109351,128,0,109506:0:0:0:0:
64,192,109440,128,0,109573:0:0:0:0:
192,192,109506,128,0,109573:0:0:0:0:
320,192,109573,128,0,109727:0:0:0:0:
448,192,109573,128,0,109661:0:0:0:0:
64,192,109617,128,0,109772:0:0:0:0:
192,192,109661,128,0,109772:0:0:0:0:
448,192,109727,128,0,109838:0:0:0:0:
320,192,109794,128,0,109904:0:0:0:0:
192,192,109838,128,0,109904:0:0:0:0:
64,192,109838,128,0,109904:0:0:0:0:
448,192,109904,128,0,110037:0:0:0:0:
192,192,109971,128,0,110037:0:0:0:0:
64,192,109971,128,0,110037:0:0:0:0:
320,192,110037,128,0,110170:0:0:0:0:
64,192,110104,128,0,110170:0:0:0:0:
192,192,110104,128,0,110170:0:0:0:0:
448,192,110170,128,0,110303:0:0:0:0:
64,192,110236,128,0,110303:0:0:0:0:
192,192,110236,128,0,110347:0:0:0:0:
320,192,110303,128,0,110458:0:0:0:0:
448,192,110369,128,0,110435:0:0:0:0:
64,192,110369,128,0,110568:0:0:0:0:
192,192,110413,128,0,110480:0:0:0:0:
448,192,110502,128,0,110634:0:0:0:0:
192,192,110546,128,0,110612:0:0:0:0:
320,192,110590,128,0,110745:0:0:0:0:
64,192,110634,128,0,110701:0:0:0:0:
192,192,110679,128,0,110789:0:0:0:0:
448,192,110723,128,0,110767:0:0:0:0:
64,192,110767,128,0,110811:0:0:0:0:
448,192,110811,128,0,110900:0:0:0:0:
64,192,110856,128,0,110900:0:0:0:0:
320,192,110900,128,0,110988:0:0:0:0:
192,192,110900,128,0,110944:0:0:0:0:
448,192,110966,128,0,111033:0:0:0:0:
192,192,111011,128,0,111099:0:0:0:0:
320,192,111055,128,0,111143:0:0:0:0:
448,192,111099,128,0,111298:0:0:0:0:
192,192,111165,128,0,111232:0:0:0:0:
64,192,111165,128,0,111210:0:0:0:0:
320,192,111210,128,0,111298:0:0:0:0:
64,192,111254,128,0,111365:0:0:0:0:
192,192,111298,128,0,111409:0:0:0:0:
320,192,111365,128,0,111475:0:0:0:0:
448,192,111431,128,0,111475:0:0:0:0:
64,192,111431,128,0,111564:0:0:0:0:
192,192,111475,128,0,111564:0:0:0:0:
448,192,111519,128,0,111630:0:0:0:0:
320,192,111564,128,0,111674:0:0:0:0:
192,192,111630,128,0,111741:0:0:0:0:
64,192,111696,128,0,111741:0:0:0:0:
448,192,111696,128,0,111896:0:0:0:0:
320,192,111741,128,0,111829:0:0:0:0:
64,192,111785,128,0,111896:0:0:0:0:
192,192,111829,128,0,111962:0:0:0:0:
320,192,111896,128,0,111962:0:0:0:0:
448,192,111962,128,0,112028:0:0:0:0:
64,192,111962,128,0,112161:0:0:0:0:
192,192,112028,128,0,112095:0:0:0:0:
448,192,112095,128,0,112161:0:0:0:0:
320,192,112095,128,0,112227:0:0:0:0:
192,192,112161,128,0,112338:0:0:0:0:
64,192,112227,128,0,112427:0:0:0:0:
448,192,112227,128,0,112294:0:0:0:0:
320,192,112294,128,0,112382:0:0:0:0:
448,192,112360,128,0,112427:0:0:0:0:
192,192,112404,128,0,112493:0:0:0:0:
320,192,112449,128,0,112559:0:0:0:0:
448,192,112493,128,0,112626:0:0:0:0:
64,192,112493,128,0,112559:0:0:0:0:
192,192,112559,128,0,112692:0:0:0:0:
64,192,112626,128,0,112692:0:0:0:0:
320,192,112626,128,0,112758:0:0:0:0:
448,192,112692,128,0,112825:0:0:0:0:
192,192,112758,128,0,112891:0:0:0:0:
64,192,112758,128,0,112825:0:0:0:0:
320,192,112825,128,0,112958:0:0:0:0:
64,192,112891,128,0,112958:0:0:0:0:
448,192,112891,128,0,112958:0:0:0:0:
192,192,112958,128,0,113046:0:0:0:0:
448,192,113024,128,0,113134:0:0:0:0:
320,192,113024,128,0,113090:0:0:0:0:
64,192,113024,128,0,113223:0:0:0:0:
192,192,113112,128,0,113223:0:0:0:0:
320,192,113157,128,0,113223:0:0:0:0:
448,192,113201,128,0,113311:0:0:0:0:
320,192,113289,128,0,113488:0:0:0:0:
192,192,113289,128,0,113356:0:0:0:0:
64,192,113289,128,0,113400:0:0:0:0:
448,192,113378,128,0,113488:0:0:0:0:
192,192,113422,128,0,113488:0:0:0:0:
64,192,113466,128,0,113555:0:0:0:0:
192,192,113555,128,0,113754:0:0:0:0:
320,192,113555,128,0,113665:0:0:0:0:
448,192,113555,128,0,113621:0:0:0:0:
64,192,113643,128,0,113754:0:0:0:0:
448,192,113688,128,0,113754:0:0:0:0:
320,192,113732,128,0,113842:0:0:0:0:
448,192,113820,128,0,114019:0:0:0:0:
192,192,113820,128,0,113931:0:0:0:0:
64,192,113820,128,0,113887:0:0:0:0:
320,192,113909,128,0,114064:0:0:0:0:
64,192,113953,128,0,114019:0:0:0:0:
192,192,113997,128,0,114108:0:0:0:0:
64,192,114086,128,0,114152:0:0:0:0:
448,192,114086,128,0,114285:0:0:0:0:
320,192,114130,128,0,114285:0:0:0:0:
192,192,114174,128,0,114219:0:0:0:0:
64,192,114219,128,0,114351:0:0:0:0:
192,192,114285,128,0,114418:0:0:0:0:
320,192,114351,128,0,114484:0:0:0:0:
448,192,114351,128,0,114418:0:0:0:0:
64,192,114418,128,0,114550:0:0:0:0:
192,192,114484,128,0,114617:0:0:0:0:
448,192,114484,128,0,114550:0:0:0:0:
320,192,114550,128,0,114661:0:0:0:0:
448,192,114617,128,0,114705:0:0:0:0:
64,192,114617,128,0,114816:0:0:0:0:
192,192,114683,128,0,114772:0:0:0:0:
320,192,114727,128,0,114882:0:0:0:0:
448,192,114772,128,0,114816:0:0:0:0:
192,192,114838,128,0,114927:0:0:0:0:
64,192,114882,128,0,114971:0:0:0:0:
448,192,114882,128,0,115081:0:0:0:0:
320,192,114949,128,0,115037:0:0:0:0:
192,192,114993,128,0,115126:0:0:0:0:
64,192,115037,128,0,115081:0:0:0:0:
320,192,115104,128,0,115170:0:0:0:0:
64,192,115148,128,0,115303:0:0:0:0:
448,192,115148,128,0,115214:0:0:0:0:
192,192,115192,128,0,115258:0:0:0:0:
320,192,115236,128,0,115413:0:0:0:0:
448,192,115281,128,0,115347:0:0:0:0:
192,192,115325,128,0,115480:0:0:0:0:
64,192,115369,128,0,115480:0:0:0:0:
448,192,115413,128,0,115524:0:0:0:0:
320,192,115480,128,0,115568:0:0:0:0:
192,192,115546,128,0,115612:0:0:0:0:
64,192,115590,128,0,115679:0:0:0:0:
448,192,115590,128,0,115657:0:0:0:0:
320,192,115634,128,0,115701:0:0:0:0:
192,192,115679,128,0,115745:0:0:0:0:
448,192,115723,128,0,115789:0:0:0:0:
320,192,115767,128,0,115834:0:0:0:0:
192,192,115811,128,0,115878:0:0:0:0:
64,192,115811,128,0,115878:0:0:0:0:
448,192,115878,128,0,115944:0:0:0:0:
192,192,115944,128,0,116033:0:0:0:0:
64,192,115944,128,0,116099:0:0:0:0:
448,192,115988,128,0,116143:0:0:0:0:
320,192,116033,128,0,116143:0:0:0:0:
192,192,116099,128,0,116210:0:0:0:0:
64,192,116165,128,0,116210:0:0:0:0:
320,192,116210,128,0,116276:0:0:0:0:
448,192,116210,128,0,116276:0:0:0:0:
64,192,116276,128,0,116409:0:0:0:0:
320,192,116342,128,0,116409:0:0:0:0:
448,192,116342,128,0,116409:0:0:0:0:
192,192,116409,128,0,116542:0:0:0:0:
448,192,116475,128,0,116542:0:0:0:0:
320,192,116475,128,0,116542:0:0:0:0:
64,192,116542,128,0,116674:0:0:0:0:
448,192,116608,128,0,116674:0:0:0:0:
320,192,116608,128,0,116719:0:0:0:0:
192,192,116674,128,0,116873:0:0:0:0:
448,192,116741,128,0,116940:0:0:0:0:
64,192,116741,128,0,116807:0:0:0:0:
320,192,116785,128,0,116940:0:0:0:0:
64,192,116873,128,0,117006:0:0:0:0:
192,192,116940,128,0,117006:0:0:0:0:
320,192,117006,128,0,117161:0:0:0:0:
448,192,117006,128,0,117095:0:0:0:0:
64,192,117050,128,0,117205:0:0:0:0:
192,192,117095,128,0,117205:0:0:0:0:
448,192,117161,128,0,117272:0:0:0:0:
320,192,117227,128,0,117338:0:0:0:0:
192,192,117272,128,0,117338:0:0:0:0:
64,192,117272,128,0,117338:0:0:0:0:
448,192,117338,128,0,117471:0:0:0:0:
192,192,117404,128,0,117471:0:0:0:0:
64,192,117404,128,0,117471:0:0:0:0:
320,192,117471,128,0,117604:0:0:0:0:
64,192,117537,128,0,117604:0:0:0:0:
192,192,117537,128,0,117604:0:0:0:0:
448,192,117604,128,0,117736:0:0:0:0:
64,192,117670,128,0,117736:0:0:0:0:
192,192,117670,128,0,117781:0:0:0:0:
320,192,117736,128,0,117935:0:0:0:0:
448,192,117803,128,0,117869:0:0:0:0:
64,192,117803,128,0,118002:0:0:0:0:
192,192,117847,128,0,118002:0:0:0:0:
448,192,117935,128,0,118068:0:0:0:0:
320,192,118002,128,0,118068:0:0:0:0:
192,192,118068,128,0,118223:0:0:0:0:
64,192,118068,128,0,118157:0:0:0:0:
448,192,118112,128,0,118267:0:0:0:0:
320,192,118157,128,0,118267:0:0:0:0:
64,192,118223,128,0,118334:0:0:0:0:
192,192,118289,128,0,118400:0:0:0:0:
320,192,118334,128,0,118400:0:0:0:0:
448,192,118334,128,0,118400:0:0:0:0:
64,192,118400,128,0,118533:0:0:0:0:
320,192,118466,128,0,118533:0:0:0:0:
448,192,118466,128,0,118533:0:0:0:0:
192,192,118533,128,0,118665:0:0:0:0:
448,192,118599,128,0,118665:0:0:0:0:
320,192,118599,128,0,118665:0:0:0:0:
64,192,118665,128,0,118798:0:0:0:0:
448,192,118732,128,0,118798:0:0:0:0:
320,192,118732,128,0,118842:0:0:0:0:
192,192,118798,128,0,118931:0:0:0:0:
64,192,118865,128,0,118931:0:0:0:0:
448,192,118865,128,0,119064:0:0:0:0:
320,192,118909,128,0,118975:0:0:0:0:
64,192,118997,128,0,119064:0:0:0:0:
192,192,118997,128,0,119196:0:0:0:0:
320,192,119064,128,0,119152:0:0:0:0:
448,192,119130,128,0,119174:0:0:0:0:
64,192,119174,128,0,119263:0:0:0:0:
448,192,119219,128,0,119329:0:0:0:0:
320,192,119263,128,0,119329:0:0:0:0:
64,192,119307,128,0,119396:0:0:0:0:
192,192,119351,128,0,119396:0:0:0:0:
448,192,119396,128,0,119506:0:0:0:0:
320,192,119396,128,0,119462:0:0:0:0:
192,192,119484,128,0,119595:0:0:0:0:
64,192,119528,128,0,119595:0:0:0:0:
320,192,119528,128,0,119683:0:0:0:0:
448,192,119573,128,0,119727:0:0:0:0:
192,192,119661,128,0,119727:0:0:0:0:
64,192,119661,128,0,119772:0:0:0:0:
320,192,119750,128,0,119860:0:0:0:0:
448,192,119794,128,0,119860:0:0:0:0:
192,192,119794,128,0,119904:0:0:0:0:
64,192,119838,128,0,119949:0:0:0:0:
448,192,119927,128,0,119993:0:0:0:0:
320,192,119927,128,0,119993:0:0:0:0:
192,192,119971,128,0,120059:0:0:0:0:
64,192,120015,128,0,120126:0:0:0:0:
320,192,120059,128,0,120214:0:0:0:0:
192,192,120126,128,0,120170:0:0:0:0:
448,192,120192,128,0,120258:0:0:0:0:
64,192,120192,128,0,120325:0:0:0:0:
192,192,120236,128,0,120325:0:0:0:0:
320,192,120281,128,0,120435:0:0:0:0:
448,192,120325,128,0,120391:0:0:0:0:
192,192,120391,128,0,120480:0:0:0:0:
64,192,120458,128,0,120524:0:0:0:0:
448,192,120458,128,0,120590:0:0:0:0:
320,192,120502,128,0,120590:0:0:0:0:
192,192,120546,128,0,120723:0:0:0:0:
64,192,120590,128,0,120657:0:0:0:0:
320,192,120657,128,0,120723:0:0:0:0:
64,192,120723,128,0,120789:0:0:0:0:
448,192,120723,128,0,120922:0:0:0:0:
320,192,120789,128,0,120856:0:0:0:0:
192,192,120856,128,0,120966:0:0:0:0:
64,192,120856,128,0,120922:0:0:0:0:
320,192,120922,128,0,121011:0:0:0:0:
448,192,120988,128,0,121055:0:0:0:0:
64,192,120988,128,0,121077:0:0:0:0:
192,192,121033,128,0,121121:0:0:0:0:
320,192,121077,128,0,121188:0:0:0:0:
448,192,121121,128,0,121188:0:0:0:0:
192,192,121188,128,0,121320:0:0:0:0:
320,192,121254,128,0,121387:0:0:0:0:
448,192,121254,128,0,121320:0:0:0:0:
64,192,121320,128,0,121453:0:0:0:0:
192,192,121387,128,0,121453:0:0:0:0:
448,192,121387,128,0,121453:0:0:0:0:
320,192,121453,128,0,121519:0:0:0:0:
64,192,121519,128,0,121586:0:0:0:0:
448,192,121519,128,0,121719:0:0:0:0:
192,192,121519,128,0,121586:0:0:0:0:
320,192,121586,128,0,121652:0:0:0:0:
64,192,121652,128,0,121719:0:0:0:0:
192,192,121652,128,0,121785:0:0:0:0:
320,192,121719,128,0,121896:0:0:0:0:
448,192,121785,128,0,121984:0:0:0:0:
64,192,121785,128,0,121851:0:0:0:0:
192,192,121851,128,0,121940:0:0:0:0:
64,192,121918,128,0,121984:0:0:0:0:
320,192,121962,128,0,122050:0:0:0:0:
192,192,122006,128,0,122117:0:0:0:0:
64,192,122050,128,0,122183:0:0:0:0:
448,192,122050,128,0,122117:0:0:0:0:
320,192,122117,128,0,122250:0:0:0:0:
448,192,122183,128,0,122250:0:0:0:0:
192,192,122183,128,0,122316:0:0:0:0:
64,192,122250,128,0,122382:0:0:0:0:
320,192,122316,128,0,122449:0:0:0:0:
448,192,122316,128,0,122515:0:0:0:0:
192,192,122382,128,0,122548:0:0:0:0:
64,192,122449,128,0,122515:0:0:0:0:
320,192,122515,128,0,122581:0:0:0:0:
64,192,122581,128,0,122648:0:0:0:0:
448,192,122581,128,0,122781:0:0:0:0:
192,192,122615,128,0,122714:0:0:0:0:
320,192,122648,128,0,122814:0:0:0:0:
64,192,122714,128,0,122781:0:0:0:0:
192,192,122781,128,0,122847:0:0:0:0:
448,192,122847,128,0,122913:0:0:0:0:
64,192,122847,128,0,123046:0:0:0:0:
320,192,122880,128,0,122980:0:0:0:0:
192,192,122913,128,0,123079:0:0:0:0:
448,192,122980,128,0,123046:0:0:0:0:
320,192,123046,128,0,123112:0:0:0:0:
64,192,123112,128,0,123179:0:0:0:0:
448,192,123112,128,0,123311:0:0:0:0:
192,192,123146,128,0,123245:0:0:0:0:
320,192,123179,128,0,123345:0:0:0:0:
64,192,123245,128,0,123311:0:0:0:0:
192,192,123311,128,0,123378:0:0:0:0:
64,192,123378,128,0,123577:0:0:0:0:
448,192,123378,128,0,123444:0:0:0:0:
320,192,123411,128,0,123577:0:0:0:0:
192,192,123444,128,0,123577:0:0:0:0:
448,192,123511,128,0,123577:0:0:0:0:
320,192,123643,128,0,123710:0:0:0:0:
448,192,123643,128,0,123975:0:0:0:0:
192,192,123643,128,0,123710:0:0:0:0:
64,192,123643,128,0,123710:0:0:0:0:
320,192,123776,128,0,123975:0:0:0:0:
192,192,123776,128,0,123842:0:0:0:0:
64,192,123776,128,0,123842:0:0:0:0:
64,192,123909,128,0,123975:0:0:0:0:
192,192,123909,128,0,123975:0:0:0:0:
64,192,124042,128,0,124373:0:0:0:0:
320,192,124042,128,0,124108:0:0:0:0:
448,192,124042,128,0,124108:0:0:0:0:
192,192,124042,128,0,124108:0:0:0:0:
448,192,124174,128,0,124241:0:0:0:0:
320,192,124174,128,0,124241:0:0:0:0:
192,192,124174,128,0,124373:0:0:0:0:
448,192,124307,128,0,124373:0:0:0:0:
320,192,124307,128,0,124373:0:0:0:0:
448,192,124440,128,0,124772:0:0:0:0:
192,192,124440,128,0,124506:0:0:0:0:
64,192,124440,128,0,124506:0:0:0:0:
320,192,124440,128,0,124506:0:0:0:0:
320,192,124573,128,0,124772:0:0:0:0:
192,192,124573,128,0,124639:0:0:0:0:
64,192,124573,128,0,124639:0:0:0:0:
64,192,124705,128,0,124772:0:0:0:0:
192,192,124705,128,0,124772:0:0:0:0:
64,192,124838,128,0,125170:0:0:0:0:
320,192,124838,128,0,124904:0:0:0:0:
448,192,124838,128,0,124904:0:0:0:0:
192,192,124838,128,0,124904:0:0:0:0:
448,192,124971,128,0,125037:0:0:0:0:
320,192,124971,128,0,125037:0:0:0:0:
192,192,124971,128,0,125170:0:0:0:0:
448,192,125104,128,0,125170:0:0:0:0:
320,192,125104,128,0,125170:0:0:0:0:
448,192,125236,128,0,125303:0:0:0:0:
320,192,125236,128,0,125303:0:0:0:0:
192,192,125236,128,0,125303:0:0:0:0:
64,192,125236,128,0,125303:0:0:0:0:
64,192,125369,128,0,125435:0:0:0:0:
448,192,125369,128,0,125435:0:0:0:0:
192,192,125369,128,0,125435:0:0:0:0:
320,192,125369,128,0,125435:0:0:0:0:
192,192,125502,128,0,125568:0:0:0:0:
320,192,125502,128,0,125568:0:0:0:0:
64,192,125502,128,0,125568:0:0:0:0:
448,192,125502,128,0,125568:0:0:0:0:
320,192,125634,128,0,125701:0:0:0:0:
192,192,125634,128,0,125701:0:0:0:0:
64,192,125767,128,0,125834:0:0:0:0:
192,192,125767,128,0,125834:0:0:0:0:
448,192,125767,128,0,126099:0:0:0:0:
320,192,125767,128,0,125834:0:0:0:0:
64,192,125900,128,0,125966:0:0:0:0:
192,192,125900,128,0,125966:0:0:0:0:
320,192,125900,128,0,126099:0:0:0:0:
192,192,126033,128,0,126099:0:0:0:0:
64,192,126033,128,0,126099:0:0:0:0:
448,192,126165,128,0,126232:0:0:0:0:
320,192,126165,128,0,126232:0:0:0:0:
64,192,126165,128,0,126497:0:0:0:0:
192,192,126165,128,0,126232:0:0:0:0:
192,192,126298,128,0,126497:0:0:0:0:
320,192,126298,128,0,126365:0:0:0:0:
448,192,126298,128,0,126365:0:0:0:0:
320,192,126431,128,0,126497:0:0:0:0:
448,192,126431,128,0,126497:0:0:0:0:
448,192,126564,128,0,126896:0:0:0:0:
192,192,126564,128,0,126630:0:0:0:0:
64,192,126564,128,0,126630:0:0:0:0:
320,192,126564,128,0,126630:0:0:0:0:
320,192,126696,128,0,126896:0:0:0:0:
192,192,126696,128,0,126763:0:0:0:0:
64,192,126696,128,0,126763:0:0:0:0:
64,192,126829,128,0,126896:0:0:0:0:
192,192,126829,128,0,126896:0:0:0:0:
64,192,126962,128,0,127294:0:0:0:0:
320,192,126962,128,0,127028:0:0:0:0:
448,192,126962,128,0,127028:0:0:0:0:
192,192,126962,128,0,127028:0:0:0:0:
448,192,127095,128,0,127161:0:0:0:0:
320,192,127095,128,0,127161:0:0:0:0:
192,192,127095,128,0,127294:0:0:0:0:
448,192,127227,128,0,127294:0:0:0:0:
320,192,127227,128,0,127294:0:0:0:0:
64,192,127360,128,0,127427:0:0:0:0:
192,192,127360,128,0,127427:0:0:0:0:
448,192,127360,128,0,127692:0:0:0:0:
320,192,127360,128,0,127559:0:0:0:0:
192,192,127493,128,0,127559:0:0:0:0:
64,192,127493,128,0,127825:0:0:0:0:
320,192,127626,128,0,127692:0:0:0:0:
192,192,127626,128,0,127825:0:0:0:0:
448,192,127758,128,0,127825:0:0:0:0:
320,192,127758,128,0,127825:0:0:0:0:
192,192,127891,128,0,128090:0:0:0:0:
448,192,127891,128,0,127980:0:0:0:0:
64,192,127891,128,0,127935:0:0:0:0:
320,192,127958,128,0,128112:0:0:0:0:
64,192,128002,128,0,128267:0:0:0:0:
448,192,128046,128,0,128134:0:0:0:0:
192,192,128157,128,0,128245:0:0:0:0:
320,192,128179,128,0,128223:0:0:0:0:
448,192,128201,128,0,128555:0:0:0:0:
320,192,128289,128,0,128555:0:0:0:0:
192,192,128311,128,0,128555:0:0:0:0:
64,192,128334,128,0,128555:0:0:0:0:
320,192,128688,128,0,128887:0:0:0:0:
64,192,128688,128,0,128776:0:0:0:0:
448,192,128688,128,0,128732:0:0:0:0:
192,192,128754,128,0,128909:0:0:0:0:
448,192,128798,128,0,129064:0:0:0:0:
64,192,128842,128,0,128931:0:0:0:0:
320,192,128953,128,0,129042:0:0:0:0:
192,192,128975,128,0,129019:0:0:0:0:
64,192,128997,128,0,129351:0:0:0:0:
192,192,129086,128,0,129351:0:0:0:0:
320,192,129108,128,0,129351:0:0:0:0:
448,192,129130,128,0,129351:0:0:0:0:
64,192,129484,128,0,129750:0:0:0:0:
448,192,129484,128,0,129683:0:0:0:0:
192,192,129506,128,0,129727:0:0:0:0:
320,192,129528,128,0,129705:0:0:0:0:
448,192,129750,128,0,129949:0:0:0:0:
320,192,129772,128,0,130015:0:0:0:0:
192,192,129794,128,0,129949:0:0:0:0:
64,192,129816,128,0,129949:0:0:0:0:
64,192,130015,128,0,130059:0:0:0:0:
448,192,130015,128,0,130104:0:0:0:0:
192,192,130015,128,0,130214:0:0:0:0:
320,192,130081,128,0,130236:0:0:0:0:
64,192,130126,128,0,130391:0:0:0:0:
448,192,130170,128,0,130258:0:0:0:0:
192,192,130281,128,0,130369:0:0:0:0:
320,192,130303,128,0,130347:0:0:0:0:
448,192,130325,128,0,130413:0:0:0:0:
320,192,130413,128,0,130679:0:0:0:0:
192,192,130435,128,0,130679:0:0:0:0:
64,192,130458,128,0,130679:0:0:0:0:
448,192,130480,128,0,130679:0:0:0:0:
448,192,130811,128,0,130856:0:0:0:0:
64,192,130811,128,0,130900:0:0:0:0:
320,192,130811,128,0,131011:0:0:0:0:
192,192,130878,128,0,131033:0:0:0:0:
448,192,130922,128,0,131188:0:0:0:0:
64,192,130966,128,0,131055:0:0:0:0:
320,192,131077,128,0,131165:0:0:0:0:
192,192,131099,128,0,131143:0:0:0:0:
64,192,131121,128,0,131276:0:0:0:0:
192,192,131210,128,0,131409:0:0:0:0:
320,192,131232,128,0,131475:0:0:0:0:
448,192,131254,128,0,131475:0:0:0:0:
64,192,131342,128,0,131409:0:0:0:0:
192,192,131475,128,0,131542:0:0:0:0:
448,192,131608,128,0,131674:0:0:0:0:
64,192,131608,128,0,131807:0:0:0:0:
192,192,131652,128,0,131719:0:0:0:0:
320,192,131696,128,0,131763:0:0:0:0:
448,192,131741,128,0,131940:0:0:0:0:
192,192,131785,128,0,131851:0:0:0:0:
320,192,131829,128,0,131896:0:0:0:0:
64,192,131873,128,0,132073:0:0:0:0:
192,192,131918,128,0,132073:0:0:0:0:
320,192,131962,128,0,132073:0:0:0:0:
448,192,132006,128,0,132073:0:0:0:0:
192,192,132139,128,0,132338:0:0:0:0:
448,192,132139,128,0,132227:0:0:0:0:
64,192,132139,128,0,132183:0:0:0:0:
320,192,132205,128,0,132360:0:0:0:0:
64,192,132250,128,0,132515:0:0:0:0:
448,192,132294,128,0,132382:0:0:0:0:
192,192,132404,128,0,132493:0:0:0:0:
320,192,132427,128,0,132471:0:0:0:0:
448,192,132449,128,0,132803:0:0:0:0:
320,192,132537,128,0,132803:0:0:0:0:
192,192,132559,128,0,132803:0:0:0:0:
64,192,132581,128,0,132803:0:0:0:0:
320,192,132935,128,0,133134:0:0:0:0:
64,192,132935,128,0,133024:0:0:0:0:
448,192,132935,128,0,132980:0:0:0:0:
192,192,133002,128,0,133157:0:0:0:0:
448,192,133046,128,0,133311:0:0:0:0:
64,192,133090,128,0,133179:0:0:0:0:
320,192,133201,128,0,133289:0:0:0:0:
192,192,133223,128,0,133267:0:0:0:0:
64,192,133245,128,0,133599:0:0:0:0:
192,192,133334,128,0,133599:0:0:0:0:
320,192,133356,128,0,133599:0:0:0:0:
448,192,133378,128,0,133599:0:0:0:0:
64,192,133732,128,0,133997:0:0:0:0:
448,192,133732,128,0,133931:0:0:0:0:
192,192,133754,128,0,133975:0:0:0:0:
320,192,133776,128,0,133953:0:0:0:0:
448,192,133997,128,0,134196:0:0:0:0:
320,192,134019,128,0,134263:0:0:0:0:
192,192,134042,128,0,134196:0:0:0:0:
64,192,134064,128,0,134196:0:0:0:0:
64,192,134263,128,0,134307:0:0:0:0:
448,192,134263,128,0,134351:0:0:0:0:
192,192,134263,128,0,134462:0:0:0:0:
320,192,134329,128,0,134484:0:0:0:0:
64,192,134373,128,0,134639:0:0:0:0:
448,192,134418,128,0,134506:0:0:0:0:
192,192,134528,128,0,134617:0:0:0:0:
320,192,134550,128,0,134595:0:0:0:0:
448,192,134573,128,0,134661:0:0:0:0:
320,192,134661,128,0,134904:0:0:0:0:
192,192,134683,128,0,134882:0:0:0:0:
64,192,134705,128,0,134860:0:0:0:0:
448,192,134727,128,0,134860:0:0:0:0:
64,192,134927,128,0,135126:0:0:0:0:
448,192,134927,128,0,135126:0:0:0:0:
192,192,134949,128,0,135126:0:0:0:0:
320,192,134971,128,0,135126:0:0:0:0:
448,192,135192,128,0,135236:0:0:0:0:
64,192,135192,128,0,135281:0:0:0:0:
320,192,135192,128,0,135391:0:0:0:0:
192,192,135258,128,0,135413:0:0:0:0:
448,192,135303,128,0,135568:0:0:0:0:
64,192,135347,128,0,135435:0:0:0:0:
320,192,135458,128,0,135546:0:0:0:0:
192,192,135480,128,0,135524:0:0:0:0:
64,192,135502,128,0,135657:0:0:0:0:
192,192,135590,128,0,135789:0:0:0:0:
320,192,135612,128,0,135789:0:0:0:0:
448,192,135634,128,0,135789:0:0:0:0:
64,192,135723,128,0,135789:0:0:0:0:
448,192,135856,128,0,135922:0:0:0:0:
64,192,135856,128,0,136055:0:0:0:0:
192,192,135900,128,0,135966:0:0:0:0:
320,192,135944,128,0,136011:0:0:0:0:
448,192,135988,128,0,136188:0:0:0:0:
192,192,136033,128,0,136099:0:0:0:0:
320,192,136077,128,0,136143:0:0:0:0:
64,192,136121,128,0,136320:0:0:0:0:
192,192,136165,128,0,136232:0:0:0:0:
320,192,136210,128,0,136276:0:0:0:0:
448,192,136254,128,0,136320:0:0:0:0:
192,192,136298,128,0,136365:0:0:0:0:
320,192,136342,128,0,136409:0:0:0:0:
64,192,136387,128,0,136453:0:0:0:0:
448,192,136387,128,0,138444:0:0:0:0:
192,192,136453,128,0,136519:0:0:0:0:
320,192,136519,128,0,136586:0:0:0:0:
192,192,136586,128,0,136652:0:0:0:0:
320,192,136652,128,0,136719:0:0:0:0:
192,192,136719,128,0,136785:0:0:0:0:
320,192,136785,128,0,136851:0:0:0:0:
192,192,136851,128,0,136918:0:0:0:0:
320,192,136918,128,0,137006:0:0:0:0:
192,192,137006,128,0,137095:0:0:0:0:
320,192,137095,128,0,137183:0:0:0:0:
192,192,137183,128,0,137272:0:0:0:0:
320,192,137272,128,0,137360:0:0:0:0:
192,192,137360,128,0,137449:0:0:0:0:
320,192,137449,128,0,137581:0:0:0:0:
192,192,137581,128,0,137714:0:0:0:0:
320,192,137714,128,0,137847:0:0:0:0:
192,192,137847,128,0,137980:0:0:0:0:
320,192,137980,128,0,138112:0:0:0:0:
192,192,138112,128,0,138245:0:0:0:0:
320,192,138245,128,0,138378:0:0:0:0:
192,192,138378,128,0,138511:0:0:0:0:
448,192,138511,128,0,138577:0:0:0:0:
320,192,138511,128,0,138599:0:0:0:0:
64,192,138511,128,0,138776:0:0:0:0:
192,192,138599,128,0,138688:0:0:0:0:
320,192,138688,128,0,138776:0:0:0:0:
192,192,138776,128,0,138865:0:0:0:0:
448,192,138820,128,0,138909:0:0:0:0:
320,192,138865,128,0,138953:0:0:0:0:
192,192,138953,128,0,139042:0:0:0:0:
320,192,139042,128,0,139174:0:0:0:0:
448,192,139108,128,0,139241:0:0:0:0:
192,192,139174,128,0,139307:0:0:0:0:
64,192,139241,128,0,139373:0:0:0:0:
320,192,139307,128,0,139440:0:0:0:0:
192,192,139440,128,0,139573:0:0:0:0:
448,192,139573,128,0,139661:0:0:0:0:
64,192,139573,128,0,139750:0:0:0:0:
320,192,139617,128,0,139727:0:0:0:0:
192,192,139639,128,0,139794:0:0:0:0:
320,192,139794,128,0,139838:0:0:0:0:
448,192,139838,128,0,139971:0:0:0:0:
320,192,139904,128,0,139993:0:0:0:0:
192,192,139949,128,0,140015:0:0:0:0:
64,192,139993,128,0,140037:0:0:0:0:
320,192,140104,128,0,140258:0:0:0:0:
192,192,140148,128,0,140214:0:0:0:0:
64,192,140214,128,0,140303:0:0:0:0:
192,192,140281,128,0,140347:0:0:0:0:
320,192,140325,128,0,140391:0:0:0:0:
448,192,140369,128,0,140502:0:0:0:0:
320,192,140458,128,0,140546:0:0:0:0:
192,192,140502,128,0,140590:0:0:0:0:
64,192,140568,128,0,140634:0:0:0:0:
320,192,140634,128,0,140701:0:0:0:0:
448,192,140634,128,0,140745:0:0:0:0:
64,192,140679,128,0,140789:0:0:0:0:
192,192,140723,128,0,140922:0:0:0:0:
320,192,140767,128,0,140834:0:0:0:0:
448,192,140811,128,0,140878:0:0:0:0:
64,192,140856,128,0,141055:0:0:0:0:
320,192,140900,128,0,140966:0:0:0:0:
448,192,140944,128,0,141011:0:0:0:0:
192,192,140988,128,0,141099:0:0:0:0:
320,192,141033,128,0,141143:0:0:0:0:
448,192,141077,128,0,141276:0:0:0:0:
64,192,141121,128,0,141188:0:0:0:0:
192,192,141165,128,0,141232:0:0:0:0:
320,192,141210,128,0,141365:0:0:0:0:
64,192,141254,128,0,141320:0:0:0:0:
192,192,141298,128,0,141453:0:0:0:0:
448,192,141342,128,0,141409:0:0:0:0:
64,192,141387,128,0,141586:0:0:0:0:
320,192,141431,128,0,141497:0:0:0:0:
448,192,141475,128,0,141542:0:0:0:0:
192,192,141519,128,0,141630:0:0:0:0:
320,192,141564,128,0,141719:0:0:0:0:
448,192,141608,128,0,141674:0:0:0:0:
64,192,141652,128,0,141807:0:0:0:0:
192,192,141696,128,0,141763:0:0:0:0:
448,192,141741,128,0,141851:0:0:0:0:
320,192,141785,128,0,141896:0:0:0:0:
192,192,141829,128,0,141940:0:0:0:0:
64,192,141873,128,0,142073:0:0:0:0:
448,192,141918,128,0,141984:0:0:0:0:
320,192,141962,128,0,142028:0:0:0:0:
192,192,142006,128,0,142161:0:0:0:0:
448,192,142050,128,0,142117:0:0:0:0:
320,192,142095,128,0,142250:0:0:0:0:
64,192,142139,128,0,142205:0:0:0:0:
448,192,142183,128,0,142382:0:0:0:0:
192,192,142227,128,0,142294:0:0:0:0:
64,192,142272,128,0,142338:0:0:0:0:
320,192,142316,128,0,142427:0:0:0:0:
192,192,142360,128,0,142471:0:0:0:0:
64,192,142404,128,0,142648:0:0:0:0:
448,192,142449,128,0,142515:0:0:0:0:
320,192,142493,128,0,142559:0:0:0:0:
192,192,142537,128,0,142604:0:0:0:0:
448,192,142581,128,0,142736:0:0:0:0:
320,192,142626,128,0,142692:0:0:0:0:
192,192,142670,128,0,142781:0:0:0:0:
64,192,142714,128,0,142913:0:0:0:0:
320,192,142758,128,0,142825:0:0:0:0:
448,192,142803,128,0,142869:0:0:0:0:
192,192,142847,128,0,142958:0:0:0:0:
320,192,142891,128,0,143002:0:0:0:0:
448,192,142935,128,0,143046:0:0:0:0:
64,192,142980,128,0,143179:0:0:0:0:
192,192,143024,128,0,143090:0:0:0:0:
320,192,143068,128,0,143134:0:0:0:0:
448,192,143112,128,0,143267:0:0:0:0:
192,192,143157,128,0,143223:0:0:0:0:
320,192,143201,128,0,143356:0:0:0:0:
64,192,143245,128,0,143311:0:0:0:0:
192,192,143289,128,0,143444:0:0:0:0:
448,192,143334,128,0,143400:0:0:0:0:
64,192,143378,128,0,143577:0:0:0:0:
320,192,143422,128,0,143488:0:0:0:0:
448,192,143466,128,0,143533:0:0:0:0:
192,192,143511,128,0,143621:0:0:0:0:
320,192,143555,128,0,143665:0:0:0:0:
448,192,143599,128,0,143710:0:0:0:0:
64,192,143643,128,0,143754:0:0:0:0:
192,192,143688,128,0,143887:0:0:0:0:
320,192,143732,128,0,143865:0:0:0:0:
448,192,143776,128,0,143842:0:0:0:0:
64,192,143820,128,0,143909:0:0:0:0:
64,192,144882,128,0,144949:0:0:0:0:
448,192,144882,128,0,145347:0:0:0:0:
64,192,145015,128,0,145081:0:0:0:0:
64,192,145148,128,0,145214:0:0:0:0:
64,192,145281,128,0,145347:0:0:0:0:
64,192,145413,128,0,145480:0:0:0:0:
320,192,145413,128,0,145878:0:0:0:0:
64,192,145546,128,0,145612:0:0:0:0:
64,192,145679,128,0,145745:0:0:0:0:
64,192,145811,128,0,145878:0:0:0:0:
64,192,145944,128,0,146143:0:0:0:0:
448,192,145944,128,0,146011:0:0:0:0:
448,192,146077,128,0,146143:0:0:0:0:
64,192,146210,128,0,146276:0:0:0:0:
448,192,146210,128,0,146940:0:0:0:0:
64,192,146342,128,0,146409:0:0:0:0:
64,192,146475,128,0,146542:0:0:0:0:
64,192,146608,128,0,146674:0:0:0:0:
64,192,146741,128,0,146807:0:0:0:0:
64,192,146873,128,0,146940:0:0:0:0:
448,192,147006,128,0,147073:0:0:0:0:
448,192,147139,128,0,147205:0:0:0:0:
192,192,147139,128,0,147471:0:0:0:0:
448,192,147272,128,0,147338:0:0:0:0:
448,192,147404,128,0,147471:0:0:0:0:
448,192,147537,128,0,147604:0:0:0:0:
64,192,147537,128,0,148002:0:0:0:0:
448,192,147670,128,0,147736:0:0:0:0:
448,192,147803,128,0,147869:0:0:0:0:
448,192,147935,128,0,148002:0:0:0:0:
64,192,148068,128,0,148134:0:0:0:0:
448,192,148068,128,0,148334:0:0:0:0:
64,192,148201,128,0,148267:0:0:0:0:
64,192,148334,128,0,148400:0:0:0:0:
448,192,148400,128,0,148466:0:0:0:0:
64,192,148466,128,0,148533:0:0:0:0:
448,192,148533,128,0,148599:0:0:0:0:
320,192,148599,128,0,148665:0:0:0:0:
192,192,148632,128,0,148699:0:0:0:0:
64,192,148665,128,0,148732:0:0:0:0:
320,192,148732,128,0,148798:0:0:0:0:
64,192,148798,128,0,148865:0:0:0:0:
192,192,148831,128,0,148898:0:0:0:0:
448,192,148865,128,0,148931:0:0:0:0:
64,192,149130,128,0,149196:0:0:0:0:
192,192,149130,128,0,149329:0:0:0:0:
448,192,149130,128,0,149329:0:0:0:0:
64,192,149263,128,0,149329:0:0:0:0:
320,192,149263,128,0,149329:0:0:0:0:
64,192,149396,128,0,149462:0:0:0:0:
192,192,149396,128,0,149595:0:0:0:0:
320,192,149396,128,0,149528:0:0:0:0:
64,192,149528,128,0,149595:0:0:0:0:
448,192,149528,128,0,149595:0:0:0:0:
64,192,149661,128,0,150126:0:0:0:0:
448,192,149661,128,0,149860:0:0:0:0:
192,192,149661,128,0,149794:0:0:0:0:
320,192,149794,128,0,149860:0:0:0:0:
448,192,149927,128,0,150126:0:0:0:0:
192,192,149927,128,0,149993:0:0:0:0:
320,192,150059,128,0,150126:0:0:0:0:
192,192,150059,128,0,150126:0:0:0:0:
448,192,150192,128,0,150258:0:0:0:0:
320,192,150192,128,0,150391:0:0:0:0:
64,192,150192,128,0,150391:0:0:0:0:
448,192,150325,128,0,150391:0:0:0:0:
192,192,150325,128,0,150391:0:0:0:0:
448,192,150458,128,0,150524:0:0:0:0:
320,192,150458,128,0,150657:0:0:0:0:
192,192,150458,128,0,150590:0:0:0:0:
448,192,150590,128,0,150657:0:0:0:0:
64,192,150590,128,0,150657:0:0:0:0:
448,192,150723,128,0,151188:0:0:0:0:
64,192,150723,128,0,150922:0:0:0:0:
320,192,150723,128,0,150856:0:0:0:0:
192,192,150856,128,0,150922:0:0:0:0:
64,192,150988,128,0,151188:0:0:0:0:
320,192,150988,128,0,151055:0:0:0:0:
192,192,151121,128,0,151188:0:0:0:0:
320,192,151121,128,0,151188:0:0:0:0:
448,192,151254,128,0,151453:0:0:0:0:
192,192,151254,128,0,151453:0:0:0:0:
64,192,151254,128,0,151320:0:0:0:0:
320,192,151387,128,0,151453:0:0:0:0:
64,192,151387,128,0,151453:0:0:0:0:
320,192,151519,128,0,151652:0:0:0:0:
192,192,151519,128,0,151719:0:0:0:0:
64,192,151519,128,0,151586:0:0:0:0:
448,192,151652,128,0,151719:0:0:0:0:
64,192,151652,128,0,151719:0:0:0:0:
320,192,151785,128,0,151918:0:0:0:0:
448,192,151785,128,0,151984:0:0:0:0:
64,192,151785,128,0,152250:0:0:0:0:
192,192,151918,128,0,151984:0:0:0:0:
320,192,152050,128,0,152183:0:0:0:0:
192,192,152050,128,0,152250:0:0:0:0:
448,192,152183,128,0,152250:0:0:0:0:
448,192,152316,128,0,152648:0:0:0:0:
64,192,152316,128,0,152382:0:0:0:0:
192,192,152316,128,0,152382:0:0:0:0:
64,192,152449,128,0,152648:0:0:0:0:
192,192,152449,128,0,152515:0:0:0:0:
320,192,152449,128,0,152648:0:0:0:0:
192,192,152581,128,0,152648:0:0:0:0:
320,192,152714,128,0,152781:0:0:0:0:
448,192,152714,128,0,152781:0:0:0:0:
64,192,152714,128,0,153046:0:0:0:0:
448,192,152847,128,0,153046:0:0:0:0:
192,192,152847,128,0,153046:0:0:0:0:
320,192,152847,128,0,152913:0:0:0:0:
320,192,152980,128,0,153046:0:0:0:0:
192,192,153112,128,0,153311:0:0:0:0:
64,192,153112,128,0,153311:0:0:0:0:
448,192,153112,128,0,153311:0:0:0:0:
320,192,153245,128,0,153311:0:0:0:0:
448,192,153378,128,0,153444:0:0:0:0:
320,192,153378,128,0,153577:0:0:0:0:
64,192,153378,128,0,153577:0:0:0:0:
448,192,153511,128,0,153577:0:0:0:0:
192,192,153511,128,0,153577:0:0:0:0:
448,192,153643,128,0,153710:0:0:0:0:
320,192,153643,128,0,153842:0:0:0:0:
192,192,153643,128,0,153776:0:0:0:0:
448,192,153776,128,0,153842:0:0:0:0:
64,192,153776,128,0,153842:0:0:0:0:
448,192,153909,128,0,154373:0:0:0:0:
64,192,153909,128,0,154108:0:0:0:0:
320,192,153909,128,0,154042:0:0:0:0:
192,192,154042,128,0,154108:0:0:0:0:
64,192,154174,128,0,154373:0:0:0:0:
320,192,154174,128,0,154241:0:0:0:0:
192,192,154307,128,0,154373:0:0:0:0:
320,192,154307,128,0,154373:0:0:0:0:
64,192,154440,128,0,154506:0:0:0:0:
192,192,154440,128,0,154639:0:0:0:0:
448,192,154440,128,0,154639:0:0:0:0:
64,192,154573,128,0,154639:0:0:0:0:
320,192,154573,128,0,154639:0:0:0:0:
64,192,154705,128,0,154772:0:0:0:0:
192,192,154705,128,0,154904:0:0:0:0:
320,192,154705,128,0,154838:0:0:0:0:
64,192,154838,128,0,154904:0:0:0:0:
448,192,154838,128,0,154904:0:0:0:0:
64,192,154971,128,0,155435:0:0:0:0:
448,192,154971,128,0,155170:0:0:0:0:
320,192,154971,128,0,155037:0:0:0:0:
320,192,155104,128,0,155170:0:0:0:0:
192,192,155104,128,0,155303:0:0:0:0:
448,192,155236,128,0,155435:0:0:0:0:
320,192,155236,128,0,155303:0:0:0:0:
320,192,155369,128,0,155435:0:0:0:0:
192,192,155369,128,0,155435:0:0:0:0:
448,192,155502,128,0,155568:0:0:0:0:
192,192,155502,128,0,155701:0:0:0:0:
64,192,155502,128,0,155701:0:0:0:0:
448,192,155634,128,0,155701:0:0:0:0:
320,192,155634,128,0,155701:0:0:0:0:
448,192,155767,128,0,155834:0:0:0:0:
320,192,155767,128,0,155966:0:0:0:0:
192,192,155767,128,0,155900:0:0:0:0:
448,192,155900,128,0,155966:0:0:0:0:
64,192,155900,128,0,155966:0:0:0:0:
448,192,156033,128,0,156497:0:0:0:0:
64,192,156033,128,0,156232:0:0:0:0:
320,192,156033,128,0,156165:0:0:0:0:
192,192,156165,128,0,156232:0:0:0:0:
64,192,156298,128,0,156497:0:0:0:0:
320,192,156298,128,0,156365:0:0:0:0:
320,192,156431,128,0,156497:0:0:0:0:
448,192,156564,128,0,156896:0:0:0:0:
64,192,156564,128,0,156630:0:0:0:0:
192,192,156564,128,0,156630:0:0:0:0:
320,192,156564,128,0,156630:0:0:0:0:
64,192,156696,128,0,156896:0:0:0:0:
192,192,156696,128,0,156763:0:0:0:0:
320,192,156696,128,0,156896:0:0:0:0:
192,192,156829,128,0,156896:0:0:0:0:
448,192,156962,128,0,157028:0:0:0:0:
64,192,156962,128,0,157028:0:0:0:0:
320,192,156962,128,0,157050:0:0:0:0:
192,192,156962,128,0,157073:0:0:0:0:
448,192,157095,128,0,157294:0:0:0:0:
64,192,157095,128,0,157294:0:0:0:0:
320,192,157117,128,0,157161:0:0:0:0:
192,192,157139,128,0,157360:0:0:0:0:
320,192,157227,128,0,157427:0:0:0:0:
64,192,157360,128,0,157559:0:0:0:0:
448,192,157360,128,0,157559:0:0:0:0:
192,192,157427,128,0,157559:0:0:0:0:
320,192,157493,128,0,157559:0:0:0:0:
64,192,157626,128,0,157758:0:0:0:0:
192,192,157626,128,0,157692:0:0:0:0:
448,192,157626,128,0,157825:0:0:0:0:
320,192,157692,128,0,157825:0:0:0:0:
192,192,157758,128,0,157891:0:0:0:0:
64,192,157825,128,0,157891:0:0:0:0:
320,192,157891,128,0,158112:0:0:0:0:
448,192,157891,128,0,157958:0:0:0:0:
64,192,157935,128,0,158068:0:0:0:0:
192,192,157980,128,0,158090:0:0:0:0:
448,192,158024,128,0,158134:0:0:0:0:
192,192,158157,128,0,158378:0:0:0:0:
64,192,158157,128,0,158223:0:0:0:0:
448,192,158201,128,0,158334:0:0:0:0:
320,192,158245,128,0,158356:0:0:0:0:
64,192,158289,128,0,158400:0:0:0:0:
320,192,158422,128,0,158643:0:0:0:0:
448,192,158422,128,0,158488:0:0:0:0:
192,192,158466,128,0,158621:0:0:0:0:
64,192,158511,128,0,158599:0:0:0:0:
448,192,158577,128,0,158665:0:0:0:0:
320,192,158688,128,0,158820:0:0:0:0:
64,192,158688,128,0,158776:0:0:0:0:
192,192,158688,128,0,158732:0:0:0:0:
448,192,158754,128,0,158887:0:0:0:0:
192,192,158798,128,0,158931:0:0:0:0:
64,192,158842,128,0,158887:0:0:0:0:
320,192,158887,128,0,158975:0:0:0:0:
448,192,158953,128,0,159042:0:0:0:0:
64,192,158953,128,0,159152:0:0:0:0:
192,192,158997,128,0,159130:0:0:0:0:
320,192,159042,128,0,159108:0:0:0:0:
448,192,159108,128,0,159219:0:0:0:0:
320,192,159174,128,0,159241:0:0:0:0:
192,192,159219,128,0,159440:0:0:0:0:
64,192,159219,128,0,159285:0:0:0:0:
448,192,159263,128,0,159396:0:0:0:0:
320,192,159307,128,0,159418:0:0:0:0:
64,192,159351,128,0,159462:0:0:0:0:
448,192,159484,128,0,159550:0:0:0:0:
320,192,159484,128,0,159705:0:0:0:0:
192,192,159528,128,0,159683:0:0:0:0:
64,192,159573,128,0,159661:0:0:0:0:
448,192,159639,128,0,159727:0:0:0:0:
64,192,159750,128,0,159993:0:0:0:0:
320,192,159750,128,0,159816:0:0:0:0:
192,192,159750,128,0,159860:0:0:0:0:
448,192,159838,128,0,159949:0:0:0:0:
320,192,159882,128,0,159949:0:0:0:0:
192,192,159927,128,0,160059:0:0:0:0:
320,192,160015,128,0,160104:0:0:0:0:
448,192,160015,128,0,160170:0:0:0:0:
64,192,160059,128,0,160214:0:0:0:0:
192,192,160126,128,0,160170:0:0:0:0:
320,192,160192,128,0,160258:0:0:0:0:
192,192,160236,128,0,160303:0:0:0:0:
64,192,160281,128,0,160391:0:0:0:0:
448,192,160281,128,0,160435:0:0:0:0:
320,192,160325,128,0,160369:0:0:0:0:
192,192,160369,128,0,160480:0:0:0:0:
320,192,160435,128,0,160568:0:0:0:0:
448,192,160502,128,0,160679:0:0:0:0:
192,192,160546,128,0,160612:0:0:0:0:
64,192,160546,128,0,160657:0:0:0:0:
320,192,160634,128,0,160723:0:0:0:0:
192,192,160679,128,0,160767:0:0:0:0:
64,192,160723,128,0,160811:0:0:0:0:
320,192,160811,128,0,160856:0:0:0:0:
448,192,160811,128,0,160922:0:0:0:0:
192,192,160856,128,0,160900:0:0:0:0:
320,192,160900,128,0,160966:0:0:0:0:
64,192,160944,128,0,161011:0:0:0:0:
192,192,160988,128,0,161055:0:0:0:0:
448,192,161033,128,0,161099:0:0:0:0:
320,192,161077,128,0,161143:0:0:0:0:
64,192,161077,128,0,161143:0:0:0:0:
192,192,161121,128,0,161188:0:0:0:0:
448,192,161165,128,0,161232:0:0:0:0:
320,192,161210,128,0,161298:0:0:0:0:
64,192,161254,128,0,161298:0:0:0:0:
448,192,161298,128,0,161342:0:0:0:0:
64,192,161342,128,0,161409:0:0:0:0:
192,192,161342,128,0,161475:0:0:0:0:
320,192,161387,128,0,161542:0:0:0:0:
448,192,161431,128,0,161542:0:0:0:0:
64,192,161475,128,0,161542:0:0:0:0:
192,192,161542,128,0,161608:0:0:0:0:
320,192,161608,128,0,161674:0:0:0:0:
448,192,161608,128,0,161674:0:0:0:0:
320,192,161741,128,0,161807:0:0:0:0:
448,192,161741,128,0,161807:0:0:0:0:
192,192,161873,128,0,161940:0:0:0:0:
64,192,161873,128,0,162073:0:0:0:0:
448,192,161873,128,0,161940:0:0:0:0:
320,192,162006,128,0,162073:0:0:0:0:
192,192,162006,128,0,162205:0:0:0:0:
448,192,162139,128,0,162205:0:0:0:0:
320,192,162139,128,0,162338:0:0:0:0:
448,192,162272,128,0,162471:0:0:0:0:
192,192,162272,128,0,162338:0:0:0:0:
320,192,162404,128,0,162604:0:0:0:0:
192,192,162404,128,0,162471:0:0:0:0:
64,192,162404,128,0,162471:0:0:0:0:
192,192,162537,128,0,162736:0:0:0:0:
64,192,162537,128,0,162604:0:0:0:0:
64,192,162670,128,0,162869:0:0:0:0:
448,192,162670,128,0,162736:0:0:0:0:
192,192,162803,128,0,163002:0:0:0:0:
320,192,162803,128,0,162869:0:0:0:0:
320,192,162935,128,0,163134:0:0:0:0:
448,192,162935,128,0,163002:0:0:0:0:
64,192,162935,128,0,163002:0:0:0:0:
448,192,163068,128,0,163267:0:0:0:0:
64,192,163068,128,0,163134:0:0:0:0:
320,192,163201,128,0,163400:0:0:0:0:
192,192,163201,128,0,163267:0:0:0:0:
192,192,163334,128,0,163533:0:0:0:0:
64,192,163334,128,0,163400:0:0:0:0:
64,192,163466,128,0,163665:0:0:0:0:
448,192,163466,128,0,163533:0:0:0:0:
320,192,163466,128,0,163533:0:0:0:0:
320,192,163599,128,0,163665:0:0:0:0:
448,192,163599,128,0,163665:0:0:0:0:
320,192,163732,128,0,163798:0:0:0:0:
192,192,163732,128,0,163798:0:0:0:0:
192,192,163865,128,0,163931:0:0:0:0:
64,192,163865,128,0,163931:0:0:0:0:
192,192,163997,128,0,164064:0:0:0:0:
64,192,163997,128,0,164196:0:0:0:0:
448,192,163997,128,0,164064:0:0:0:0:
320,192,163997,128,0,164064:0:0:0:0:
320,192,164130,128,0,164196:0:0:0:0:
192,192,164130,128,0,164329:0:0:0:0:
448,192,164263,128,0,164329:0:0:0:0:
320,192,164263,128,0,164462:0:0:0:0:
448,192,164396,128,0,164595:0:0:0:0:
192,192,164396,128,0,164462:0:0:0:0:
320,192,164528,128,0,164727:0:0:0:0:
192,192,164528,128,0,164595:0:0:0:0:
64,192,164528,128,0,164595:0:0:0:0:
192,192,164661,128,0,164860:0:0:0:0:
64,192,164661,128,0,164727:0:0:0:0:
64,192,164794,128,0,164993:0:0:0:0:
448,192,164794,128,0,164860:0:0:0:0:
192,192,164927,128,0,165126:0:0:0:0:
320,192,164927,128,0,164993:0:0:0:0:
320,192,165059,128,0,165258:0:0:0:0:
448,192,165059,128,0,165126:0:0:0:0:
64,192,165059,128,0,165126:0:0:0:0:
448,192,165192,128,0,165391:0:0:0:0:
64,192,165192,128,0,165258:0:0:0:0:
320,192,165325,128,0,165524:0:0:0:0:
192,192,165325,128,0,165391:0:0:0:0:
192,192,165458,128,0,165657:0:0:0:0:
64,192,165458,128,0,165524:0:0:0:0:
64,192,165590,128,0,165789:0:0:0:0:
448,192,165590,128,0,165657:0:0:0:0:
320,192,165590,128,0,165657:0:0:0:0:
320,192,165723,128,0,165789:0:0:0:0:
448,192,165723,128,0,165789:0:0:0:0:
320,192,165856,128,0,165922:0:0:0:0:
192,192,165856,128,0,165922:0:0:0:0:
64,192,165856,128,0,165922:0:0:0:0:
192,192,165988,128,0,166055:0:0:0:0:
64,192,165988,128,0,166055:0:0:0:0:
448,192,166121,128,0,166320:0:0:0:0:
320,192,166121,128,0,166188:0:0:0:0:
64,192,166121,128,0,166320:0:0:0:0:
192,192,166254,128,0,166320:0:0:0:0:
64,192,166387,128,0,166453:0:0:0:0:
320,192,166519,128,0,166586:0:0:0:0:
192,192,166652,128,0,166719:0:0:0:0:
64,192,166785,128,0,166851:0:0:0:0:
320,192,166918,128,0,166984:0:0:0:0:
448,192,167050,128,0,167117:0:0:0:0:
64,192,167183,128,0,167382:0:0:0:0:
192,192,167183,128,0,167382:0:0:0:0:
320,192,167183,128,0,167250:0:0:0:0:
448,192,167316,128,0,167382:0:0:0:0:
192,192,167449,128,0,167515:0:0:0:0:
64,192,167581,128,0,167648:0:0:0:0:
320,192,167714,128,0,167781:0:0:0:0:
448,192,167847,128,0,167913:0:0:0:0:
192,192,167980,128,0,168046:0:0:0:0:
320,192,168112,128,0,168179:0:0:0:0:
448,192,168245,128,0,168311:0:0:0:0:
192,192,168378,128,0,168444:0:0:0:0:
320,192,168511,128,0,168577:0:0:0:0:
64,192,168643,128,0,168710:0:0:0:0:
192,192,168776,128,0,168842:0:0:0:0:
320,192,168776,128,0,168975:0:0:0:0:
448,192,168776,128,0,168975:0:0:0:0:
64,192,168909,128,0,168975:0:0:0:0:
320,192,169042,128,0,169108:0:0:0:0:
448,192,169174,128,0,169241:0:0:0:0:
192,192,169307,128,0,169373:0:0:0:0:
320,192,169440,128,0,169506:0:0:0:0:
448,192,169573,128,0,169639:0:0:0:0:
320,192,169705,128,0,169772:0:0:0:0:
192,192,169838,128,0,169904:0:0:0:0:
448,192,169838,128,0,170037:0:0:0:0:
64,192,169971,128,0,170037:0:0:0:0:
320,192,170104,128,0,170170:0:0:0:0:
64,192,170104,128,0,170303:0:0:0:0:
448,192,170236,128,0,170303:0:0:0:0:
192,192,170369,128,0,170435:0:0:0:0:
320,192,170502,128,0,170568:0:0:0:0:
448,192,170634,128,0,170701:0:0:0:0:
320,192,170767,128,0,170834:0:0:0:0:
192,192,170900,128,0,171099:0:0:0:0:
64,192,170900,128,0,171099:0:0:0:0:
448,192,170900,128,0,170966:0:0:0:0:
320,192,171033,128,0,171099:0:0:0:0:
192,192,171165,128,0,171232:0:0:0:0:
64,192,171298,128,0,171365:0:0:0:0:
192,192,171431,128,0,171497:0:0:0:0:
320,192,171431,128,0,171630:0:0:0:0:
448,192,171431,128,0,171630:0:0:0:0:
64,192,171564,128,0,171630:0:0:0:0:
320,192,171696,128,0,171763:0:0:0:0:
448,192,171829,128,0,171896:0:0:0:0:
192,192,171962,128,0,172028:0:0:0:0:
64,192,171962,128,0,172161:0:0:0:0:
320,192,172095,128,0,172161:0:0:0:0:
448,192,172227,128,0,172294:0:0:0:0:
64,192,172227,128,0,172294:0:0:0:0:
64,192,172360,128,0,172427:0:0:0:0:
192,192,172360,128,0,172427:0:0:0:0:
320,192,172493,128,0,172559:0:0:0:0:
64,192,172626,128,0,172692:0:0:0:0:
448,192,172758,128,0,172825:0:0:0:0:
320,192,172891,128,0,172958:0:0:0:0:
192,192,173024,128,0,173223:0:0:0:0:
64,192,173024,128,0,173223:0:0:0:0:
448,192,173024,128,0,173090:0:0:0:0:
320,192,173157,128,0,173223:0:0:0:0:
192,192,173289,128,0,173356:0:0:0:0:
448,192,173422,128,0,173488:0:0:0:0:
64,192,173555,128,0,174086:0:0:0:0:
192,192,173588,128,0,174053:0:0:0:0:
320,192,173621,128,0,173688:0:0:0:0:
448,192,173688,128,0,173754:0:0:0:0:
320,192,173820,128,0,173887:0:0:0:0:
448,192,173953,128,0,174019:0:0:0:0:
320,192,174086,128,0,174152:0:0:0:0:
192,192,174119,128,0,174617:0:0:0:0:
64,192,174152,128,0,174617:0:0:0:0:
448,192,174219,128,0,174285:0:0:0:0:
320,192,174351,128,0,174418:0:0:0:0:
448,192,174484,128,0,174550:0:0:0:0:
320,192,174617,128,0,174882:0:0:0:0:
448,192,174617,128,0,174882:0:0:0:0:
192,192,175148,128,0,175214:0:0:0:0:
64,192,175679,128,0,175878:0:0:0:0:
448,192,175679,128,0,175878:0:0:0:0:
320,192,175944,128,0,176011:0:0:0:0:
192,192,176741,128,0,176807:0:0:0:0:
320,192,177006,128,0,177073:0:0:0:0:
448,192,177272,128,0,177338:0:0:0:0:
448,192,177803,128,0,178002:0:0:0:0:
64,192,177803,128,0,178002:0:0:0:0:
320,192,178068,128,0,178134:0:0:0:0:
192,192,178334,128,0,178400:0:0:0:0:
64,192,178599,128,0,178798:0:0:0:0:
448,192,178865,128,0,179329:0:0:0:0:
320,192,178865,128,0,179329:0:0:0:0:
448,192,179396,128,0,179462:0:0:0:0:
320,192,179396,128,0,179462:0:0:0:0:
64,192,179927,128,0,180126:0:0:0:0:
448,192,179927,128,0,180126:0:0:0:0:
192,192,180192,128,0,180258:0:0:0:0:
320,192,180723,128,0,180789:0:0:0:0:
320,192,180856,128,0,180922:0:0:0:0:
320,192,181254,128,0,181320:0:0:0:0:
192,192,181519,128,0,183112:0:0:0:0:
64,192,181785,128,0,183112:0:0:0:0:
320,192,182050,128,0,183112:0:0:0:0:
448,192,182316,128,0,183112:0:0:0:0:
64,192,184440,128,0,184506:0:0:0:0:
192,192,184473,128,0,184539:0:0:0:0:
448,192,184506,128,0,184573:0:0:0:0:
320,192,184539,128,0,184606:0:0:0:0:
64,192,184573,128,0,184639:0:0:0:0:
192,192,184606,128,0,184672:0:0:0:0:
448,192,184639,128,0,184722:0:0:0:0:
320,192,184672,128,0,184772:0:0:0:0:
64,192,184705,128,0,184904:0:0:0:0:
192,192,184750,128,0,184816:0:0:0:0:
448,192,184794,128,0,184882:0:0:0:0:
320,192,184838,128,0,184949:0:0:0:0:
192,192,184882,128,0,184971:0:0:0:0:
448,192,184927,128,0,185015:0:0:0:0:
64,192,184971,128,0,185037:0:0:0:0:
320,192,185015,128,0,185081:0:0:0:0:
64,192,185104,128,0,185170:0:0:0:0:
320,192,185148,128,0,185214:0:0:0:0:
64,192,185236,128,0,185391:0:0:0:0:
192,192,185236,128,0,185347:0:0:0:0:
448,192,185236,128,0,185303:0:0:0:0:
320,192,185303,128,0,185435:0:0:0:0:
448,192,185369,128,0,185524:0:0:0:0:
192,192,185413,128,0,185480:0:0:0:0:
64,192,185458,128,0,185590:0:0:0:0:
320,192,185502,128,0,185612:0:0:0:0:
192,192,185546,128,0,185657:0:0:0:0:
448,192,185590,128,0,185723:0:0:0:0:
64,192,185634,128,0,185701:0:0:0:0:
320,192,185679,128,0,185767:0:0:0:0:
192,192,185723,128,0,185834:0:0:0:0:
64,192,185767,128,0,185834:0:0:0:0:
448,192,185767,128,0,185966:0:0:0:0:
320,192,185834,128,0,185900:0:0:0:0:
192,192,185900,128,0,186033:0:0:0:0:
64,192,185900,128,0,185966:0:0:0:0:
320,192,185966,128,0,186099:0:0:0:0:
448,192,186033,128,0,186099:0:0:0:0:
64,192,186033,128,0,186232:0:0:0:0:
192,192,186099,128,0,186165:0:0:0:0:
448,192,186165,128,0,186232:0:0:0:0:
320,192,186165,128,0,186276:0:0:0:0:
192,192,186232,128,0,186320:0:0:0:0:
64,192,186298,128,0,186497:0:0:0:0:
448,192,186298,128,0,186431:0:0:0:0:
320,192,186342,128,0,186387:0:0:0:0:
192,192,186387,128,0,186497:0:0:0:0:
320,192,186453,128,0,186542:0:0:0:0:
448,192,186519,128,0,186741:0:0:0:0:
64,192,186564,128,0,186608:0:0:0:0:
192,192,186564,128,0,186630:0:0:0:0:
320,192,186608,128,0,186696:0:0:0:0:
64,192,186652,128,0,186763:0:0:0:0:
192,192,186696,128,0,186807:0:0:0:0:
320,192,186763,128,0,186851:0:0:0:0:
448,192,186829,128,0,187028:0:0:0:0:
64,192,186829,128,0,186962:0:0:0:0:
192,192,186873,128,0,186918:0:0:0:0:
320,192,186918,128,0,187028:0:0:0:0:
192,192,186984,128,0,187073:0:0:0:0:
64,192,187050,128,0,187227:0:0:0:0:
448,192,187095,128,0,187139:0:0:0:0:
320,192,187095,128,0,187161:0:0:0:0:
192,192,187139,128,0,187227:0:0:0:0:
448,192,187183,128,0,187294:0:0:0:0:
320,192,187227,128,0,187338:0:0:0:0:
192,192,187294,128,0,187382:0:0:0:0:
64,192,187360,128,0,187427:0:0:0:0:
448,192,187360,128,0,187559:0:0:0:0:
320,192,187404,128,0,187493:0:0:0:0:
192,192,187449,128,0,187604:0:0:0:0:
64,192,187493,128,0,187559:0:0:0:0:
320,192,187559,128,0,187648:0:0:0:0:
64,192,187626,128,0,187825:0:0:0:0:
448,192,187626,128,0,187692:0:0:0:0:
192,192,187670,128,0,187758:0:0:0:0:
320,192,187714,128,0,187935:0:0:0:0:
448,192,187758,128,0,187825:0:0:0:0:
192,192,187825,128,0,187891:0:0:0:0:
448,192,187891,128,0,187980:0:0:0:0:
64,192,187891,128,0,188090:0:0:0:0:
192,192,187958,128,0,188024:0:0:0:0:
320,192,188002,128,0,188090:0:0:0:0:
448,192,188046,128,0,188157:0:0:0:0:
192,192,188090,128,0,188223:0:0:0:0:
64,192,188157,128,0,188223:0:0:0:0:
320,192,188157,128,0,188289:0:0:0:0:
448,192,188223,128,0,188289:0:0:0:0:
64,192,188289,128,0,188422:0:0:0:0:
192,192,188289,128,0,188356:0:0:0:0:
320,192,188356,128,0,188488:0:0:0:0:
448,192,188422,128,0,188577:0:0:0:0:
192,192,188422,128,0,188533:0:0:0:0:
64,192,188488,128,0,188621:0:0:0:0:
320,192,188555,128,0,188688:0:0:0:0:
192,192,188599,128,0,188643:0:0:0:0:
448,192,188643,128,0,188710:0:0:0:0:
64,192,188688,128,0,188754:0:0:0:0:
192,192,188688,128,0,188798:0:0:0:0:
320,192,188754,128,0,188842:0:0:0:0:
448,192,188820,128,0,188887:0:0:0:0:
64,192,188820,128,0,188887:0:0:0:0:
192,192,188865,128,0,188953:0:0:0:0:
320,192,188909,128,0,189019:0:0:0:0:
448,192,188953,128,0,189086:0:0:0:0:
64,192,188953,128,0,189064:0:0:0:0:
192,192,189019,128,0,189108:0:0:0:0:
320,192,189086,128,0,189152:0:0:0:0:
64,192,189130,128,0,189219:0:0:0:0:
192,192,189174,128,0,189285:0:0:0:0:
448,192,189219,128,0,189285:0:0:0:0:
320,192,189219,128,0,189285:0:0:0:0:
64,192,189285,128,0,189418:0:0:0:0:
320,192,189351,128,0,189418:0:0:0:0:
448,192,189351,128,0,189418:0:0:0:0:
192,192,189418,128,0,189484:0:0:0:0:
64,192,189484,128,0,189683:0:0:0:0:
320,192,189484,128,0,189595:0:0:0:0:
448,192,189484,128,0,189550:0:0:0:0:
192,192,189550,128,0,189639:0:0:0:0:
448,192,189617,128,0,189683:0:0:0:0:
320,192,189661,128,0,189750:0:0:0:0:
192,192,189705,128,0,189816:0:0:0:0:
448,192,189750,128,0,189882:0:0:0:0:
64,192,189750,128,0,189816:0:0:0:0:
320,192,189816,128,0,189993:0:0:0:0:
192,192,189882,128,0,189949:0:0:0:0:
64,192,189882,128,0,189949:0:0:0:0:
448,192,189949,128,0,190037:0:0:0:0:
64,192,190015,128,0,190170:0:0:0:0:
192,192,190015,128,0,190081:0:0:0:0:
320,192,190059,128,0,190126:0:0:0:0:
448,192,190104,128,0,190214:0:0:0:0:
192,192,190148,128,0,190214:0:0:0:0:
320,192,190192,128,0,190281:0:0:0:0:
64,192,190236,128,0,190347:0:0:0:0:
192,192,190281,128,0,190413:0:0:0:0:
448,192,190281,128,0,190347:0:0:0:0:
320,192,190347,128,0,190480:0:0:0:0:
448,192,190413,128,0,190480:0:0:0:0:
64,192,190413,128,0,190480:0:0:0:0:
192,192,190480,128,0,190546:0:0:0:0:
64,192,190546,128,0,190745:0:0:0:0:
448,192,190546,128,0,190612:0:0:0:0:
320,192,190590,128,0,190679:0:0:0:0:
192,192,190634,128,0,190789:0:0:0:0:
448,192,190679,128,0,190745:0:0:0:0:
320,192,190745,128,0,190834:0:0:0:0:
448,192,190811,128,0,190944:0:0:0:0:
64,192,190811,128,0,190878:0:0:0:0:
192,192,190856,128,0,190944:0:0:0:0:
320,192,190900,128,0,191055:0:0:0:0:
64,192,190944,128,0,191011:0:0:0:0:
192,192,191011,128,0,191099:0:0:0:0:
64,192,191077,128,0,191188:0:0:0:0:
448,192,191077,128,0,191143:0:0:0:0:
320,192,191121,128,0,191276:0:0:0:0:
192,192,191165,128,0,191232:0:0:0:0:
448,192,191210,128,0,191276:0:0:0:0:
64,192,191254,128,0,191409:0:0:0:0:
192,192,191298,128,0,191342:0:0:0:0:
320,192,191342,128,0,191453:0:0:0:0:
448,192,191342,128,0,191409:0:0:0:0:
192,192,191409,128,0,191497:0:0:0:0:
64,192,191475,128,0,191542:0:0:0:0:
320,192,191519,128,0,191586:0:0:0:0:
192,192,191564,128,0,191630:0:0:0:0:
64,192,191608,128,0,191674:0:0:0:0:
448,192,191608,128,0,191674:0:0:0:0:
320,192,191652,128,0,191807:0:0:0:0:
192,192,191696,128,0,191807:0:0:0:0:
448,192,191741,128,0,191851:0:0:0:0:
64,192,191807,128,0,191896:0:0:0:0:
192,192,191873,128,0,192006:0:0:0:0:
320,192,191873,128,0,191940:0:0:0:0:
448,192,191918,128,0,192073:0:0:0:0:
64,192,191962,128,0,192073:0:0:0:0:
320,192,192006,128,0,192161:0:0:0:0:
192,192,192073,128,0,192117:0:0:0:0:
448,192,192139,128,0,192205:0:0:0:0:
64,192,192139,128,0,192338:0:0:0:0:
192,192,192183,128,0,192404:0:0:0:0:
320,192,192227,128,0,192272:0:0:0:0:
448,192,192272,128,0,192338:0:0:0:0:
320,192,192338,128,0,192493:0:0:0:0:
448,192,192404,128,0,192604:0:0:0:0:
64,192,192404,128,0,192449:0:0:0:0:
192,192,192471,128,0,192537:0:0:0:0:
64,192,192515,128,0,192604:0:0:0:0:
320,192,192559,128,0,192626:0:0:0:0:
192,192,192604,128,0,192670:0:0:0:0:
64,192,192670,128,0,192869:0:0:0:0:
320,192,192670,128,0,192803:0:0:0:0:
448,192,192670,128,0,192736:0:0:0:0:
192,192,192736,128,0,192869:0:0:0:0:
448,192,192803,128,0,192869:0:0:0:0:
320,192,192869,128,0,192935:0:0:0:0:
448,192,192935,128,0,193134:0:0:0:0:
192,192,192935,128,0,193068:0:0:0:0:
64,192,192935,128,0,193002:0:0:0:0:
320,192,193002,128,0,193134:0:0:0:0:
64,192,193068,128,0,193134:0:0:0:0:
192,192,193134,128,0,193201:0:0:0:0:
320,192,193201,128,0,193334:0:0:0:0:
448,192,193201,128,0,193267:0:0:0:0:
64,192,193201,128,0,193400:0:0:0:0:
192,192,193267,128,0,193433:0:0:0:0:
448,192,193334,128,0,193400:0:0:0:0:
320,192,193400,128,0,193466:0:0:0:0:
64,192,193466,128,0,193533:0:0:0:0:
448,192,193466,128,0,193533:0:0:0:0:
192,192,193500,128,0,193566:0:0:0:0:
320,192,193533,128,0,193599:0:0:0:0:
64,192,193599,128,0,193665:0:0:0:0:
448,192,193599,128,0,193665:0:0:0:0:
192,192,193632,128,0,193699:0:0:0:0:
320,192,193665,128,0,193732:0:0:0:0:
64,192,193732,128,0,193865:0:0:0:0:
448,192,193732,128,0,193798:0:0:0:0:
192,192,193798,128,0,193931:0:0:0:0:
320,192,193931,128,0,193997:0:0:0:0:
192,192,193997,128,0,194064:0:0:0:0:
320,192,194064,128,0,194130:0:0:0:0:
192,192,194130,128,0,194196:0:0:0:0:
64,192,194329,128,0,194396:0:0:0:0:
192,192,194396,128,0,194462:0:0:0:0:
64,192,194462,128,0,194528:0:0:0:0:
64,192,194595,128,0,194661:0:0:0:0:
448,192,194595,128,0,194661:0:0:0:0:
320,192,194727,128,0,194794:0:0:0:0:
448,192,194794,128,0,194860:0:0:0:0:
320,192,194860,128,0,194927:0:0:0:0:
448,192,194927,128,0,194993:0:0:0:0:
192,192,194993,128,0,195059:0:0:0:0:
320,192,195059,128,0,195126:0:0:0:0:
192,192,195126,128,0,195192:0:0:0:0:
320,192,195192,128,0,195258:0:0:0:0:
64,192,195258,128,0,195325:0:0:0:0:
192,192,195325,128,0,195391:0:0:0:0:
192,192,195458,128,0,195524:0:0:0:0:
448,192,195458,128,0,195524:0:0:0:0:
320,192,195590,128,0,195657:0:0:0:0:
64,192,195657,128,0,195723:0:0:0:0:
64,192,195789,128,0,195856:0:0:0:0:
320,192,195856,128,0,195922:0:0:0:0:
64,192,195922,128,0,195988:0:0:0:0:
320,192,196055,128,0,196121:0:0:0:0:
192,192,196121,128,0,196188:0:0:0:0:
320,192,196188,128,0,196254:0:0:0:0:
192,192,196254,128,0,196320:0:0:0:0:
448,192,196387,128,0,196453:0:0:0:0:
320,192,196453,128,0,196519:0:0:0:0:
448,192,196519,128,0,196586:0:0:0:0:
320,192,196586,128,0,196652:0:0:0:0:
448,192,196652,128,0,196719:0:0:0:0:
448,192,196785,128,0,196851:0:0:0:0:
64,192,196785,128,0,196851:0:0:0:0:
320,192,196918,128,0,196984:0:0:0:0:
64,192,196918,128,0,196984:0:0:0:0:
192,192,197050,128,0,197117:0:0:0:0:
320,192,197117,128,0,197183:0:0:0:0:
192,192,197183,128,0,197250:0:0:0:0:
320,192,197250,128,0,197316:0:0:0:0:
192,192,197316,128,0,197382:0:0:0:0:
320,192,197382,128,0,197449:0:0:0:0:
448,192,197449,128,0,197515:0:0:0:0:
64,192,197449,128,0,197980:0:0:0:0:
192,192,197482,128,0,197946:0:0:0:0:
320,192,197515,128,0,197913:0:0:0:0:
320,192,197980,128,0,198046:0:0:0:0:
448,192,197980,128,0,198046:0:0:0:0:
192,192,198179,128,0,198245:0:0:0:0:
320,192,198245,128,0,198311:0:0:0:0:
192,192,198311,128,0,198378:0:0:0:0:
320,192,198378,128,0,198444:0:0:0:0:
448,192,198577,128,0,198643:0:0:0:0:
320,192,198643,128,0,198710:0:0:0:0:
448,192,198710,128,0,198776:0:0:0:0:
448,192,198842,128,0,198909:0:0:0:0:
64,192,198842,128,0,198909:0:0:0:0:
192,192,198975,128,0,199042:0:0:0:0:
64,192,199042,128,0,199108:0:0:0:0:
192,192,199108,128,0,199174:0:0:0:0:
64,192,199174,128,0,199241:0:0:0:0:
320,192,199241,128,0,199307:0:0:0:0:
192,192,199307,128,0,199373:0:0:0:0:
320,192,199373,128,0,199440:0:0:0:0:
192,192,199440,128,0,199506:0:0:0:0:
448,192,199506,128,0,199573:0:0:0:0:
320,192,199573,128,0,199639:0:0:0:0:
448,192,199639,128,0,199705:0:0:0:0:
320,192,199705,128,0,199772:0:0:0:0:
64,192,199738,128,0,199805:0:0:0:0:
448,192,199772,128,0,199838:0:0:0:0:
192,192,199838,128,0,199904:0:0:0:0:
320,192,199904,128,0,199971:0:0:0:0:
320,192,200037,128,0,200104:0:0:0:0:
192,192,200104,128,0,200170:0:0:0:0:
64,192,200104,128,0,200922:0:0:0:0:
320,192,200170,128,0,200236:0:0:0:0:
192,192,200303,128,0,200369:0:0:0:0:
448,192,200369,128,0,200435:0:0:0:0:
192,192,200435,128,0,200502:0:0:0:0:
448,192,200502,128,0,200568:0:0:0:0:
192,192,200634,128,0,200701:0:0:0:0:
320,192,200701,128,0,200767:0:0:0:0:
192,192,200767,128,0,200834:0:0:0:0:
320,192,200834,128,0,200966:0:0:0:0:
192,192,200900,128,0,201011:0:0:0:0:
448,192,200944,128,0,201077:0:0:0:0:
64,192,200988,128,0,201055:0:0:0:0:
320,192,201033,128,0,201121:0:0:0:0:
192,192,201077,128,0,201188:0:0:0:0:
64,192,201121,128,0,201254:0:0:0:0:
448,192,201165,128,0,201232:0:0:0:0:
320,192,201210,128,0,201365:0:0:0:0:
192,192,201254,128,0,201320:0:0:0:0:
448,192,201298,128,0,201453:0:0:0:0:
64,192,201342,128,0,201409:0:0:0:0:
192,192,201387,128,0,201542:0:0:0:0:
320,192,201431,128,0,201497:0:0:0:0:
64,192,201475,128,0,201630:0:0:0:0:
448,192,201519,128,0,201586:0:0:0:0:
320,192,201564,128,0,201763:0:0:0:0:
192,192,201608,128,0,201674:0:0:0:0:
448,192,201652,128,0,201719:0:0:0:0:
64,192,201696,128,0,201807:0:0:0:0:
192,192,201741,128,0,201851:0:0:0:0:
448,192,201785,128,0,201940:0:0:0:0:
320,192,201829,128,0,201896:0:0:0:0:
64,192,201873,128,0,202028:0:0:0:0:
192,192,201918,128,0,201984:0:0:0:0:
320,192,201962,128,0,202117:0:0:0:0:
448,192,202006,128,0,202073:0:0:0:0:
192,192,202050,128,0,202161:0:0:0:0:
64,192,202095,128,0,202161:0:0:0:0:
448,192,202139,128,0,202227:0:0:0:0:
320,192,202183,128,0,202272:0:0:0:0:
64,192,202227,128,0,202360:0:0:0:0:
192,192,202227,128,0,202316:0:0:0:0:
448,192,202294,128,0,202427:0:0:0:0:
320,192,202338,128,0,202427:0:0:0:0:
192,192,202382,128,0,202493:0:0:0:0:
64,192,202427,128,0,202581:0:0:0:0:
320,192,202493,128,0,202537:0:0:0:0:
448,192,202493,128,0,202692:0:0:0:0:
192,192,202559,128,0,202648:0:0:0:0:
320,192,202604,128,0,202736:0:0:0:0:
64,192,202648,128,0,202714:0:0:0:0:
192,192,202714,128,0,202781:0:0:0:0:
64,192,202758,128,0,202891:0:0:0:0:
448,192,202758,128,0,202891:0:0:0:0:
320,192,202803,128,0,202847:0:0:0:0:
192,192,202847,128,0,202958:0:0:0:0:
320,192,202913,128,0,203024:0:0:0:0:
448,192,202980,128,0,203090:0:0:0:0:
192,192,203024,128,0,203157:0:0:0:0:
64,192,203024,128,0,203090:0:0:0:0:
320,192,203090,128,0,203223:0:0:0:0:
448,192,203157,128,0,203223:0:0:0:0:
64,192,203157,128,0,203289:0:0:0:0:
192,192,203223,128,0,203356:0:0:0:0:
320,192,203289,128,0,203356:0:0:0:0:
448,192,203289,128,0,203356:0:0:0:0:
64,192,203356,128,0,203555:0:0:0:0:
448,192,203422,128,0,203488:0:0:0:0:
320,192,203422,128,0,203488:0:0:0:0:
192,192,203488,128,0,203599:0:0:0:0:
320,192,203555,128,0,203688:0:0:0:0:
448,192,203555,128,0,203643:0:0:0:0:
64,192,203621,128,0,203754:0:0:0:0:
192,192,203665,128,0,203754:0:0:0:0:
448,192,203710,128,0,203887:0:0:0:0:
320,192,203754,128,0,203820:0:0:0:0:
192,192,203820,128,0,203887:0:0:0:0:
64,192,203820,128,0,203887:0:0:0:0:
320,192,203887,128,0,204086:0:0:0:0:
192,192,203953,128,0,204019:0:0:0:0:
64,192,203953,128,0,204019:0:0:0:0:
448,192,204019,128,0,204130:0:0:0:0:
64,192,204086,128,0,204285:0:0:0:0:
192,192,204086,128,0,204174:0:0:0:0:
320,192,204152,128,0,204219:0:0:0:0:
448,192,204196,128,0,204285:0:0:0:0:
192,192,204241,128,0,204373:0:0:0:0:
320,192,204285,128,0,204329:0:0:0:0:
64,192,204351,128,0,204418:0:0:0:0:
448,192,204351,128,0,204484:0:0:0:0:
320,192,204396,128,0,204484:0:0:0:0:
192,192,204440,128,0,204595:0:0:0:0:
64,192,204484,128,0,204550:0:0:0:0:
320,192,204550,128,0,204639:0:0:0:0:
448,192,204617,128,0,204816:0:0:0:0:
64,192,204617,128,0,204683:0:0:0:0:
192,192,204661,128,0,204727:0:0:0:0:
320,192,204705,128,0,204772:0:0:0:0:
64,192,204750,128,0,204816:0:0:0:0:
192,192,204794,128,0,204882:0:0:0:0:
320,192,204838,128,0,205015:0:0:0:0:
448,192,204882,128,0,204949:0:0:0:0:
64,192,204882,128,0,205081:0:0:0:0:
192,192,204949,128,0,205015:0:0:0:0:
448,192,205015,128,0,205081:0:0:0:0:
192,192,205081,128,0,205281:0:0:0:0:
448,192,205148,128,0,205347:0:0:0:0:
64,192,205148,128,0,205214:0:0:0:0:
320,192,205214,128,0,205281:0:0:0:0:
64,192,205281,128,0,205347:0:0:0:0:
320,192,205347,128,0,205413:0:0:0:0:
64,192,205413,128,0,205612:0:0:0:0:
448,192,205413,128,0,205480:0:0:0:0:
192,192,205458,128,0,205546:0:0:0:0:
320,192,205502,128,0,205679:0:0:0:0:
448,192,205546,128,0,205612:0:0:0:0:
192,192,205612,128,0,205657:0:0:0:0:
64,192,205679,128,0,205878:0:0:0:0:
448,192,205679,128,0,205745:0:0:0:0:
192,192,205723,128,0,205811:0:0:0:0:
320,192,205767,128,0,205922:0:0:0:0:
448,192,205811,128,0,205878:0:0:0:0:
192,192,205878,128,0,205966:0:0:0:0:
64,192,205944,128,0,206011:0:0:0:0:
448,192,205944,128,0,206143:0:0:0:0:
320,192,205988,128,0,206077:0:0:0:0:
192,192,206033,128,0,206232:0:0:0:0:
64,192,206077,128,0,206143:0:0:0:0:
320,192,206143,128,0,206188:0:0:0:0:
64,192,206210,128,0,206276:0:0:0:0:
448,192,206210,128,0,206409:0:0:0:0:
320,192,206254,128,0,206342:0:0:0:0:
192,192,206298,128,0,206453:0:0:0:0:
64,192,206342,128,0,206409:0:0:0:0:
320,192,206409,128,0,206497:0:0:0:0:
64,192,206475,128,0,206608:0:0:0:0:
448,192,206475,128,0,206542:0:0:0:0:
192,192,206542,128,0,206741:0:0:0:0:
320,192,206608,128,0,206674:0:0:0:0:
448,192,206608,128,0,206674:0:0:0:0:
64,192,206674,128,0,206807:0:0:0:0:
320,192,206741,128,0,206873:0:0:0:0:
448,192,206741,128,0,206807:0:0:0:0:
192,192,206807,128,0,206940:0:0:0:0:
64,192,206873,128,0,206940:0:0:0:0:
448,192,206873,128,0,207006:0:0:0:0:
320,192,206940,128,0,207073:0:0:0:0:
192,192,207006,128,0,207073:0:0:0:0:
64,192,207006,128,0,207139:0:0:0:0:
448,192,207073,128,0,207205:0:0:0:0:
192,192,207139,128,0,207205:0:0:0:0:
320,192,207139,128,0,207205:0:0:0:0:
64,192,207205,128,0,207338:0:0:0:0:
192,192,207272,128,0,207338:0:0:0:0:
320,192,207272,128,0,207471:0:0:0:0:
448,192,207338,128,0,207404:0:0:0:0:
192,192,207404,128,0,207537:0:0:0:0:
64,192,207404,128,0,207471:0:0:0:0:
448,192,207471,128,0,207604:0:0:0:0:
320,192,207537,128,0,207604:0:0:0:0:
64,192,207537,128,0,207670:0:0:0:0:
192,192,207604,128,0,207803:0:0:0:0:
448,192,207670,128,0,207736:0:0:0:0:
320,192,207670,128,0,207736:0:0:0:0:
64,192,207736,128,0,207803:0:0:0:0:
320,192,207803,128,0,207869:0:0:0:0:
448,192,207803,128,0,207935:0:0:0:0:
64,192,207869,128,0,208002:0:0:0:0:
192,192,207935,128,0,208002:0:0:0:0:
320,192,207935,128,0,208068:0:0:0:0:
448,192,208002,128,0,208134:0:0:0:0:
192,192,208068,128,0,208201:0:0:0:0:
64,192,208068,128,0,208134:0:0:0:0:
320,192,208134,128,0,208267:0:0:0:0:
448,192,208201,128,0,208334:0:0:0:0:
64,192,208201,128,0,208267:0:0:0:0:
192,192,208267,128,0,208400:0:0:0:0:
64,192,208334,128,0,208400:0:0:0:0:
320,192,208334,128,0,208466:0:0:0:0:
448,192,208400,128,0,208533:0:0:0:0:
64,192,208466,128,0,208599:0:0:0:0:
192,192,208466,128,0,208533:0:0:0:0:
320,192,208533,128,0,208665:0:0:0:0:
192,192,208599,128,0,208798:0:0:0:0:
448,192,208599,128,0,208665:0:0:0:0:
64,192,208665,128,0,208732:0:0:0:0:
320,192,208732,128,0,208798:0:0:0:0:
448,192,208732,128,0,208887:0:0:0:0:
64,192,208798,128,0,208931:0:0:0:0:
192,192,208865,128,0,208931:0:0:0:0:
320,192,208865,128,0,209064:0:0:0:0:
448,192,208931,128,0,208997:0:0:0:0:
192,192,208997,128,0,209130:0:0:0:0:
64,192,208997,128,0,209064:0:0:0:0:
448,192,209064,128,0,209196:0:0:0:0:
320,192,209130,128,0,209196:0:0:0:0:
64,192,209130,128,0,209329:0:0:0:0:
192,192,209196,128,0,209263:0:0:0:0:
320,192,209263,128,0,209396:0:0:0:0:
448,192,209263,128,0,209329:0:0:0:0:
192,192,209329,128,0,209462:0:0:0:0:
64,192,209396,128,0,209462:0:0:0:0:
448,192,209396,128,0,209595:0:0:0:0:
320,192,209462,128,0,209528:0:0:0:0:
64,192,209528,128,0,209595:0:0:0:0:
192,192,209528,128,0,209639:0:0:0:0:
320,192,209595,128,0,209683:0:0:0:0:
64,192,209661,128,0,209860:0:0:0:0:
448,192,209661,128,0,209727:0:0:0:0:
192,192,209705,128,0,209794:0:0:0:0:
320,192,209750,128,0,209927:0:0:0:0:
448,192,209794,128,0,209860:0:0:0:0:
192,192,209860,128,0,209904:0:0:0:0:
64,192,209927,128,0,210126:0:0:0:0:
448,192,209927,128,0,209993:0:0:0:0:
192,192,209971,128,0,210059:0:0:0:0:
320,192,210015,128,0,210170:0:0:0:0:
448,192,210059,128,0,210126:0:0:0:0:
192,192,210126,128,0,210214:0:0:0:0:
64,192,210192,128,0,210258:0:0:0:0:
448,192,210192,128,0,210391:0:0:0:0:
320,192,210236,128,0,210325:0:0:0:0:
192,192,210281,128,0,210480:0:0:0:0:
64,192,210325,128,0,210391:0:0:0:0:
320,192,210391,128,0,210435:0:0:0:0:
64,192,210458,128,0,210524:0:0:0:0:
448,192,210458,128,0,210657:0:0:0:0:
320,192,210502,128,0,210590:0:0:0:0:
192,192,210546,128,0,210701:0:0:0:0:
64,192,210590,128,0,210657:0:0:0:0:
320,192,210657,128,0,210745:0:0:0:0:
64,192,210723,128,0,210966:0:0:0:0:
448,192,210723,128,0,210789:0:0:0:0:
192,192,210767,128,0,210922:0:0:0:0:
320,192,210811,128,0,210878:0:0:0:0:
448,192,210856,128,0,210988:0:0:0:0:
320,192,210944,128,0,211055:0:0:0:0:
192,192,210988,128,0,211121:0:0:0:0:
64,192,211033,128,0,211188:0:0:0:0:
320,192,211121,128,0,211232:0:0:0:0:
448,192,211121,128,0,211188:0:0:0:0:
192,192,211188,128,0,211276:0:0:0:0:
64,192,211254,128,0,211320:0:0:0:0:
448,192,211254,128,0,211497:0:0:0:0:
320,192,211298,128,0,211453:0:0:0:0:
192,192,211342,128,0,211409:0:0:0:0:
64,192,211387,128,0,211674:0:0:0:0:
192,192,211475,128,0,211630:0:0:0:0:
320,192,211519,128,0,211586:0:0:0:0:
448,192,211564,128,0,211719:0:0:0:0:
320,192,211652,128,0,211763:0:0:0:0:
192,192,211696,128,0,211807:0:0:0:0:
448,192,211785,128,0,212028:0:0:0:0:
64,192,211785,128,0,211851:0:0:0:0:
320,192,211829,128,0,211984:0:0:0:0:
192,192,211873,128,0,211940:0:0:0:0:
64,192,211918,128,0,212050:0:0:0:0:
192,192,212006,128,0,212117:0:0:0:0:
320,192,212050,128,0,212183:0:0:0:0:
448,192,212095,128,0,212250:0:0:0:0:
192,192,212183,128,0,212294:0:0:0:0:
64,192,212183,128,0,212250:0:0:0:0:
320,192,212250,128,0,212338:0:0:0:0:
448,192,212316,128,0,212382:0:0:0:0:
64,192,212316,128,0,212559:0:0:0:0:
192,192,212360,128,0,212515:0:0:0:0:
320,192,212404,128,0,212471:0:0:0:0:
448,192,212449,128,0,212736:0:0:0:0:
320,192,212537,128,0,212692:0:0:0:0:
192,192,212581,128,0,212648:0:0:0:0:
64,192,212626,128,0,212781:0:0:0:0:
192,192,212714,128,0,212825:0:0:0:0:
320,192,212758,128,0,212869:0:0:0:0:
64,192,212847,128,0,213090:0:0:0:0:
448,192,212847,128,0,212913:0:0:0:0:
192,192,212891,128,0,213046:0:0:0:0:
320,192,212935,128,0,213002:0:0:0:0:
448,192,212980,128,0,213112:0:0:0:0:
320,192,213068,128,0,213179:0:0:0:0:
192,192,213112,128,0,213245:0:0:0:0:
64,192,213157,128,0,213311:0:0:0:0:
320,192,213245,128,0,213356:0:0:0:0:
448,192,213245,128,0,213311:0:0:0:0:
192,192,213311,128,0,213400:0:0:0:0:
64,192,213378,128,0,213444:0:0:0:0:
448,192,213378,128,0,213621:0:0:0:0:
320,192,213422,128,0,213577:0:0:0:0:
192,192,213466,128,0,213533:0:0:0:0:
64,192,213511,128,0,213798:0:0:0:0:
192,192,213599,128,0,213754:0:0:0:0:
320,192,213643,128,0,213710:0:0:0:0:
448,192,213688,128,0,213842:0:0:0:0:
320,192,213776,128,0,213887:0:0:0:0:
192,192,213820,128,0,213931:0:0:0:0:
448,192,213909,128,0,214152:0:0:0:0:
64,192,213909,128,0,213975:0:0:0:0:
320,192,213953,128,0,214108:0:0:0:0:
192,192,213997,128,0,214064:0:0:0:0:
64,192,214042,128,0,214174:0:0:0:0:
192,192,214130,128,0,214241:0:0:0:0:
320,192,214174,128,0,214307:0:0:0:0:
448,192,214219,128,0,214373:0:0:0:0:
192,192,214307,128,0,214418:0:0:0:0:
64,192,214307,128,0,214373:0:0:0:0:
320,192,214373,128,0,214462:0:0:0:0:
448,192,214440,128,0,214506:0:0:0:0:
64,192,214440,128,0,214683:0:0:0:0:
192,192,214484,128,0,214639:0:0:0:0:
320,192,214528,128,0,214595:0:0:0:0:
448,192,214573,128,0,214860:0:0:0:0:
320,192,214661,128,0,214816:0:0:0:0:
192,192,214705,128,0,214772:0:0:0:0:
64,192,214750,128,0,214904:0:0:0:0:
192,192,214838,128,0,214927:0:0:0:0:
320,192,214882,128,0,214949:0:0:0:0:
448,192,214927,128,0,214971:0:0:0:0:
64,192,214971,128,0,215126:0:0:0:0:
192,192,215015,128,0,215081:0:0:0:0:
448,192,215059,128,0,215214:0:0:0:0:
320,192,215104,128,0,215170:0:0:0:0:
192,192,215148,128,0,215258:0:0:0:0:
64,192,215192,128,0,215347:0:0:0:0:
320,192,215236,128,0,215303:0:0:0:0:
448,192,215281,128,0,215347:0:0:0:0:
192,192,215325,128,0,215391:0:0:0:0:
320,192,215369,128,0,215480:0:0:0:0:
448,192,215413,128,0,215568:0:0:0:0:
192,192,215458,128,0,215524:0:0:0:0:
64,192,215502,128,0,215568:0:0:0:0:
320,192,215546,128,0,215657:0:0:0:0:
192,192,215590,128,0,215701:0:0:0:0:
64,192,215634,128,0,215745:0:0:0:0:
448,192,215679,128,0,215789:0:0:0:0:
320,192,215723,128,0,215834:0:0:0:0:
192,192,215767,128,0,215878:0:0:0:0:
64,192,215811,128,0,215922:0:0:0:0:
448,192,215856,128,0,215966:0:0:0:0:
320,192,215900,128,0,216011:0:0:0:0:
192,192,215944,128,0,216099:0:0:0:0:
64,192,215988,128,0,216055:0:0:0:0:
448,192,216033,128,0,216188:0:0:0:0:
320,192,216077,128,0,216143:0:0:0:0:
64,192,216121,128,0,216188:0:0:0:0:
192,192,216165,128,0,216232:0:0:0:0:
320,192,216210,128,0,216276:0:0:0:0:
448,192,216254,128,0,216320:0:0:0:0:
64,192,216298,128,0,216365:0:0:0:0:
192,192,216342,128,0,216409:0:0:0:0:
320,192,216387,128,0,216453:0:0:0:0:
448,192,216431,128,0,216497:0:0:0:0:
192,192,216475,128,0,216542:0:0:0:0:
320,192,216519,128,0,216586:0:0:0:0:
448,192,216564,128,0,216630:0:0:0:0:
64,192,216564,128,0,216630:0:0:0:0:
192,192,216696,128,0,216763:0:0:0:0:
320,192,216829,128,0,216896:0:0:0:0:
320,192,216962,128,0,217028:0:0:0:0:
64,192,217095,128,0,217161:0:0:0:0:
448,192,217095,128,0,217294:0:0:0:0:
320,192,217139,128,0,217205:0:0:0:0:
192,192,217183,128,0,217250:0:0:0:0:
64,192,217227,128,0,217294:0:0:0:0:
320,192,217272,128,0,217338:0:0:0:0:
192,192,217316,128,0,217382:0:0:0:0:
448,192,217360,128,0,217427:0:0:0:0:
64,192,217360,128,0,217559:0:0:0:0:
320,192,217404,128,0,217471:0:0:0:0:
192,192,217449,128,0,217515:0:0:0:0:
448,192,217493,128,0,217648:0:0:0:0:
320,192,217537,128,0,217604:0:0:0:0:
192,192,217581,128,0,217692:0:0:0:0:
64,192,217626,128,0,217825:0:0:0:0:
320,192,217670,128,0,217736:0:0:0:0:
448,192,217714,128,0,217781:0:0:0:0:
192,192,217758,128,0,217913:0:0:0:0:
320,192,217803,128,0,217869:0:0:0:0:
448,192,217847,128,0,218046:0:0:0:0:
64,192,217891,128,0,217958:0:0:0:0:
320,192,217935,128,0,218002:0:0:0:0:
192,192,217980,128,0,218090:0:0:0:0:
64,192,218024,128,0,218134:0:0:0:0:
320,192,218068,128,0,218179:0:0:0:0:
448,192,218112,128,0,218223:0:0:0:0:
192,192,218157,128,0,218267:0:0:0:0:
64,192,218201,128,0,218356:0:0:0:0:
320,192,218245,128,0,218311:0:0:0:0:
448,192,218289,128,0,218400:0:0:0:0:
192,192,218334,128,0,218444:0:0:0:0:
320,192,218378,128,0,218488:0:0:0:0:
64,192,218422,128,0,218533:0:0:0:0:
448,192,218466,128,0,218577:0:0:0:0:
192,192,218511,128,0,218621:0:0:0:0:
320,192,218555,128,0,218665:0:0:0:0:
64,192,218599,128,0,218710:0:0:0:0:
448,192,218643,128,0,218754:0:0:0:0:
192,192,218688,128,0,218798:0:0:0:0:
320,192,218732,128,0,218842:0:0:0:0:
64,192,218776,128,0,218887:0:0:0:0:
448,192,218820,128,0,218931:0:0:0:0:
192,192,218865,128,0,218975:0:0:0:0:
320,192,218909,128,0,219019:0:0:0:0:
64,192,218953,128,0,219064:0:0:0:0:
448,192,218997,128,0,219108:0:0:0:0:
192,192,219042,128,0,219152:0:0:0:0:
320,192,219086,128,0,219263:0:0:0:0:
64,192,219130,128,0,219307:0:0:0:0:
448,192,219174,128,0,219241:0:0:0:0:
192,192,219219,128,0,219285:0:0:0:0:
320,192,219484,128,0,219550:0:0:0:0:
192,192,219617,128,0,219683:0:0:0:0:
64,192,219750,128,0,219816:0:0:0:0:
64,192,219882,128,0,220015:0:0:0:0:
192,192,220015,128,0,220081:0:0:0:0:
192,192,220148,128,0,220281:0:0:0:0:
320,192,220281,128,0,220546:0:0:0:0:
448,192,220546,128,0,220811:0:0:0:0:
448,192,221077,128,0,221342:0:0:0:0:
320,192,221342,128,0,221542:0:0:0:0:
320,192,221608,128,0,221873:0:0:0:0:
64,192,221873,128,0,222073:0:0:0:0:
64,192,222139,128,0,222604:0:0:0:0:
64,192,222670,128,0,222935:0:0:0:0:
192,192,222935,128,0,223201:0:0:0:0:
320,192,223201,128,0,223466:0:0:0:0:
192,192,223732,128,0,223798:0:0:0:0:
320,192,223865,128,0,223931:0:0:0:0:
448,192,223997,128,0,224263:0:0:0:0:
320,192,224263,128,0,224329:0:0:0:0:
320,192,224396,128,0,224528:0:0:0:0:
192,192,224528,128,0,224794:0:0:0:0:
64,192,224794,128,0,225059:0:0:0:0:
64,192,225325,128,0,225590:0:0:0:0:
320,192,225458,128,0,225590:0:0:0:0:
192,192,225590,128,0,226121:0:0:0:0:
320,192,225856,128,0,226652:0:0:0:0:
448,192,226387,128,0,226652:0:0:0:0:
64,192,226652,128,0,227714:0:0:0:0:
448,192,226918,128,0,227183:0:0:0:0:
320,192,227183,128,0,227449:0:0:0:0:
192,192,227449,128,0,227714:0:0:0:0:
448,192,227714,128,0,228245:0:0:0:0:
192,192,228511,128,0,229307:0:0:0:0:
320,192,228643,128,0,229307:0:0:0:0:
448,192,228776,128,0,229307:0:0:0:0:
320,192,229573,128,0,230369:0:0:0:0:
192,192,229705,128,0,230369:0:0:0:0:
64,192,229838,128,0,230369:0:0:0:0:
64,192,230634,128,0,230767:0:0:0:0:
192,192,230767,128,0,230900:0:0:0:0:
448,192,230900,128,0,231962:0:0:0:0:
320,192,231165,128,0,231431:0:0:0:0:
192,192,231431,128,0,231696:0:0:0:0:
320,192,231696,128,0,231962:0:0:0:0:
64,192,231962,128,0,232095:0:0:0:0:
192,192,232028,128,0,232161:0:0:0:0:
320,192,232095,128,0,232227:0:0:0:0:
448,192,232161,128,0,232294:0:0:0:0:
448,192,232493,128,0,232758:0:0:0:0:
320,192,232626,128,0,232891:0:0:0:0:
192,192,232758,128,0,233024:0:0:0:0:
448,192,232891,128,0,233024:0:0:0:0:
64,192,233024,128,0,233289:0:0:0:0:
192,192,233289,128,0,233555:0:0:0:0:
320,192,233555,128,0,233820:0:0:0:0:
448,192,233820,128,0,234086:0:0:0:0:
64,192,234086,128,0,234285:0:0:0:0:
192,192,234086,128,0,234219:0:0:0:0:
320,192,234086,128,0,234152:0:0:0:0:
448,192,234152,128,0,234285:0:0:0:0:
320,192,234219,128,0,234351:0:0:0:0:
192,192,234285,128,0,234418:0:0:0:0:
64,192,234351,128,0,234418:0:0:0:0:
448,192,234351,128,0,234484:0:0:0:0:
320,192,234418,128,0,234550:0:0:0:0:
64,192,234484,128,0,234617:0:0:0:0:
192,192,234484,128,0,234550:0:0:0:0:
448,192,234550,128,0,234683:0:0:0:0:
320,192,234617,128,0,234683:0:0:0:0:
192,192,234617,128,0,234750:0:0:0:0:
64,192,234683,128,0,234816:0:0:0:0:
320,192,234750,128,0,234882:0:0:0:0:
448,192,234750,128,0,234816:0:0:0:0:
192,192,234816,128,0,234949:0:0:0:0:
64,192,234882,128,0,234949:0:0:0:0:
448,192,234882,128,0,235081:0:0:0:0:
320,192,234949,128,0,235015:0:0:0:0:
64,192,235015,128,0,235081:0:0:0:0:
192,192,235015,128,0,235126:0:0:0:0:
320,192,235081,128,0,235170:0:0:0:0:
448,192,235148,128,0,235214:0:0:0:0:
64,192,235148,128,0,235214:0:0:0:0:
192,192,235192,128,0,235258:0:0:0:0:
320,192,235236,128,0,235303:0:0:0:0:
448,192,235281,128,0,235347:0:0:0:0:
192,192,235325,128,0,235391:0:0:0:0:
320,192,235369,128,0,235435:0:0:0:0:
448,192,235413,128,0,235480:0:0:0:0:
192,192,235458,128,0,235524:0:0:0:0:
320,192,235502,128,0,235568:0:0:0:0:
64,192,235546,128,0,235612:0:0:0:0:
192,192,235590,128,0,235657:0:0:0:0:
320,192,235634,128,0,235701:0:0:0:0:
448,192,235679,128,0,235745:0:0:0:0:
64,192,235679,128,0,235745:0:0:0:0:
192,192,235723,128,0,235789:0:0:0:0:
320,192,235767,128,0,235834:0:0:0:0:
64,192,235811,128,0,235878:0:0:0:0:
192,192,235856,128,0,235922:0:0:0:0:
320,192,235900,128,0,235966:0:0:0:0:
448,192,235944,128,0,236011:0:0:0:0:
64,192,235944,128,0,236011:0:0:0:0:
192,192,235988,128,0,236055:0:0:0:0:
320,192,236033,128,0,236099:0:0:0:0:
448,192,236077,128,0,236143:0:0:0:0:
192,192,236121,128,0,236188:0:0:0:0:
320,192,236210,128,0,236276:0:0:0:0:
448,192,236210,128,0,236342:0:0:0:0:
64,192,236210,128,0,236409:0:0:0:0:
192,192,236276,128,0,236409:0:0:0:0:
320,192,236342,128,0,236608:0:0:0:0:
448,192,236409,128,0,236475:0:0:0:0:
192,192,236475,128,0,236542:0:0:0:0:
64,192,236475,128,0,236542:0:0:0:0:
448,192,236542,128,0,236674:0:0:0:0:
64,192,236608,128,0,236674:0:0:0:0:
192,192,236608,128,0,236719:0:0:0:0:
320,192,236674,128,0,236763:0:0:0:0:
448,192,236741,128,0,236807:0:0:0:0:
64,192,236741,128,0,236940:0:0:0:0:
192,192,236785,128,0,236873:0:0:0:0:
320,192,236829,128,0,236940:0:0:0:0:
448,192,236873,128,0,237006:0:0:0:0:
192,192,236940,128,0,237073:0:0:0:0:
64,192,237006,128,0,237073:0:0:0:0:
320,192,237006,128,0,237139:0:0:0:0:
448,192,237073,128,0,237205:0:0:0:0:
64,192,237139,128,0,237205:0:0:0:0:
192,192,237139,128,0,237250:0:0:0:0:
320,192,237205,128,0,237316:0:0:0:0:
448,192,237272,128,0,237316:0:0:0:0:
64,192,237272,128,0,237471:0:0:0:0:
192,192,237316,128,0,237404:0:0:0:0:
448,192,237360,128,0,237471:0:0:0:0:
320,192,237404,128,0,237515:0:0:0:0:
192,192,237471,128,0,237581:0:0:0:0:
64,192,237537,128,0,237581:0:0:0:0:
448,192,237537,128,0,237736:0:0:0:0:
320,192,237581,128,0,237670:0:0:0:0:
64,192,237626,128,0,237736:0:0:0:0:
192,192,237670,128,0,237803:0:0:0:0:
320,192,237736,128,0,237869:0:0:0:0:
64,192,237803,128,0,237935:0:0:0:0:
448,192,237803,128,0,238002:0:0:0:0:
192,192,237869,128,0,237935:0:0:0:0:
320,192,237935,128,0,238046:0:0:0:0:
64,192,238002,128,0,238090:0:0:0:0:
448,192,238068,128,0,238134:0:0:0:0:
192,192,238068,128,0,238201:0:0:0:0:
320,192,238112,128,0,238311:0:0:0:0:
64,192,238157,128,0,238267:0:0:0:0:
448,192,238201,128,0,238267:0:0:0:0:
192,192,238267,128,0,238356:0:0:0:0:
64,192,238334,128,0,238400:0:0:0:0:
448,192,238334,128,0,238466:0:0:0:0:
320,192,238378,128,0,238466:0:0:0:0:
192,192,238422,128,0,238577:0:0:0:0:
64,192,238466,128,0,238533:0:0:0:0:
320,192,238533,128,0,238621:0:0:0:0:
448,192,238599,128,0,238665:0:0:0:0:
64,192,238599,128,0,238754:0:0:0:0:
192,192,238643,128,0,238710:0:0:0:0:
320,192,238688,128,0,238865:0:0:0:0:
448,192,238732,128,0,238798:0:0:0:0:
192,192,238776,128,0,238931:0:0:0:0:
64,192,238865,128,0,238931:0:0:0:0:
448,192,238865,128,0,239064:0:0:0:0:
320,192,238931,128,0,239019:0:0:0:0:
64,192,238997,128,0,239064:0:0:0:0:
192,192,239042,128,0,239130:0:0:0:0:
320,192,239086,128,0,239241:0:0:0:0:
448,192,239130,128,0,239196:0:0:0:0:
64,192,239130,128,0,239329:0:0:0:0:
192,192,239196,128,0,239285:0:0:0:0:
448,192,239263,128,0,239329:0:0:0:0:
320,192,239307,128,0,239373:0:0:0:0:
192,192,239351,128,0,239418:0:0:0:0:
64,192,239396,128,0,239462:0:0:0:0:
448,192,239396,128,0,239528:0:0:0:0:
320,192,239440,128,0,239528:0:0:0:0:
192,192,239484,128,0,239595:0:0:0:0:
64,192,239528,128,0,239595:0:0:0:0:
320,192,239595,128,0,239727:0:0:0:0:
192,192,239661,128,0,239727:0:0:0:0:
64,192,239661,128,0,239794:0:0:0:0:
448,192,239727,128,0,239860:0:0:0:0:
320,192,239794,128,0,239860:0:0:0:0:
192,192,239794,128,0,239949:0:0:0:0:
64,192,239860,128,0,239904:0:0:0:0:
320,192,239927,128,0,239993:0:0:0:0:
448,192,239927,128,0,240059:0:0:0:0:
64,192,239971,128,0,240126:0:0:0:0:
192,192,240015,128,0,240126:0:0:0:0:
320,192,240059,128,0,240258:0:0:0:0:
448,192,240126,128,0,240192:0:0:0:0:
64,192,240192,128,0,240258:0:0:0:0:
192,192,240192,128,0,240325:0:0:0:0:
448,192,240258,128,0,240391:0:0:0:0:
64,192,240325,128,0,240391:0:0:0:0:
320,192,240325,128,0,240458:0:0:0:0:
192,192,240391,128,0,240458:0:0:0:0:
64,192,240458,128,0,240590:0:0:0:0:
448,192,240458,128,0,240657:0:0:0:0:
320,192,240524,128,0,240657:0:0:0:0:
192,192,240590,128,0,240856:0:0:0:0:
64,192,240657,128,0,240723:0:0:0:0:
320,192,240723,128,0,240789:0:0:0:0:
448,192,240723,128,0,240789:0:0:0:0:
64,192,240789,128,0,240922:0:0:0:0:
448,192,240856,128,0,240922:0:0:0:0:
320,192,240856,128,0,240966:0:0:0:0:
192,192,240922,128,0,241011:0:0:0:0:
64,192,240988,128,0,241055:0:0:0:0:
448,192,240988,128,0,241188:0:0:0:0:
320,192,241033,128,0,241121:0:0:0:0:
192,192,241077,128,0,241188:0:0:0:0:
64,192,241121,128,0,241254:0:0:0:0:
320,192,241188,128,0,241320:0:0:0:0:
448,192,241254,128,0,241320:0:0:0:0:
192,192,241254,128,0,241387:0:0:0:0:
64,192,241320,128,0,241453:0:0:0:0:
448,192,241387,128,0,241453:0:0:0:0:
320,192,241387,128,0,241497:0:0:0:0:
192,192,241453,128,0,241564:0:0:0:0:
64,192,241519,128,0,241564:0:0:0:0:
448,192,241519,128,0,241719:0:0:0:0:
320,192,241564,128,0,241652:0:0:0:0:
64,192,241608,128,0,241719:0:0:0:0:
192,192,241652,128,0,241763:0:0:0:0:
320,192,241719,128,0,241829:0:0:0:0:
448,192,241785,128,0,241829:0:0:0:0:
64,192,241785,128,0,241984:0:0:0:0:
192,192,241829,128,0,241918:0:0:0:0:
448,192,241873,128,0,241984:0:0:0:0:
320,192,241918,128,0,242050:0:0:0:0:
192,192,241984,128,0,242117:0:0:0:0:
448,192,242050,128,0,242183:0:0:0:0:
64,192,242050,128,0,242250:0:0:0:0:
320,192,242117,128,0,242183:0:0:0:0:
192,192,242183,128,0,242294:0:0:0:0:
448,192,242250,128,0,242338:0:0:0:0:
64,192,242316,128,0,242382:0:0:0:0:
320,192,242316,128,0,242449:0:0:0:0:
192,192,242360,128,0,242559:0:0:0:0:
448,192,242404,128,0,242515:0:0:0:0:
64,192,242449,128,0,242515:0:0:0:0:
320,192,242515,128,0,242604:0:0:0:0:
448,192,242581,128,0,242648:0:0:0:0:
64,192,242581,128,0,242714:0:0:0:0:
192,192,242626,128,0,242714:0:0:0:0:
320,192,242670,128,0,242825:0:0:0:0:
448,192,242714,128,0,242781:0:0:0:0:
192,192,242781,128,0,242869:0:0:0:0:
64,192,242847,128,0,242913:0:0:0:0:
448,192,242847,128,0,243002:0:0:0:0:
320,192,242891,128,0,242958:0:0:0:0:
192,192,242935,128,0,243112:0:0:0:0:
64,192,242980,128,0,243046:0:0:0:0:
320,192,243024,128,0,243179:0:0:0:0:
448,192,243112,128,0,243179:0:0:0:0:
64,192,243112,128,0,243311:0:0:0:0:
192,192,243179,128,0,243267:0:0:0:0:
448,192,243245,128,0,243311:0:0:0:0:
320,192,243289,128,0,243378:0:0:0:0:
192,192,243334,128,0,243488:0:0:0:0:
64,192,243378,128,0,243444:0:0:0:0:
448,192,243378,128,0,243577:0:0:0:0:
320,192,243444,128,0,243533:0:0:0:0:
64,192,243511,128,0,243577:0:0:0:0:
192,192,243555,128,0,243621:0:0:0:0:
320,192,243599,128,0,243665:0:0:0:0:
448,192,243643,128,0,243710:0:0:0:0:
64,192,243643,128,0,243776:0:0:0:0:
192,192,243688,128,0,243776:0:0:0:0:
320,192,243732,128,0,243842:0:0:0:0:
448,192,243776,128,0,243842:0:0:0:0:
192,192,243842,128,0,243975:0:0:0:0:
320,192,243909,128,0,243975:0:0:0:0:
448,192,243909,128,0,244042:0:0:0:0:
64,192,243975,128,0,244108:0:0:0:0:
192,192,244042,128,0,244108:0:0:0:0:
320,192,244042,128,0,244196:0:0:0:0:
448,192,244108,128,0,244152:0:0:0:0:
192,192,244174,128,0,244241:0:0:0:0:
64,192,244174,128,0,244307:0:0:0:0:
448,192,244219,128,0,244373:0:0:0:0:
320,192,244263,128,0,244373:0:0:0:0:
192,192,244307,128,0,244484:0:0:0:0:
64,192,244373,128,0,244440:0:0:0:0:
448,192,244440,128,0,244573:0:0:0:0:
320,192,244440,128,0,244528:0:0:0:0:
64,192,244506,128,0,244573:0:0:0:0:
192,192,244550,128,0,244617:0:0:0:0:
320,192,244595,128,0,244661:0:0:0:0:
448,192,244639,128,0,244705:0:0:0:0:
64,192,244705,128,0,244904:0:0:0:0:
192,192,244705,128,0,244816:0:0:0:0:
320,192,244705,128,0,244772:0:0:0:0:
448,192,244794,128,0,244904:0:0:0:0:
320,192,244838,128,0,244993:0:0:0:0:
192,192,244882,128,0,244949:0:0:0:0:
448,192,244971,128,0,245037:0:0:0:0:
64,192,244971,128,0,245037:0:0:0:0:
192,192,245015,128,0,245104:0:0:0:0:
320,192,245059,128,0,245170:0:0:0:0:
448,192,245104,128,0,245236:0:0:0:0:
192,192,245170,128,0,245303:0:0:0:0:
64,192,245236,128,0,245303:0:0:0:0:
320,192,245236,128,0,245369:0:0:0:0:
448,192,245303,128,0,245435:0:0:0:0:
64,192,245369,128,0,245435:0:0:0:0:
192,192,245369,128,0,245502:0:0:0:0:
320,192,245435,128,0,245546:0:0:0:0:
448,192,245502,128,0,245590:0:0:0:0:
64,192,245502,128,0,245701:0:0:0:0:
192,192,245568,128,0,245634:0:0:0:0:
320,192,245612,128,0,245745:0:0:0:0:
448,192,245657,128,0,245701:0:0:0:0:
192,192,245701,128,0,245789:0:0:0:0:
64,192,245767,128,0,245834:0:0:0:0:
448,192,245767,128,0,245966:0:0:0:0:
320,192,245811,128,0,245900:0:0:0:0:
192,192,245856,128,0,246033:0:0:0:0:
64,192,245900,128,0,245966:0:0:0:0:
320,192,245966,128,0,246143:0:0:0:0:
64,192,246033,128,0,246232:0:0:0:0:
448,192,246033,128,0,246099:0:0:0:0:
192,192,246099,128,0,246188:0:0:0:0:
448,192,246165,128,0,246232:0:0:0:0:
320,192,246210,128,0,246298:0:0:0:0:
192,192,246254,128,0,246342:0:0:0:0:
64,192,246298,128,0,246497:0:0:0:0:
448,192,246298,128,0,246365:0:0:0:0:
320,192,246365,128,0,246564:0:0:0:0:
448,192,246431,128,0,246497:0:0:0:0:
192,192,246497,128,0,246608:0:0:0:0:
64,192,246564,128,0,246652:0:0:0:0:
448,192,246564,128,0,246763:0:0:0:0:
320,192,246630,128,0,246696:0:0:0:0:
192,192,246674,128,0,246807:0:0:0:0:
64,192,246719,128,0,246763:0:0:0:0:
320,192,246763,128,0,246851:0:0:0:0:
448,192,246829,128,0,246896:0:0:0:0:
64,192,246829,128,0,247028:0:0:0:0:
192,192,246873,128,0,246962:0:0:0:0:
320,192,246918,128,0,247095:0:0:0:0:
448,192,246962,128,0,247028:0:0:0:0:
192,192,247028,128,0,247205:0:0:0:0:
448,192,247095,128,0,247294:0:0:0:0:
64,192,247095,128,0,247161:0:0:0:0:
320,192,247161,128,0,247250:0:0:0:0:
64,192,247227,128,0,247294:0:0:0:0:
192,192,247272,128,0,247360:0:0:0:0:
320,192,247316,128,0,247404:0:0:0:0:
64,192,247360,128,0,247493:0:0:0:0:
448,192,247360,128,0,247559:0:0:0:0:
192,192,247427,128,0,247493:0:0:0:0:
320,192,247493,128,0,247626:0:0:0:0:
192,192,247559,128,0,247692:0:0:0:0:
64,192,247626,128,0,247692:0:0:0:0:
448,192,247626,128,0,247758:0:0:0:0:
320,192,247692,128,0,247758:0:0:0:0:
192,192,247758,128,0,247869:0:0:0:0:
64,192,247758,128,0,247825:0:0:0:0:
320,192,247825,128,0,247913:0:0:0:0:
448,192,247891,128,0,247958:0:0:0:0:
64,192,247891,128,0,248090:0:0:0:0:
192,192,247935,128,0,248024:0:0:0:0:
320,192,247980,128,0,248134:0:0:0:0:
448,192,248024,128,0,248090:0:0:0:0:
192,192,248090,128,0,248179:0:0:0:0:
64,192,248157,128,0,248223:0:0:0:0:
448,192,248157,128,0,248356:0:0:0:0:
320,192,248201,128,0,248289:0:0:0:0:
192,192,248245,128,0,248422:0:0:0:0:
64,192,248289,128,0,248356:0:0:0:0:
320,192,248356,128,0,248488:0:0:0:0:
448,192,248422,128,0,248488:0:0:0:0:
64,192,248422,128,0,248555:0:0:0:0:
192,192,248488,128,0,248555:0:0:0:0:
320,192,248555,128,0,248688:0:0:0:0:
448,192,248555,128,0,248621:0:0:0:0:
192,192,248621,128,0,248754:0:0:0:0:
64,192,248688,128,0,248754:0:0:0:0:
448,192,248688,128,0,248820:0:0:0:0:
320,192,248754,128,0,248820:0:0:0:0:
64,192,248820,128,0,248887:0:0:0:0:
192,192,248820,128,0,248931:0:0:0:0:
320,192,248887,128,0,248975:0:0:0:0:
64,192,248953,128,0,249196:0:0:0:0:
448,192,248953,128,0,249019:0:0:0:0:
192,192,248997,128,0,249152:0:0:0:0:
320,192,249042,128,0,249108:0:0:0:0:
448,192,249086,128,0,249152:0:0:0:0:
320,192,249174,128,0,249285:0:0:0:0:
192,192,249219,128,0,249351:0:0:0:0:
448,192,249219,128,0,249418:0:0:0:0:
64,192,249263,128,0,249418:0:0:0:0:
320,192,249351,128,0,249462:0:0:0:0:
192,192,249418,128,0,249506:0:0:0:0:
448,192,249484,128,0,249727:0:0:0:0:
64,192,249484,128,0,249550:0:0:0:0:
320,192,249528,128,0,249683:0:0:0:0:
192,192,249573,128,0,249639:0:0:0:0:
64,192,249617,128,0,249683:0:0:0:0:
192,192,249705,128,0,249816:0:0:0:0:
320,192,249750,128,0,249882:0:0:0:0:
64,192,249750,128,0,249949:0:0:0:0:
448,192,249794,128,0,249949:0:0:0:0:
192,192,249882,128,0,249993:0:0:0:0:
320,192,249949,128,0,250037:0:0:0:0:
64,192,250015,128,0,250258:0:0:0:0:
448,192,250015,128,0,250081:0:0:0:0:
192,192,250059,128,0,250214:0:0:0:0:
320,192,250104,128,0,250170:0:0:0:0:
448,192,250148,128,0,250214:0:0:0:0:
320,192,250236,128,0,250347:0:0:0:0:
192,192,250281,128,0,250413:0:0:0:0:
448,192,250281,128,0,250480:0:0:0:0:
64,192,250325,128,0,250480:0:0:0:0:
320,192,250413,128,0,250524:0:0:0:0:
192,192,250480,128,0,250568:0:0:0:0:
448,192,250546,128,0,250789:0:0:0:0:
64,192,250546,128,0,250612:0:0:0:0:
320,192,250590,128,0,250745:0:0:0:0:
192,192,250634,128,0,250701:0:0:0:0:
64,192,250679,128,0,250745:0:0:0:0:
192,192,250767,128,0,250834:0:0:0:0:
64,192,250811,128,0,250900:0:0:0:0:
320,192,250811,128,0,250922:0:0:0:0:
448,192,250856,128,0,250966:0:0:0:0:
192,192,250900,128,0,250988:0:0:0:0:
64,192,250944,128,0,251033:0:0:0:0:
320,192,250988,128,0,251055:0:0:0:0:
448,192,251033,128,0,251099:0:0:0:0:
192,192,251077,128,0,251143:0:0:0:0:
64,192,251077,128,0,251143:0:0:0:0:
320,192,251143,128,0,251320:0:0:0:0:
192,192,251210,128,0,251276:0:0:0:0:
64,192,251210,128,0,251276:0:0:0:0:
448,192,251276,128,0,251365:0:0:0:0:
64,192,251342,128,0,251409:0:0:0:0:
192,192,251342,128,0,251475:0:0:0:0:
320,192,251387,128,0,251542:0:0:0:0:
448,192,251431,128,0,251542:0:0:0:0:
64,192,251475,128,0,251674:0:0:0:0:
192,192,251542,128,0,251608:0:0:0:0:
320,192,251608,128,0,251674:0:0:0:0:
448,192,251608,128,0,251674:0:0:0:0:
192,192,251674,128,0,251851:0:0:0:0:
320,192,251741,128,0,251807:0:0:0:0:
448,192,251741,128,0,251807:0:0:0:0:
64,192,251807,128,0,251896:0:0:0:0:
448,192,251873,128,0,251940:0:0:0:0:
320,192,251873,128,0,252006:0:0:0:0:
192,192,251918,128,0,252073:0:0:0:0:
64,192,251962,128,0,252073:0:0:0:0:
448,192,252006,128,0,252073:0:0:0:0:
320,192,252073,128,0,252139:0:0:0:0:
64,192,252139,128,0,252205:0:0:0:0:
192,192,252139,128,0,252272:0:0:0:0:
448,192,252139,128,0,252338:0:0:0:0:
320,192,252205,128,0,252338:0:0:0:0:
64,192,252272,128,0,252338:0:0:0:0:
192,192,252338,128,0,252404:0:0:0:0:
64,192,252404,128,0,252604:0:0:0:0:
320,192,252404,128,0,252537:0:0:0:0:
448,192,252404,128,0,252471:0:0:0:0:
192,192,252471,128,0,252604:0:0:0:0:
448,192,252537,128,0,252604:0:0:0:0:
320,192,252604,128,0,252670:0:0:0:0:
448,192,252670,128,0,252869:0:0:0:0:
192,192,252670,128,0,252803:0:0:0:0:
64,192,252670,128,0,252736:0:0:0:0:
320,192,252736,128,0,252869:0:0:0:0:
64,192,252803,128,0,252869:0:0:0:0:
192,192,252869,128,0,252935:0:0:0:0:
448,192,252935,128,0,253002:0:0:0:0:
64,192,252935,128,0,253134:0:0:0:0:
320,192,252935,128,0,253068:0:0:0:0:
192,192,253002,128,0,253134:0:0:0:0:
448,192,253068,128,0,253134:0:0:0:0:
320,192,253134,128,0,253201:0:0:0:0:
64,192,253201,128,0,253311:0:0:0:0:
448,192,253201,128,0,253267:0:0:0:0:
192,192,253245,128,0,253400:0:0:0:0:
320,192,253289,128,0,253356:0:0:0:0:
448,192,253334,128,0,253488:0:0:0:0:
64,192,253378,128,0,253444:0:0:0:0:
320,192,253422,128,0,253533:0:0:0:0:
192,192,253466,128,0,253577:0:0:0:0:
64,192,253511,128,0,253665:0:0:0:0:
448,192,253555,128,0,253621:0:0:0:0:
320,192,253599,128,0,253754:0:0:0:0:
192,192,253643,128,0,253710:0:0:0:0:
448,192,253688,128,0,253798:0:0:0:0:
64,192,253732,128,0,253842:0:0:0:0:
192,192,253776,128,0,253931:0:0:0:0:
320,192,253820,128,0,253887:0:0:0:0:
448,192,253865,128,0,254019:0:0:0:0:
64,192,253909,128,0,253975:0:0:0:0:
320,192,253953,128,0,254064:0:0:0:0:
192,192,253997,128,0,254108:0:0:0:0:
64,192,254042,128,0,254196:0:0:0:0:
448,192,254086,128,0,254152:0:0:0:0:
320,192,254130,128,0,254241:0:0:0:0:
192,192,254174,128,0,254373:0:0:0:0:
448,192,254219,128,0,254285:0:0:0:0:
64,192,254263,128,0,254329:0:0:0:0:
320,192,254307,128,0,254418:0:0:0:0:
448,192,254351,128,0,254462:0:0:0:0:
64,192,254396,128,0,254506:0:0:0:0:
192,192,254440,128,0,254550:0:0:0:0:
320,192,254484,128,0,254595:0:0:0:0:
448,192,254528,128,0,254683:0:0:0:0:
64,192,254573,128,0,254639:0:0:0:0:
192,192,254617,128,0,254772:0:0:0:0:
320,192,254661,128,0,254727:0:0:0:0:
64,192,254705,128,0,254860:0:0:0:0:
448,192,254750,128,0,254816:0:0:0:0:
320,192,254794,128,0,254949:0:0:0:0:
192,192,254838,128,0,254904:0:0:0:0:
448,192,254882,128,0,254993:0:0:0:0:
64,192,254927,128,0,255037:0:0:0:0:
192,192,254971,128,0,255170:0:0:0:0:
320,192,255015,128,0,255081:0:0:0:0:
448,192,255059,128,0,255126:0:0:0:0:
64,192,255104,128,0,255214:0:0:0:0:
320,192,255148,128,0,255258:0:0:0:0:
448,192,255192,128,0,255258:0:0:0:0:
192,192,255236,128,0,255303:0:0:0:0:
64,192,255281,128,0,255347:0:0:0:0:
320,192,255325,128,0,255391:0:0:0:0:
448,192,255325,128,0,255435:0:0:0:0:
192,192,255369,128,0,255480:0:0:0:0:
64,192,255413,128,0,255657:0:0:0:0:
320,192,255458,128,0,255524:0:0:0:0:
448,192,255502,128,0,255568:0:0:0:0:
192,192,255546,128,0,255612:0:0:0:0:
320,192,255590,128,0,255745:0:0:0:0:
448,192,255634,128,0,255701:0:0:0:0:
192,192,255679,128,0,255878:0:0:0:0:
64,192,255723,128,0,255789:0:0:0:0:
448,192,255767,128,0,255834:0:0:0:0:
320,192,255811,128,0,255966:0:0:0:0:
64,192,255856,128,0,255922:0:0:0:0:
448,192,255900,128,0,256011:0:0:0:0:
192,192,255944,128,0,256055:0:0:0:0:
64,192,255988,128,0,256099:0:0:0:0:
320,192,256033,128,0,256143:0:0:0:0:
448,192,256077,128,0,256188:0:0:0:0:
192,192,256121,128,0,256232:0:0:0:0:
64,192,256165,128,0,256276:0:0:0:0:
320,192,256210,128,0,256320:0:0:0:0:
448,192,256254,128,0,256409:0:0:0:0:
192,192,256298,128,0,256365:0:0:0:0:
64,192,256342,128,0,256497:0:0:0:0:
320,192,256387,128,0,256453:0:0:0:0:
192,192,256431,128,0,256542:0:0:0:0:
448,192,256475,128,0,256586:0:0:0:0:
320,192,256519,128,0,256630:0:0:0:0:
64,192,256564,128,0,256674:0:0:0:0:
192,192,256608,128,0,256763:0:0:0:0:
448,192,256652,128,0,256719:0:0:0:0:
320,192,256696,128,0,256851:0:0:0:0:
64,192,256741,128,0,256807:0:0:0:0:
448,192,256785,128,0,256940:0:0:0:0:
192,192,256829,128,0,256896:0:0:0:0:
64,192,256873,128,0,257028:0:0:0:0:
320,192,256918,128,0,256984:0:0:0:0:
192,192,256962,128,0,257117:0:0:0:0:
448,192,257006,128,0,257073:0:0:0:0:
320,192,257050,128,0,257205:0:0:0:0:
64,192,257095,128,0,257161:0:0:0:0:
448,192,257139,128,0,257250:0:0:0:0:
192,192,257183,128,0,257294:0:0:0:0:
64,192,257227,128,0,257338:0:0:0:0:
320,192,257272,128,0,257382:0:0:0:0:
448,192,257316,128,0,257449:0:0:0:0:
192,192,257360,128,0,257493:0:0:0:0:
64,192,257404,128,0,257471:0:0:0:0:
320,192,257449,128,0,257515:0:0:0:0:
64,192,265944,132,0,266475:0:0:0:0:
64,192,266741,128,0,266807:0:0:0:0:
192,192,266873,128,0,266940:0:0:0:0:
320,192,267006,128,0,267073:0:0:0:0:
448,192,267139,128,0,267205:0:0:0:0:
320,192,267272,128,0,267338:0:0:0:0:
192,192,267404,128,0,267471:0:0:0:0:
64,192,267537,128,0,267604:0:0:0:0:
64,192,267670,128,0,267736:0:0:0:0:
192,192,267803,128,0,267869:0:0:0:0:
320,192,267935,128,0,268002:0:0:0:0:
448,192,268068,128,0,268134:0:0:0:0:
320,192,268201,128,0,268267:0:0:0:0:
192,192,268334,128,0,268400:0:0:0:0:
64,192,268466,128,0,268533:0:0:0:0:
448,192,268599,128,0,268665:0:0:0:0:
448,192,268732,128,0,268798:0:0:0:0:
320,192,268865,128,0,268931:0:0:0:0:
320,192,268997,128,0,269064:0:0:0:0:
192,192,269130,128,0,269196:0:0:0:0:
64,192,269263,128,0,269329:0:0:0:0:
192,192,269396,128,0,269462:0:0:0:0:
320,192,269528,128,0,269595:0:0:0:0:
448,192,269661,128,0,269927:0:0:0:0:
320,192,269927,128,0,270192:0:0:0:0:
192,192,270192,128,0,270723:0:0:0:0:
64,192,270988,128,0,271055:0:0:0:0:
192,192,271121,128,0,271188:0:0:0:0:
448,192,271254,128,0,271453:0:0:0:0:
448,192,271519,128,0,271586:0:0:0:0:
448,192,271652,128,0,271719:0:0:0:0:
448,192,271785,128,0,272050:0:0:0:0:
320,192,272050,128,0,272316:0:0:0:0:
192,192,272316,128,0,273245:0:0:0:0:
320,192,273112,128,0,273909:0:0:0:0:
192,192,273378,128,0,273909:0:0:0:0:
448,192,274440,128,0,274971:0:0:0:0:
448,192,275236,128,0,275303:0:0:0:0:
448,192,275369,128,0,275435:0:0:0:0:
320,192,275502,128,0,275568:0:0:0:0:
192,192,275634,128,0,275701:0:0:0:0:
64,192,275767,128,0,276033:0:0:0:0:
192,192,276033,128,0,276298:0:0:0:0:
448,192,276298,128,0,276365:0:0:0:0:
448,192,276431,128,0,276497:0:0:0:0:
320,192,276564,128,0,276630:0:0:0:0:
192,192,276696,128,0,276763:0:0:0:0:
64,192,276829,128,0,277095:0:0:0:0:
192,192,277095,128,0,277161:0:0:0:0:
320,192,277227,128,0,277294:0:0:0:0:
448,192,277360,128,0,277427:0:0:0:0:
448,192,277493,128,0,277559:0:0:0:0:
320,192,277626,128,0,277692:0:0:0:0:
192,192,277758,128,0,277825:0:0:0:0:
64,192,277891,128,0,277958:0:0:0:0:
192,192,278024,128,0,278090:0:0:0:0:
320,192,278157,128,0,278223:0:0:0:0:
448,192,278289,128,0,278356:0:0:0:0:
320,192,278422,128,0,278488:0:0:0:0:
192,192,278555,128,0,278621:0:0:0:0:
64,192,278688,128,0,279219:0:0:0:0:
192,192,279484,128,0,279550:0:0:0:0:
320,192,279617,128,0,279683:0:0:0:0:
448,192,279750,128,0,279816:0:0:0:0:
448,192,280015,128,0,280214:0:0:0:0:
448,192,280281,128,0,280480:0:0:0:0:
320,192,280281,128,0,280480:0:0:0:0:
448,192,280546,128,0,280745:0:0:0:0:
320,192,280546,128,0,280745:0:0:0:0:
192,192,280546,128,0,280745:0:0:0:0:
192,192,280811,128,0,280878:0:0:0:0:
320,192,280811,128,0,280944:0:0:0:0:
448,192,280811,128,0,281011:0:0:0:0:
64,192,280811,128,0,281011:0:0:0:0:
192,192,280944,128,0,281077:0:0:0:0:
320,192,281011,128,0,281188:0:0:0:0:
448,192,281077,128,0,281143:0:0:0:0:
64,192,281077,128,0,281276:0:0:0:0:
192,192,281143,128,0,281232:0:0:0:0:
448,192,281210,128,0,281276:0:0:0:0:
320,192,281254,128,0,281342:0:0:0:0:
192,192,281298,128,0,281453:0:0:0:0:
64,192,281342,128,0,281409:0:0:0:0:
448,192,281342,128,0,281542:0:0:0:0:
320,192,281409,128,0,281497:0:0:0:0:
64,192,281475,128,0,281542:0:0:0:0:
192,192,281519,128,0,281608:0:0:0:0:
320,192,281564,128,0,281719:0:0:0:0:
448,192,281608,128,0,281674:0:0:0:0:
64,192,281608,128,0,281807:0:0:0:0:
192,192,281674,128,0,281763:0:0:0:0:
448,192,281741,128,0,281807:0:0:0:0:
320,192,281785,128,0,281851:0:0:0:0:
192,192,281829,128,0,281896:0:0:0:0:
64,192,281873,128,0,281940:0:0:0:0:
448,192,281873,128,0,282073:0:0:0:0:
320,192,281918,128,0,281984:0:0:0:0:
192,192,281962,128,0,282028:0:0:0:0:
64,192,282006,128,0,282161:0:0:0:0:
320,192,282050,128,0,282117:0:0:0:0:
192,192,282095,128,0,282205:0:0:0:0:
448,192,282139,128,0,282294:0:0:0:0:
320,192,282183,128,0,282250:0:0:0:0:
64,192,282227,128,0,282294:0:0:0:0:
192,192,282272,128,0,282338:0:0:0:0:
320,192,282316,128,0,282382:0:0:0:0:
448,192,282360,128,0,282427:0:0:0:0:
192,192,282404,128,0,282471:0:0:0:0:
320,192,282449,128,0,282515:0:0:0:0:
64,192,282493,128,0,282559:0:0:0:0:
192,192,282537,128,0,282604:0:0:0:0:
448,192,282581,128,0,282670:0:0:0:0:
320,192,282626,128,0,282736:0:0:0:0:
64,192,282670,128,0,282736:0:0:0:0:
192,192,282670,128,0,282803:0:0:0:0:
448,192,282736,128,0,282869:0:0:0:0:
64,192,282803,128,0,282869:0:0:0:0:
320,192,282803,128,0,282869:0:0:0:0:
192,192,282869,128,0,282935:0:0:0:0:
448,192,282935,128,0,283090:0:0:0:0:
64,192,282935,128,0,283002:0:0:0:0:
320,192,282980,128,0,283046:0:0:0:0:
192,192,283024,128,0,283201:0:0:0:0:
64,192,283068,128,0,283134:0:0:0:0:
320,192,283112,128,0,283267:0:0:0:0:
448,192,283157,128,0,283267:0:0:0:0:
64,192,283201,128,0,283311:0:0:0:0:
192,192,283267,128,0,283356:0:0:0:0:
320,192,283334,128,0,283400:0:0:0:0:
448,192,283378,128,0,283466:0:0:0:0:
64,192,283378,128,0,283444:0:0:0:0:
192,192,283422,128,0,283488:0:0:0:0:
320,192,283466,128,0,283533:0:0:0:0:
64,192,283511,128,0,283577:0:0:0:0:
192,192,283555,128,0,283621:0:0:0:0:
320,192,283599,128,0,283665:0:0:0:0:
448,192,283599,128,0,283665:0:0:0:0:
64,192,283665,128,0,283732:0:0:0:0:
320,192,283732,128,0,283820:0:0:0:0:
448,192,283732,128,0,283887:0:0:0:0:
64,192,283776,128,0,283931:0:0:0:0:
192,192,283820,128,0,283931:0:0:0:0:
320,192,283887,128,0,283997:0:0:0:0:
448,192,283953,128,0,283997:0:0:0:0:
192,192,283997,128,0,284064:0:0:0:0:
64,192,283997,128,0,284064:0:0:0:0:
448,192,284064,128,0,284196:0:0:0:0:
192,192,284130,128,0,284196:0:0:0:0:
64,192,284130,128,0,284196:0:0:0:0:
320,192,284196,128,0,284329:0:0:0:0:
64,192,284263,128,0,284329:0:0:0:0:
192,192,284263,128,0,284329:0:0:0:0:
448,192,284329,128,0,284462:0:0:0:0:
64,192,284396,128,0,284462:0:0:0:0:
192,192,284396,128,0,284506:0:0:0:0:
320,192,284462,128,0,284661:0:0:0:0:
64,192,284528,128,0,284727:0:0:0:0:
448,192,284528,128,0,284595:0:0:0:0:
192,192,284573,128,0,284727:0:0:0:0:
448,192,284661,128,0,284794:0:0:0:0:
320,192,284727,128,0,284794:0:0:0:0:
192,192,284794,128,0,284949:0:0:0:0:
64,192,284794,128,0,284882:0:0:0:0:
448,192,284838,128,0,284993:0:0:0:0:
320,192,284882,128,0,284993:0:0:0:0:
64,192,284949,128,0,285059:0:0:0:0:
192,192,285015,128,0,285126:0:0:0:0:
320,192,285059,128,0,285126:0:0:0:0:
448,192,285059,128,0,285126:0:0:0:0:
64,192,285126,128,0,285258:0:0:0:0:
320,192,285192,128,0,285258:0:0:0:0:
448,192,285192,128,0,285258:0:0:0:0:
192,192,285258,128,0,285391:0:0:0:0:
448,192,285325,128,0,285391:0:0:0:0:
320,192,285325,128,0,285391:0:0:0:0:
64,192,285391,128,0,285524:0:0:0:0:
448,192,285458,128,0,285524:0:0:0:0:
320,192,285458,128,0,285568:0:0:0:0:
192,192,285524,128,0,285723:0:0:0:0:
64,192,285590,128,0,285657:0:0:0:0:
448,192,285590,128,0,285789:0:0:0:0:
320,192,285634,128,0,285789:0:0:0:0:
64,192,285723,128,0,285856:0:0:0:0:
192,192,285789,128,0,285856:0:0:0:0:
320,192,285856,128,0,286011:0:0:0:0:
448,192,285856,128,0,285944:0:0:0:0:
64,192,285900,128,0,286055:0:0:0:0:
192,192,285944,128,0,286055:0:0:0:0:
448,192,286011,128,0,286121:0:0:0:0:
320,192,286077,128,0,286188:0:0:0:0:
192,192,286121,128,0,286188:0:0:0:0:
64,192,286121,128,0,286188:0:0:0:0:
448,192,286188,128,0,286320:0:0:0:0:
192,192,286254,128,0,286320:0:0:0:0:
64,192,286254,128,0,286320:0:0:0:0:
320,192,286320,128,0,286453:0:0:0:0:
64,192,286387,128,0,286453:0:0:0:0:
192,192,286387,128,0,286453:0:0:0:0:
448,192,286453,128,0,286586:0:0:0:0:
64,192,286519,128,0,286586:0:0:0:0:
192,192,286519,128,0,286630:0:0:0:0:
320,192,286586,128,0,286741:0:0:0:0:
448,192,286652,128,0,286719:0:0:0:0:
64,192,286652,128,0,286851:0:0:0:0:
192,192,286696,128,0,286763:0:0:0:0:
448,192,286785,128,0,286918:0:0:0:0:
192,192,286829,128,0,286896:0:0:0:0:
320,192,286873,128,0,287028:0:0:0:0:
64,192,286918,128,0,286984:0:0:0:0:
192,192,286962,128,0,287073:0:0:0:0:
448,192,287006,128,0,287050:0:0:0:0:
64,192,287050,128,0,287095:0:0:0:0:
448,192,287095,128,0,287183:0:0:0:0:
64,192,287139,128,0,287183:0:0:0:0:
320,192,287183,128,0,287272:0:0:0:0:
192,192,287183,128,0,287227:0:0:0:0:
448,192,287250,128,0,287316:0:0:0:0:
192,192,287294,128,0,287382:0:0:0:0:
320,192,287338,128,0,287427:0:0:0:0:
448,192,287382,128,0,287581:0:0:0:0:
192,192,287449,128,0,287515:0:0:0:0:
64,192,287449,128,0,287493:0:0:0:0:
320,192,287493,128,0,287581:0:0:0:0:
64,192,287537,128,0,287648:0:0:0:0:
192,192,287581,128,0,287692:0:0:0:0:
320,192,287648,128,0,287758:0:0:0:0:
448,192,287714,128,0,287758:0:0:0:0:
64,192,287714,128,0,287847:0:0:0:0:
192,192,287758,128,0,287847:0:0:0:0:
448,192,287803,128,0,287913:0:0:0:0:
320,192,287847,128,0,287958:0:0:0:0:
192,192,287913,128,0,288024:0:0:0:0:
64,192,287980,128,0,288024:0:0:0:0:
448,192,287980,128,0,288179:0:0:0:0:
320,192,288024,128,0,288112:0:0:0:0:
64,192,288068,128,0,288179:0:0:0:0:
192,192,288112,128,0,288245:0:0:0:0:
320,192,288179,128,0,288245:0:0:0:0:
448,192,288245,128,0,288311:0:0:0:0:
64,192,288245,128,0,288444:0:0:0:0:
192,192,288311,128,0,288378:0:0:0:0:
448,192,288378,128,0,288444:0:0:0:0:
320,192,288378,128,0,288511:0:0:0:0:
192,192,288444,128,0,288621:0:0:0:0:
64,192,288511,128,0,288710:0:0:0:0:
448,192,288511,128,0,288577:0:0:0:0:
320,192,288577,128,0,288665:0:0:0:0:
448,192,288643,128,0,288710:0:0:0:0:
192,192,288688,128,0,288776:0:0:0:0:
320,192,288732,128,0,288842:0:0:0:0:
448,192,288776,128,0,288909:0:0:0:0:
64,192,288776,128,0,288842:0:0:0:0:
192,192,288842,128,0,288975:0:0:0:0:
64,192,288909,128,0,288975:0:0:0:0:
320,192,288909,128,0,289042:0:0:0:0:
448,192,288975,128,0,289108:0:0:0:0:
192,192,289042,128,0,289174:0:0:0:0:
64,192,289042,128,0,289108:0:0:0:0:
320,192,289108,128,0,289241:0:0:0:0:
64,192,289174,128,0,289241:0:0:0:0:
448,192,289174,128,0,289241:0:0:0:0:
192,192,289241,128,0,289329:0:0:0:0:
448,192,289307,128,0,289418:0:0:0:0:
320,192,289307,128,0,289373:0:0:0:0:
64,192,289307,128,0,289506:0:0:0:0:
192,192,289396,128,0,289506:0:0:0:0:
320,192,289440,128,0,289506:0:0:0:0:
448,192,289484,128,0,289595:0:0:0:0:
320,192,289573,128,0,289772:0:0:0:0:
192,192,289573,128,0,289639:0:0:0:0:
64,192,289573,128,0,289683:0:0:0:0:
448,192,289661,128,0,289772:0:0:0:0:
192,192,289705,128,0,289772:0:0:0:0:
64,192,289750,128,0,289838:0:0:0:0:
192,192,289838,128,0,290037:0:0:0:0:
320,192,289838,128,0,289949:0:0:0:0:
448,192,289838,128,0,289904:0:0:0:0:
64,192,289927,128,0,290037:0:0:0:0:
448,192,289971,128,0,290037:0:0:0:0:
320,192,290015,128,0,290126:0:0:0:0:
448,192,290104,128,0,290303:0:0:0:0:
192,192,290104,128,0,290214:0:0:0:0:
64,192,290104,128,0,290170:0:0:0:0:
320,192,290192,128,0,290347:0:0:0:0:
64,192,290236,128,0,290303:0:0:0:0:
192,192,290281,128,0,290391:0:0:0:0:
64,192,290369,128,0,290435:0:0:0:0:
448,192,290369,128,0,290568:0:0:0:0:
320,192,290413,128,0,290568:0:0:0:0:
192,192,290458,128,0,290502:0:0:0:0:
64,192,290502,128,0,290634:0:0:0:0:
192,192,290568,128,0,290701:0:0:0:0:
320,192,290634,128,0,290767:0:0:0:0:
448,192,290634,128,0,290701:0:0:0:0:
64,192,290701,128,0,290834:0:0:0:0:
192,192,290767,128,0,290900:0:0:0:0:
448,192,290767,128,0,290834:0:0:0:0:
320,192,290834,128,0,290944:0:0:0:0:
448,192,290900,128,0,290988:0:0:0:0:
64,192,290900,128,0,291099:0:0:0:0:
192,192,290966,128,0,291055:0:0:0:0:
320,192,291011,128,0,291165:0:0:0:0:
448,192,291055,128,0,291099:0:0:0:0:
192,192,291121,128,0,291210:0:0:0:0:
64,192,291165,128,0,291254:0:0:0:0:
448,192,291165,128,0,291365:0:0:0:0:
320,192,291232,128,0,291320:0:0:0:0:
192,192,291276,128,0,291409:0:0:0:0:
64,192,291320,128,0,291365:0:0:0:0:
320,192,291387,128,0,291453:0:0:0:0:
64,192,291431,128,0,291586:0:0:0:0:
448,192,291431,128,0,291497:0:0:0:0:
192,192,291475,128,0,291542:0:0:0:0:
320,192,291519,128,0,291696:0:0:0:0:
448,192,291564,128,0,291630:0:0:0:0:
192,192,291608,128,0,291763:0:0:0:0:
64,192,291652,128,0,291763:0:0:0:0:
448,192,291696,128,0,291807:0:0:0:0:
320,192,291763,128,0,291851:0:0:0:0:
192,192,291829,128,0,291896:0:0:0:0:
64,192,291873,128,0,291962:0:0:0:0:
448,192,291873,128,0,291940:0:0:0:0:
320,192,291918,128,0,291984:0:0:0:0:
192,192,291962,128,0,292028:0:0:0:0:
448,192,292006,128,0,292073:0:0:0:0:
320,192,292050,128,0,292117:0:0:0:0:
192,192,292095,128,0,292161:0:0:0:0:
64,192,292095,128,0,292161:0:0:0:0:
448,192,292161,128,0,292227:0:0:0:0:
192,192,292227,128,0,292316:0:0:0:0:
64,192,292227,128,0,292382:0:0:0:0:
448,192,292272,128,0,292427:0:0:0:0:
320,192,292316,128,0,292427:0:0:0:0:
192,192,292382,128,0,292493:0:0:0:0:
64,192,292449,128,0,292493:0:0:0:0:
320,192,292493,128,0,292559:0:0:0:0:
448,192,292493,128,0,292559:0:0:0:0:
64,192,292559,128,0,292692:0:0:0:0:
320,192,292626,128,0,292692:0:0:0:0:
448,192,292626,128,0,292692:0:0:0:0:
192,192,292692,128,0,292825:0:0:0:0:
448,192,292758,128,0,292825:0:0:0:0:
320,192,292758,128,0,292825:0:0:0:0:
64,192,292825,128,0,292958:0:0:0:0:
448,192,292891,128,0,292958:0:0:0:0:
320,192,292891,128,0,293002:0:0:0:0:
192,192,292958,128,0,293157:0:0:0:0:
448,192,293024,128,0,293223:0:0:0:0:
64,192,293024,128,0,293090:0:0:0:0:
320,192,293068,128,0,293223:0:0:0:0:
64,192,293157,128,0,293289:0:0:0:0:
192,192,293223,128,0,293289:0:0:0:0:
320,192,293289,128,0,293444:0:0:0:0:
448,192,293289,128,0,293378:0:0:0:0:
64,192,293334,128,0,293488:0:0:0:0:
192,192,293378,128,0,293488:0:0:0:0:
448,192,293444,128,0,293555:0:0:0:0:
320,192,293511,128,0,293621:0:0:0:0:
192,192,293555,128,0,293621:0:0:0:0:
64,192,293555,128,0,293621:0:0:0:0:
448,192,293621,128,0,293754:0:0:0:0:
192,192,293688,128,0,293754:0:0:0:0:
64,192,293688,128,0,293754:0:0:0:0:
320,192,293754,128,0,293887:0:0:0:0:
64,192,293820,128,0,293887:0:0:0:0:
192,192,293820,128,0,293887:0:0:0:0:
448,192,293887,128,0,294019:0:0:0:0:
64,192,293953,128,0,294019:0:0:0:0:
192,192,293953,128,0,294064:0:0:0:0:
320,192,294019,128,0,294219:0:0:0:0:
448,192,294086,128,0,294152:0:0:0:0:
64,192,294086,128,0,294285:0:0:0:0:
192,192,294130,128,0,294285:0:0:0:0:
448,192,294219,128,0,294351:0:0:0:0:
320,192,294285,128,0,294351:0:0:0:0:
192,192,294351,128,0,294506:0:0:0:0:
64,192,294351,128,0,294440:0:0:0:0:
448,192,294396,128,0,294550:0:0:0:0:
320,192,294440,128,0,294550:0:0:0:0:
64,192,294506,128,0,294617:0:0:0:0:
192,192,294573,128,0,294683:0:0:0:0:
320,192,294617,128,0,294683:0:0:0:0:
448,192,294617,128,0,294683:0:0:0:0:
64,192,294683,128,0,294816:0:0:0:0:
320,192,294750,128,0,294816:0:0:0:0:
448,192,294750,128,0,294816:0:0:0:0:
192,192,294816,128,0,294949:0:0:0:0:
448,192,294882,128,0,294949:0:0:0:0:
320,192,294882,128,0,294949:0:0:0:0:
64,192,294949,128,0,295081:0:0:0:0:
448,192,295015,128,0,295081:0:0:0:0:
320,192,295015,128,0,295126:0:0:0:0:
192,192,295081,128,0,295214:0:0:0:0:
64,192,295148,128,0,295214:0:0:0:0:
448,192,295148,128,0,295347:0:0:0:0:
320,192,295192,128,0,295258:0:0:0:0:
64,192,295281,128,0,295347:0:0:0:0:
192,192,295281,128,0,295480:0:0:0:0:
320,192,295347,128,0,295435:0:0:0:0:
448,192,295413,128,0,295458:0:0:0:0:
64,192,295458,128,0,295546:0:0:0:0:
448,192,295502,128,0,295612:0:0:0:0:
320,192,295546,128,0,295612:0:0:0:0:
64,192,295590,128,0,295679:0:0:0:0:
192,192,295634,128,0,295679:0:0:0:0:
448,192,295679,128,0,295789:0:0:0:0:
320,192,295679,128,0,295745:0:0:0:0:
192,192,295767,128,0,295878:0:0:0:0:
64,192,295811,128,0,295878:0:0:0:0:
320,192,295811,128,0,295966:0:0:0:0:
448,192,295856,128,0,296011:0:0:0:0:
192,192,295944,128,0,296011:0:0:0:0:
64,192,295944,128,0,296055:0:0:0:0:
320,192,296033,128,0,296143:0:0:0:0:
448,192,296077,128,0,296143:0:0:0:0:
192,192,296077,128,0,296188:0:0:0:0:
64,192,296121,128,0,296232:0:0:0:0:
448,192,296210,128,0,296276:0:0:0:0:
320,192,296210,128,0,296276:0:0:0:0:
192,192,296254,128,0,296342:0:0:0:0:
64,192,296298,128,0,296409:0:0:0:0:
320,192,296342,128,0,296497:0:0:0:0:
192,192,296409,128,0,296453:0:0:0:0:
448,192,296475,128,0,296542:0:0:0:0:
64,192,296475,128,0,296608:0:0:0:0:
192,192,296519,128,0,296608:0:0:0:0:
320,192,296564,128,0,296719:0:0:0:0:
448,192,296608,128,0,296674:0:0:0:0:
192,192,296674,128,0,296763:0:0:0:0:
64,192,296741,128,0,296807:0:0:0:0:
448,192,296741,128,0,296873:0:0:0:0:
320,192,296785,128,0,296873:0:0:0:0:
192,192,296829,128,0,297006:0:0:0:0:
64,192,296873,128,0,296940:0:0:0:0:
320,192,296940,128,0,297006:0:0:0:0:
64,192,297006,128,0,297073:0:0:0:0:
448,192,297006,128,0,297205:0:0:0:0:
320,192,297073,128,0,297139:0:0:0:0:
192,192,297139,128,0,297250:0:0:0:0:
64,192,297139,128,0,297205:0:0:0:0:
320,192,297205,128,0,297294:0:0:0:0:
448,192,297272,128,0,297338:0:0:0:0:
64,192,297272,128,0,297360:0:0:0:0:
192,192,297316,128,0,297404:0:0:0:0:
320,192,297360,128,0,297471:0:0:0:0:
448,192,297404,128,0,297471:0:0:0:0:
192,192,297471,128,0,297604:0:0:0:0:
320,192,297537,128,0,297670:0:0:0:0:
448,192,297537,128,0,297604:0:0:0:0:
64,192,297604,128,0,297736:0:0:0:0:
192,192,297670,128,0,297736:0:0:0:0:
448,192,297670,128,0,297736:0:0:0:0:
320,192,297736,128,0,297803:0:0:0:0:
64,192,297803,128,0,297869:0:0:0:0:
448,192,297803,128,0,298002:0:0:0:0:
192,192,297803,128,0,297869:0:0:0:0:
320,192,297869,128,0,297935:0:0:0:0:
64,192,297935,128,0,298002:0:0:0:0:
192,192,297935,128,0,298068:0:0:0:0:
320,192,298002,128,0,298179:0:0:0:0:
448,192,298068,128,0,298267:0:0:0:0:
64,192,298068,128,0,298134:0:0:0:0:
192,192,298134,128,0,298223:0:0:0:0:
64,192,298201,128,0,298267:0:0:0:0:
320,192,298245,128,0,298334:0:0:0:0:
192,192,298289,128,0,298400:0:0:0:0:
64,192,298334,128,0,298466:0:0:0:0:
448,192,298334,128,0,298400:0:0:0:0:
320,192,298400,128,0,298533:0:0:0:0:
448,192,298466,128,0,298533:0:0:0:0:
192,192,298466,128,0,298599:0:0:0:0:
64,192,298533,128,0,298665:0:0:0:0:
320,192,298599,128,0,298732:0:0:0:0:
448,192,298599,128,0,298798:0:0:0:0:
192,192,298665,128,0,298831:0:0:0:0:
64,192,298732,128,0,298798:0:0:0:0:
320,192,298798,128,0,298865:0:0:0:0:
64,192,298865,128,0,298931:0:0:0:0:
448,192,298865,128,0,299064:0:0:0:0:
192,192,298898,128,0,298997:0:0:0:0:
320,192,298931,128,0,299097:0:0:0:0:
64,192,298997,128,0,299064:0:0:0:0:
192,192,299064,128,0,299130:0:0:0:0:
448,192,299130,128,0,299196:0:0:0:0:
64,192,299130,128,0,299329:0:0:0:0:
320,192,299163,128,0,299263:0:0:0:0:
192,192,299196,128,0,299362:0:0:0:0:
448,192,299263,128,0,299329:0:0:0:0:
320,192,299329,128,0,299396:0:0:0:0:
64,192,299396,128,0,299462:0:0:0:0:
448,192,299396,128,0,299595:0:0:0:0:
192,192,299429,128,0,299528:0:0:0:0:
320,192,299462,128,0,299628:0:0:0:0:
64,192,299528,128,0,299595:0:0:0:0:
192,192,299595,128,0,299661:0:0:0:0:
64,192,299661,128,0,299860:0:0:0:0:
448,192,299661,128,0,299727:0:0:0:0:
320,192,299694,128,0,299860:0:0:0:0:
192,192,299727,128,0,299860:0:0:0:0:
448,192,299794,128,0,299860:0:0:0:0:
64,192,299927,128,0,299993:0:0:0:0:
192,192,299927,128,0,299993:0:0:0:0:
448,192,299927,128,0,300258:0:0:0:0:
320,192,299927,128,0,299993:0:0:0:0:
64,192,300059,128,0,300126:0:0:0:0:
192,192,300059,128,0,300126:0:0:0:0:
320,192,300059,128,0,300258:0:0:0:0:
192,192,300192,128,0,300258:0:0:0:0:
64,192,300192,128,0,300258:0:0:0:0:
448,192,300325,128,0,300391:0:0:0:0:
320,192,300325,128,0,300391:0:0:0:0:
64,192,300325,128,0,300657:0:0:0:0:
192,192,300325,128,0,300391:0:0:0:0:
192,192,300458,128,0,300657:0:0:0:0:
320,192,300458,128,0,300524:0:0:0:0:
448,192,300458,128,0,300524:0:0:0:0:
320,192,300590,128,0,300657:0:0:0:0:
448,192,300590,128,0,300657:0:0:0:0:
448,192,300723,128,0,301055:0:0:0:0:
192,192,300723,128,0,300789:0:0:0:0:
64,192,300723,128,0,300789:0:0:0:0:
320,192,300723,128,0,300789:0:0:0:0:
320,192,300856,128,0,301055:0:0:0:0:
192,192,300856,128,0,300922:0:0:0:0:
64,192,300856,128,0,300922:0:0:0:0:
64,192,300988,128,0,301055:0:0:0:0:
192,192,300988,128,0,301055:0:0:0:0:
64,192,301121,128,0,301453:0:0:0:0:
320,192,301121,128,0,301188:0:0:0:0:
448,192,301121,128,0,301188:0:0:0:0:
192,192,301121,128,0,301188:0:0:0:0:
448,192,301254,128,0,301320:0:0:0:0:
320,192,301254,128,0,301320:0:0:0:0:
192,192,301254,128,0,301453:0:0:0:0:
448,192,301387,128,0,301453:0:0:0:0:
320,192,301387,128,0,301453:0:0:0:0:
448,192,301519,128,0,301586:0:0:0:0:
320,192,301519,128,0,301586:0:0:0:0:
192,192,301519,128,0,301586:0:0:0:0:
64,192,301519,128,0,301586:0:0:0:0:
64,192,301652,128,0,301719:0:0:0:0:
448,192,301652,128,0,301719:0:0:0:0:
192,192,301652,128,0,301719:0:0:0:0:
320,192,301652,128,0,301719:0:0:0:0:
192,192,301785,128,0,301851:0:0:0:0:
320,192,301785,128,0,301851:0:0:0:0:
64,192,301785,128,0,301851:0:0:0:0:
448,192,301785,128,0,301851:0:0:0:0:
320,192,301918,128,0,301984:0:0:0:0:
192,192,301918,128,0,301984:0:0:0:0:
64,192,302050,128,0,302117:0:0:0:0:
192,192,302050,128,0,302117:0:0:0:0:
448,192,302050,128,0,302382:0:0:0:0:
320,192,302050,128,0,302117:0:0:0:0:
64,192,302183,128,0,302250:0:0:0:0:
192,192,302183,128,0,302250:0:0:0:0:
320,192,302183,128,0,302382:0:0:0:0:
192,192,302316,128,0,302382:0:0:0:0:
64,192,302316,128,0,302382:0:0:0:0:
448,192,302449,128,0,302515:0:0:0:0:
320,192,302449,128,0,302515:0:0:0:0:
64,192,302449,128,0,302781:0:0:0:0:
192,192,302449,128,0,302515:0:0:0:0:
192,192,302581,128,0,302781:0:0:0:0:
320,192,302581,128,0,302648:0:0:0:0:
448,192,302581,128,0,302648:0:0:0:0:
320,192,302714,128,0,302781:0:0:0:0:
448,192,302714,128,0,302781:0:0:0:0:
448,192,302847,128,0,303179:0:0:0:0:
192,192,302847,128,0,302913:0:0:0:0:
64,192,302847,128,0,302913:0:0:0:0:
320,192,302847,128,0,302913:0:0:0:0:
320,192,302980,128,0,303179:0:0:0:0:
192,192,302980,128,0,303046:0:0:0:0:
64,192,302980,128,0,303046:0:0:0:0:
64,192,303112,128,0,303179:0:0:0:0:
192,192,303112,128,0,303179:0:0:0:0:
64,192,303245,128,0,303577:0:0:0:0:
320,192,303245,128,0,303311:0:0:0:0:
448,192,303245,128,0,303311:0:0:0:0:
192,192,303245,128,0,303311:0:0:0:0:
448,192,303378,128,0,303444:0:0:0:0:
320,192,303378,128,0,303444:0:0:0:0:
192,192,303378,128,0,303577:0:0:0:0:
448,192,303511,128,0,303577:0:0:0:0:
320,192,303511,128,0,303577:0:0:0:0:
64,192,303643,128,0,303710:0:0:0:0:
448,192,303643,128,0,303975:0:0:0:0:
320,192,303643,128,0,303842:0:0:0:0:
192,192,303643,128,0,303710:0:0:0:0:
192,192,303776,128,0,303842:0:0:0:0:
64,192,303776,128,0,304108:0:0:0:0:
192,192,303909,128,0,304108:0:0:0:0:
320,192,303909,128,0,303975:0:0:0:0:
448,192,304042,128,0,304108:0:0:0:0:
320,192,304042,128,0,304108:0:0:0:0:
192,192,304174,128,0,304241:0:0:0:0:
64,192,304174,128,0,304241:0:0:0:0:
320,192,304174,128,0,304373:0:0:0:0:
448,192,304174,128,0,304241:0:0:0:0:
192,192,304307,128,0,304373:0:0:0:0:
64,192,304307,128,0,304373:0:0:0:0:
448,192,304307,128,0,304506:0:0:0:0:
192,192,304440,128,0,304506:0:0:0:0:
64,192,304440,128,0,304506:0:0:0:0:
320,192,304440,128,0,304506:0:0:0:0:
320,192,304573,128,0,304639:0:0:0:0:
448,192,304573,128,0,304639:0:0:0:0:
192,192,304573,128,0,304772:0:0:0:0:
64,192,304573,128,0,304639:0:0:0:0:
320,192,304705,128,0,304772:0:0:0:0:
64,192,304705,128,0,304904:0:0:0:0:
448,192,304705,128,0,304772:0:0:0:0:
192,192,304838,128,0,304904:0:0:0:0:
320,192,304838,128,0,304904:0:0:0:0:
448,192,304838,128,0,304904:0:0:0:0:
320,192,304971,128,0,305170:0:0:0:0:
448,192,304971,128,0,305037:0:0:0:0:
192,192,304971,128,0,305037:0:0:0:0:
64,192,304971,128,0,305037:0:0:0:0:
64,192,305104,128,0,305170:0:0:0:0:
448,192,305104,128,0,305303:0:0:0:0:
192,192,305104,128,0,305170:0:0:0:0:
64,192,305236,128,0,305303:0:0:0:0:
192,192,305236,128,0,305303:0:0:0:0:
320,192,305236,128,0,305303:0:0:0:0:
320,192,305369,128,0,305435:0:0:0:0:
448,192,305369,128,0,305435:0:0:0:0:
192,192,305369,128,0,305568:0:0:0:0:
64,192,305369,128,0,305435:0:0:0:0:
320,192,305502,128,0,305568:0:0:0:0:
64,192,305502,128,0,305701:0:0:0:0:
448,192,305502,128,0,305568:0:0:0:0:
192,192,305634,128,0,305701:0:0:0:0:
320,192,305634,128,0,305701:0:0:0:0:
448,192,305634,128,0,305701:0:0:0:0:
64,192,305767,128,0,305834:0:0:0:0:
192,192,305767,128,0,305834:0:0:0:0:
320,192,305767,128,0,305834:0:0:0:0:
448,192,305767,128,0,305834:0:0:0:0:
448,192,305900,128,0,305966:0:0:0:0:
320,192,305900,128,0,305966:0:0:0:0:
192,192,305900,128,0,305966:0:0:0:0:
64,192,305900,128,0,305966:0:0:0:0:
448,192,306033,128,0,306099:0:0:0:0:
320,192,306033,128,0,306099:0:0:0:0:
192,192,306033,128,0,306099:0:0:0:0:
64,192,306033,128,0,306099:0:0:0:0:
192,192,306165,128,0,306232:0:0:0:0:
320,192,306165,128,0,306232:0:0:0:0:
64,192,306298,128,0,306365:0:0:0:0:
448,192,306298,128,0,306365:0:0:0:0:
192,192,306320,128,0,306387:0:0:0:0:
320,192,306342,128,0,306542:0:0:0:0:
64,192,306431,128,0,306497:0:0:0:0:
448,192,306431,128,0,306630:0:0:0:0:
192,192,306453,128,0,306519:0:0:0:0:
64,192,306564,128,0,306630:0:0:0:0:
192,192,306586,128,0,306652:0:0:0:0:
320,192,306608,128,0,306674:0:0:0:0:
448,192,306696,128,0,306763:0:0:0:0:
64,192,306696,128,0,306763:0:0:0:0:
320,192,306719,128,0,306785:0:0:0:0:
192,192,306741,128,0,306940:0:0:0:0:
448,192,306829,128,0,306896:0:0:0:0:
64,192,306829,128,0,307028:0:0:0:0:
320,192,306851,128,0,306918:0:0:0:0:
448,192,306962,128,0,307028:0:0:0:0:
320,192,306984,128,0,307050:0:0:0:0:
192,192,307006,128,0,307073:0:0:0:0:
448,192,307095,128,0,307161:0:0:0:0:
64,192,307095,128,0,307161:0:0:0:0:
192,192,307117,128,0,307183:0:0:0:0:
320,192,307139,128,0,307338:0:0:0:0:
448,192,307227,128,0,307427:0:0:0:0:
64,192,307227,128,0,307294:0:0:0:0:
192,192,307250,128,0,307316:0:0:0:0:
64,192,307360,128,0,307427:0:0:0:0:
192,192,307382,128,0,307449:0:0:0:0:
320,192,307404,128,0,307471:0:0:0:0:
64,192,307493,128,0,307559:0:0:0:0:
448,192,307493,128,0,307559:0:0:0:0:
192,192,307515,128,0,307581:0:0:0:0:
320,192,307537,128,0,307736:0:0:0:0:
64,192,307626,128,0,307692:0:0:0:0:
448,192,307626,128,0,307825:0:0:0:0:
192,192,307648,128,0,307714:0:0:0:0:
64,192,307758,128,0,307825:0:0:0:0:
192,192,307781,128,0,307847:0:0:0:0:
320,192,307803,128,0,307869:0:0:0:0:
64,192,307891,128,0,308090:0:0:0:0:
448,192,307891,128,0,307958:0:0:0:0:
192,192,307913,128,0,308002:0:0:0:0:
320,192,307935,128,0,308046:0:0:0:0:
448,192,308024,128,0,308090:0:0:0:0:
192,192,308068,128,0,308134:0:0:0:0:
320,192,308112,128,0,308179:0:0:0:0:
448,192,308157,128,0,308356:0:0:0:0:
64,192,308157,128,0,308223:0:0:0:0:
192,192,308201,128,0,308289:0:0:0:0:
320,192,308245,128,0,308356:0:0:0:0:
64,192,308289,128,0,308356:0:0:0:0:
192,192,308356,128,0,308422:0:0:0:0:
320,192,308422,128,0,308621:0:0:0:0:
64,192,308422,128,0,308511:0:0:0:0:
448,192,308422,128,0,308466:0:0:0:0:
192,192,308488,128,0,308643:0:0:0:0:
448,192,308533,128,0,308798:0:0:0:0:
64,192,308577,128,0,308665:0:0:0:0:
320,192,308688,128,0,308776:0:0:0:0:
192,192,308710,128,0,308754:0:0:0:0:
64,192,308732,128,0,309086:0:0:0:0:
192,192,308820,128,0,309086:0:0:0:0:
320,192,308842,128,0,309086:0:0:0:0:
448,192,308865,128,0,309086:0:0:0:0:
192,192,309219,128,0,309418:0:0:0:0:
448,192,309219,128,0,309307:0:0:0:0:
64,192,309219,128,0,309263:0:0:0:0:
320,192,309285,128,0,309440:0:0:0:0:
64,192,309329,128,0,309595:0:0:0:0:
448,192,309373,128,0,309462:0:0:0:0:
192,192,309484,128,0,309573:0:0:0:0:
320,192,309506,128,0,309550:0:0:0:0:
448,192,309528,128,0,309882:0:0:0:0:
320,192,309617,128,0,309882:0:0:0:0:
192,192,309639,128,0,309882:0:0:0:0:
64,192,309661,128,0,309882:0:0:0:0:
448,192,310015,128,0,310281:0:0:0:0:
64,192,310015,128,0,310214:0:0:0:0:
320,192,310037,128,0,310258:0:0:0:0:
192,192,310059,128,0,310236:0:0:0:0:
64,192,310281,128,0,310480:0:0:0:0:
192,192,310303,128,0,310546:0:0:0:0:
320,192,310325,128,0,310480:0:0:0:0:
448,192,310347,128,0,310480:0:0:0:0:
448,192,310546,128,0,310590:0:0:0:0:
64,192,310546,128,0,310634:0:0:0:0:
320,192,310546,128,0,310745:0:0:0:0:
192,192,310612,128,0,310767:0:0:0:0:
448,192,310657,128,0,310922:0:0:0:0:
64,192,310701,128,0,310789:0:0:0:0:
320,192,310811,128,0,310900:0:0:0:0:
192,192,310834,128,0,310878:0:0:0:0:
64,192,310856,128,0,310944:0:0:0:0:
192,192,310944,128,0,311210:0:0:0:0:
320,192,310966,128,0,311210:0:0:0:0:
448,192,310988,128,0,311210:0:0:0:0:
64,192,311011,128,0,311210:0:0:0:0:
64,192,311342,128,0,311387:0:0:0:0:
448,192,311342,128,0,311431:0:0:0:0:
192,192,311342,128,0,311542:0:0:0:0:
320,192,311409,128,0,311564:0:0:0:0:
64,192,311453,128,0,311719:0:0:0:0:
448,192,311497,128,0,311586:0:0:0:0:
192,192,311608,128,0,311696:0:0:0:0:
320,192,311630,128,0,311674:0:0:0:0:
448,192,311652,128,0,311807:0:0:0:0:
320,192,311741,128,0,311940:0:0:0:0:
192,192,311763,128,0,312006:0:0:0:0:
64,192,311785,128,0,312006:0:0:0:0:
448,192,311873,128,0,311940:0:0:0:0:
320,192,312006,128,0,312073:0:0:0:0:
64,192,312139,128,0,312338:0:0:0:0:
448,192,312139,128,0,312205:0:0:0:0:
192,192,312183,128,0,312250:0:0:0:0:
320,192,312227,128,0,312294:0:0:0:0:
448,192,312272,128,0,312471:0:0:0:0:
192,192,312316,128,0,312382:0:0:0:0:
320,192,312360,128,0,312427:0:0:0:0:
64,192,312404,128,0,312604:0:0:0:0:
192,192,312449,128,0,312604:0:0:0:0:
320,192,312493,128,0,312604:0:0:0:0:
448,192,312537,128,0,312604:0:0:0:0:
320,192,312670,128,0,312869:0:0:0:0:
64,192,312670,128,0,312758:0:0:0:0:
448,192,312670,128,0,312714:0:0:0:0:
192,192,312736,128,0,312891:0:0:0:0:
448,192,312781,128,0,313046:0:0:0:0:
64,192,312825,128,0,312913:0:0:0:0:
320,192,312935,128,0,313024:0:0:0:0:
192,192,312958,128,0,313002:0:0:0:0:
64,192,312980,128,0,313334:0:0:0:0:
192,192,313068,128,0,313334:0:0:0:0:
320,192,313090,128,0,313334:0:0:0:0:
448,192,313112,128,0,313334:0:0:0:0:
192,192,313466,128,0,313665:0:0:0:0:
448,192,313466,128,0,313555:0:0:0:0:
64,192,313466,128,0,313511:0:0:0:0:
320,192,313533,128,0,313688:0:0:0:0:
64,192,313577,128,0,313842:0:0:0:0:
448,192,313621,128,0,313710:0:0:0:0:
192,192,313732,128,0,313820:0:0:0:0:
320,192,313754,128,0,313798:0:0:0:0:
448,192,313776,128,0,314130:0:0:0:0:
320,192,313865,128,0,314130:0:0:0:0:
192,192,313887,128,0,314130:0:0:0:0:
64,192,313909,128,0,314130:0:0:0:0:
448,192,314263,128,0,314528:0:0:0:0:
64,192,314263,128,0,314462:0:0:0:0:
320,192,314285,128,0,314506:0:0:0:0:
192,192,314307,128,0,314484:0:0:0:0:
64,192,314528,128,0,314727:0:0:0:0:
192,192,314550,128,0,314794:0:0:0:0:
320,192,314573,128,0,314727:0:0:0:0:
448,192,314595,128,0,314727:0:0:0:0:
448,192,314794,128,0,314838:0:0:0:0:
64,192,314794,128,0,314882:0:0:0:0:
320,192,314794,128,0,314993:0:0:0:0:
192,192,314860,128,0,315015:0:0:0:0:
448,192,314904,128,0,315170:0:0:0:0:
64,192,314949,128,0,315037:0:0:0:0:
320,192,315059,128,0,315148:0:0:0:0:
192,192,315081,128,0,315126:0:0:0:0:
64,192,315104,128,0,315192:0:0:0:0:
192,192,315192,128,0,315435:0:0:0:0:
320,192,315214,128,0,315413:0:0:0:0:
448,192,315236,128,0,315391:0:0:0:0:
64,192,315258,128,0,315391:0:0:0:0:
448,192,315458,128,0,315657:0:0:0:0:
64,192,315458,128,0,315657:0:0:0:0:
320,192,315480,128,0,315657:0:0:0:0:
192,192,315502,128,0,315657:0:0:0:0:
64,192,315723,128,0,315767:0:0:0:0:
448,192,315723,128,0,315811:0:0:0:0:
192,192,315723,128,0,315922:0:0:0:0:
320,192,315789,128,0,315944:0:0:0:0:
64,192,315834,128,0,316099:0:0:0:0:
448,192,315878,128,0,315966:0:0:0:0:
192,192,315988,128,0,316077:0:0:0:0:
320,192,316011,128,0,316055:0:0:0:0:
448,192,316033,128,0,316188:0:0:0:0:
320,192,316121,128,0,316320:0:0:0:0:
192,192,316143,128,0,316320:0:0:0:0:
64,192,316165,128,0,316320:0:0:0:0:
448,192,316254,128,0,316320:0:0:0:0:
64,192,316387,128,0,316453:0:0:0:0:
448,192,316387,128,0,316586:0:0:0:0:
320,192,316431,128,0,316497:0:0:0:0:
192,192,316475,128,0,316542:0:0:0:0:
64,192,316519,128,0,316719:0:0:0:0:
320,192,316564,128,0,316630:0:0:0:0:
192,192,316608,128,0,316674:0:0:0:0:
448,192,316652,128,0,316851:0:0:0:0:
320,192,316696,128,0,316763:0:0:0:0:
192,192,316741,128,0,316807:0:0:0:0:
64,192,316785,128,0,316851:0:0:0:0:
320,192,316829,128,0,316896:0:0:0:0:
192,192,316873,128,0,316940:0:0:0:0:
64,192,316918,128,0,317980:0:0:0:0:
448,192,316918,128,0,316984:0:0:0:0:
320,192,316984,128,0,317050:0:0:0:0:
192,192,317050,128,0,317117:0:0:0:0:
320,192,317117,128,0,317183:0:0:0:0:
192,192,317183,128,0,317250:0:0:0:0:
320,192,317250,128,0,317316:0:0:0:0:
192,192,317316,128,0,317382:0:0:0:0:
320,192,317382,128,0,317449:0:0:0:0:
192,192,317449,128,0,317537:0:0:0:0:
320,192,317537,128,0,317626:0:0:0:0:
192,192,317626,128,0,317714:0:0:0:0:
320,192,317714,128,0,317803:0:0:0:0:
192,192,317803,128,0,317891:0:0:0:0:
320,192,317891,128,0,317980:0:0:0:0:
192,192,317980,128,0,318046:0:0:0:0:
320,192,318046,128,0,318112:0:0:0:0:
192,192,318112,128,0,318179:0:0:0:0:
320,192,318179,128,0,318245:0:0:0:0:
448,192,318212,128,0,318278:0:0:0:0:
192,192,318245,128,0,318311:0:0:0:0:
64,192,318278,128,0,318345:0:0:0:0:
448,192,318378,128,0,318444:0:0:0:0:
64,192,318444,128,0,318511:0:0:0:0:
