osu file format v14

[General]
AudioFilename: audio.mp3
AudioLeadIn: 0
PreviewTime: -1
Countdown: 1
SampleSet: None
StackLeniency: 0.7
Mode: 0
LetterboxInBreaks: 0
WidescreenStoryboard: 0

[Editor]
DistanceSpacing: 1
BeatDivisor: 4
GridSize: 32
TimelineZoom: 1

[Metadata]
Title:
TitleUnicode:私はあなたを愛してる
Artist:SOOOO
ArtistUnicode:SOOOO
Creator:CanDyFloS
Version:Love OwO
Source:poopoopeepee
Tags:SOOOO
BeatmapID:1860472
BeatmapSetID:890022

[Difficulty]
HPDrainRate:4
CircleSize:7
OverallDifficulty:6
ApproachRate:7
SliderMultiplier:1.4
SliderTickRate:1

[Events]
//Background and Video events
//Break Periods
//Storyboard Layer 0 (Background)
//Storyboard Layer 1 (Fail)
//Storyboard Layer 2 (Pass)
//Storyboard Layer 3 (Foreground)
//Storyboard Sound Samples

[TimingPoints]
596,300,4,2,0,100,1,0

[HitObjects]
101,158,1196,5,0,0:0:0:0:
171,174,2021,1,0,0:0:0:0:
131,289,2246,2,0,L|316:190,1,210
132,221,3071,1,0,0:0:0:0:
208,232,3971,1,0,0:0:0:0:
185,344,4346,2,0,L|268:293,1,70
281,177,4946,1,0,0:0:0:0:
211,316,5321,2,0,L|254:287,1,35
149,151,5771,1,0,0:0:0:0:
145,303,6146,2,0,L|179:280,1,35
313,99,6596,1,0,0:0:0:0:
96,294,6746,2,0,L|186:203,1,105
207,313,7046,2,0,L|244:288,1,35
171,164,7571,1,0,0:0:0:0:
177,323,8021,2,0,L|205:298,1,35
300,228,8546,1,0,0:0:0:0:
123,298,8846,6,0,L|184:297,1,35
188,229,9296,1,0,0:0:0:0:
196,191,9521,1,0,0:0:0:0:
226,159,9671,1,0,0:0:0:0:
254,150,9896,1,0,0:0:0:0:
286,193,10121,1,0,0:0:0:0:
231,268,10346,1,0,0:0:0:0:
126,221,10646,1,0,0:0:0:0:
263,319,10871,2,0,L|301:291,1,35
289,160,11096,1,0,0:0:0:0:
270,254,11396,1,0,0:0:0:0:
178,247,11696,1,0,0:0:0:0:
269,249,11996,1,0,0:0:0:0:
199,228,12296,1,0,0:0:0:0:
288,217,12596,1,0,0:0:0:0:
192,236,12896,1,0,0:0:0:0:
296,205,13196,1,0,0:0:0:0:
151,256,13421,1,0,0:0:0:0:
130,199,13646,2,0,L|159:175,1,35
224,264,13871,1,0,0:0:0:0:
170,311,14096,2,0,L|186:278,1,35
222,321,14621,2,0,L|261:242,1,70
273,318,14846,6,0,L|307:275,1,35
158,333,15146,2,0,L|305:222,1,175
496,19,15596,1,0,0:0:0:0:
286,47,15821,1,0,0:0:0:0:
71,246,16046,1,0,0:0:0:0:
176,195,16271,1,0,0:0:0:0:
249,279,16571,1,0,0:0:0:0:
151,297,16871,1,0,0:0:0:0:
243,293,17171,1,0,0:0:0:0:
159,286,17546,1,0,0:0:0:0:
243,241,17846,1,0,0:0:0:0:
176,286,18146,1,0,0:0:0:0:
211,168,18371,1,0,0:0:0:0:
245,291,18596,1,0,0:0:0:0:
136,232,18821,1,0,0:0:0:0:
216,177,18971,1,0,0:0:0:0:
326,268,19121,1,0,0:0:0:0:
227,308,19346,1,0,0:0:0:0:
102,215,19496,1,0,0:0:0:0:
271,183,19871,1,0,0:0:0:0:
281,283,20096,1,0,0:0:0:0:
169,268,20246,1,0,0:0:0:0:
201,125,20471,1,0,0:0:0:0:
368,198,20621,1,0,0:0:0:0:
261,347,20771,1,0,0:0:0:0:
63,292,20846,2,0,L|226:178,1,175
136,322,21146,2,0,L|120:161,1,140
171,302,21596,2,0,L|224:278,1,35
157,257,22121,1,0,0:0:0:0:
244,202,22346,1,0,0:0:0:0:
247,278,22496,1,0,0:0:0:0:
271,314,23171,1,0,0:0:0:0:
290,211,23396,1,0,0:0:0:0:
321,297,23621,1,0,0:0:0:0:
195,202,23996,1,0,0:0:0:0:
15,210,24371,1,0,0:0:0:0:
171,237,24596,1,0,0:0:0:0:
231,320,24821,1,0,0:0:0:0:
271,232,24971,1,0,0:0:0:0:
325,320,25196,1,0,0:0:0:0:
121,236,25421,1,0,0:0:0:0:
314,236,25646,1,0,0:0:0:0:
266,326,25871,1,0,0:0:0:0:
145,202,26096,1,0,0:0:0:0:
406,275,26246,1,0,0:0:0:0:
154,326,26471,1,0,0:0:0:0:
196,183,26621,1,0,0:0:0:0:
336,315,26846,1,0,0:0:0:0:
213,221,27146,1,0,0:0:0:0:
212,312,27296,2,0,L|241:291,1,35
123,128,27671,1,0,0:0:0:0:
316,156,27821,1,0,0:0:0:0:
241,224,28046,1,0,0:0:0:0:
265,166,28196,1,0,0:0:0:0:
378,237,28421,1,0,0:0:0:0:
243,191,28571,1,0,0:0:0:0:
247,190,28721,1,0,0:0:0:0:
251,188,29021,1,0,0:0:0:0:
251,188,29171,1,0,0:0:0:0:
314,141,29321,1,0,0:0:0:0:
297,167,29471,1,0,0:0:0:0:
64,176,29621,1,0,0:0:0:0:
112,186,29846,1,0,0:0:0:0:
213,333,29996,2,0,L|238:308,1,35
226,171,30446,1,0,0:0:0:0:
265,178,30671,5,0,0:0:0:0:
273,173,30896,5,0,0:0:0:0:
221,154,31046,5,0,0:0:0:0:
222,153,31271,5,0,0:0:0:0:
261,123,31496,5,0,0:0:0:0:
271,169,31721,5,0,0:0:0:0:
207,207,32021,5,0,0:0:0:0:
171,141,32246,5,0,0:0:0:0:
264,223,32471,5,0,0:0:0:0:
273,240,32546,1,0,0:0:0:0:
191,237,32771,1,0,0:0:0:0:
251,136,32921,1,0,0:0:0:0:
417,313,33146,1,0,0:0:0:0:
155,280,33371,1,0,0:0:0:0:
157,310,33446,2,0,B|503:4|156:112|178:84,1,385
380,306,34196,2,0,P|115:62|86:133,1,700
120,297,35471,2,0,P|227:85|328:306,1,595
231,356,36521,2,0,L|409:57,1,315
73,69,36746,2,0,L|397:328,1,385
138,303,37646,2,0,L|325:132,1,245
130,155,37946,2,0,L|334:304,1,245
78,243,38171,2,0,L|283:103,1,245
163,91,38396,2,0,L|322:370,1,315
194,166,38546,2,0,L|352:70,1,175
131,49,38846,1,0,0:0:0:0:
96,143,39071,1,0,0:0:0:0:
110,146,39221,1,0,0:0:0:0:
209,135,39446,1,0,0:0:0:0:
210,212,39596,1,0,0:0:0:0:
181,224,39821,1,0,0:0:0:0:
172,213,40046,1,0,0:0:0:0:
172,211,40196,1,0,0:0:0:0:
172,211,40421,1,0,0:0:0:0:
172,210,40646,1,0,0:0:0:0:
217,186,40946,1,0,0:0:0:0:
220,188,41171,1,0,0:0:0:0:
122,205,41396,1,0,0:0:0:0:
131,198,41696,1,0,0:0:0:0:
131,198,41846,1,0,0:0:0:0:
134,200,42071,1,0,0:0:0:0:
221,188,42221,1,0,0:0:0:0:
154,273,42446,1,0,0:0:0:0:
102,167,42746,1,0,0:0:0:0:
291,252,42971,1,0,0:0:0:0:
218,335,43196,1,0,0:0:0:0:
141,286,43421,1,0,0:0:0:0:
244,291,43721,1,0,0:0:0:0:
121,243,44021,1,0,0:0:0:0:
83,325,44171,2,0,B|179:291|174:293,8,70
127,188,45221,1,0,0:0:0:0:
66,206,45446,1,0,0:0:0:0:
203,149,45746,1,0,0:0:0:0:
231,263,45971,1,0,0:0:0:0:
133,267,46271,1,0,0:0:0:0:
252,261,46571,1,0,0:0:0:0:
174,283,46871,1,0,0:0:0:0:
226,219,47171,1,0,0:0:0:0:
258,272,47471,1,0,0:0:0:0:
161,259,47696,1,0,0:0:0:0:
220,222,48071,1,0,0:0:0:0:
261,282,48296,1,0,0:0:0:0:
172,366,48521,2,0,L|271:303,8,105
164,250,50621,1,0,0:0:0:0:
238,235,50696,1,0,0:0:0:0:
259,198,50846,1,0,0:0:0:0:
276,166,51071,1,0,0:0:0:0:
269,121,51221,1,0,0:0:0:0:
229,102,51446,1,0,0:0:0:0:
210,98,51596,1,0,0:0:0:0:
181,103,51821,1,0,0:0:0:0:
175,127,52046,1,0,0:0:0:0:
196,145,52196,1,0,0:0:0:0:
280,144,52346,1,0,0:0:0:0:
296,144,52571,1,0,0:0:0:0:
312,153,52721,1,0,0:0:0:0:
296,179,52946,1,0,0:0:0:0:
243,182,53096,1,0,0:0:0:0:
198,138,53321,1,0,0:0:0:0:
201,126,53396,1,0,0:0:0:0:
218,121,53471,1,0,0:0:0:0:
246,118,53621,1,0,0:0:0:0:
296,115,53696,1,0,0:0:0:0:
389,165,53846,1,0,0:0:0:0:
357,206,54071,1,0,0:0:0:0:
230,175,54371,1,0,0:0:0:0:
181,140,54596,1,0,0:0:0:0:
373,142,54746,1,0,0:0:0:0:
319,376,54896,1,0,0:0:0:0:
130,293,55121,1,0,0:0:0:0:
236,239,55346,1,0,0:0:0:0:
240,303,55496,1,0,0:0:0:0:
221,247,55721,1,0,0:0:0:0:
266,272,56021,1,0,0:0:0:0:
120,294,56246,1,0,0:0:0:0:
193,154,56471,1,0,0:0:0:0:
252,256,56696,1,0,0:0:0:0:
113,261,56846,1,0,0:0:0:0:
419,316,57146,1,0,0:0:0:0:
226,298,57371,1,0,0:0:0:0:
137,211,57446,1,0,0:0:0:0:
259,199,57596,1,0,0:0:0:0:
216,268,57821,1,0,0:0:0:0:
167,155,57971,1,0,0:0:0:0:
324,219,58196,1,0,0:0:0:0:
121,148,58271,1,0,0:0:0:0:
263,163,58421,1,0,0:0:0:0:
271,155,58646,1,0,0:0:0:0:
301,140,58796,1,0,0:0:0:0:
261,116,58946,1,0,0:0:0:0:
245,110,59096,1,0,0:0:0:0:
225,110,59321,1,0,0:0:0:0:
206,119,59471,1,0,0:0:0:0:
219,139,59621,1,0,0:0:0:0:
285,162,59921,1,0,0:0:0:0:
334,179,59996,1,0,0:0:0:0:
363,227,60221,1,0,0:0:0:0:
336,229,60371,1,0,0:0:0:0:
286,228,60596,1,0,0:0:0:0:
260,193,60821,1,0,0:0:0:0:
256,172,60896,1,0,0:0:0:0:
278,148,61046,1,0,0:0:0:0:
322,147,61196,1,0,0:0:0:0:
322,147,61346,1,0,0:0:0:0:
317,152,61421,1,0,0:0:0:0:
312,169,61571,1,0,0:0:0:0:
300,166,61721,1,0,0:0:0:0:
229,215,61946,1,0,0:0:0:0:
258,183,62171,1,0,0:0:0:0:
262,240,62471,1,0,0:0:0:0:
163,240,62771,1,0,0:0:0:0:
215,171,63071,1,0,0:0:0:0:
307,293,63371,1,0,0:0:0:0:
111,308,63596,1,0,0:0:0:0:
