osu file format v14

[General]
AudioFilename: audio.mp3
AudioLeadIn: 0
PreviewTime: 134856
Countdown: 0
SampleSet: Soft
StackLeniency: 0.5
Mode: 0
LetterboxInBreaks: 0
WidescreenStoryboard: 0

[Editor]
Bookmarks: 593,962,1393,1700,1946,2192,2561,2929,3360,3667,3913,4159,4528,4897,5388,5696,5880,6126,6495,6864,8088
DistanceSpacing: 0.7
BeatDivisor: 8
GridSize: 4
TimelineZoom: 1.9

[Metadata]
Title:What You Waiting For
TitleUnicode:What You Waiting For
Artist:SOMI
ArtistUnicode:전소미
Creator:hannody
Version:Insane
Source:
Tags:THEBLACKLABEL kpop k-pop korean YG Entertainment Fragmented FunnyA Dance English pop
BeatmapID:2786944
BeatmapSetID:1236230

[Difficulty]
HPDrainRate:6
CircleSize:4.5
OverallDifficulty:7
ApproachRate:9
SliderMultiplier:2
SliderTickRate:1

[Events]
//Background and Video events
0,0,"Insane.jpg",0,0
//Break Periods
2,118456,125526
//Storyboard Layer 0 (Background)
//Storyboard Layer 1 (Fail)
//Storyboard Layer 2 (Pass)
//Storyboard Layer 3 (Foreground)
//Storyboard Layer 4 (Overlay)
//Storyboard Sound Samples

[TimingPoints]
225,491.803278688525,4,2,1,70,1,0
7356,-250,4,2,19,70,0,0
8093,-100,4,2,1,80,0,0
10061,-125,4,2,1,80,0,0
10429,-125,4,2,1,5,0,0
10552,-166.666666666667,4,2,1,80,0,0
10921,-166.666666666667,4,2,1,5,0,0
11044,-250,4,2,1,80,0,0
11413,-250,4,2,1,5,0,0
11536,-500,4,2,1,80,0,0
11905,-500,4,2,1,5,0,0
12028,-100,4,2,1,80,0,0
17929,-125,4,2,1,80,0,0
18298,-125,4,2,1,5,0,0
18421,-166.666666666667,4,2,1,80,0,0
18790,-166.666666666667,4,2,1,5,0,0
18913,-250,4,2,1,80,0,0
19282,-250,4,2,1,5,0,0
19405,-500,4,2,1,80,0,0
19774,-500,4,2,1,5,0,0
19897,-100,4,2,1,80,0,0
21864,-125,4,2,1,80,0,0
22602,-142.857142857143,4,2,1,70,0,0
23708,-142.857142857143,4,2,1,5,0,0
23831,-125,4,2,21,70,0,0
25798,-125,4,2,22,70,0,0
26290,-250,4,2,22,70,0,0
26536,-125,4,2,22,5,0,0
27028,-125,4,2,22,70,0,0
27765,-125,4,2,23,70,0,0
28503,-125,4,2,23,5,0,0
28749,-125,4,2,23,70,0,0
29733,-200,4,2,24,70,0,0
30470,-142.857142857143,4,2,24,70,0,0
31454,-125,4,2,21,80,0,0
33667,-125,4,2,22,80,0,0
34343,-125,4,2,22,5,0,0
34405,-125,4,2,22,80,0,0
34589,-125,4,2,22,5,0,0
34651,-125,4,2,22,80,0,0
34835,-125,4,2,22,5,0,0
34897,-125,4,2,22,80,0,0
35081,-125,4,2,22,5,0,0
35143,-125,4,2,22,80,0,0
35634,-125,4,2,25,80,0,0
37602,-125,4,2,10,80,0,0
38585,-250,4,2,2,70,0,0
38708,-250,4,2,2,5,0,0
38831,-250,4,2,2,70,0,0
38954,-250,4,2,2,5,0,0
39077,-142.857142857143,4,2,2,70,0,0
39200,-142.857142857143,4,2,2,5,0,0
39323,-142.857142857143,4,2,2,70,0,0
39446,-142.857142857143,4,2,2,5,0,0
39569,-100,4,2,10,85,0,1
40061,-100,4,2,1,85,0,1
40675,-100,4,2,1,5,0,1
40798,-100,4,2,1,85,0,1
40921,-100,4,2,1,5,0,1
41044,-100,4,2,1,85,0,1
41167,-100,4,2,1,5,0,1
41290,-100,4,2,1,85,0,1
41413,-100,4,2,1,5,0,1
41536,-100,4,2,1,85,0,1
42643,-100,4,2,1,5,0,1
42765,-100,4,2,1,85,0,1
42888,-100,4,2,1,5,0,1
43011,-100,4,2,1,85,0,1
43134,-100,4,2,1,5,0,1
43257,-100,4,2,1,85,0,1
43380,-100,4,2,1,5,0,1
43503,-100,4,2,1,85,0,1
46454,-100,4,2,1,85,0,0
46577,-100,4,2,1,5,0,0
46700,-100,4,2,1,85,0,0
46823,-100,4,2,1,5,0,0
46946,-100,4,2,1,85,0,0
47069,-100,4,2,1,5,0,0
47192,-100,4,2,1,85,0,0
47315,-100,4,2,1,5,0,0
47438,-100,4,2,1,85,0,1
48790,-100,4,2,1,5,0,1
48913,-100,4,2,1,85,0,1
49036,-100,4,2,1,5,0,1
49159,-100,4,2,1,85,0,1
49282,-100,4,2,1,5,0,1
49405,-100,4,2,1,85,0,1
50757,-100,4,2,1,5,0,1
50880,-100,4,2,1,85,0,1
51003,-100,4,2,1,5,0,1
51126,-100,4,2,1,85,0,1
51249,-100,4,2,1,5,0,1
51372,-100,4,2,1,85,0,1
52725,-100,4,2,1,5,0,1
52847,-100,4,2,1,85,0,1
52970,-100,4,2,1,5,0,1
53093,-100,4,2,1,85,0,1
53216,-100,4,2,1,5,0,1
53339,-100,4,2,1,80,0,1
54691,-100,4,2,1,5,0,1
54815,-100,4,2,1,80,0,0
55184,-100,4,2,1,5,0,0
55306,-100,4,2,1,80,0,0
56290,-142.857142857143,4,2,1,80,0,0
56782,-333.333333333333,4,2,1,80,0,0
57151,-333.333333333333,4,2,1,5,0,0
57274,-100,4,2,1,80,0,0
58257,-142.857142857143,4,2,1,80,0,0
58749,-333.333333333333,4,2,1,80,0,0
59118,-333.333333333333,4,2,1,5,0,0
59241,-100,4,2,1,80,0,0
61208,-200,4,2,1,80,0,0
61577,-200,4,2,1,5,0,0
61700,-200,4,2,1,80,0,0
62438,-100,4,2,1,80,0,0
63052,-100,4,2,1,5,0,0
63175,-100,4,2,1,80,0,0
64159,-142.857142857143,4,2,1,80,0,0
64651,-333.333333333333,4,2,1,80,0,0
65020,-333.333333333333,4,2,1,5,0,0
65143,-100,4,2,1,80,0,0
66126,-142.857142857143,4,2,1,80,0,0
66618,-55.5555555555556,4,2,1,80,0,0
66987,-55.5555555555556,4,2,1,5,0,0
67110,-100,4,2,1,80,0,0
70061,-200,4,2,1,80,0,0
70921,-200,4,2,1,5,0,0
71044,-200,4,2,21,70,0,0
73011,-125,4,2,22,70,0,0
73503,-250,4,2,22,70,0,0
73995,-250,4,2,22,5,0,0
74241,-125,4,2,22,70,0,0
74979,-125,4,2,23,70,0,0
75716,-125,4,2,23,5,0,0
75962,-200,4,2,23,70,0,0
76946,-200,4,2,24,70,0,0
77684,-142.857142857143,4,2,24,70,0,0
78667,-142.857142857143,4,2,21,80,0,0
78913,-125,4,2,21,80,0,0
80880,-125,4,2,22,80,0,0
81372,-100,4,2,22,80,0,0
81556,-100,4,2,22,5,0,0
81618,-100,4,2,22,80,0,0
81802,-100,4,2,22,5,0,0
81864,-100,4,2,22,80,0,0
82048,-100,4,2,22,5,0,0
82110,-100,4,2,22,80,0,0
82294,-100,4,2,22,5,0,0
82356,-100,4,2,22,80,0,0
82847,-100,4,2,25,80,0,0
84815,-100,4,2,10,90,0,0
85798,-250,4,2,2,70,0,0
85921,-250,4,2,2,5,0,0
86044,-250,4,2,2,70,0,0
86167,-250,4,2,2,5,0,0
86290,-142.857142857143,4,2,2,70,0,0
86413,-142.857142857143,4,2,2,5,0,0
86536,-142.857142857143,4,2,2,70,0,0
86659,-142.857142857143,4,2,2,5,0,0
86782,-100,4,2,10,85,0,1
87027,-100,4,2,1,85,0,1
87888,-100,4,2,1,5,0,1
88011,-100,4,2,1,85,0,1
88134,-100,4,2,1,5,0,1
88257,-100,4,2,1,85,0,1
88380,-100,4,2,1,5,0,1
88503,-100,4,2,1,85,0,1
88626,-100,4,2,1,5,0,1
88749,-100,4,2,1,85,0,1
89856,-100,4,2,1,5,0,1
89979,-100,4,2,1,85,0,1
90102,-100,4,2,1,5,0,1
90225,-100,4,2,1,85,0,1
90347,-100,4,2,1,5,0,1
90470,-100,4,2,1,85,0,1
90593,-100,4,2,1,5,0,1
90716,-100,4,2,1,85,0,1
93667,-100,4,2,1,85,0,0
93789,-100,4,2,1,5,0,0
93913,-100,4,2,1,85,0,0
94035,-100,4,2,1,5,0,0
94159,-100,4,2,1,85,0,0
94281,-100,4,2,1,5,0,0
94405,-100,4,2,1,85,0,0
94528,-100,4,2,1,5,0,0
94651,-100,4,2,1,85,0,1
96002,-100,4,2,1,5,0,1
96126,-100,4,2,1,85,0,1
96248,-100,4,2,1,5,0,1
96372,-100,4,2,1,85,0,1
96495,-100,4,2,1,5,0,1
96618,-100,4,2,1,85,0,1
97969,-100,4,2,1,5,0,1
98093,-100,4,2,1,85,0,1
98215,-100,4,2,1,5,0,1
98339,-100,4,2,1,85,0,1
98462,-100,4,2,1,5,0,1
98585,-100,4,2,1,85,0,1
98954,-100,4,2,1,85,0,1
99200,-100,4,2,1,5,0,1
99323,-100,4,2,1,85,0,1
99569,-100,4,2,1,85,0,1
99937,-100,4,2,1,5,0,1
100061,-100,4,2,1,85,0,1
100183,-100,4,2,1,5,0,1
100306,-100,4,2,1,85,0,1
100429,-100,4,2,1,5,0,1
100552,-100,4,2,1,85,0,1
100675,-100,4,2,1,5,0,1
100798,-100,4,2,1,85,0,1
101536,-100,4,2,1,85,0,0
101904,-100,4,2,1,5,0,0
102028,-100,4,2,1,85,0,0
102274,-100,4,2,1,80,0,0
102520,-83.3333333333333,4,2,1,85,0,1
109405,-100,4,2,1,85,0,0
110388,-100,4,2,1,85,0,1
116290,-100,4,2,1,80,0,0
117520,-66.6666666666667,4,2,1,80,0,0
117765,-200,4,2,1,80,0,0
118011,-100,4,2,1,50,0,0
118257,-100,4,2,2,70,0,0
126126,-200,4,2,2,70,0,0
130552,-200,4,2,2,5,0,0
130798,-200,4,2,2,50,0,0
131044,-200,4,2,2,70,0,0
131536,-200,4,2,2,5,0,0
131782,-200,4,2,2,50,0,0
132028,-200,4,2,2,70,0,0
132520,-200,4,2,2,5,0,0
133997,-200,4,2,10,75,0,0
135962,-83.3333333333333,4,2,31,85,0,1
136454,-83.3333333333333,4,2,32,85,0,1
136823,-83.3333333333333,4,2,31,85,0,1
137438,-83.3333333333333,4,2,32,85,0,1
137929,-83.3333333333333,4,2,33,85,0,1
138421,-83.3333333333333,4,2,34,85,0,1
138790,-83.3333333333333,4,2,33,85,0,1
139405,-83.3333333333333,4,2,34,85,0,1
139897,-83.3333333333333,4,2,31,85,0,1
140634,-83.3333333333333,4,2,32,85,0,1
140757,-83.3333333333333,4,2,31,85,0,1
141249,-83.3333333333333,4,2,32,85,0,1
141372,-83.3333333333333,4,2,31,85,0,1
141618,-83.3333333333333,4,2,32,85,0,1
141864,-66.6666666666667,4,2,1,90,0,0
142233,-66.6666666666667,4,2,1,5,0,0
142356,-86.9565217391303,4,2,1,90,0,0
142847,-333.333333333333,4,2,1,80,0,0
143216,-333.333333333333,4,2,1,5,0,0
143339,-66.6666666666667,4,2,35,80,0,0
143831,-83.3333333333333,4,2,35,85,0,1
144323,-83.3333333333333,4,2,36,85,0,1
144692,-83.3333333333333,4,2,35,85,0,1
145306,-83.3333333333333,4,2,36,85,0,1
145798,-83.3333333333333,4,2,37,85,0,1
146290,-83.3333333333333,4,2,38,85,0,1
146659,-83.3333333333333,4,2,37,85,0,1
147274,-83.3333333333333,4,2,38,85,0,1
147765,-83.3333333333333,4,2,35,85,0,1
148503,-100,4,2,36,85,0,1
148626,-100,4,2,35,85,0,1
149118,-166.666666666667,4,2,36,85,0,1
149241,-250,4,2,35,85,0,1
149487,-500,4,2,36,85,0,1
149733,-100,4,2,1,80,0,0
149856,-200,4,2,1,80,0,0
150962,-399.999999999997,4,2,1,80,0,0
151454,-399.999999999997,4,2,1,10,0,0
151700,-83.3333333333333,4,2,31,85,0,1
152192,-83.3333333333333,4,2,32,85,0,1
152684,-83.3333333333333,4,2,31,85,0,1
153175,-83.3333333333333,4,2,32,85,0,1
153667,-83.3333333333333,4,2,33,85,0,1
154159,-83.3333333333333,4,2,34,85,0,1
154528,-83.3333333333333,4,2,33,85,0,1
155143,-83.3333333333333,4,2,34,85,0,1
155634,-83.3333333333333,4,2,31,85,0,1
156371,-83.3333333333333,4,2,32,85,0,1
156495,-83.3333333333333,4,2,31,85,0,1
156987,-83.3333333333333,4,2,32,85,0,1
157110,-83.3333333333333,4,2,31,85,0,1
157356,-83.3333333333333,4,2,32,85,0,1
157602,-66.6666666666667,4,2,1,90,0,0
157970,-66.6666666666667,4,2,1,5,0,0
158093,-100,4,2,1,90,0,0
158462,-100,4,2,1,5,0,0
158585,-200,4,2,1,80,0,0
158954,-200,4,2,1,5,0,0
159077,-66.6666666666667,4,2,35,80,0,0
159569,-83.3333333333333,4,2,35,85,0,1
159814,-83.3333333333333,4,2,35,85,0,1
160061,-55.5555555555556,4,2,36,85,0,1
160429,-55.5555555555556,4,2,35,85,0,1
160552,-83.3333333333333,4,2,35,85,0,1
161044,-55.5555555555556,4,2,36,85,0,1
161536,-83.3333333333333,4,2,37,85,0,1
161781,-83.3333333333333,4,2,37,85,0,1
162028,-83.3333333333333,4,2,38,85,0,1
162397,-83.3333333333333,4,2,37,85,0,1
163011,-83.3333333333333,4,2,38,85,0,1
163503,-71.4285714285714,4,2,35,85,0,1
164241,-100,4,2,36,85,0,1
164364,-100,4,2,35,85,0,1
164856,-142.857142857143,4,2,36,85,0,1
164979,-200,4,2,35,85,0,1
165225,-333.333333333333,4,2,36,85,0,1
165470,-100,4,2,1,80,0,0
166700,-66.6666666666667,4,2,1,80,0,0
166946,-200,4,2,1,80,0,0
167438,-200,4,2,1,10,0,0

[Colours]
Combo1 : 211,123,86
Combo2 : 255,128,255
Combo3 : 145,255,255
Combo4 : 66,160,255
Combo5 : 245,250,80
Combo6 : 128,0,255
SliderTrackOverride : 63,63,63
SliderBorder : 92,115,222

[HitObjects]
109,143,7356,5,2,0:0:0:0:
109,6,7602,1,2,0:0:0:0:
226,75,7847,1,2,0:0:0:0:
155,81,8093,6,0,L|147:238,1,150,0|0,1:2|0:0,0:0:0:0:
146,266,8585,1,0,1:2:0:0:
217,333,8831,1,0,0:0:0:0:
290,260,9077,2,0,L|279:161,1,100,0|2,1:2|0:2,0:0:0:0:
383,162,9569,2,0,L|394:266,1,100,0|2,1:2|0:2,0:0:0:0:
462,166,10061,5,0,1:2:0:0:
462,166,10184,2,0,L|379:161,1,80
334,82,10552,1,0,1:2:0:0:
334,82,10675,2,0,L|268:91,1,59.9999981689454
197,57,11044,1,0,1:2:0:0:
197,57,11167,2,0,L|153:84,1,40
77,87,11536,1,0,1:2:0:0:
77,87,11659,2,0,L|69:113,1,20
25,204,12028,6,0,L|180:217,1,150,0|0,1:2|0:0,0:0:0:0:
209,221,12520,1,0,1:2:0:0:
272,302,12765,1,0,0:0:0:0:
204,380,13011,2,0,L|103:373,1,100,0|2,1:2|0:2,0:0:0:0:
28,304,13503,2,0,L|135:293,1,100,0|2,1:2|0:2,0:0:0:0:
272,302,13995,6,0,L|291:141,1,150,0|0,1:2|0:0,0:0:0:0:
295,118,14487,1,0,1:2:0:0:
385,68,14733,1,0,0:0:0:0:
468,134,14979,2,0,B|506:195|446:211|489:283,2,150,0|0|2,1:2|0:0|0:2,0:0:0:0:
370,43,15962,6,0,L|210:29,1,150,0|0,1:2|0:0,0:0:0:0:
185,25,16454,1,0,1:2:0:0:
95,73,16700,1,0,0:0:0:0:
186,130,16946,2,0,L|289:121,1,100,0|2,1:2|0:2,0:0:0:0:
308,231,17438,2,0,L|201:220,1,100,0|2,1:2|0:2,0:0:0:0:
81,211,17929,5,0,1:2:0:0:
81,211,18052,2,0,L|89:295,1,80
163,349,18421,1,0,1:2:0:0:
163,349,18544,2,0,L|169:284,1,59.9999981689454
259,269,18913,1,0,1:2:0:0:
259,269,19036,2,0,L|263:315,1,40
350,337,19405,1,0,1:2:0:0:
350,337,19528,2,0,L|353:311,1,20
444,289,19897,6,0,L|283:273,1,150,0|0,1:2|0:0,0:0:0:0:
259,269,20388,1,0,1:2:0:0:
339,197,20634,1,0,0:0:0:0:
256,136,20880,2,0,L|153:144,1,100,0|2,1:2|0:2,0:0:0:0:
169,38,21372,2,0,L|285:48,1,100,0|2,1:2|0:2,0:0:0:0:
101,91,21864,6,0,P|82:146|112:202,1,120,0|0,1:2|0:0,0:0:0:0:
108,198,22356,1,0,1:2:0:0:
259,269,22602,2,0,P|270:302|256:340,1,69.9999978637696
171,372,23093,1,0,0:0:0:0:
112,304,23339,2,0,L|-5:312,1,104.999996795654
0,236,23831,5,10,0:1:0:0:
0,236,24077,1,0,0:0:0:0:
96,88,24323,1,8,0:1:0:0:
96,88,24569,1,2,0:0:0:0:
96,236,24815,5,8,0:1:0:0:
48,160,25061,1,0,0:0:0:0:
0,236,25306,1,10,0:1:0:0:
0,236,25552,1,0,0:0:0:0:
208,156,25798,5,2,0:0:0:0:
208,156,26044,1,2,0:0:0:0:
264,92,26290,2,0,B|240:56|240:56|192:80,1,80
320,184,27028,5,0,0:0:0:0:
376,256,27274,1,0,0:0:0:0:
288,268,27520,1,0,0:0:0:0:
448,212,27765,5,2,0:0:0:0:
448,212,28011,1,2,0:0:0:0:
512,256,28257,2,0,B|500:296|500:296|456:288,1,80
320,184,28749,1,0,0:0:0:0:
288,268,28995,1,0,0:0:0:0:
320,184,29241,1,0,0:0:0:0:
376,256,29487,1,0,0:0:0:0:
260,72,29733,6,0,B|268:64|268:48|268:48|228:60|220:104,1,100,10|8,0:1|0:1,0:0:0:0:
168,224,30470,2,0,B|156:204|156:180|156:180|208:200|212:252,1,139.999995727539,2|0,0:1|0:0,0:0:0:0:
320,368,31208,1,10,0:1:0:0:
425,296,31454,6,0,L|423:317,2,20,8|8|8,0:0|0:0|0:0,0:0:0:0:
454,271,31700,2,0,B|462:239|462:239|452:188,1,80,10|8,1:0|0:0,0:0:0:0:
454,114,32069,2,0,B|462:146|462:146|452:197,1,80,0|8,1:0|0:0,0:0:0:0:
368,152,32438,6,0,L|318:156,1,40,10|0,1:0|0:0,0:0:0:0:
296,64,32684,1,8,0:0:0:0:
268,64,32806,2,0,L|218:68,1,40,0|0,1:0|0:0,0:0:0:0:
192,152,33052,1,8,0:0:0:0:
164,152,33175,2,0,L|114:156,1,40,10|0,1:0|0:0,0:0:0:0:
40,104,33421,2,0,L|37:80,2,20,8|8|8,0:0|0:0|0:0,0:0:0:0:
44,136,33667,1,10,1:2:0:0:
44,136,33913,1,10,1:2:0:0:
155,230,34159,6,0,P|183:224|213:231,1,60
234,303,34405,2,0,P|239:275|226:231,1,60
295,206,34651,2,0,P|323:200|353:207,1,60
374,279,34897,2,0,P|379:251|366:207,1,60
431,179,35143,2,0,P|471:170|512:181,1,80,0|0,3:0|3:0,0:0:0:0:
379,374,35634,5,10,1:2:0:0:
379,374,35880,1,10,1:2:0:0:
254,333,36126,5,8,1:2:0:0:
254,333,36372,1,8,1:2:0:0:
60,364,36618,5,8,1:2:0:0:
188,251,36864,1,8,1:2:0:0:
40,133,37110,5,8,1:2:0:0:
185,2,37356,1,8,1:2:0:0:
402,182,37602,5,8,0:3:0:0:
380,199,37725,1,8,0:3:0:0:
353,207,37847,1,8,0:3:0:0:
325,208,37970,1,8,0:3:0:0:
297,201,38093,5,8,0:3:0:0:
273,185,38216,1,8,0:3:0:0:
245,177,38339,1,8,0:3:0:0:
217,175,38462,1,8,0:3:0:0:
181,183,38585,6,0,L|178:211,1,20,2|0,0:1|0:0,0:0:0:0:
173,277,38831,2,0,L|170:305,1,20,2|0,0:0|0:0,0:0:0:0:
84,320,39077,6,0,L|79:272,1,34.9999989318848,2|0,0:0|0:0,0:0:0:0:
67,206,39323,2,0,L|62:158,1,34.9999989318848,2|0,0:0|0:0,0:0:0:0:
55,71,39569,6,0,L|172:62,1,100,4|0,1:1|0:0,0:0:0:0:
246,53,39938,1,0,0:0:0:0:
246,53,40061,1,0,1:2:0:0:
464,92,40306,1,0,0:0:0:0:
464,92,40429,1,0,0:0:0:0:
464,92,40552,6,0,P|469:67|465:44,1,50,0|0,1:2|0:0,0:0:0:0:
373,77,40798,2,0,P|369:103|375:127,1,50
477,218,41044,6,0,P|482:193|478:170,1,50,0|0,1:2|0:0,0:0:0:0:
386,203,41290,2,0,P|382:229|388:253,1,50
384,336,41536,6,0,B|323:334|347:314|279:314,1,100,0|0,1:2|0:0,0:0:0:0:
232,384,41905,1,0,0:0:0:0:
232,384,42028,1,0,1:2:0:0:
272,227,42274,1,0,0:0:0:0:
70,292,42520,6,0,B|70:304|66:316|66:316|78:312|94:316,1,50,0|0,1:2|0:0,0:0:0:0:
176,316,42766,2,0,B|188:308|200:308|200:308|196:296|196:280,1,50
85,180,43011,6,0,B|71:183|59:179|59:179|63:191|63:203,1,50,0|0,1:2|0:0,0:0:0:0:
192,204,43257,2,0,B|191:192|195:180|195:180|183:180|168:172,1,50
176,316,43503,6,0,B|254:337|243:282|331:315,1,150,0|0,1:2|0:0,0:0:0:0:
408,353,43995,1,0,1:2:0:0:
470,170,44241,1,0,0:0:0:0:
470,170,44364,1,0,0:0:0:0:
470,170,44487,6,0,L|459:273,1,100,0|0,1:2|0:0,0:0:0:0:
422,78,44979,2,0,P|371:91|318:74,1,100,0|0,1:2|0:0,0:0:0:0:
309,269,45470,2,0,L|293:163,1,100,0|0,1:2|0:0,0:0:0:0:
294,170,45839,1,0,0:0:0:0:
294,170,45962,1,0,1:2:0:0:
87,82,46208,1,0,0:0:0:0:
87,82,46331,1,0,0:0:0:0:
87,82,46454,6,0,P|116:75|136:57,1,50,0|0,1:2|0:0,0:0:0:0:
181,166,46700,2,0,P|157:150|125:145,1,50
82,239,46946,6,0,P|111:232|131:214,1,50,0|0,1:2|0:0,0:0:0:0:
176,323,47192,2,0,P|152:307|120:302,1,50
252,362,47438,6,0,P|303:368|345:340,1,100,4|2,1:2|0:0,0:0:0:0:
395,275,47806,1,0,0:0:0:0:
395,275,47929,1,8,1:2:0:0:
492,119,48175,1,0,0:0:0:0:
492,119,48298,1,0,0:0:0:0:
492,119,48421,6,0,B|480:116|468:120|468:120|456:112|440:116,1,50,0|8,1:2|0:0,0:0:0:0:
388,44,48667,2,0,B|400:47|412:39|412:39|424:43|436:40,1,50,2|0,0:0|0:0,0:0:0:0:
360,120,48913,6,0,B|348:117|336:121|336:121|324:113|308:117,1,50,8|0,1:2|0:0,0:0:0:0:
256,45,49159,2,0,B|268:48|280:40|280:40|292:44|304:41,1,50
223,150,49405,6,0,L|112:141,1,100,0|2,1:2|0:0,0:0:0:0:
123,141,49774,1,0,0:0:0:0:
123,141,49897,1,8,1:2:0:0:
28,24,50143,1,0,0:0:0:0:
22,205,50388,6,0,L|75:202,1,50,0|8,1:2|0:0,0:0:0:0:
134,284,50634,2,0,L|77:280,1,50,2|0,0:0|0:0,0:0:0:0:
14,368,50880,6,0,P|28:342|28:313,1,50,8|0,1:2|0:0,0:0:0:0:
134,284,51126,2,0,P|141:315|153:335,1,50
243,378,51372,6,0,P|288:384|333:351,1,100,0|2,1:2|0:0,0:0:0:0:
428,362,51741,2,0,B|381:376|379:338|324:356,1,100
272,309,52110,1,0,0:0:0:0:
456,152,52356,6,0,L|452:210,1,50,0|8,1:2|0:0,0:0:0:0:
377,124,52602,2,0,L|373:182,1,50,2|0,0:0|0:0,0:0:0:0:
291,93,52847,6,0,L|284:37,1,50,8|0,1:2|0:0,0:0:0:0:
209,106,53093,2,0,L|203:52,1,50
119,18,53339,5,0,3:3:0:0:
119,18,53462,2,0,L|109:117,1,100,8|0,3:0|3:3,0:0:0:0:
51,182,53831,6,0,P|95:209|148:201,1,100,8|0,3:0|3:3,0:0:0:0:
220,191,54200,6,0,L|210:290,1,100,8|0,3:0|3:3,0:0:0:0:
168,356,54569,6,0,P|193:370|229:367,1,50,8|0,3:0|0:0,0:0:0:0:
354,270,54815,6,0,B|298:274|298:274|278:270|278:270|262:282|262:282|206:290,1,150,2|0,3:0|0:0,0:0:0:0:
209,290,55306,6,0,L|368:300,1,150,4|0,1:2|0:0,0:0:0:0:
394,306,55798,1,8,1:2:0:0:
491,219,56044,1,0,0:0:0:0:
314,188,56290,2,0,L|308:112,1,69.9999978637696,0|2,1:2|0:2,0:0:0:0:
417,20,56782,6,0,L|410:71,1,44.999998626709,8|0,1:2|0:0,0:0:0:0:
396,147,57274,6,0,L|408:308,1,150,0|0,1:2|0:0,0:0:0:0:
410,331,57765,1,8,1:2:0:0:
307,265,58011,1,0,0:0:0:0:
470,193,58257,2,0,L|475:269,1,69.9999978637696,0|2,1:2|0:2,0:0:0:0:
300,309,58749,6,0,L|307:262,1,44.999998626709,8|0,1:2|0:0,0:0:0:0:
314,188,59241,6,0,L|161:201,1,150,0|0,1:2|0:0,0:0:0:0:
88,156,59733,1,8,1:2:0:0:
88,156,59856,2,0,B|108:128|108:128|180:120,1,100
164,200,60225,6,0,L|61:210,1,100,0|2,1:2|0:2,0:0:0:0:
56,60,60716,6,0,L|156:50,1,100,8|2,1:2|0:2,0:0:0:0:
326,114,61208,6,0,L|312:194,1,75,0|0,1:2|0:0,0:0:0:0:
313,187,61700,1,0,1:2:0:0:
200,48,61946,5,0,0:0:0:0:
188,44,62192,1,0,0:0:0:0:
175,39,62438,2,0,B|138:8|107:44|69:37|44:4|44:4|80:54|55:117,1,250
16,179,63175,6,0,P|69:223|106:162,1,150,4|0,1:2|0:0,0:0:0:0:
59,105,63667,1,8,1:2:0:0:
168,239,63913,1,0,0:0:0:0:
197,321,64159,2,0,L|192:249,1,69.9999978637696,0|2,1:2|0:2,0:0:0:0:
311,219,64651,6,0,L|307:268,1,44.999998626709,8|0,1:2|0:0,0:0:0:0:
298,341,65143,6,0,L|286:191,1,150,0|0,1:2|0:0,0:0:0:0:
284,156,65634,1,8,1:2:0:0:
405,210,65880,1,0,0:0:0:0:
202,158,66126,6,0,P|200:144|216:112,1,34.9999989318848,0|8,1:2|0:0,0:0:0:0:
216,48,66372,2,0,P|232:40|256:40,1,34.9999989318848,2|8,0:2|0:0,0:0:0:0:
323,19,66618,2,0,B|331:51|319:79|319:79|351:91|360:128|360:128|396:124|420:144|420:144|444:108|492:104,1,269.999991760254,0|0,1:2|0:0,0:0:0:0:
473,19,67110,6,0,B|401:16|401:16|380:22|380:22|305:19,1,150,0|0,1:2|0:0,0:0:0:0:
323,20,67602,1,8,1:2:0:0:
284,156,67847,1,0,0:0:0:0:
161,172,68093,6,0,L|168:245,2,66.6666666666667,0|0|0,1:2|0:0|0:0,0:0:0:0:
115,299,68585,2,0,P|190:317|235:282,1,133.333333333333,8|0,1:2|0:0,0:0:0:0:
360,324,69077,2,0,P|344:296|308:280,2,66.6666666666667,4|0|0,0:1|0:0|0:0,0:0:0:0:
276,354,69569,2,0,B|199:375|216:316|133:348,1,133.333333333333,4|0,0:1|0:0,0:0:0:0:
71,361,70061,6,0,B|82:319|51:260|22:302|-2:250|10:204,1,175
9,209,71044,5,14,0:0:0:0:
104,192,71290,1,0,0:0:0:0:
38,138,71536,1,8,0:1:0:0:
38,138,71782,1,2,0:0:0:0:
187,162,72028,5,8,0:1:0:0:
104,192,72274,1,0,0:0:0:0:
171,250,72520,1,10,0:1:0:0:
171,250,72765,1,0,0:0:0:0:
191,85,73011,6,0,P|178:125|194:173,1,80,2|2,0:0|0:0,0:0:0:0:
296,288,73503,2,0,B|304:256|304:256|288:200,1,80
186,161,74241,1,0,0:0:0:0:
291,210,74487,1,0,0:0:0:0:
400,264,74733,1,0,0:0:0:0:
288,132,74979,6,0,P|298:179|286:217,1,80,2|2,0:0|0:0,0:0:0:0:
224,352,75470,2,0,L|140:336,1,80
18,219,75962,1,0,0:0:0:0:
60,308,76208,1,0,0:0:0:0:
128,224,76454,1,0,0:0:0:0:
60,308,76700,1,0,0:0:0:0:
48,132,76946,6,0,L|64:34,1,100,10|8,0:1|0:1,0:0:0:0:
184,56,77684,2,0,L|192:197,1,139.999995727539,2|0,0:1|0:0,0:0:0:0:
298,258,78421,1,10,0:1:0:0:
425,296,78667,6,0,L|423:321,2,17.4999994659424,8|8|8,0:0|0:0|0:0,0:0:0:0:
454,271,78913,2,0,B|462:239|462:239|452:188,1,80,10|8,1:0|0:0,0:0:0:0:
454,114,79282,2,0,B|462:146|462:146|452:197,1,80,0|8,1:0|0:0,0:0:0:0:
368,152,79651,6,0,L|318:156,1,40,10|0,1:0|0:0,0:0:0:0:
296,64,79897,1,8,0:0:0:0:
268,64,80020,2,0,L|228:67,1,40,0|0,1:0|0:0,0:0:0:0:
192,152,80265,1,8,0:0:0:0:
164,152,80388,2,0,L|114:156,1,40,10|0,1:0|0:0,0:0:0:0:
40,104,80634,2,0,L|37:80,2,20,8|8|8,0:0|0:0|0:0,0:0:0:0:
44,136,80880,1,10,1:2:0:0:
44,136,81126,1,10,1:2:0:0:
33,285,81372,6,0,P|80:301|116:287,1,75
162,251,81618,2,0,P|196:240|238:253,1,75
286,296,81864,2,0,P|333:312|369:298,1,75
415,262,82110,2,0,P|449:251|491:264,1,75
453,324,82356,2,0,P|428:364|377:378,1,100,0|0,3:0|3:0,0:0:0:0:
202,322,82847,5,10,1:2:0:0:
202,322,83093,1,10,1:2:0:0:
310,221,83339,5,8,1:2:0:0:
310,221,83585,1,8,1:2:0:0:
143,115,83831,5,8,1:2:0:0:
281,17,84077,1,8,1:2:0:0:
210,197,84323,5,8,1:2:0:0:
115,22,84569,1,8,1:2:0:0:
53,202,84815,5,8,0:3:0:0:
75,219,84938,1,8,0:3:0:0:
102,227,85060,1,8,0:3:0:0:
130,228,85183,1,8,0:3:0:0:
158,221,85306,5,8,0:3:0:0:
182,205,85429,1,8,0:3:0:0:
210,197,85552,1,8,0:3:0:0:
238,195,85675,1,8,0:3:0:0:
277,212,85798,6,0,L|279:233,1,20,2|0,0:1|0:0,0:0:0:0:
291,303,86044,2,0,L|293:324,1,20,2|0,0:0|0:0,0:0:0:0:
382,352,86290,6,0,L|386:315,1,34.9999989318848,2|0,0:0|0:0,0:0:0:0:
397,239,86536,2,0,L|401:202,1,34.9999989318848,2|0,0:0|0:0,0:0:0:0:
409,113,86782,6,0,L|307:121,1,100,4|2,1:1|0:0,0:0:0:0:
223,128,87151,1,0,0:0:0:0:
223,128,87274,1,0,1:2:0:0:
30,246,87520,1,0,0:0:0:0:
30,246,87643,1,0,0:0:0:0:
30,246,87765,6,0,P|21:222|28:193,1,50,0|0,1:2|0:0,0:0:0:0:
104,168,88011,2,0,P|109:194|101:223,1,50,2|0,0:2|0:0,0:0:0:0:
22,116,88257,6,0,P|13:92|20:63,1,50,0|0,1:2|0:0,0:0:0:0:
96,38,88503,2,0,P|101:64|93:93,1,50
183,9,88749,6,0,L|286:13,1,100,0|2,1:2|0:0,0:0:0:0:
372,15,89118,1,0,0:0:0:0:
372,15,89241,1,0,1:2:0:0:
502,105,89487,1,0,0:0:0:0:
272,208,89733,6,0,B|272:196|268:184|268:184|280:188|296:184,1,50,0|0,1:2|0:0,0:0:0:0:
378,185,89979,2,0,B|390:193|402:193|402:193|398:205|398:221,1,50,2|0,0:2|0:0,0:0:0:0:
287,328,90225,6,0,B|273:324|261:328|261:328|265:316|265:304,1,50,0|0,1:2|0:0,0:0:0:0:
396,300,90471,2,0,B|395:311|400:324|400:324|387:323|376:328,1,50
378,185,90716,6,0,P|445:205|429:140,1,150,0|0,1:2|0:0,0:0:0:0:
364,101,91208,1,0,1:2:0:0:
274,260,91454,1,0,0:0:0:0:
274,260,91577,1,0,0:0:0:0:
274,260,91700,6,0,L|266:365,1,100,0|2,1:2|0:2,0:0:0:0:
106,217,92192,2,0,P|157:205|206:219,1,100,0|0,1:2|0:0,0:0:0:0:
41,264,92684,2,0,L|49:368,1,100,0|2,1:2|0:0,0:0:0:0:
48,363,93052,1,0,0:0:0:0:
48,363,93175,1,0,1:2:0:0:
137,124,93421,1,0,0:0:0:0:
137,124,93544,1,0,0:0:0:0:
137,124,93667,6,0,P|117:137|87:142,1,50,0|0,1:2|0:0,0:0:0:0:
80,56,93913,2,0,P|76:30|83:3,1,50,2|0,0:2|0:0,0:0:0:0:
160,40,94159,6,0,P|180:27|210:22,1,50,0|0,1:2|0:0,0:0:0:0:
217,108,94405,2,0,P|221:134|214:161,1,50
128,248,94651,6,0,L|251:240,1,100,4|2,1:2|0:0,0:0:0:0:
318,238,95020,1,0,0:0:0:0:
318,238,95143,1,8,1:2:0:0:
483,296,95388,1,0,0:0:0:0:
483,296,95511,1,0,0:0:0:0:
483,296,95634,6,0,B|480:308|481:320|481:320|474:329|472:344,1,50,0|8,1:2|0:0,0:0:0:0:
392,376,95880,2,0,B|389:364|390:352|390:352|383:343|381:328,1,50,2|0,0:0|0:0,0:0:0:0:
476,172,96126,6,0,B|473:184|474:196|474:196|467:205|465:220,1,50,8|0,1:2|0:0,0:0:0:0:
385,252,96372,2,0,B|382:240|383:228|383:228|376:219|374:204,1,50
352,112,96618,6,0,L|333:13,1,100,0|2,1:2|0:0,0:0:0:0:
333,13,96987,1,0,0:0:0:0:
333,13,97110,1,8,1:2:0:0:
468,78,97356,1,0,0:0:0:0:
283,159,97602,6,0,L|232:151,1,50,0|8,1:2|0:0,0:0:0:0:
192,78,97847,2,0,L|142:84,1,50,2|0,0:0|0:0,0:0:0:0:
84,149,98093,6,0,P|79:175|83:200,1,50,8|0,1:2|0:0,0:0:0:0:
143,257,98339,2,0,P|149:284|145:310,1,50
61,344,98585,6,0,P|99:309|158:310,1,100,0|2,1:2|0:0,0:0:0:0:
220,352,98954,2,0,B|279:363|273:331|331:348,1,100
404,360,99323,1,0,0:0:0:0:
486,157,99569,6,0,L|481:210,1,50,0|8,1:2|0:0,0:0:0:0:
399,221,99815,2,0,L|405:164,1,50,2|0,0:0|0:0,0:0:0:0:
313,79,100061,6,0,L|318:131,1,50,8|0,1:2|0:0,0:0:0:0:
397,104,100306,2,0,L|390:53,1,50
272,12,100552,6,0,P|252:24|236:52,1,50,0|0,1:2|0:0,0:0:0:0:
196,128,100798,1,2,0:0:0:0:
168,132,100921,1,0,0:0:0:0:
144,136,101044,1,8,1:2:0:0:
12,248,101290,5,0,0:0:0:0:
40,252,101413,1,0,0:0:0:0:
64,256,101536,6,0,L|116:264,1,50,0|8,1:2|0:0,0:0:0:0:
200,276,101782,2,0,L|252:284,1,50,2|0,0:0|0:0,0:0:0:0:
340,296,102028,5,8,1:2:0:0:
472,292,102274,1,0,0:0:0:0:
459,152,102520,6,0,B|427:160|399:148|399:148|395:176|363:196,1,119.999996337891,4|2,1:2|0:0,0:0:0:0:
304,128,102888,1,0,0:0:0:0:
304,128,103011,2,0,B|272:120|244:132|244:132|240:104|208:84,1,119.999996337891,8|0,1:2|0:0,0:0:0:0:
72,16,103503,2,0,B|104:36|104:36|120:128,1,119.999996337891,0|2,1:2|0:0,0:0:0:0:
91,197,103995,2,0,B|59:177|59:177|43:85,1,119.999996337891,8|0,1:2|0:0,0:0:0:0:
168,252,104487,6,0,B|208:256|208:256|224:252|224:252|240:260|240:260|292:268,1,119.999996337891,0|2,1:2|0:0,0:0:0:0:
348,336,104856,1,0,0:0:0:0:
348,336,104979,2,0,B|388:332|388:332|404:336|404:336|420:328|420:328|472:320,1,119.999996337891,8|0,1:2|0:0,0:0:0:0:
512,168,105470,2,0,B|500:140|500:140|416:108,1,119.999996337891,0|2,1:2|0:0,0:0:0:0:
264,144,105962,2,0,B|276:172|276:172|360:204,1,119.999996337891,8|0,1:2|0:0,0:0:0:0:
284,64,106454,6,0,B|244:56|220:76|220:76|212:52|180:36,1,119.999996337891,0|2,1:2|0:0,0:0:0:0:
132,112,106823,1,0,0:0:0:0:
132,112,106946,2,0,B|92:120|68:100|68:100|60:124|28:140,1,119.999996337891,8|0,1:2|0:0,0:0:0:0:
0,296,107438,2,0,B|68:304|40:336|108:348,1,119.999996337891,0|2,1:2|0:0,0:0:0:0:
244,284,107929,2,0,B|176:276|204:244|136:232,1,119.999996337891,8|0,1:2|0:0,0:0:0:0:
196,380,108421,6,0,B|252:372|252:372|260:368|260:368|324:360,1,119.999996337891,0|2,1:2|0:0,0:0:0:0:
376,296,108790,1,0,0:0:0:0:
376,296,108913,2,0,B|432:304|432:304|440:308|440:308|504:316,1,119.999996337891,8|0,1:2|0:0,0:0:0:0:
368,204,109405,6,0,B|352:156|376:108|376:108|352:132|316:128,2,150,0|0|0,1:2|0:0|0:0,0:0:0:0:
169,30,110388,5,4,1:2:0:0:
95,169,110634,1,2,0:0:0:0:
104,188,110757,1,0,0:0:0:0:
112,208,110880,1,8,1:2:0:0:
7,337,111126,1,0,0:0:0:0:
166,289,111372,5,0,1:2:0:0:
160,296,111618,1,2,0:0:0:0:
280,352,111864,5,8,1:2:0:0:
274,345,112110,1,0,0:0:0:0:
477,253,112356,5,0,1:2:0:0:
390,380,112602,1,2,0:0:0:0:
396,360,112725,1,0,0:0:0:0:
404,340,112847,1,8,1:2:0:0:
299,213,113093,1,0,0:0:0:0:
437,82,113339,5,0,1:2:0:0:
432,92,113585,1,2,0:0:0:0:
308,48,113831,5,8,1:2:0:0:
304,36,114077,1,0,0:0:0:0:
114,138,114323,5,0,1:2:0:0:
208,8,114569,1,2,0:0:0:0:
216,28,114692,1,0,0:0:0:0:
224,48,114815,1,8,1:2:0:0:
185,202,115061,1,0,0:0:0:0:
40,75,115306,5,0,1:2:0:0:
52,72,115552,1,2,0:0:0:0:
44,216,115798,5,8,1:2:0:0:
56,219,116044,1,0,0:0:0:0:
126,324,116290,5,0,3:3:0:0:
126,324,116413,2,0,P|174:343|219:328,1,100,8|0,3:0|3:3,0:0:0:0:
179,272,116782,6,0,P|227:291|272:276,1,100,8|0,3:0|3:3,0:0:0:0:
228,215,117151,6,0,P|276:234|321:219,1,100,8|0,3:0|3:3,0:0:0:0:
284,164,117520,6,0,P|330:180|368:163,1,75.0000028610231,8|0,3:0|0:0,0:0:0:0:
333,9,117765,6,0,L|326:109,1,100,2|0,3:0|0:0,0:0:0:0:
432,72,126126,6,0,L|439:155,2,75,2|2|2,0:0|0:0|0:0,0:0:0:0:
340,78,127110,2,0,L|347:161,2,75,2|2|2,0:0|0:0|0:0,0:0:0:0:
249,85,128093,2,0,L|256:168,2,75,2|2|2,0:0|0:0|0:0,0:0:0:0:
157,93,129077,2,0,L|164:176,2,75,2|2|2,0:0|0:0|0:0,0:0:0:0:
68,104,130061,2,0,P|24:140|80:192,1,150,2|0,0:0|0:0,0:0:0:0:
68,280,131044,2,0,P|24:244|80:192,1,150,2|0,0:0|0:0,0:0:0:0:
128,320,132028,6,0,B|144:300|184:288|184:312|220:288|220:288|260:312|264:288|316:320|316:320|288:276|284:244|312:280|288:216|288:216|324:164|312:216|352:140,1,400,2|4,0:0|0:0,0:0:0:0:
344,153,134979,1,2,0:0:0:0:
354,42,135962,6,0,L|230:51,1,119.999996337891,6|2,1:1|0:2,0:0:0:0:
144,58,136331,1,8,0:0:0:0:
71,113,136454,2,0,L|76:175,1,59.9999981689454,2|0,1:2|0:0,0:0:0:0:
162,204,136700,5,10,0:2:0:0:
162,204,136823,2,0,L|155:268,1,59.9999981689454,2|0,0:2|1:2,0:0:0:0:
71,113,137069,2,0,L|76:175,1,59.9999981689454,2|0,0:2|0:0,0:0:0:0:
162,204,137315,5,10,0:2:0:0:
162,204,137438,2,0,L|155:268,1,59.9999981689454,2|0,1:2|0:0,0:0:0:0:
76,299,137684,2,0,L|81:361,1,59.9999981689454,10|0,0:2|0:0,0:0:0:0:
211,372,137929,6,0,B|260:362|260:362|280:363|280:363|332:352,1,119.999996337891,2|2,1:2|0:2,0:0:0:0:
421,330,138298,1,8,0:0:0:0:
481,259,138421,2,0,P|485:230|476:201,1,59.9999981689454,2|0,1:2|0:0,0:0:0:0:
395,161,138667,5,10,0:2:0:0:
395,161,138790,2,0,P|390:128|401:95,1,59.9999981689454,2|0,0:2|1:2,0:0:0:0:
481,259,139036,2,0,P|485:230|476:201,1,59.9999981689454,2|0,0:2|0:0,0:0:0:0:
395,161,139282,5,10,0:2:0:0:
395,161,139405,2,0,P|390:128|401:95,1,59.9999981689454,2|0,1:2|0:0,0:0:0:0:
477,71,139651,2,0,P|481:42|472:13,1,59.9999981689454,10|0,0:2|0:0,0:0:0:0:
354,42,139897,6,0,B|293:30|293:30|236:42,1,119.999996337891,2|2,1:2|0:2,0:0:0:0:
148,66,140265,1,10,0:2:0:0:
207,133,140388,2,0,L|203:197,1,59.9999981689454,0|0,1:2|0:0,0:0:0:0:
192,320,140634,5,10,0:2:0:0:
258,258,140757,2,0,L|319:251,1,59.9999981689454,2|0,0:2|1:2,0:0:0:0:
361,341,141003,2,0,L|296:336,1,59.9999981689454,2|0,0:2|0:0,0:0:0:0:
192,320,141249,5,10,0:2:0:0:
258,258,141372,2,0,L|319:251,1,59.9999981689454,2|0,1:2|0:0,0:0:0:0:
420,345,141618,2,0,L|355:340,1,59.9999981689454,10|0,0:2|0:0,0:0:0:0:
192,320,141864,6,0,P|161:264|128:364,1,225.000008583069,4|0,0:1|0:0,0:0:0:0:
192,320,142356,2,0,B|160:324|136:308|136:308|135:338|104:360,1,115.000002193451,4|0,0:1|0:0,0:0:0:0:
40,218,142847,6,0,P|36:195|41:171,1,44.999998626709
77,75,143339,2,0,P|115:66|151:78,1,75.0000028610231,4|4,0:0|0:0,0:0:0:0:
238,168,143585,2,0,P|272:179|310:167,1,75.0000028610231,4|4,0:0|0:0,0:0:0:0:
424,98,143831,6,0,L|432:228,1,119.999996337891,6|2,1:1|0:2,0:0:0:0:
437,313,144200,1,10,0:2:0:0:
364,372,144323,6,0,L|301:367,1,59.9999981689454,2|0,1:2|0:0,0:0:0:0:
225,293,144569,5,10,0:2:0:0:
225,293,144692,2,0,L|290:288,1,59.9999981689454,2|0,0:2|1:2,0:0:0:0:
175,355,144938,2,0,L|112:350,1,59.9999981689454,2|0,0:2|0:0,0:0:0:0:
42,284,145184,5,10,0:2:0:0:
42,284,145306,2,0,L|107:279,1,59.9999981689454,2|0,1:2|0:0,0:0:0:0:
175,355,145552,2,0,L|112:350,1,59.9999981689454,10|0,0:2|0:0,0:0:0:0:
20,200,145798,6,0,P|10:137|26:79,1,119.999996337891,2|2,1:2|0:2,0:0:0:0:
79,10,146167,1,10,0:2:0:0:
148,66,146290,2,0,L|146:131,1,59.9999981689454,2|0,1:2|0:0,0:0:0:0:
226,64,146536,5,10,0:2:0:0:
226,64,146659,2,0,L|223:127,1,59.9999981689454,2|0,0:2|1:2,0:0:0:0:
317,92,146905,2,0,L|313:33,1,59.9999981689454,2|0,0:2|0:0,0:0:0:0:
393,86,147151,5,10,0:2:0:0:
393,86,147274,2,0,L|388:21,1,59.9999981689454,2|0,1:2|0:0,0:0:0:0:
469,80,147520,2,0,L|464:15,1,59.9999981689454,10|0,0:2|0:0,0:0:0:0:
414,177,147765,6,0,P|426:239|410:297,1,119.999996337891,6|6,1:2|0:2,0:0:0:0:
340,372,148134,5,14,0:2:0:0:
292,383,148257,1,4,1:2:0:0:
242,383,148380,1,4,0:0:0:0:
207,375,148503,1,14,0:2:0:0:
176,357,148626,1,6,0:2:0:0:
158,334,148749,5,4,1:2:0:0:
146,308,148872,1,6,0:2:0:0:
141,287,148995,1,4,0:0:0:0:
140,266,149118,1,14,0:2:0:0:
142,252,149241,5,6,1:2:0:0:
145,238,149364,1,4,0:0:0:0:
147,231,149487,1,14,0:2:0:0:
150,225,149610,1,4,0:0:0:0:
199,220,149733,5,0,3:3:0:0:
199,220,149856,2,0,L|140:225,1,50,8|0,3:0|3:3,0:0:0:0:
276,152,150225,6,0,L|217:157,1,50,8|0,3:0|3:3,0:0:0:0:
361,87,150593,6,0,L|302:92,1,50,8|0,3:0|3:3,0:0:0:0:
448,24,150962,6,0,L|389:29,1,50,8|0,3:0|0:0,0:0:0:0:
445,150,151700,6,0,L|451:276,1,119.999996337891,6|2,1:1|0:2,0:0:0:0:
319,271,152069,1,8,0:0:0:0:
360,200,152192,2,0,L|366:326,1,119.999996337891,2|10,1:2|0:2,0:0:0:0:
72,353,152684,6,0,L|79:230,1,119.999996337891,0|0,1:2|0:0,0:0:0:0:
217,249,153052,1,10,0:2:0:0:
163,313,153175,2,0,L|170:190,1,119.999996337891,2|10,1:2|0:2,0:0:0:0:
354,77,153667,6,0,P|407:90|404:36,1,119.999996337891,2|2,1:2|0:2,0:0:0:0:
408,39,154036,1,8,0:0:0:0:
488,47,154159,2,0,P|483:107|442:151,1,119.999996337891,2|10,1:2|0:2,0:0:0:0:
354,77,154528,2,0,B|325:142|377:126|349:198,1,119.999996337891,2|2,0:2|0:2,0:0:0:0:
276,255,154897,2,0,L|210:248,1,59.9999981689454,0|10,0:0|0:2,0:0:0:0:
332,306,155143,2,0,B|325:250|325:250|352:188,1,119.999996337891,2|10,1:2|0:2,0:0:0:0:
384,364,155634,6,0,P|327:387|276:361,1,119.999996337891,2|2,1:2|0:2,0:0:0:0:
183,324,156003,1,10,0:2:0:0:
163,313,156126,2,0,P|104:288|48:308,1,119.999996337891,0|10,1:2|0:2,0:0:0:0:
0,232,156495,2,0,L|7:172,1,59.9999981689454,2|0,0:2|1:2,0:0:0:0:
93,138,156741,2,0,L|84:198,1,59.9999981689454,2|0,0:2|0:0,0:0:0:0:
18,94,156987,1,10,0:2:0:0:
18,94,157110,2,0,L|25:34,1,59.9999981689454,2|0,1:2|0:0,0:0:0:0:
111,0,157356,2,0,L|102:60,1,59.9999981689454,10|0,0:2|0:0,0:0:0:0:
225,143,157602,6,0,B|330:179|323:93|452:153,1,225.000008583069,4|0,0:1|0:0,0:0:0:0:
485,240,158093,2,0,P|451:240|465:142,1,150,4|0,0:1|0:0,0:0:0:0:
349,201,158585,2,0,P|354:230|382:273,1,75
449,353,159077,6,0,P|414:363|374:352,1,75.0000028610231,4|4,0:0|0:0,0:0:0:0:
291,294,159323,2,0,P|252:282|217:292,1,75.0000028610231,4|4,0:0|0:0,0:0:0:0:
117,342,159569,6,0,P|77:295|78:237,1,119.999996337891,6|2,1:1|0:2,0:0:0:0:
114,162,159938,1,10,0:2:0:0:
152,242,160061,2,0,P|114:305|83:231,1,179.999994506836,2|10,1:2|0:2,0:0:0:0:
114,162,160429,1,2,0:2:0:0:
37,127,160552,2,0,P|54:100|84:82,1,59.9999981689454,0|2,1:2|0:2,0:0:0:0:
191,128,160798,2,0,P|173:101|142:78,1,59.9999981689454,0|10,0:0|0:2,0:0:0:0:
76,84,161044,2,0,P|121:20|152:85,1,179.999994506836,2|10,1:2|0:2,0:0:0:0:
350,200,161536,6,0,P|299:226|244:204,1,119.999996337891,2|2,1:2|0:2,0:0:0:0:
293,154,161905,1,10,0:2:0:0:
396,143,162028,2,0,P|422:197|401:254,1,119.999996337891,2|10,1:2|0:2,0:0:0:0:
350,200,162397,1,2,0:2:0:0:
293,154,162520,2,0,L|297:92,1,59.9999981689454,0|2,1:2|0:2,0:0:0:0:
400,83,162765,2,0,L|395:143,1,59.9999981689454,0|10,0:0|0:2,0:0:0:0:
403,251,163011,2,0,P|348:277|296:253,1,119.999996337891,2|10,1:2|0:2,0:0:0:0:
350,200,163380,1,0,0:0:0:0:
297,254,163503,5,6,1:2:0:0:
263,289,163626,1,4,0:0:0:0:
221,308,163749,1,6,0:2:0:0:
175,313,163872,1,14,0:2:0:0:
132,313,163995,5,4,1:2:0:0:
90,304,164118,1,4,0:0:0:0:
58,288,164241,1,14,0:2:0:0:
37,259,164364,1,6,0:2:0:0:
27,228,164487,5,4,1:2:0:0:
26,196,164610,1,6,0:2:0:0:
39,175,164733,1,4,0:0:0:0:
57,159,164856,1,14,0:2:0:0:
74,156,164979,5,6,1:2:0:0:
91,158,165102,1,4,0:0:0:0:
100,162,165225,1,14,0:2:0:0:
106,170,165347,1,4,0:0:0:0:
151,230,165470,5,0,3:3:0:0:
151,230,165593,2,0,P|137:180|157:134,1,100,8|0,3:0|3:3,0:0:0:0:
217,186,165962,6,0,P|203:136|223:90,1,100,8|0,3:0|3:3,0:0:0:0:
279,140,166331,6,0,P|265:90|285:44,1,100,8|0,3:0|3:3,0:0:0:0:
337,93,166700,6,0,P|326:44|345:3,1,75.0000028610231,8|0,3:0|0:0,0:0:0:0:
497,59,166946,6,0,L|379:53,1,100,2|0,3:0|0:0,0:0:0:0:
