osu file format v14

[General]
AudioFilename: SO SUS + KONKA _ ACORN_244096741_soundcloud.mp3
AudioLeadIn: 0
PreviewTime: 14907
Countdown: 0
SampleSet: Normal
StackLeniency: 0.4
Mode: 0
LetterboxInBreaks: 0
WidescreenStoryboard: 0

[Editor]
Bookmarks: 23123,26678,71123,83567,85345,108456,113789,126234,128011,140456
DistanceSpacing: 2.4
BeatDivisor: 8
GridSize: 4
TimelineZoom: 3.399998

[Metadata]
Title:ACORN
TitleUnicode:ACORN
Artist:SO SUS + KONKA
ArtistUnicode:SO SUS + KONKA
Creator:squirrelpascals
Version:INSANE
Source:
Tags:trap experimental door hinge
BeatmapID:922018
BeatmapSetID:413701

[Difficulty]
HPDrainRate:6
CircleSize:4
OverallDifficulty:8
ApproachRate:9
SliderMultiplier:1.5
SliderTickRate:1

[Events]
//Background and Video events
0,0,"acorn1366x768.png",0,0
//Break Periods
2,42885,52752
//Storyboard Layer 0 (Background)
//Storyboard Layer 1 (Fail)
//Storyboard Layer 2 (Pass)
//Storyboard Layer 3 (Foreground)
//Storyboard Sound Samples

[TimingPoints]
19,444.444444444444,4,1,1,100,1,0
13352,-66.6666666666667,4,1,1,100,0,0
13796,-200,4,1,1,100,0,0
14907,-66.6666666666667,4,1,1,100,0,0
15130,-66.6666666666667,4,1,1,100,0,1
18685,-133.333333333333,4,1,1,100,0,0
19352,-66.6666666666667,4,1,1,100,0,0
19574,-66.6666666666667,4,1,1,100,0,1
21352,-100,4,1,1,100,0,0
22241,-66.6666666666667,4,1,1,100,0,1
27574,-66.6666666666667,4,1,1,100,0,0
28463,-100,4,1,1,100,0,0
29130,-66.6666666666667,4,1,1,100,0,0
29352,-66.6666666666667,4,1,1,100,0,1
32907,-133.333333333333,4,1,1,100,0,0
33574,-66.6666666666667,4,1,1,100,0,0
33796,-66.6666666666667,4,1,1,100,0,1
35574,-66.6666666666667,4,1,1,100,0,0
42241,-133.333333333333,4,1,1,100,0,0
56907,-76.9230769230769,4,1,1,100,0,0
70241,-71.4285714285714,4,1,1,50,0,0
71130,-66.6666666666667,4,1,1,100,0,0
83574,-100,4,1,1,100,0,0
84907,-56.9622055765999,4,1,1,100,0,0
85352,-66.6666666666667,4,1,1,100,0,1
98685,-66.6666666666667,4,1,1,100,0,0
99574,-66.6666666666667,4,1,1,100,0,1
112907,-100,4,1,1,100,0,0
120907,-83.3333333333333,4,1,1,100,0,0
126241,-133.333333333333,4,1,1,100,0,0
128907,-66.6666666666667,4,1,1,100,0,1
132463,-133.333333333333,4,1,1,100,0,0
133130,-66.6666666666667,4,1,1,100,0,0
133352,-66.6666666666667,4,1,1,100,0,1
135130,-66.6666666666667,4,1,1,100,0,0
136018,-66.6666666666667,4,1,1,100,0,1
141352,-117.647058823529,4,1,1,100,0,0
142907,-66.6666666666667,4,1,1,100,0,0
143130,-66.6666666666667,4,1,1,100,0,1
146685,-100,4,1,1,100,0,0
147352,-66.6666666666667,4,1,1,100,0,0
147574,-66.6666666666667,4,1,1,100,0,1
149352,-66.6666666666667,4,1,1,100,0,0
156018,-100,4,1,1,100,0,0
156463,-100,4,1,1,50,0,0
170685,-200,4,1,1,50,0,0
184908,-200,4,1,1,40,0,0
185796,-100,4,1,1,30,0,0
186685,-100,4,1,1,20,0,0
187574,-100,4,1,1,10,0,0

[Colours]
Combo1 : 49,130,47
Combo2 : 218,218,218
Combo3 : 125,125,125
Combo4 : 242,136,30
Combo5 : 158,88,12

[HitObjects]
452,120,19,5,4,0:0:0:0:
236,320,352,1,4,0:0:0:0:
300,128,685,1,4,0:0:0:0:
224,212,907,2,4,L|168:192,1,37.5
236,320,1241,2,4,L|196:336,1,37.5
396,224,1796,5,4,0:0:0:0:
204,184,2019,1,4,0:0:0:0:
204,184,2130,1,0,0:0:0:0:
204,184,2242,1,4,0:0:0:0:
300,112,2463,1,4,0:0:0:0:
296,232,2685,2,4,L|320:272,1,37.5
196,288,3018,2,4,L|180:328,1,37.5
24,264,3352,1,4,0:0:0:0:
196,288,3574,54,4,L|312:272,1,112.5
188,300,4241,1,4,0:0:0:0:
92,232,4463,2,4,L|144:208,1,37.5
104,64,4796,2,4,L|68:76,1,37.5
228,124,5130,2,4,L|272:112,1,37.5
316,180,5352,6,0,B|328:200|332:232|332:232|368:212|404:224,1,112.5,8|0,0:0|0:0,0:0:0:0:
376,296,5796,2,0,P|312:312|264:296,1,112.5,8|0,0:0|0:0,0:0:0:0:
220,240,6241,2,4,L|264:216,1,37.5
96,176,6574,2,4,L|56:196,1,37.5
352,216,7130,54,4,L|232:200,2,112.5
448,264,8018,2,4,L|440:208,1,37.5
320,328,8352,2,4,L|332:288,1,37.5
96,104,8907,5,0,0:0:0:0:
188,200,9130,1,4,0:0:0:0:
188,200,9241,1,4,0:0:0:0:
188,200,9352,2,4,L|252:208,1,37.5
304,216,9574,1,0,0:0:0:0:
372,112,9796,2,4,L|320:104,1,37.5
460,192,10130,2,4,L|512:200,1,37.5
400,304,10463,1,4,0:0:0:0:
400,304,10685,1,4,0:0:0:0:
256,192,10796,12,0,12241,0:0:0:0:
308,208,12463,21,8,0:0:0:0:
308,208,12537,1,8,0:0:0:0:
308,208,12611,1,8,0:0:0:0:
136,276,12759,1,8,0:0:0:0:
264,284,12907,1,8,0:0:0:0:
176,136,13056,1,8,0:0:0:0:
308,208,13204,1,8,0:0:0:0:
256,96,13352,54,8,L|176:32,2,75.000002861023
308,208,13796,54,0,B|332:216|352:212|352:212|388:196,1,75,8|0,0:0|0:0,0:0:0:0:
368,76,14907,6,0,L|360:136,1,56.2500021457673
392,156,15130,2,0,B|420:224|420:224|416:312|416:312|384:252|356:228|356:228|348:272|348:272|300:244,1,337.500012874604
280,236,15907,1,0,0:0:0:0:
232,224,16018,2,0,L|172:252,1,56.2500021457673
100,344,16241,2,0,L|152:316,1,56.2500021457673
232,224,16463,1,0,0:0:0:0:
376,120,16907,6,0,P|324:124|364:128,1,225.000008583069
508,168,17574,1,4,0:0:0:0:
408,264,17796,22,0,L|356:236,1,56.2500021457673
232,256,18018,2,0,L|176:280,1,56.2500021457673
52,208,18241,2,0,B|80:140|152:168,1,112.500004291535
180,278,18685,6,0,P|192:330|240:314,1,112.500004291535
336,244,19352,2,0,L|320:180,1,56.2500021457673,4|0,0:0|0:0,0:0:0:0:
380,128,19574,22,0,L|436:152,1,56.2500021457673
468,284,19796,2,0,L|408:256,1,56.2500021457673
380,128,20018,2,0,L|444:96,1,56.2500021457673
467,235,20241,2,0,L|416:260,1,56.2500021457673
300,304,20463,54,0,B|260:308|232:280|232:280|204:296|176:284,1,112.500004291535
92,260,20796,2,0,B|160:216|160:216|216:216,1,112.500004291535
292,228,21130,2,0,L|344:208,1,56.2500021457673
428,164,21352,1,0,0:0:0:0:
360,44,21574,6,0,P|336:24|292:16,2,75,2|2|2,0:0|0:0|0:0,0:0:0:0:
428,164,22241,38,0,B|352:180|352:180|352:156|352:156|296:156|296:156|260:172|260:172|224:156,1,225.000008583069
116,104,22907,1,4,0:0:0:0:
88,232,23130,5,0,0:0:0:0:
132,244,23241,1,0,0:0:0:0:
176,256,23352,1,0,0:0:0:0:
220,268,23463,1,0,0:0:0:0:
264,280,23574,1,0,0:0:0:0:
264,280,24018,54,0,L|332:248,1,56.2500021457673
432,200,24241,1,8,0:0:0:0:
284,300,24463,1,8,0:0:0:0:
412,180,24685,2,0,L|344:160,1,56.2500021457673,4|0,0:0|0:0,0:0:0:0:
232,160,24907,6,0,L|108:180,2,112.500004291535,0|8|8,0:0|0:0|0:0,0:0:0:0:
444,100,25574,1,12,0:0:0:0:
400,84,25685,1,0,0:0:0:0:
356,68,25796,2,0,B|320:56|296:24|296:24|232:40|232:40|140:12,1,225.000008583069
72,124,26463,1,4,0:0:0:0:
200,152,26685,6,0,L|232:200,3,56.2500021457673
216,136,27130,1,0,0:0:0:0:
440,328,27574,22,0,L|383:316,3,56.2500021457673
460,308,28018,1,2,0:0:0:0:
496,188,28167,1,2,0:0:0:0:
388,212,28315,1,2,0:0:0:0:
440,328,28463,6,0,B|376:392|280:336,1,150
301,347,29130,6,0,L|360:304,1,56.2500021457673
440,240,29352,2,0,B|392:168|392:168|324:156|324:156|340:200|340:200|264:196|264:196|200:232,1,337.500012874604
188,268,30130,1,0,0:0:0:0:
200,316,30241,2,0,L|256:332,1,56.2500021457673
396,316,30463,2,0,L|340:300,1,56.2500021457673
200,316,30685,1,0,0:0:0:0:
184,128,31130,6,0,P|114:94|173:145,1,225.000008583069
312,60,31796,1,4,0:0:0:0:
448,124,32018,38,0,L|464:188,1,56.2500021457673
512,248,32241,2,0,L|496:312,1,56.2500021457673
408,352,32463,2,0,B|344:352|324:292,1,112.500004291535
312,148,32907,6,0,B|280:128|280:128|240:128|240:128|204:100,1,112.500004291535
112,40,33574,38,0,L|108:104,1,56.2500021457673,4|0,0:0|0:0,0:0:0:0:
24,192,33796,2,0,L|27:135,1,56.2500021457673
140,188,34018,2,0,L|100:236,1,56.2500021457673
48,352,34241,2,0,L|84:308,1,56.2500021457673
200,252,34463,2,0,L|160:300,1,56.2500021457673
176,384,34685,38,0,B|232:392|272:368|272:368|340:388|340:388|396:368,1,225.000008583069
428,340,35241,2,0,L|476:304,2,56.2500021457673
380,320,35574,1,0,0:0:0:0:
400,216,35796,53,2,0:0:0:0:
392,188,35907,1,2,0:0:0:0:
384,160,36018,1,2,0:0:0:0:
372,112,36130,53,2,0:0:0:0:
340,152,36241,1,2,0:0:0:0:
304,188,36352,1,2,0:0:0:0:
264,220,36463,54,0,B|228:204|228:204|212:152|212:152|164:204|164:204|100:180,1,225.000008583069
184,64,37130,1,4,0:0:0:0:
320,120,37352,2,0,L|360:160,1,56.2500021457673
320,220,37574,2,0,L|372:264,1,56.2500021457673
320,316,37796,1,0,0:0:0:0:
144,316,38018,2,0,L|111:253,1,56.2500021457673,4|0,0:0|0:0,0:0:0:0:
88,176,38241,22,12,L|208:108,1,112.500004291535,0|12,0:0|0:0,0:0:0:0:
166,269,38685,1,8,0:0:0:0:
96,72,38907,1,12,0:0:0:0:
240,192,39130,2,0,P|292:204|368:184,2,112.500004291535,0|12|8,0:0|0:0|0:0,0:0:0:0:
244,36,39796,1,12,0:0:0:0:
288,48,39907,1,0,0:0:0:0:
328,32,40018,6,4,B|380:4|380:4|392:40|432:44|432:44|432:148,1,225.000008583069,0|0,0:0|0:0,0:0:0:0:
428,280,40685,1,4,0:0:0:0:
292,304,40907,37,6,0:0:0:0:
244,316,41018,1,6,0:0:0:0:
192,312,41130,1,6,0:0:0:0:
144,292,41241,1,6,0:0:0:0:
116,252,41352,5,6,0:0:0:0:
120,200,41463,1,6,0:0:0:0:
144,156,41574,1,6,0:0:0:0:
188,132,41685,1,6,0:0:0:0:
236,144,41796,5,6,0:0:0:0:
284,136,41907,1,6,0:0:0:0:
316,96,42018,1,6,0:0:0:0:
320,44,42130,1,6,0:0:0:0:
284,12,42241,22,0,L|152:44,1,112.500004291535
256,192,53352,12,0,56463,0:0:0:0:
184,264,56907,6,0,B|164:216|164:216|192:160,1,97.4999955368044
248,220,57241,2,0,L|300:328,1,97.4999955368044
348,256,57574,2,0,L|324:208,1,48.7499977684022
376,156,57796,2,0,L|280:112,1,97.4999955368044
212,84,58130,2,0,P|244:44|292:36,1,97.4999955368044
288,116,58463,2,0,L|292:176,1,48.7499977684022
296,244,58685,54,0,B|248:252|248:252|188:244,1,97.4999955368044
176,172,59018,2,0,L|64:152,1,97.4999955368044
52,228,59352,2,0,L|0:216,1,48.7499977684022
0,140,59574,2,0,B|24:92|24:92|72:72,1,97.4999955368044
140,48,59907,2,0,B|184:68|184:68|244:60,1,97.4999955368044
288,4,60241,2,0,L|340:24,1,48.7499977684022
384,80,60463,6,0,P|432:112|400:160,1,97.4999955368044
360,188,60796,2,0,P|328:224|360:272,1,97.4999955368044
372,340,61130,2,0,L|316:352,1,48.7499977684022
260,304,61352,2,0,P|204:296|136:320,1,97.4999955368044
112,244,61685,2,0,B|152:224|152:224|212:220,1,97.4999955368044
280,232,62018,53,0,0:0:0:0:
316,208,62130,1,0,0:0:0:0:
324,164,62241,2,0,P|296:104|360:40,2,146.249993305207
408,284,63130,2,0,P|340:260|296:276,1,97.4999955368044
240,312,63464,2,0,P|205:269|208:221,1,97.4999955368044
220,152,63797,2,0,L|268:132,1,48.7499977684022
340,156,64018,6,0,P|388:132|372:76,1,97.4999955368044
332,48,64352,2,0,L|220:68,1,97.4999955368044
184,132,64685,2,0,L|128:148,1,48.7499977684022
60,176,64907,2,0,B|40:224|40:224|68:264,1,97.4999955368044
148,240,65241,2,0,P|196:216|256:224,1,97.4999955368044
312,264,65574,2,0,L|352:232,1,48.7499977684022
432,228,65796,54,0,B|448:276|448:276|440:340,1,97.4999955368044
364,352,66130,2,0,B|312:344|312:344|248:352,1,97.4999955368044
200,316,66463,2,0,L|148:304,1,48.7499977684022
76,320,66685,2,0,B|68:264|128:220,1,97.4999955368044
184,224,67018,2,0,P|232:236|280:224,1,97.4999955368044
344,192,67352,2,0,L|316:152,1,48.7499977684022
244,136,67574,6,0,P|200:116|144:140,1,97.4999955368044
84,92,67907,2,0,P|124:56|184:40,1,97.4999955368044
244,40,68241,2,0,L|288:60,1,48.7499977684022
364,88,68463,2,0,L|300:188,1,97.4999955368044
240,156,68796,2,0,L|172:252,1,97.4999955368044
228,296,69130,53,0,0:0:0:0:
280,316,69241,1,0,0:0:0:0:
328,296,69352,2,0,B|396:284|396:284|408:272|408:272|480:256,2,146.249993305207
240,184,70241,21,2,0:0:0:0:
224,156,70352,1,2,0:0:0:0:
208,128,70463,2,2,L|192:104,4,26.2499991989136
144,192,70796,2,0,L|76:192,2,52.4999983978272
240,184,71130,38,0,B|280:168|320:188|320:188|352:180,1,112.500004291535
476,152,71574,1,0,0:0:0:0:
404,264,71796,2,0,L|404:324,1,56.2500021457673,4|0,0:0|0:0,0:0:0:0:
324,344,72018,2,0,B|268:336|268:336|244:320|244:320|196:324,1,112.500004291535
172,248,72352,2,0,L|284:232,1,112.500004291535
324,160,72685,2,0,P|296:152|260:152,1,56.2500021457673
216,136,72907,5,0,0:0:0:0:
176,104,73018,1,0,0:0:0:0:
168,52,73130,1,0,0:0:0:0:
204,16,73241,1,0,0:0:0:0:
256,20,73352,5,0,0:0:0:0:
292,52,73463,1,0,0:0:0:0:
340,64,73574,1,0,0:0:0:0:
392,60,73685,1,0,0:0:0:0:
440,44,73796,6,0,B|468:40|484:24|484:24|528:76|476:144,1,168.750006437302
436,156,74241,1,0,0:0:0:0:
412,200,74352,1,0,0:0:0:0:
388,244,74463,1,0,0:0:0:0:
364,288,74574,1,0,0:0:0:0:
340,332,74685,22,0,B|284:324|284:324|270:302|248:300|248:300|160:288,2,168.750006437302
396,196,75574,2,0,P|405:144|320:68,2,168.750006437302
248,208,76463,5,0,0:0:0:0:
200,196,76574,1,0,0:0:0:0:
152,208,76685,1,0,0:0:0:0:
116,244,76796,1,0,0:0:0:0:
120,296,76907,53,0,0:0:0:0:
148,340,77018,1,0,0:0:0:0:
196,360,77130,1,0,0:0:0:0:
248,352,77241,1,0,0:0:0:0:
288,324,77352,5,0,0:0:0:0:
304,276,77463,1,0,0:0:0:0:
288,228,77574,1,0,0:0:0:0:
304,180,77685,1,0,0:0:0:0:
344,148,77796,2,0,L|396:244,2,56.2500021457673
304,36,78241,6,0,B|276:44|260:52|260:52|204:28|128:52,2,168.750006437302
384,120,79130,2,0,P|336:180|256:224,2,168.750006437302
484,100,80018,6,0,L|504:152,1,56.2500021457673
452,232,80241,2,0,L|436:300,1,56.2500021457673
368,348,80463,2,0,L|308:332,1,56.2500021457673
220,288,80685,2,0,L|160:308,1,56.2500021457673
60,272,80907,54,0,L|96:220,1,56.2500021457673
120,132,81130,2,0,L|176:108,1,56.2500021457673
252,168,81352,2,0,L|296:132,1,56.2500021457673
292,40,81574,2,0,L|356:32,1,56.2500021457673
440,72,81796,21,0,0:0:0:0:
440,72,81907,1,0,0:0:0:0:
440,72,82018,2,0,B|472:64|488:52|488:52|504:120|480:168|480:168|448:156|404:168,1,225.000008583069
368,220,82574,5,0,0:0:0:0:
284,216,82685,2,0,L|224:180,3,56.2500021457673
144,196,83130,2,0,L|76:240,3,56.2500021457673
84,112,83574,54,0,B|128:128|172:112|172:112|176:104|176:104|224:84|268:104|268:104|272:112|272:112|312:112|312:112|352:100|392:116|392:116|396:148|428:164,1,375
444,252,84907,2,0,B|380:252|380:252|292:204,1,131.666253691662,8|0,0:0|0:0,0:0:0:0:
200,144,85352,6,0,P|224:96|304:88,1,112.500004291535,0|4,0:0|0:0,0:0:0:0:
404,124,85685,1,0,0:0:0:0:
320,219,85796,2,0,L|196:267,1,112.500004291535,0|4,0:0|0:0,0:0:0:0:
60,316,86241,5,0,0:0:0:0:
28,276,86352,1,0,0:0:0:0:
16,228,86463,1,4,0:0:0:0:
28,180,86574,1,0,0:0:0:0:
64,144,86685,2,0,B|96:116|96:116|124:116|124:116|160:92,1,112.500004291535,0|4,0:0|0:0,0:0:0:0:
288,48,87130,54,0,P|344:32|408:56,1,112.500004291535,0|4,0:0|0:0,0:0:0:0:
404,192,87463,1,0,0:0:0:0:
268,236,87574,2,0,L|156:220,1,112.500004291535,0|4,0:0|0:0,0:0:0:0:
76,112,88019,22,0,L|156:96,1,56.2500021457673,2|0,0:0|0:0,0:0:0:0:
280,68,88242,2,0,L|200:84,1,56.2500021457673,4|0,0:0|0:0,0:0:0:0:
64,80,88464,1,2,0:0:0:0:
280,68,88686,1,4,0:0:0:0:
356,224,88907,38,0,B|380:276|380:276|336:336,1,112.500004291535,0|4,0:0|0:0,0:0:0:0:
236,228,89241,1,0,0:0:0:0:
240,100,89352,2,0,L|332:32,1,112.500004291535,0|4,0:0|0:0,0:0:0:0:
344,200,89796,5,0,0:0:0:0:
308,232,89907,1,0,0:0:0:0:
272,264,90018,1,4,0:0:0:0:
232,296,90130,1,0,0:0:0:0:
192,264,90241,2,0,B|192:228|192:228|260:168,1,112.500004291535,0|4,0:0|0:0,0:0:0:0:
396,48,90685,54,0,P|446:70|463:132,1,112.500004291535,0|4,0:0|0:0,0:0:0:0:
348,184,91018,1,0,0:0:0:0:
256,92,91130,2,0,L|140:68,1,112.500004291535,0|4,0:0|0:0,0:0:0:0:
80,248,91574,22,0,L|152:252,1,56.2500021457673,6|0,0:0|0:0,0:0:0:0:
232,180,91796,2,0,L|304:184,1,56.2500021457673,4|0,0:0|0:0,0:0:0:0:
380,112,92019,2,0,P|436:137|412:205,1,112.500004291535,2|4,0:0|0:0,0:0:0:0:
224,296,92463,38,0,B|176:264|176:264|155:205,1,112.500004291535,0|4,0:0|0:0,0:0:0:0:
292,208,92796,1,0,0:0:0:0:
380,112,92907,2,0,P|380:56|308:52,1,112.500004291535,0|4,0:0|0:0,0:0:0:0:
140,28,93352,5,0,0:0:0:0:
92,44,93463,1,0,0:0:0:0:
44,60,93574,1,4,0:0:0:0:
36,108,93685,1,0,0:0:0:0:
32,160,93796,2,0,B|56:200|56:200|88:220|144:196,1,112.500004291535,0|4,0:0|0:0,0:0:0:0:
304,204,94241,54,0,L|248:308,1,112.500004291535,0|4,0:0|0:0,0:0:0:0:
376,272,94574,1,0,0:0:0:0:
440,160,94685,2,0,L|500:52,1,112.500004291535,0|4,0:0|0:0,0:0:0:0:
304,36,95130,5,2,0:0:0:0:
252,32,95241,1,0,0:0:0:0:
200,40,95352,1,4,0:0:0:0:
152,60,95463,1,0,0:0:0:0:
124,100,95574,2,0,B|108:176|108:176|152:172,1,112.500004291535,2|4,0:0|0:0,0:0:0:0:
320,168,96018,54,0,P|380:180|424:232,1,112.500004291535,0|4,0:0|0:0,0:0:0:0:
432,328,96352,2,0,P|364:320|324:280,1,112.500004291535,0|4,0:0|0:0,0:0:0:0:
200,216,96685,2,0,P|164:212|140:220,1,56.2500021457673,0|4,0:0|0:0,0:0:0:0:
226,313,96907,6,0,P|294:313|346:277,1,112.500004291535,0|4,0:0|0:0,0:0:0:0:
428,200,97241,2,0,P|392:156|320:148,1,112.500004291535,0|4,0:0|0:0,0:0:0:0:
204,184,97574,2,0,P|180:168|172:136,1,56.2500021457673,0|4,0:0|0:0,0:0:0:0:
196,28,97796,54,0,P|260:16|312:32,1,112.500004291535,0|4,0:0|0:0,0:0:0:0:
416,88,98130,2,0,B|440:104|440:104|364:168,1,112.500004291535,0|4,0:0|0:0,0:0:0:0:
249,155,98463,2,0,B|218:165|218:165|201:187,1,56.2500021457673,0|4,0:0|0:0,0:0:0:0:
292,272,98686,22,2,B|354:325|354:325|396:336|440:328,2,168.750006437302
292,272,99574,38,0,L|216:204,2,56.2500021457673,0|0|4,0:0|0:0|0:0,0:0:0:0:
356,152,99907,2,0,L|412:144,2,56.2500021457673,0|0|4,0:0|0:0|0:0,0:0:0:0:
228,108,100241,2,0,L|168:120,1,56.2500021457673,0|4,0:0|0:0,0:0:0:0:
32,144,100463,22,0,B|-8:192|24:248,1,112.500004291535,8|4,0:0|0:0,0:0:0:0:
92,304,100796,2,0,B|132:256|100:200,1,112.500004291535,8|4,0:0|0:0,0:0:0:0:
192,212,101130,2,4,L|252:220,1,56.2500021457673
228,108,101352,54,0,L|196:60,2,56.2500021457673,0|0|4,0:0|0:0|0:0,0:0:0:0:
348,144,101685,2,0,L|316:96,2,56.2500021457673,0|0|4,0:0|0:0|0:0,0:0:0:0:
388,240,102018,2,0,L|424:284,1,56.2500021457673,0|4,0:0|0:0,0:0:0:0:
448,328,102241,53,0,0:0:0:0:
404,348,102352,1,0,0:0:0:0:
352,348,102463,1,4,0:0:0:0:
304,336,102574,1,0,0:0:0:0:
268,300,102685,2,0,L|208:312,2,56.2500021457673,0|0|4,0:0|0:0|0:0,0:0:0:0:
268,300,103130,6,0,L|224:264,2,56.2500021457673,0|0|4,0:0|0:0|0:0,0:0:0:0:
272,172,103463,2,0,L|220:132,2,56.2500021457673,0|0|4,0:0|0:0|0:0,0:0:0:0:
160,56,103796,2,0,L|104:64,1,56.2500021457673,0|4,0:0|0:0,0:0:0:0:
16,148,104018,6,0,B|8:188|28:228|28:228|64:216,1,112.500004291535,8|4,0:0|0:0,0:0:0:0:
156,212,104352,2,4,B|184:202|184:202|204:242|196:282,1,112.500004291535,8|4,0:0|0:0,0:0:0:0:
124,352,104685,2,4,L|72:324,1,56.2500021457673,4|0,0:0|0:0,0:0:0:0:
16,244,104907,38,0,L|0:176,2,56.2500021457673,0|0|4,0:0|0:0|0:0,0:0:0:0:
156,212,105241,2,0,L|184:164,2,56.2500021457673,0|0|4,0:0|0:0|0:0,0:0:0:0:
288,264,105574,2,0,L|352:248,1,56.2500021457673,0|4,0:0|0:0,0:0:0:0:
464,224,105797,6,0,L|448:156,1,56.2500021457673,2|4,0:0|0:0,0:0:0:0:
416,64,106019,2,0,L|356:76,1,56.2500021457673,0|4,0:0|0:0,0:0:0:0:
240,56,106242,2,0,P|172:53|120:72,1,112.500004291535,2|4,0:0|0:0,0:0:0:0:
52,148,106685,54,0,L|68:208,2,56.2500021457673,0|0|4,0:0|0:0|0:0,0:0:0:0:
176,240,107018,2,0,L|156:292,2,56.2500021457673,0|0|4,0:0|0:0|0:0,0:0:0:0:
296,220,107352,2,0,L|360:240,1,56.2500021457673,0|4,0:0|0:0,0:0:0:0:
460,260,107574,22,0,B|492:268|492:268|512:180,1,112.500004291535,8|4,0:0|0:0,0:0:0:0:
472,92,107907,2,0,B|440:84|440:84|420:172,1,112.500004291535,8|4,0:0|0:0,0:0:0:0:
440,272,108241,2,0,L|384:300,1,56.2500021457673,4|4,0:0|0:0,0:0:0:0:
284,240,108463,54,0,L|220:232,2,56.2500021457673,0|0|4,0:0|0:0|0:0,0:0:0:0:
152,144,108796,2,0,L|96:172,2,56.2500021457673,0|0|4,0:0|0:0|0:0,0:0:0:0:
236,56,109130,2,0,L|284:88,1,56.2500021457673,0|4,0:0|0:0,0:0:0:0:
336,108,109352,53,2,0:0:0:0:
392,112,109463,1,0,0:0:0:0:
440,100,109574,1,4,0:0:0:0:
472,60,109685,1,0,0:0:0:0:
500,16,109796,2,0,L|508:136,1,112.500004291535,2|4,0:0|0:0,0:0:0:0:
388,240,110241,6,0,B|344:260|296:244|296:244|300:216,1,112.500004291535,0|4,0:0|0:0,0:0:0:0:
272,112,110574,2,0,P|220:96|160:116,1,112.500004291535,0|4,0:0|0:0,0:0:0:0:
72,164,110907,2,0,L|56:220,1,56.2500021457673,0|4,0:0|0:0,0:0:0:0:
84,316,111130,6,0,B|76:344|76:344|116:368|160:360,1,112.500004291535,8|4,0:0|0:0,0:0:0:0:
284,336,111463,2,0,B|292:308|292:308|252:284|208:292,1,112.500004291535,8|4,0:0|0:0,0:0:0:0:
108,288,111796,2,0,L|91:234,1,56.2500021457673,4|4,0:0|0:0,0:0:0:0:
160,136,112018,38,0,P|208:132|240:184,1,112.500004291535,0|4,0:0|0:0,0:0:0:0:
256,216,112352,1,0,0:0:0:0:
272,252,112463,2,4,L|326:238,1,56.2500021457673
408,148,112685,2,4,L|472:164,1,56.2500021457673
480,192,112907,21,2,0:0:0:0:
488,208,113241,1,2,0:0:0:0:
496,224,113574,1,2,0:0:0:0:
456,332,113796,54,8,L|336:312,1,112.5,8|0,0:0|0:0,0:0:0:0:
416,104,114463,1,4,0:0:0:0:
296,52,114685,2,0,P|236:52|208:100,2,112.5,8|0|4,0:0|0:0|0:0,0:0:0:0:
416,104,115574,54,0,L|360:216,1,112.5,8|0,0:0|0:0,0:0:0:0:
252,332,116241,2,4,L|212:308,1,37.5,4|0,0:0|0:0,0:0:0:0:
144,256,116463,2,0,B|104:216|132:176|132:176|108:144,2,112.5,8|0|4,0:0|0:0|0:0,0:0:0:0:
252,332,117352,6,0,L|316:216,1,112.5,8|0,0:0|0:0,0:0:0:0:
376,84,118018,1,4,0:0:0:0:
360,72,118130,1,4,0:0:0:0:
344,64,118241,2,0,P|288:44|232:72,2,112.5,8|0|4,0:0|0:0|0:0,0:0:0:0:
428,152,119130,54,0,B|404:188|352:180|352:180|368:152,1,112.5,8|0,0:0|0:0,0:0:0:0:
365,157,119796,1,6,0:0:0:0:
343,195,119907,1,2,0:0:0:0:
319,231,120018,2,2,L|279:247,2,37.5
440,184,120463,2,2,P|465:220|454:260,1,75,2|6,0:0|0:0,0:0:0:0:
456,344,120907,6,0,B|388:368|336:344|328:320|328:320|280:284|228:308|228:308|188:312,1,269.999991760254,8|4,0:0|0:0,0:0:0:0:
160,284,121685,1,4,0:0:0:0:
120,248,121796,2,0,B|100:224|100:224|136:176|88:124,2,134.999995880127,8|0|0,0:0|0:0|0:0,0:0:0:0:
208,308,122685,2,8,B|244:232|292:212|292:212|304:160|304:160|348:140|348:140|360:120|360:104,1,269.999991760254,8|4,0:0|0:0,0:0:0:0:
324,64,123463,1,4,0:0:0:0:
272,48,123574,2,0,P|208:36|140:56,2,134.999995880127,8|0|4,0:0|0:0|0:0,0:0:0:0:
404,104,124463,54,0,B|398:158|398:158|444:212|393:282,1,179.999994506836,8|4,0:0|0:0,0:0:0:0:
240,332,125130,1,4,0:0:0:0:
232,284,125241,1,4,0:0:0:0:
224,236,125352,2,0,B|200:184|152:188|152:188|112:168,2,134.999995880127,8|0|4,0:0|0:0|0:0,0:0:0:0:
272,264,126130,1,4,0:0:0:0:
308,228,126241,22,0,L|356:148,1,75.000002861023,8|0,0:0|0:0,0:0:0:0:
392,88,126685,53,8,0:0:0:0:
424,176,126833,1,8,0:0:0:0:
400,80,126981,21,8,0:0:0:0:
296,96,127129,1,8,0:0:0:0:
408,72,127278,37,8,0:0:0:0:
420,196,127426,1,8,0:0:0:0:
420,60,127574,2,0,P|396:28|344:16,1,75.000002861023,8|0,0:0|0:0,0:0:0:0:
244,32,128018,54,0,L|180:52,1,56.2500021457673
72,84,128463,2,0,P|60:136|96:172,1,84.3750032186509
92,172,128907,22,0,B|120:196|120:196|188:208|188:208|224:268|224:268|312:280|312:280|356:340,1,337.500012874604
408,336,129685,1,0,0:0:0:0:
448,304,129796,2,0,L|456:244,1,56.2500021457673
376,160,130018,2,0,L|368:228,1,56.2500021457673
448,304,130241,1,0,0:0:0:0:
456,112,130685,6,0,P|376:32|324:108,1,225.000008583069
316,244,131352,1,4,0:0:0:0:
216,120,131574,38,0,L|156:104,1,56.2500021457673
64,84,131796,2,0,L|4:100,1,56.2500021457673
4,200,132018,2,0,B|0:268|68:284,1,112.500004291535
196,284,132463,54,0,B|220:173,1,112.500004291535
172,64,133130,22,0,L|134:22,1,56.2500021457673,4|0,0:0|0:0,0:0:0:0:
256,36,133352,2,0,L|296:80,1,56.2500021457673
252,160,133574,2,0,L|236:236,1,56.2500021457673
328,268,133796,2,0,L|364:328,1,56.2500021457673
480,340,134018,2,0,L|452:292,1,56.2500021457673
400,196,134241,38,0,B|436:112|404:40|404:40|352:8|320:44|320:44|332:68|332:68|316:88|316:88|336:120,1,337.500012874604,0|4,0:0|0:0,0:0:0:0:
332,248,135130,1,0,0:0:0:0:
200,252,135352,2,0,B|140:252|140:252|112:252|92:216,2,112.500004291535
332,248,136018,6,0,B|280:168|280:168|260:192|260:192|220:156|220:156|204:104,1,225.000008583069
328,20,136685,1,4,0:0:0:0:
206,113,136907,5,0,0:0:0:0:
164,144,137018,1,0,0:0:0:0:
124,176,137130,1,0,0:0:0:0:
88,208,137241,1,0,0:0:0:0:
52,240,137352,1,0,0:0:0:0:
228,288,137796,38,0,L|312:304,1,56.2500021457673
356,248,138018,1,8,0:0:0:0:
272,48,138241,1,8,0:0:0:0:
208,180,138463,1,12,0:0:0:0:
132,72,138685,38,0,P|80:36|20:44,2,112.500004291535,0|12|8,0:0|0:0|0:0,0:0:0:0:
208,180,139352,1,12,0:0:0:0:
256,196,139463,1,0,0:0:0:0:
304,200,139574,38,0,B|340:204|356:180|356:180|396:192|396:192|412:140|412:140|448:124|460:80,1,225.000008583069
344,16,140241,1,4,0:0:0:0:
240,88,140463,1,0,0:0:0:0:
224,136,140574,1,0,0:0:0:0:
208,184,140685,1,0,0:0:0:0:
192,232,140796,1,0,0:0:0:0:
176,280,140907,1,0,0:0:0:0:
324,332,141352,53,0,0:0:0:0:
340,284,141463,1,0,0:0:0:0:
353,248,141574,1,0,0:0:0:0:
368,212,141685,1,0,0:0:0:0:
380,176,141796,21,2,0:0:0:0:
436,84,141944,1,2,0:0:0:0:
484,180,142093,1,2,0:0:0:0:
380,176,142241,6,0,B|380:144|380:144|356:120|356:88|356:88|332:60,1,127.50000243187
176,56,142907,2,0,L|112:48,1,56.2500021457673
88,88,143130,54,0,B|40:136|40:136|48:192|48:192|104:156|156:164|156:164|124:216|124:216|132:264,1,337.500012874604
172,284,143907,1,0,0:0:0:0:
224,288,144018,2,0,L|288:260,1,56.2500021457673
408,244,144241,2,0,L|352:268,1,56.2500021457673
224,288,144463,1,0,0:0:0:0:
336,156,144907,38,0,B|380:80|330:15|330:15|296:24|296:24|248:12,1,225.000008583069
136,112,145574,1,4,0:0:0:0:
248,216,145796,37,0,0:0:0:0:
296,236,145907,1,0,0:0:0:0:
348,244,146018,1,0,0:0:0:0:
396,232,146130,1,0,0:0:0:0:
440,216,146241,2,0,P|472:188|468:100,1,112.500004291535
400,28,146685,22,0,B|356:20|356:20|304:48|304:48|248:36,1,150
136,48,147352,6,0,L|80:4,1,56.2500021457673,4|0,0:0|0:0,0:0:0:0:
64,104,147574,2,0,L|8:148,1,56.2500021457673
124,168,147796,2,0,L|168:224,1,56.2500021457673
116,344,148018,2,0,L|76:292,1,56.2500021457673
156,224,148241,2,0,L|200:280,1,56.2500021457673
108,360,148463,54,0,B|174:384|224:352|224:352|280:380|280:380|336:360|336:360|382:368|408:336|384:288,1,337.500012874604
328,184,149352,1,0,0:0:0:0:
246,276,149574,38,2,L|190:268,2,56.2500021457673
104,184,149907,2,2,L|152:156,2,56.2500021457673
160,76,150241,54,0,B|192:76|216:104|216:104|236:48|292:48|292:48|328:96,1,225.000008583069
400,220,150907,1,4,0:0:0:0:
240,192,151130,37,0,0:0:0:0:
188,184,151241,1,0,0:0:0:0:
136,192,151352,1,4,0:0:0:0:
92,216,151463,1,0,0:0:0:0:
64,260,151574,5,0,0:0:0:0:
108,284,151685,1,0,0:0:0:0:
156,304,151796,1,4,0:0:0:0:
204,324,151907,1,0,0:0:0:0:
252,344,152018,54,0,B|284:316|332:360|364:324,2,112.500004291535,0|8|8,0:0|0:0|0:0,0:0:0:0:
216,256,152685,1,4,0:0:0:0:
368,200,152907,6,8,P|393:144|361:96,2,112.500004291535,0|8|8,0:0|0:0|0:0,0:0:0:0:
216,256,153574,1,12,0:0:0:0:
168,240,153685,1,0,0:0:0:0:
124,216,153796,54,0,B|132:148|132:148|164:136|164:136|168:104|168:104|188:76|236:76|264:104,1,225.000008583069
368,200,154463,1,4,0:0:0:0:
216,256,154685,5,6,0:0:0:0:
168,240,154796,1,6,0:0:0:0:
120,224,154907,1,6,0:0:0:0:
72,208,155018,1,6,0:0:0:0:
96,176,155130,5,6,0:0:0:0:
116,184,155241,1,6,0:0:0:0:
136,192,155352,1,6,0:0:0:0:
156,200,155463,1,6,0:0:0:0:
204,180,155574,5,6,0:0:0:0:
248,156,155685,1,6,0:0:0:0:
288,128,155796,1,6,0:0:0:0:
332,100,155907,1,6,0:0:0:0:
372,72,156018,22,0,P|412:140|376:192,1,150
264,328,156796,1,0,0:0:0:0:
376,191,157130,1,0,0:0:0:0:
264,232,157352,2,0,L|192:164,2,75
152,372,158241,5,0,0:0:0:0:
264,232,158574,1,0,0:0:0:0:
184,88,158907,1,0,0:0:0:0:
288,112,159130,2,0,L|331:185,1,75
325,191,159463,1,0,0:0:0:0:
424,48,159796,1,0,0:0:0:0:
324,48,160018,53,0,0:0:0:0:
424,192,160352,1,0,0:0:0:0:
320,64,160685,1,0,0:0:0:0:
288,164,160907,2,0,L|204:140,2,75
312,296,161685,5,0,0:0:0:0:
300,304,161796,2,0,L|220:280,1,75
156,344,162130,2,0,L|227:365,1,75
240,376,162463,1,0,0:0:0:0:
356,348,162685,2,0,B|420:348|420:348|452:348|468:312,2,112.5
292,248,163574,54,0,L|168:224,2,112.5
368,176,164463,1,0,0:0:0:0:
260,144,164685,1,0,0:0:0:0:
288,244,164907,1,0,0:0:0:0:
104,256,165352,6,0,L|82:145,2,112.5
200,300,166241,2,0,L|300:272,1,75
300,256,166574,1,0,0:0:0:0:
488,252,166908,1,0,0:0:0:0:
444,168,167130,53,0,0:0:0:0:
256,160,167463,1,0,0:0:0:0:
436,180,167796,1,0,0:0:0:0:
360,104,168018,2,0,P|336:72|336:28,2,75
404,236,168796,5,0,0:0:0:0:
388,248,168907,2,0,L|308:224,1,75
224,284,169241,2,0,L|304:308,1,75
308,324,169574,1,0,0:0:0:0:
404,236,169796,2,0,P|428:184|404:112,2,112.5
316,256,170685,53,0,0:0:0:0:
320,168,171018,1,0,0:0:0:0:
240,208,171352,1,0,0:0:0:0:
316,256,171574,2,0,L|284:292,2,37.5
304,232,172463,5,0,0:0:0:0:
308,144,172796,1,0,0:0:0:0:
228,184,173130,1,0,0:0:0:0:
308,144,173685,1,0,0:0:0:0:
136,64,174018,1,0,0:0:0:0:
136,64,174241,53,0,0:0:0:0:
148,156,174574,1,0,0:0:0:0:
60,120,174907,1,0,0:0:0:0:
148,156,175130,2,0,L|112:192,2,37.5
152,88,176018,5,0,0:0:0:0:
164,180,176351,1,0,0:0:0:0:
76,144,176684,1,0,0:0:0:0:
76,144,177241,1,0,0:0:0:0:
100,288,177574,1,0,0:0:0:0:
100,288,177796,53,0,0:0:0:0:
208,248,178130,1,0,0:0:0:0:
324,288,178463,1,0,0:0:0:0:
260,344,178685,2,0,L|223:358,2,37.5
124,268,179574,5,0,0:0:0:0:
232,228,179908,1,0,0:0:0:0:
348,268,180241,1,0,0:0:0:0:
280,328,180463,2,0,L|243:342,1,37.5
228,332,180796,1,0,0:0:0:0:
272,196,181130,1,0,0:0:0:0:
344,120,181352,53,0,0:0:0:0:
264,48,181685,1,0,0:0:0:0:
272,196,182018,1,0,0:0:0:0:
256,280,182241,2,0,L|256:320,2,37.5
168,120,183130,5,0,0:0:0:0:
248,48,183463,1,0,0:0:0:0:
240,196,183796,1,0,0:0:0:0:
256,192,184018,12,0,187575,0:0:0:0:
