osu file format v14

[General]
AudioFilename: SO SUS + KONKA _ ACORN_244096741_soundcloud.mp3
AudioLeadIn: 0
PreviewTime: 14907
Countdown: 0
SampleSet: Normal
StackLeniency: 0.4
Mode: 0
LetterboxInBreaks: 0
WidescreenStoryboard: 0

[Editor]
Bookmarks: 23123,26678,71123,83567,85345,108456,113789,126234,128011,140456,171345
DistanceSpacing: 1.3
BeatDivisor: 4
GridSize: 4
TimelineZoom: 2.899998

[Metadata]
Title:ACORN
TitleUnicode:ACORN
Artist:SO SUS + KONKA
ArtistUnicode:SO SUS + KONKA
Creator:squirrelpascals
Version:HARD
Source:
Tags:trap experimental door hinge
BeatmapID:920772
BeatmapSetID:413701

[Difficulty]
HPDrainRate:5
CircleSize:3.8
OverallDifficulty:6
ApproachRate:7.5
SliderMultiplier:1.2
SliderTickRate:1

[Events]
//Background and Video events
0,0,"acorn1366x768.png",0,0
//Break Periods
2,42885,52527
//Storyboard Layer 0 (Background)
//Storyboard Layer 1 (Fail)
//Storyboard Layer 2 (Pass)
//Storyboard Layer 3 (Foreground)
//Storyboard Sound Samples

[TimingPoints]
19,444.444444444444,4,1,1,100,1,0
14907,-66.6666666666667,4,1,1,100,0,0
15130,-66.6666666666667,4,1,1,100,0,1
18685,-100,4,1,1,100,0,0
19574,-66.6666666666667,4,1,1,100,0,1
21352,-100,4,1,1,100,0,0
22241,-66.6666666666667,4,1,1,100,0,1
27574,-66.6666666666667,4,1,1,100,0,0
29352,-66.6666666666667,4,1,1,100,0,1
32907,-100,4,1,1,100,0,0
33574,-66.6666666666667,4,1,1,100,0,0
33796,-66.6666666666667,4,1,1,100,0,1
35574,-66.6666666666667,4,1,1,100,0,0
56907,-100,4,1,1,100,0,0
70241,-66.6666666666667,4,1,1,50,0,0
71130,-66.6666666666667,4,1,1,100,0,0
72130,-66.6666666666667,4,1,1,51,0,0
72463,-66.6666666666667,4,1,1,100,0,0
85352,-66.6666666666667,4,1,1,100,0,1
98685,-66.6666666666667,4,1,1,100,0,0
99574,-66.6666666666667,4,1,1,100,0,1
112907,-100,4,1,1,100,0,0
128907,-66.6666666666667,4,1,1,100,0,1
132463,-100,4,1,1,100,0,0
133352,-66.6666666666667,4,1,1,100,0,1
135130,-66.6666666666667,4,1,1,100,0,0
136018,-66.6666666666667,4,1,1,100,0,1
141352,-66.6666666666667,4,1,1,100,0,0
143130,-66.6666666666667,4,1,1,100,0,1
146685,-100,4,1,1,100,0,0
147574,-66.6666666666667,4,1,1,100,0,1
149352,-66.6666666666667,4,1,1,100,0,0
157352,-100,4,1,1,50,0,0
184907,-100,4,1,1,40,0,0
185796,-100,4,1,1,30,0,0
186685,-100,4,1,1,20,0,0
187574,-100,4,1,1,10,0,0

[Colours]
Combo1 : 49,130,47
Combo2 : 218,218,218
Combo3 : 125,125,125
Combo4 : 242,136,30
Combo5 : 158,88,12

[HitObjects]
312,252,19,6,4,P|368:224|384:184,2,90,4|4|4,0:0|0:0|0:0,0:0:0:0:
224,256,907,2,4,L|212:208,1,30,4|4,0:0|0:0,0:0:0:0:
200,152,1241,1,4,0:0:0:0:
200,152,1352,1,4,0:0:0:0:
352,108,1796,6,4,P|368:80|376:40,2,60,4|4|4,0:0|0:0|0:0,0:0:0:0:
224,196,2685,2,4,L|244:152,1,30,4|4,0:0|0:0,0:0:0:0:
300,216,3018,2,4,L|280:260,1,30,4|4,0:0|0:0,0:0:0:0:
360,276,3352,1,4,0:0:0:0:
296,320,3574,54,4,P|248:332|192:312,2,90,4|4|4,0:0|0:0|0:0,0:0:0:0:
360,276,4463,2,4,L|372:232,1,30,4|4,0:0|0:0,0:0:0:0:
320,188,4796,2,4,L|332:144,1,30,4|4,0:0|0:0,0:0:0:0:
276,100,5130,1,4,0:0:0:0:
224,160,5352,6,8,B|156:152|104:200,2,120,8|8|4,0:0|0:0|0:0,0:0:0:0:
224,160,6352,1,4,0:0:0:0:
276,100,6574,2,4,L|288:56,1,30,4|4,0:0|0:0,0:0:0:0:
228,16,6907,1,4,0:0:0:0:
168,68,7130,54,4,L|68:76,2,90,4|4|4,0:0|0:0|0:0,0:0:0:0:
228,16,8018,2,4,L|264:20,1,30,4|4,0:0|0:0,0:0:0:0:
316,72,8352,2,4,L|352:76,1,30,4|4,0:0|0:0,0:0:0:0:
468,172,8907,6,4,P|484:192|492:224,2,60
396,144,9574,1,4,0:0:0:0:
328,184,9796,2,4,L|332:220,1,30
256,240,10130,2,4,L|252:276,1,30
208,332,10463,53,4,0:0:0:0:
284,340,10685,1,4,0:0:0:0:
256,192,10796,12,0,12018,0:0:0:0:
292,216,12463,38,8,L|240:168,2,40,8|8|8,0:0|0:0|0:0,0:0:0:0:
212,288,12907,2,8,L|160:308,2,40,8|8|8,0:0|0:0|0:0,0:0:0:0:
316,316,13352,2,8,L|336:376,2,40,8|8|8,0:0|0:0|0:0,0:0:0:0:
292,216,13796,38,8,B|320:184|320:184|360:180|400:200,1,120,8|0,0:0|0:0,0:0:0:0:
332,72,14907,54,0,L|268:60,1,45.0000017166138,0|0,0:0|0:0,0:0:0:0:
240,100,15130,2,0,B|156:132|80:92|80:92|48:164|112:200,1,270.000010299683,0|0,0:0|0:0,0:0:0:0:
128,236,15907,2,0,L|96:272,2,45.0000017166138,0|0|0,0:0|0:0|0:0,0:0:0:0:
184,260,16241,1,0,0:0:0:0:
300,260,16463,1,0,0:0:0:0:
460,88,16907,22,0,B|476:60|504:48|504:48|460:0|380:28,1,180.000006866455,0|0,0:0|0:0,0:0:0:0:
284,64,17574,1,4,0:0:0:0:
256,176,17796,6,0,L|296:216,3,45.0000017166138,0|0|0|0,0:0|0:0|0:0|0:0,0:0:0:0:
330,241,18241,2,0,P|370:221|382:173,1,90.0000034332277,0|0,0:0|0:0,0:0:0:0:
384,60,18685,38,0,B|436:32|436:32|500:32,1,120
504,144,19352,1,4,0:0:0:0:
464,252,19574,6,0,B|369:269,1,90.0000034332277,0|0,0:0|0:0,0:0:0:0:
316,276,19907,1,0,0:0:0:0:
316,276,20018,2,0,L|271:268,3,45.0000017166138,0|0|0|0,0:0|0:0|0:0|0:0,0:0:0:0:
216,252,20463,2,0,B|152:216|168:120,2,135.000005149841
316,276,21352,38,2,L|316:316,2,30,2|2|2,0:0|0:0|0:0,0:0:0:0:
380,172,21796,1,2,0:0:0:0:
320,68,22018,1,2,0:0:0:0:
236,152,22241,6,0,B|204:176|204:176|160:176|160:176|112:148|60:180,1,180.000006866455,0|0,0:0|0:0,0:0:0:0:
72,292,22907,1,4,0:0:0:0:
188,316,23130,2,0,L|236:296,1,45.0000017166138,0|0,0:0|0:0,0:0:0:0:
284,320,23352,2,0,L|325:337,1,45.0000017166138,0|0,0:0|0:0,0:0:0:0:
376,308,23574,1,0,0:0:0:0:
384,76,24018,6,0,P|352:64|332:64,1,45.0000017166138
284,64,24241,2,0,L|176:80,2,90.0000034332277,12|8|12,0:0|0:0|0:0,0:0:0:0:
336,168,24907,53,0,0:0:0:0:
368,280,25130,1,12,0:0:0:0:
480,248,25352,1,8,0:0:0:0:
452,144,25574,1,12,0:0:0:0:
452,144,25685,1,0,0:0:0:0:
452,144,25796,22,0,B|484:84|448:40|448:40|408:40|368:64,1,180.000006866455
336,168,26463,1,4,0:0:0:0:
368,280,26685,38,0,L|316:296,3,45.0000017166138
268,304,27130,1,0,0:0:0:0:
240,72,27574,54,0,L|199:92,3,45.0000017166138,0|0|0|0,0:0|0:0|0:0|0:0,0:0:0:0:
140,92,28018,2,2,L|140:16,2,60.0000022888184,2|2|2,0:0|0:0|0:0,0:0:0:0:
72,132,28463,22,0,P|32:172|64:284,1,180.000006866455,0|0,0:0|0:0,0:0:0:0:
176,268,29130,6,0,P|196:256|224:252,1,45.0000017166138,0|0,0:0|0:0,0:0:0:0:
276,256,29352,2,0,B|308:196|308:196|332:212|364:208|364:208|396:140|396:140|424:164|460:160,1,270.000010299683,0|0,0:0|0:0,0:0:0:0:
468,104,30130,2,0,L|512:100,2,45.0000017166138,0|0|0,0:0|0:0|0:0,0:0:0:0:
444,52,30463,1,0,0:0:0:0:
328,36,30685,1,0,0:0:0:0:
92,40,31130,38,0,B|64:48|48:68|48:68|60:120|60:120|44:156|60:200,1,180.000006866455
168,156,31796,1,4,0:0:0:0:
280,184,32018,6,0,L|336:160,3,45.0000017166138,0|0|0|0,0:0|0:0|0:0|0:0,0:0:0:0:
376,144,32463,2,0,B|436:152|436:220,1,90.0000034332277,0|0,0:0|0:0,0:0:0:0:
348,284,32907,38,0,B|304:300|304:300|268:292|268:292|224:292,1,120
124,248,33574,1,4,0:0:0:0:
40,168,33796,22,0,P|33:117|51:75,1,90.0000034332277
92,44,34130,1,0,0:0:0:0:
92,44,34241,2,0,L|141:29,3,45.0000017166138,0|0|0|0,0:0|0:0|0:0|0:0,0:0:0:0:
192,24,34685,2,0,B|228:4|260:24|264:60|264:60|264:128|264:128|296:88|336:87|336:87|380:88,1,270.000010299683,0|0,0:0|0:0,0:0:0:0:
472,88,35574,5,0,0:0:0:0:
432,196,35796,2,2,L|464:252,2,45.0000017166138,2|2|2,0:0|0:0|0:0,0:0:0:0:
376,208,36129,2,2,L|360:256,2,45.0000017166138,2|2|2,0:0|0:0|0:0,0:0:0:0:
327,175,36463,54,0,B|276:184|276:184|248:216|248:216|200:212|155:179,1,180.000006866455,0|0,0:0|0:0,0:0:0:0:
76,116,37130,1,4,0:0:0:0:
16,216,37352,2,0,L|16:264,1,45.0000017166138
68,292,37574,2,0,L|68:340,1,45.0000017166138
120,368,37796,1,0,0:0:0:0:
236,344,38018,5,0,0:0:0:0:
236,344,38130,1,0,0:0:0:0:
236,344,38241,2,0,L|332:348,1,90.0000034332277,0|8,0:0|0:0,0:0:0:0:
444,352,38685,1,8,0:0:0:0:
384,252,38907,1,12,0:0:0:0:
444,152,39130,38,0,P|460:108|448:60,2,90.0000034332277,0|8|8,0:0|0:0|0:0,0:0:0:0:
384,252,39796,1,12,0:0:0:0:
384,252,39907,1,0,0:0:0:0:
384,252,40018,2,0,B|300:256|288:188|288:188|232:164,1,180.000006866455
128,132,40685,1,4,0:0:0:0:
116,16,40907,6,6,L|168:32,3,45.0000017166138
216,40,41352,2,6,L|264:28,1,45.0000017166138
316,36,41574,2,6,L|372:48,1,45.0000017166138
416,68,41796,2,6,L|400:120,3,45.0000017166138
376,164,42241,38,0,P|367:220|464:224,1,180.000006866455
256,192,53352,12,0,56463,0:0:0:0:
200,88,56907,6,0,L|304:72,1,90,0|0,0:0|0:0,0:0:0:0:
404,56,57574,1,0,0:0:0:0:
416,132,57796,2,0,L|320:148,1,90
212,164,58463,1,0,0:0:0:0:
168,228,58685,54,0,L|224:324,2,90
104,184,59574,2,0,P|96:144|120:96,2,90
168,228,60463,6,0,B|200:216|200:216|220:216|220:216|276:196,1,90
368,172,61130,1,0,0:0:0:0:
444,148,61352,2,0,P|420:110|379:93,1,90
264,80,62018,1,0,0:0:0:0:
264,80,62130,1,0,0:0:0:0:
264,80,62241,54,0,L|196:68,1,60
168,84,62574,2,0,L|96:104,1,60
72,92,62907,1,0,0:0:0:0:
24,156,63130,2,0,P|16:208|40:244,2,90
72,92,64018,6,0,B|104:80|104:80|124:80|124:80|164:68,1,90
276,56,64685,1,0,0:0:0:0:
240,124,64907,2,0,P|224:180|244:216,1,90
320,292,65574,1,0,0:0:0:0:
244,296,65796,54,0,P|196:304|144:280,1,90
100,188,66463,1,0,0:0:0:0:
96,112,66685,2,0,B|48:104|12:60,2,90
160,68,67574,6,0,P|208:60|260:72,1,90
364,76,68241,1,0,0:0:0:0:
412,136,68463,2,0,P|364:152|312:132,1,90
208,148,69130,1,0,0:0:0:0:
208,148,69241,1,0,0:0:0:0:
208,148,69352,2,0,L|108:164,2,90
316,104,70241,6,2,L|364:96,3,45.0000017166138
412,124,70685,2,2,L|420:172,3,45.0000017166138
388,216,71130,6,0,P|320:232|288:228,1,90.0000034332277
208,160,71574,1,0,0:0:0:0:
136,252,71796,1,4,0:0:0:0:
48,176,72018,2,0,L|0:176,2,45.0000017166138
104,72,72463,2,0,P|136:40|188:32,1,90.0000034332277
240,128,72907,22,0,L|340:120,1,90.0000034332277
440,84,73352,2,0,P|448:127|434:169,1,90.0000034332277
460,284,73796,2,0,L|500:316,2,45.0000017166138
344,264,74241,2,0,P|303:281|258:276,1,90.0000034332277
144,260,74685,38,0,P|92:240|56:168,2,135.000005149841
216,168,75574,2,0,P|238:106|215:44,2,135.000005149841
258,276,76463,22,0,L|276:320,2,45.0000017166138
144,260,76907,2,0,L|112:304,2,45.0000017166138
216,168,77352,2,0,P|304:144|388:172,1,180.000006866455
476,248,78018,1,0,0:0:0:0:
364,288,78241,6,0,P|292:308|220:280,2,135.000005149841
476,252,79130,2,0,P|492:300|468:384,2,135.000005149841
416,152,80018,6,0,L|452:120,3,45.0000017166138
408,80,80463,2,0,L|368:56,3,45.0000017166138
316,84,80907,2,0,L|260:112,3,45.0000017166138
220,84,81352,2,0,L|172:64,3,45.0000017166138
148,116,81796,22,0,P|128:140|112:148,1,45.0000017166138
60,156,82018,2,0,B|28:164|40:200|40:200|16:244|52:284,1,135.000005149841
104,280,82463,5,0,0:0:0:0:
104,280,82574,1,0,0:0:0:0:
104,280,82685,2,0,L|168:256,3,45.0000017166138
200,244,83130,2,0,L|264:220,3,45.0000017166138
296,244,83574,54,0,B|336:264|372:244|372:204|372:204|372:140|372:140|372:100|420:68|472:108|472:108|452:136|452:136|472:160|472:160|452:184|452:184|472:208|472:208|448:236,1,450.000017166138
396,320,84907,2,0,P|348:336|296:336,1,90.0000034332277,8|0,0:0|0:0,0:0:0:0:
200,300,85352,6,0,P|144:292|80:248,2,135.000005149841,0|4|0,0:0|0:0|0:0,0:0:0:0:
288,220,86241,2,0,L|272:176,2,45.0000017166138
324,220,86574,1,0,0:0:0:0:
356,208,86685,2,0,B|408:192|408:192|444:144,1,90.0000034332277,4|0,0:0|0:0,0:0:0:0:
412,48,87130,6,0,P|340:28|272:44,2,135.000005149841,0|4|0,0:0|0:0|0:0,0:0:0:0:
429,163,88018,2,0,L|481:143,2,45.0000017166138,2|0|0,0:0|0:0|0:0,0:0:0:0:
409,191,88352,1,0,0:0:0:0:
385,211,88463,2,0,B|369:231|329:235|297:223,1,90.0000034332277,6|0,0:0|0:0,0:0:0:0:
184,208,88907,54,0,B|148:192|112:200|112:200|80:176|80:144,2,135.000005149841,0|4|0,0:0|0:0|0:0,0:0:0:0:
300,224,89796,2,0,L|352:188,3,45.0000017166138
384,164,90241,2,0,P|396:100|376:72,1,90.0000034332277,4|0,0:0|0:0,0:0:0:0:
272,60,90685,6,0,B|209:32|209:32|113:64,2,135.000005149841,0|4|0,0:0|0:0|0:0,0:0:0:0:
300,176,91574,1,2,0:0:0:0:
300,176,91685,1,0,0:0:0:0:
224,264,91907,2,0,P|188:208|192:132,1,135.000005149841,6|0,0:0|0:0,0:0:0:0:
272,60,92463,54,0,B|198:26|198:26|127:28,2,135.000005149841,0|4|0,0:0|0:0|0:0,0:0:0:0:
364,168,93352,2,0,L|352:216,1,45.0000017166138,0|0,0:0|0:0,0:0:0:0:
368,244,93574,2,0,L|356:292,1,45.0000017166138,0|0,0:0|0:0,0:0:0:0:
324,300,93796,2,0,L|224:284,1,90.0000034332277,4|0,0:0|0:0,0:0:0:0:
132,232,94241,6,0,B|95:155|95:155|100:87,2,135.000005149841,0|4|0,0:0|0:0|0:0,0:0:0:0:
243,201,95130,2,0,L|255:249,1,45.0000017166138,2|0,0:0|0:0,0:0:0:0:
235,285,95352,2,0,L|247:333,1,45.0000017166138,0|0,0:0|0:0,0:0:0:0:
271,361,95574,2,0,L|363:325,1,90.0000034332277,6|0,0:0|0:0,0:0:0:0:
416,228,96018,6,0,P|476:176|488:112,2,135.000005149841,0|4|0,0:0|0:0|0:0,0:0:0:0:
316,168,96907,2,0,P|263:127|243:64,2,135.000005149841,0|4|0,0:0|0:0|0:0,0:0:0:0:
424,124,97796,2,0,P|456:168|412:228,1,135.000005149841,0|4,0:0|0:0,0:0:0:0:
256,296,98463,1,4,0:0:0:0:
256,296,98685,37,2,0:0:0:0:
92,228,99018,1,2,0:0:0:0:
232,124,99352,1,2,0:0:0:0:
232,124,99574,6,0,B|324:116|324:116|368:88,2,135.000005149841
116,132,100463,1,8,0:0:0:0:
136,308,100796,1,12,0:0:0:0:
308,248,101130,1,0,0:0:0:0:
308,248,101352,54,0,P|347:246|436:288,2,135.000005149841,0|4|0,0:0|0:0|0:0,0:0:0:0:
192,180,102241,2,0,L|144:160,3,45.0000017166138,2|0|0|0,0:0|0:0|0:0|0:0,0:0:0:0:
136,108,102685,2,0,P|148:60|200:36,1,90.0000034332277,6|0,0:0|0:0,0:0:0:0:
296,40,103130,6,0,B|364:56|364:56|404:120,2,135.000005149841,0|4|0,0:0|0:0|0:0,0:0:0:0:
179,38,104018,1,8,0:0:0:0:
304,160,104352,1,12,0:0:0:0:
156,252,104685,1,0,0:0:0:0:
156,252,104907,6,0,P|88:232|36:152,2,135.000005149841,0|4|0,0:0|0:0|0:0,0:0:0:0:
260,304,105796,1,2,0:0:0:0:
260,304,105907,1,0,0:0:0:0:
372,272,106130,2,0,P|428:248|408:168,1,135.000005149841,6|0,0:0|0:0,0:0:0:0:
316,136,106685,38,0,P|272:104|256:28,2,135.000005149841,0|4|0,0:0|0:0|0:0,0:0:0:0:
424,182,107574,1,8,0:0:0:0:
480,348,107907,1,12,0:0:0:0:
308,316,108241,1,0,0:0:0:0:
308,316,108463,6,0,B|236:344|160:308,2,135.000005149841,0|4|0,0:0|0:0|0:0,0:0:0:0:
400,244,109352,2,0,L|452:232,3,45.0000017166138,2|0|0|0,0:0|0:0|0:0|0:0,0:0:0:0:
456,176,109796,2,0,P|424:140|356:128,1,90.0000034332277,6|0,0:0|0:0,0:0:0:0:
268,136,110241,6,0,P|232:188|228:272,2,135.000005149841,0|4|0,0:0|0:0|0:0,0:0:0:0:
356,60,111130,1,8,0:0:0:0:
508,144,111463,1,12,0:0:0:0:
360,236,111796,1,0,0:0:0:0:
360,236,112018,38,0,P|300:212|232:248,1,135.000005149841,0|4,0:0|0:0,0:0:0:0:
80,316,112685,1,0,0:0:0:0:
80,316,112907,1,2,0:0:0:0:
196,328,113241,1,2,0:0:0:0:
312,336,113574,1,2,0:0:0:0:
312,336,113796,22,0,P|352:308|364:248,1,90,8|0,0:0|0:0,0:0:0:0:
304,172,114463,1,4,0:0:0:0:
304,172,114685,2,0,B|264:172|264:172|251:182|251:182|196:184,1,90,8|0,0:0|0:0,0:0:0:0:
112,232,115352,1,4,0:0:0:0:
112,232,115574,2,0,L|120:332,2,90,8|0|4,0:0|0:0|0:0,0:0:0:0:
52,184,116463,2,0,P|36:132|68:88,1,90,8|0,0:0|0:0,0:0:0:0:
164,80,117130,1,4,0:0:0:0:
164,80,117352,6,0,L|260:92,1,90,8|0,0:0|0:0,0:0:0:0:
368,64,118018,1,4,0:0:0:0:
368,64,118241,2,0,P|416:48|468:76,2,90,8|0|4,0:0|0:0|0:0,0:0:0:0:
324,132,119130,38,0,P|299:170|296:232,1,90,8|0,0:0|0:0,0:0:0:0:
304,332,119796,1,2,0:0:0:0:
228,356,120018,2,2,L|192:352,2,30
244,280,120463,2,2,L|168:268,1,60
108,280,120907,54,8,B|96:240|112:200|112:200|84:176|84:176|92:112,1,180,8|4,0:0|0:0,0:0:0:0:
84,76,121685,1,4,0:0:0:0:
112,48,121796,2,0,L|252:68,1,120,8|0,0:0|0:0,0:0:0:0:
384,88,122685,2,0,L|364:228,1,120,8|0,0:0|0:0,0:0:0:0:
320,268,123352,1,4,0:0:0:0:
320,268,123463,1,4,0:0:0:0:
320,268,123574,2,0,P|246:251|209:208,1,120,8|0,0:0|0:0,0:0:0:0:
232,64,124463,6,0,P|276:25|335:16,1,120,8|0,0:0|0:0,0:0:0:0:
392,72,125130,1,4,0:0:0:0:
392,72,125241,1,4,0:0:0:0:
392,72,125352,2,0,L|356:216,1,120,8|0,0:0|0:0,0:0:0:0:
308,252,126018,1,4,0:0:0:0:
308,252,126130,1,4,0:0:0:0:
308,252,126241,22,0,L|264:208,2,40,0|0|8,0:0|0:0|0:0,0:0:0:0:
408,264,126685,2,8,L|436:228,2,40,8|8|8,0:0|0:0|0:0,0:0:0:0:
424,352,127130,2,8,L|468:364,2,40,8|8|8,0:0|0:0|0:0,0:0:0:0:
336,344,127574,2,0,P|276:324|248:264,1,120,8|0,0:0|0:0,0:0:0:0:
316,208,128241,54,0,L|328:280,1,60,0|0,0:0|0:0,0:0:0:0:
428,168,128907,38,0,B|456:128|428:96|428:96|460:60|460:60|392:16|312:72,1,270.000010299683,0|0,0:0|0:0,0:0:0:0:
268,76,129685,2,0,L|236:40,2,45.0000017166138
240,128,130018,1,0,0:0:0:0:
324,208,130241,1,0,0:0:0:0:
92,224,130685,22,0,P|40:212|56:100,1,180.000006866455
156,64,131352,1,4,0:0:0:0:
268,76,131574,6,0,L|284:128,1,45.0000017166138,0|0,0:0|0:0,0:0:0:0:
328,152,131796,2,0,L|344:204,1,45.0000017166138
316,248,132018,2,0,P|280:272|228:280,1,90.0000034332277
108,272,132463,38,0,P|60:236|92:176,1,120
164,104,133130,1,4,0:0:0:0:
280,80,133352,22,0,L|380:72,1,90.0000034332277
420,100,133685,1,0,0:0:0:0:
420,100,133796,2,0,L|468:128,3,45.0000017166138,0|0|0|0,0:0|0:0|0:0|0:0,0:0:0:0:
452,180,134241,2,0,B|404:232|336:224|336:224|320:192|320:192|260:176|216:212,1,270.000010299683
144,300,135130,37,0,0:0:0:0:
104,192,135352,2,2,P|76:152|56:100,2,90.0000034332277
220,208,136018,54,0,B|268:236|268:236|332:216|332:216|388:244,1,180.000006866455
440,140,136685,1,4,0:0:0:0:
344,72,136907,2,0,L|284:56,1,45.0000017166138,0|0,0:0|0:0,0:0:0:0:
248,84,137130,2,0,L|188:68,1,45.0000017166138
164,28,137352,1,0,0:0:0:0:
80,248,137796,38,0,L|123:259,1,45.0000017166138
180,268,138018,1,8,0:0:0:0:
296,280,138241,1,8,0:0:0:0:
312,164,138463,1,12,0:0:0:0:
196,148,138685,2,0,P|172:108|104:80,2,90.0000034332277,0|12|8,0:0|0:0|0:0,0:0:0:0:
180,268,139352,37,12,0:0:0:0:
180,268,139463,1,0,0:0:0:0:
180,268,139574,2,0,B|172:316|172:316|236:296|304:328,1,180.000006866455
412,356,140241,1,4,0:0:0:0:
384,244,140463,6,0,L|402:192,3,45.0000017166138
421,147,140907,1,0,0:0:0:0:
196,84,141352,6,0,L|180:126,3,45.0000017166138
232,152,141796,2,2,L|308:176,2,60.0000022888184
196,224,142241,38,0,B|156:260|156:260|88:268|36:200,1,180.000006866455
72,96,142907,54,0,P|88:72|116:56,1,45.0000017166138
160,64,143130,2,0,B|208:28|272:44|272:44|284:72|284:72|348:100|408:56,1,270.000010299683
460,56,143907,2,0,L|484:8,2,45.0000017166138
496,100,144241,1,0,0:0:0:0:
488,216,144463,1,0,0:0:0:0:
292,344,144907,22,0,P|220:368|108:332,1,180.000006866455
32,264,145574,1,4,0:0:0:0:
104,168,145796,6,0,L|152:128,1,45.0000017166138
168,88,146018,2,0,L|216:48,1,45.0000017166138
260,60,146241,2,0,B|304:68|336:104,1,90.0000034332277
448,164,146685,38,0,P|465:216|428:264,1,120
308,300,147352,1,4,0:0:0:0:
192,284,147574,6,0,P|144:268|112:228,1,90.0000034332277
124,180,147907,1,0,0:0:0:0:
124,180,148018,2,0,L|156:136,3,45.0000017166138
164,88,148463,2,0,B|156:44|112:32|112:32|48:36,2,135.000005149841
268,140,149352,5,0,0:0:0:0:
368,76,149574,2,2,L|396:28,2,45.0000017166138
416,112,149907,2,2,L|468:100,2,45.0000017166138
376,156,150241,38,0,B|344:188|344:188|300:172|256:188|256:188|220:152,1,180.000006866455
156,60,150907,1,4,0:0:0:0:
80,148,151130,2,0,L|96:192,1,45.0000017166138,0|0,0:0|0:0,0:0:0:0:
148,220,151352,2,0,L|164:264,1,45.0000017166138,4|0,0:0|0:0,0:0:0:0:
136,316,151574,1,0,0:0:0:0:
248,344,151796,5,4,0:0:0:0:
248,344,151907,1,0,0:0:0:0:
248,344,152018,2,0,P|296:344|348:320,1,90.0000034332277,0|4,0:0|0:0,0:0:0:0:
424,252,152463,1,0,0:0:0:0:
316,208,152685,1,4,0:0:0:0:
404,132,152907,6,8,P|428:96|432:48,2,90.0000034332277,0|12|8,0:0|0:0|0:0,0:0:0:0:
316,208,153574,1,12,0:0:0:0:
316,208,153685,1,0,0:0:0:0:
316,208,153796,2,0,B|236:164|236:260|148:208,1,180.000006866455
48,144,154463,1,4,0:0:0:0:
152,92,154685,54,6,L|200:76,3,45.0000017166138
252,92,155130,2,6,L|294:106,1,45.0000017166138
352,96,155352,2,6,L|394:81,1,45.0000017166138
448,100,155574,2,6,L|490:114,3,45.0000017166138
500,172,156018,38,0,P|476:256|388:236,1,180.000006866455
294,106,156796,1,0,0:0:0:0:
124,156,157130,1,0,0:0:0:0:
128,160,157352,2,0,L|128:224,2,60,0|0|0,0:0|0:0|0:0,0:0:0:0:
48,24,158241,5,0,0:0:0:0:
20,136,158574,1,0,0:0:0:0:
72,240,158907,1,0,0:0:0:0:
72,240,159130,2,0,B|72:340,1,90,0|0,0:0|0:0,0:0:0:0:
188,332,159796,1,0,0:0:0:0:
188,332,160018,53,0,0:0:0:0:
256,236,160352,1,0,0:0:0:0:
372,240,160685,1,0,0:0:0:0:
372,240,160907,2,0,B|408:240|408:240|444:232,2,60,0|0|0,0:0|0:0|0:0,0:0:0:0:
256,236,161685,1,0,0:0:0:0:
256,236,161796,6,0,P|208:208|188:160,2,90,0|0|0,0:0|0:0|0:0,0:0:0:0:
268,160,162685,2,0,L|364:160,1,90
460,220,163352,1,0,0:0:0:0:
460,220,163574,53,0,0:0:0:0:
372,296,163907,1,0,0:0:0:0:
256,316,164241,1,0,0:0:0:0:
256,316,164463,2,0,L|184:328,2,60,0|0|0,0:0|0:0|0:0,0:0:0:0:
348,188,165352,6,0,B|360:144|360:144|344:96,2,90
280,148,166241,2,0,L|184:136,1,90
72,132,166907,1,0,0:0:0:0:
72,132,167130,53,0,0:0:0:0:
56,248,167463,1,0,0:0:0:0:
172,260,167796,1,0,0:0:0:0:
172,260,168018,2,0,L|172:320,2,60
196,144,168796,1,0,0:0:0:0:
196,144,168907,6,0,P|236:132|284:130,2,90
116,140,169796,2,0,B|80:240,2,90
140,64,170685,53,0,0:0:0:0:
148,68,171018,1,0,0:0:0:0:
156,72,171352,1,0,0:0:0:0:
164,76,171574,2,0,P|180:52|208:32,2,60,0|0|0,0:0|0:0|0:0,0:0:0:0:
136,192,172463,5,0,0:0:0:0:
128,196,172796,1,0,0:0:0:0:
120,200,173130,1,0,0:0:0:0:
44,240,173685,2,0,B|44:272|44:272|84:320,1,90,0|0,0:0|0:0,0:0:0:0:
88,316,174241,53,0,0:0:0:0:
96,316,174574,1,0,0:0:0:0:
104,316,174907,1,0,0:0:0:0:
112,316,175130,2,0,L|172:316,2,60,0|0|0,0:0|0:0|0:0,0:0:0:0:
157,233,176018,5,0,0:0:0:0:
164,228,176352,1,0,0:0:0:0:
170,222,176685,1,0,0:0:0:0:
232,288,177241,2,0,L|304:220,1,90,0|0,0:0|0:0,0:0:0:0:
304,220,177796,53,0,0:0:0:0:
312,216,178130,1,0,0:0:0:0:
320,212,178463,1,0,0:0:0:0:
326,209,178685,2,0,B|346:233|346:233|358:269,2,60,0|0|0,0:0|0:0|0:0,0:0:0:0:
296,120,179574,5,0,0:0:0:0:
300,112,179907,1,0,0:0:0:0:
304,104,180241,1,0,0:0:0:0:
384,40,180796,2,0,L|408:128,1,90,0|0,0:0|0:0,0:0:0:0:
408,132,181352,53,0,0:0:0:0:
408,140,181685,1,0,0:0:0:0:
408,148,182018,1,0,0:0:0:0:
407,155,182241,2,0,L|407:219,2,60,0|0|0,0:0|0:0|0:0,0:0:0:0:
276,216,183130,6,0,B|264:260|264:260|276:288|304:308,1,90,0|0,0:0|0:0,0:0:0:0:
360,348,183796,1,0,0:0:0:0:
256,192,184018,12,0,187574,0:0:0:0:
