osu file format v14

[General]
AudioFilename: SO SUS + KONKA _ ACORN_244096741_soundcloud.mp3
AudioLeadIn: 0
PreviewTime: 14907
Countdown: 0
SampleSet: Normal
StackLeniency: 0.4
Mode: 0
LetterboxInBreaks: 0
WidescreenStoryboard: 0

[Editor]
Bookmarks: 23123,26678,71123,83567,85345,108456,113789,126234,128011,140456
DistanceSpacing: 1.3
BeatDivisor: 4
GridSize: 4
TimelineZoom: 1.799999

[Metadata]
Title:ACORN
TitleUnicode:ACORN
Artist:SO SUS + KONKA
ArtistUnicode:SO SUS + KONKA
Creator:squirrelpascals
Version:EXTRA
Source:
Tags:trap experimental door hinge
BeatmapID:925768
BeatmapSetID:413701

[Difficulty]
HPDrainRate:6
CircleSize:3.5
OverallDifficulty:8.7
ApproachRate:9.4
SliderMultiplier:1.6
SliderTickRate:1

[Events]
//Background and Video events
0,0,"acorn1366x768.png",0,0
//Break Periods
2,42885,52812
//Storyboard Layer 0 (Background)
//Storyboard Layer 1 (Fail)
//Storyboard Layer 2 (Pass)
//Storyboard Layer 3 (Foreground)
//Storyboard Sound Samples

[TimingPoints]
19,444.444444444444,4,1,1,100,1,0
8907,-76.9230769230769,4,1,1,100,0,0
13796,-200,4,1,1,100,0,0
14907,-57.1428571428571,4,1,1,100,0,0
15130,-57.1428571428571,4,1,1,100,0,1
18685,-200,4,1,1,100,0,0
19352,-57.1428571428571,4,1,1,100,0,0
19574,-57.1428571428571,4,1,1,100,0,1
21352,-57.1428571428571,4,1,1,100,0,0
22241,-57.1428571428571,4,1,1,100,0,1
27574,-100,4,1,1,100,0,0
29130,-57.1428571428571,4,1,1,100,0,0
29352,-57.1428571428571,4,1,1,100,0,1
32907,-200,4,1,1,100,0,0
33574,-57.1428571428571,4,1,1,100,0,0
33796,-57.1428571428571,4,1,1,100,0,1
35574,-57.1428571428571,4,1,1,100,0,0
36463,-66.6666666666667,4,1,1,100,0,0
39130,-50,4,1,1,100,0,0
40018,-66.6666666666667,4,1,1,100,0,0
42241,-133.333333333333,4,1,1,100,0,0
56907,-66.6666666666667,4,1,1,100,0,0
70241,-66.6666666666667,4,1,1,50,0,0
71130,-66.6666666666667,4,1,1,100,0,0
78185,-66.6666666666667,4,1,1,30,0,0
78241,-66.6666666666667,4,1,1,100,0,0
83574,-76.9230769230769,4,1,1,100,0,0
84907,-50,4,1,1,100,0,0
85352,-50,4,1,1,100,0,1
98685,-50,4,1,1,100,0,0
99574,-50,4,1,1,100,0,1
112907,-100,4,1,1,100,0,0
118241,-133.333333333333,4,1,1,100,0,0
118574,-113.636363636364,4,1,1,100,0,0
118907,-100,4,1,1,100,0,0
120907,-76.9230769230769,4,1,1,100,0,0
126241,-133.333333333333,4,1,1,100,0,0
128018,-50,4,1,1,100,0,0
128241,-57.1428571428571,4,1,1,100,0,0
128463,-200,4,1,1,100,0,0
128907,-57.1428571428571,4,1,1,100,0,1
132463,-200,4,1,1,100,0,0
133130,-57.1428571428571,4,1,1,100,0,0
133352,-57.1428571428571,4,1,1,100,0,1
135130,-57.1428571428571,4,1,1,100,0,0
136018,-57.1428571428571,4,1,1,100,0,1
141352,-100,4,1,1,100,0,0
142241,-100,4,1,1,100,0,0
142907,-57.1428571428571,4,1,1,100,0,0
143130,-55.5555555555556,4,1,1,100,0,1
146685,-200,4,1,1,100,0,0
147352,-57.1428571428571,4,1,1,100,0,0
147574,-57.1428571428571,4,1,1,100,0,1
149352,-100,4,1,1,100,0,0
150241,-57.1428571428571,4,1,1,100,0,0
156018,-133.333333333333,4,1,1,100,0,0
156463,-133.333333333333,4,1,1,50,0,0
157352,-200,4,1,1,50,0,0
184907,-200,4,1,1,40,0,0
185796,-200,4,1,1,30,0,0
186685,-200,4,1,1,20,0,0
187574,-200,4,1,1,10,0,0

[Colours]
Combo1 : 49,130,47
Combo2 : 218,218,218
Combo3 : 125,125,125
Combo4 : 242,136,30
Combo5 : 158,88,12

[HitObjects]
260,256,19,6,4,B|300:232|300:232|304:200|304:200|352:168,2,120,4|0|0,0:0|0:0|0:0,0:0:0:0:
148,276,907,1,4,0:0:0:0:
148,276,1018,1,4,0:0:0:0:
292,352,1241,1,4,0:0:0:0:
292,352,1352,1,4,0:0:0:0:
338,177,1796,6,4,B|352:152|352:152|352:128|352:128|372:80,2,80,4|0|4,0:0|0:0|0:0,0:0:0:0:
440,144,2463,1,4,0:0:0:0:
308,256,2685,1,4,0:0:0:0:
308,256,2796,1,4,0:0:0:0:
152,272,3018,1,4,0:0:0:0:
152,272,3130,1,4,0:0:0:0:
368,340,3352,1,0,0:0:0:0:
224,212,3574,54,4,P|200:156|236:88,2,120,4|0|4,0:0|0:0|0:0,0:0:0:0:
340,184,4463,1,4,0:0:0:0:
340,184,4574,1,4,0:0:0:0:
440,136,4796,1,4,0:0:0:0:
440,136,4907,1,4,0:0:0:0:
420,232,5130,37,0,0:0:0:0:
440,136,5241,1,0,0:0:0:0:
368,68,5352,2,0,B|324:48|284:62|284:62|244:40,1,120,8|0,0:0|0:0,0:0:0:0:
200,112,5796,2,0,L|312:180,1,120,8|0,0:0|0:0,0:0:0:0:
392,152,6241,38,4,L|448:184,1,40
444,312,6574,2,4,L|388:280,1,40
224,176,6907,1,0,0:0:0:0:
192,348,7130,54,4,L|44:324,2,120,4|0|4,0:0|0:0|0:0,0:0:0:0:
288,320,8018,1,4,0:0:0:0:
288,320,8130,1,4,0:0:0:0:
384,288,8352,1,4,0:0:0:0:
384,288,8463,2,0,L|471:304,1,80
400,120,8907,38,4,L|332:64,1,51.999997619629
248,200,9130,2,4,L|296:244,1,51.999997619629
428,208,9352,2,4,L|408:132,1,51.999997619629
224,120,9574,2,4,L|244:196,1,51.999997619629
359,86,9796,54,4,L|304:60,1,51.999997619629
224,120,10018,2,4,L|152:136,1,51.999997619629
44,92,10241,2,4,L|64:152,1,51.999997619629
116,240,10463,2,4,L|92:300,1,51.999997619629
208,348,10685,53,0,0:0:0:0:
256,192,10796,12,0,12241,0:0:0:0:
324,236,12463,21,8,0:0:0:0:
324,236,12537,1,8,0:0:0:0:
324,236,12611,1,8,0:0:0:0:
292,100,12741,1,8,0:0:0:0:
216,220,12907,1,8,0:0:0:0:
176,40,13056,1,8,0:0:0:0:
16,160,13204,37,8,0:0:0:0:
140,132,13352,1,8,0:0:0:0:
52,256,13500,1,8,0:0:0:0:
216,220,13649,1,8,0:0:0:0:
192,332,13796,2,0,B|228:356|228:356|272:352,1,80,8|0,0:0|0:0,0:0:0:0:
332,76,14907,54,0,L|412:52,1,70.000000667572
232,96,15130,2,0,B|192:84|216:32|216:32|152:48|152:48|92:40|92:40|24:100|24:100|104:112|104:112|76:164,1,420.000004005432
56,256,15907,1,0,0:0:0:0:
232,96,16018,1,0,0:0:0:0:
128,288,16129,1,0,0:0:0:0:
268,164,16240,1,0,0:0:0:0:
198,319,16352,1,0,0:0:0:0:
308,232,16463,1,0,0:0:0:0:
128,288,16907,22,0,P|56:312|96:180,1,280.000002670288
416,240,17574,1,4,0:0:0:0:
280,304,17796,53,0,0:0:0:0:
204,256,17907,1,0,0:0:0:0:
124,212,18018,1,0,0:0:0:0:
44,168,18130,1,0,0:0:0:0:
120,120,18241,2,0,B|160:116|160:116|256:168,1,140.000001335144
416,240,18685,22,0,L|444:164,1,80
424,60,19352,22,0,L|332:84,1,70.000000667572,4|0,0:0|0:0,0:0:0:0:
240,124,19574,2,0,L|160:92,1,70.000000667572
60,56,19796,1,0,0:0:0:0:
24,168,19907,1,0,0:0:0:0:
80,272,20018,1,0,0:0:0:0:
136,172,20129,1,0,0:0:0:0:
192,276,20241,1,0,0:0:0:0:
144,384,20352,1,0,0:0:0:0:
264,376,20463,6,0,B|336:372|360:324|360:324|408:312|408:312|460:328,2,210.000002002716
192,276,21352,22,0,L|260:244,1,70.000000667572,4|0,0:0|0:0,0:0:0:0:
352,212,21574,1,2,0:0:0:0:
232,376,21796,1,2,0:0:0:0:
232,56,22018,2,0,B|200:48|200:48|164:56,1,70.000000667572,2|0,0:0|0:0,0:0:0:0:
54,109,22241,22,0,B|94:213|94:213|130:181|130:181|146:245|146:245|194:277,1,280.000002670288
360,352,22907,1,4,0:0:0:0:
376,168,23130,21,0,0:0:0:0:
328,84,23241,1,0,0:0:0:0:
244,128,23352,1,0,0:0:0:0:
196,44,23463,1,0,0:0:0:0:
112,88,23574,1,0,0:0:0:0:
185,278,24018,6,0,L|264:252,1,70.000000667572
400,212,24241,1,12,0:0:0:0:
248,360,24463,1,8,0:0:0:0:
116,132,24685,1,12,0:0:0:0:
256,224,24907,38,0,L|335:198,1,70.000000667572
440,288,25130,2,0,L|414:367,1,70.000000667572,12|0,0:0|0:0,0:0:0:0:
248,360,25352,2,0,L|169:334,1,70.000000667572,8|0,0:0|0:0,0:0:0:0:
80,216,25574,1,12,0:0:0:0:
116,132,25685,1,0,0:0:0:0:
152,48,25796,54,0,B|180:24|180:24|224:36|224:36|276:24|276:24|276:44|276:44|316:48|352:28|352:28|376:72,1,280.000002670288
468,224,26463,1,4,0:0:0:0:
316,328,26685,5,0,0:0:0:0:
232,364,26796,1,0,0:0:0:0:
244,272,26907,1,0,0:0:0:0:
316,328,27018,1,0,0:0:0:0:
232,364,27130,1,0,0:0:0:0:
71,200,27574,5,0,0:0:0:0:
160,224,27685,1,0,0:0:0:0:
137,135,27796,1,0,0:0:0:0:
71,200,27907,1,0,0:0:0:0:
160,224,28018,5,2,0:0:0:0:
284,172,28167,1,2,0:0:0:0:
408,124,28315,1,2,0:0:0:0:
360,248,28463,2,0,L|192:324,1,160
220,201,29130,22,0,L|288:169,1,70.000000667572
132,240,29352,2,0,B|88:240|124:168|124:168|32:196|32:196|0:292|0:292|44:304|60:332|60:332|128:324,1,420.000004005432
228,356,30130,1,0,0:0:0:0:
324,300,30241,1,0,0:0:0:0:
428,340,30352,1,0,0:0:0:0:
500,256,30463,1,0,0:0:0:0:
460,152,30574,1,0,0:0:0:0:
504,48,30685,1,0,0:0:0:0:
312,184,31130,38,0,B|280:128|212:128|212:128|160:144|160:144|132:108|132:108|132:16,1,280.000002670288
316,48,31796,1,4,0:0:0:0:
212,212,32018,1,0,0:0:0:0:
152,292,32130,1,0,0:0:0:0:
96,372,32241,1,0,0:0:0:0:
44,296,32352,1,0,0:0:0:0:
100,224,32463,2,0,B|124:188|124:188|124:136|124:136|152:92,1,140.000001335144
304,88,32907,38,0,B|344:88|344:88|384:104,1,80
452,176,33574,6,0,L|436:252,1,70.000000667572,4|0,0:0|0:0,0:0:0:0:
324,332,33796,2,0,L|340:256,1,70.000000667572
452,176,34018,1,0,0:0:0:0:
368,140,34130,1,0,0:0:0:0:
284,172,34241,1,0,0:0:0:0:
204,132,34352,1,0,0:0:0:0:
152,56,34463,1,0,0:0:0:0:
68,20,34575,1,0,0:0:0:0:
36,104,34685,6,0,B|104:144|104:144|128:200|128:200|188:236,2,210.000002002716
112,296,35574,1,4,0:0:0:0:
304,96,35796,2,2,L|372:52,2,70.000000667572
312,192,36130,2,2,L|384:220,2,70.000000667572
224,152,36463,54,0,B|152:124|152:124|132:80|132:80|72:52|72:52|20:68,1,240.000009155274
28,236,37130,1,4,0:0:0:0:
224,56,37352,1,0,0:0:0:0:
303,85,37463,1,0,0:0:0:0:
378,119,37574,1,0,0:0:0:0:
408,196,37685,1,0,0:0:0:0:
436,276,37796,1,0,0:0:0:0:
236,288,38018,6,4,L|188:244,1,60.0000022888184,4|0,0:0|0:0,0:0:0:0:
120,168,38241,2,0,B|156:148|156:148|192:128|244:144,1,120.000004577637,0|8,0:0|0:0,0:0:0:0:
408,196,38685,1,8,0:0:0:0:
112,256,38907,1,12,0:0:0:0:
439,325,39130,22,0,L|349:281,1,80
72,325,39352,2,0,L|162:281,1,80,12|0,0:0|0:0,0:0:0:0:
436,58,39574,2,0,L|346:101,1,80,8|0,0:0|0:0,0:0:0:0:
75,58,39796,2,0,L|165:101,1,80,12|0,0:0|0:0,0:0:0:0:
296,160,40018,22,0,B|304:188|284:216|284:216|180:224|196:304|196:304|256:304,1,240.000009155274
416,312,40685,1,4,0:0:0:0:
244,160,40908,37,6,0:0:0:0:
226,141,41019,1,6,0:0:0:0:
212,122,41130,1,6,0:0:0:0:
194,104,41241,1,6,0:0:0:0:
64,80,41351,37,6,0:0:0:0:
92,122,41462,1,6,0:0:0:0:
122,165,41574,1,6,0:0:0:0:
155,207,41685,1,6,0:0:0:0:
236,276,41796,37,6,0:0:0:0:
308,248,41907,1,6,0:0:0:0:
380,216,42018,1,6,0:0:0:0:
452,180,42130,1,6,0:0:0:0:
488,100,42241,54,0,P|464:44|408:48,1,120.000004577637
256,192,53352,12,0,56685,0:0:0:0:
288,288,56907,6,0,B|364:288|364:288|400:260,1,120.000004577637
420,104,57241,2,0,L|332:192,1,120.000004577637
224,192,57574,2,0,L|168:160,1,60.0000022888184
48,76,57796,54,0,B|80:40|80:40|176:40,1,120.000004577637
352,36,58130,2,0,L|228:88,1,120.000004577637
224,192,58463,2,0,L|292:164,1,60.0000022888184
408,108,58685,6,0,B|436:164|436:164|400:244,1,120.000004577637
312,344,59018,2,0,L|196:272,1,120.000004577637
279,169,59352,2,0,L|223:125,1,60.0000022888184
96,36,59574,54,0,L|120:180,1,120.000004577637
172,348,59907,2,0,L|196:204,1,120.000004577637
221,72,60241,2,0,L|233:140,1,60.0000022888184
272,284,60463,6,0,B|352:264|352:264|384:224,1,120.000004577637
376,84,60796,2,0,L|296:192,1,120.000004577637
191,229,61130,2,0,L|127:205,1,60.0000022888184
0,156,61352,54,0,B|0:196|0:196|0:256|44:256,1,120.000004577637
160,312,61685,2,0,B|200:312|200:312|260:312|260:356,1,120.000004577637
396,352,62018,2,0,L|464:332,1,60.0000022888184
488,224,62241,6,0,B|440:156|440:156|392:132,1,120.000004577637
280,136,62574,2,0,P|256:200|328:204,1,120.000004577637
380,220,62907,1,0,0:0:0:0:
168,212,63130,54,0,P|200:268|256:300,1,120.000004577637
380,220,63463,2,0,L|514:191,1,120.000004577637
432,44,63796,2,0,L|392:88,1,60.0000022888184
280,112,64018,6,0,L|132:80,1,120.000004577637
0,148,64352,2,0,L|128:176,1,120.000004577637
212,256,64685,2,0,L|280:240,1,60.0000022888184
392,224,64907,54,0,L|428:376,1,120.000004577637
484,200,65241,2,0,L|512:48,1,120.000004577637
400,32,65574,2,0,L|332:16,1,60.0000022888184
224,12,65796,6,0,B|164:36|164:36|136:128,1,120.000004577637
180,208,66130,2,0,L|288:144,1,120.000004577637
444,152,66463,2,0,L|376:196,1,60.0000022888184
296,252,66685,54,0,L|336:392,1,120.000004577637
184,304,67018,2,0,L|140:160,1,120.000004577637
32,224,67352,2,0,L|20:288,1,60.0000022888184
184,304,67574,6,0,L|316:272,1,120.000004577637
444,244,67907,2,0,B|456:184|456:184|424:132,1,120.000004577637
336,24,68241,2,0,L|312:92,1,60.0000022888184
292,192,68463,54,0,B|208:168|208:168|180:128,1,120.000004577637
96,28,68796,2,0,L|56:164,1,120.000004577637
96,276,69130,2,0,L|160:260,1,60.0000022888184
284,236,69352,6,0,P|336:248|324:336,1,120.000004577637
460,352,69685,2,0,L|430:235,1,120.000004577637
348,324,70018,1,0,0:0:0:0:
296,132,70241,5,2,0:0:0:0:
368,80,70352,1,2,0:0:0:0:
440,128,70463,2,2,L|424:172,4,30.0000011444092
368,80,70796,1,2,0:0:0:0:
300,32,70907,1,2,0:0:0:0:
228,68,71018,1,2,0:0:0:0:
156,112,71130,6,0,P|140:192|184:232,1,120.000004577637
304,348,71574,1,0,0:0:0:0:
160,220,71796,2,0,L|204:176,1,60.0000022888184,4|0,0:0|0:0,0:0:0:0:
312,108,72018,2,0,B|357:122|386:149|386:149|394:189|386:216,1,120.000004577637
322,286,72352,2,0,B|251:236|251:236|150:218,1,180.000006866455
76,236,72796,1,0,0:0:0:0:
16,176,72907,37,0,0:0:0:0:
40,96,73018,1,0,0:0:0:0:
116,56,73130,1,0,0:0:0:0:
200,68,73241,1,0,0:0:0:0:
225,158,73352,53,0,0:0:0:0:
313,170,73463,1,0,0:0:0:0:
373,102,73574,1,0,0:0:0:0:
337,22,73685,1,0,0:0:0:0:
252,20,73796,22,0,B|208:20|192:56|192:56|136:56,1,120.000004577637
32,112,74130,1,0,0:0:0:0:
16,196,74241,1,0,0:0:0:0:
8,280,74352,1,0,0:0:0:0:
84,320,74463,1,0,0:0:0:0:
160,352,74574,1,0,0:0:0:0:
248,332,74685,6,0,L|368:288,1,120.000004577637
296,208,75018,2,0,L|416:164,1,120.000004577637
356,92,75352,2,0,L|452:56,1,60.0000022888184
256,116,75574,22,0,B|220:128|220:128|180:96|132:88,1,120.000004577637
48,168,75907,2,0,P|128:172|176:200,1,120.000004577637
184,296,76241,2,0,L|112:260,1,60.0000022888184
268,324,76463,37,0,0:0:0:0:
356,312,76574,1,0,0:0:0:0:
416,248,76685,1,0,0:0:0:0:
396,160,76796,1,0,0:0:0:0:
300,200,76907,38,0,L|240:216,1,60.0000022888184
144,172,77130,2,0,L|64:148,1,60.0000022888184
24,72,77352,53,0,0:0:0:0:
100,24,77463,1,0,0:0:0:0:
188,16,77574,1,0,0:0:0:0:
276,36,77685,1,0,0:0:0:0:
360,96,77796,22,0,L|308:152,1,60.0000022888184
216,148,78018,2,0,B|172:176|172:176|172:220,1,90.0000034332277
184,240,78241,6,0,L|336:268,1,120.000004577637
448,144,78574,2,0,L|329:165,1,120.000004577637
204,80,78907,2,0,L|268:64,1,60.0000022888184
329,165,79130,2,0,L|289:293,1,120.000004577637
168,312,79463,2,0,P|176:244|228:224,1,120.000004577637
384,304,79796,2,0,L|448:284,1,60.0000022888184
492,184,80018,37,0,0:0:0:0:
460,100,80130,1,0,0:0:0:0:
376,72,80241,1,0,0:0:0:0:
296,112,80352,1,0,0:0:0:0:
312,200,80463,53,0,0:0:0:0:
224,188,80574,1,0,0:0:0:0:
136,176,80685,1,0,0:0:0:0:
48,168,80796,1,0,0:0:0:0:
36,72,80907,6,0,L|-8:12,2,60.0000022888184
136,148,81241,1,0,0:0:0:0:
136,276,81352,2,0,L|96:328,2,60.0000022888184
196,212,81685,1,0,0:0:0:0:
280,184,81796,37,0,0:0:0:0:
364,216,81907,1,0,0:0:0:0:
392,304,82018,2,0,B|368:332|360:364|360:364|328:352|300:348|300:348|268:360|236:344,1,180.000006866455
180,296,82463,54,0,L|144:236,1,60.0000022888184
164,112,82685,2,0,L|194:163,1,60.0000022888184
284,80,82907,2,0,L|344:44,1,60.0000022888184
464,100,83129,2,0,L|412:130,1,60.0000022888184
344,200,83352,2,0,L|260:180,1,60.0000022888184
152,116,83574,6,0,B|76:136|12:92|40:48|40:48|68:4|132:44|108:88|108:88|80:124|84:168|84:168|52:212|52:212|112:244|112:244|88:276|88:276|80:300|100:324,1,571.999973815919
232,344,84907,2,0,P|347:328|292:220,1,240
160,56,85352,22,0,L|144:156,1,80
124,288,85574,1,4,0:0:0:0:
268,56,85685,54,0,L|252:156,1,80
232,288,85907,1,0,0:0:0:0:
376,56,86018,6,0,L|360:156,1,80,4|0,0:0|0:0,0:0:0:0:
340,292,86241,2,0,L|432:316,1,80
441,152,86463,2,0,L|363:135,1,80,4|0,0:0|0:0,0:0:0:0:
185,123,86685,2,0,B|65:131|65:131|104:100,1,160,0|4,0:0|0:0,0:0:0:0:
84,320,87130,54,0,L|176:308,1,80
340,292,87352,1,4,0:0:0:0:
92,217,87463,6,0,L|184:205,1,80
348,189,87685,1,0,0:0:0:0:
100,112,87796,2,0,L|192:100,1,80,4|0,0:0|0:0,0:0:0:0:
356,80,88018,6,0,L|448:104,1,80,2|0,0:0|0:0,0:0:0:0:
424,292,88241,2,0,L|332:268,1,80,4|0,0:0|0:0,0:0:0:0:
144,224,88463,1,2,0:0:0:0:
320,72,88685,1,4,0:0:0:0:
424,292,88907,54,0,L|316:264,1,80
144,224,89130,1,4,0:0:0:0:
464,196,89241,54,0,L|356:168,1,80
184,128,89464,1,0,0:0:0:0:
508,104,89574,6,0,L|400:76,1,80,4|0,0:0|0:0,0:0:0:0:
232,32,89796,2,0,L|272:128,1,80
358,285,90018,2,0,L|318:189,1,80,4|0,0:0|0:0,0:0:0:0:
372,76,90241,2,0,B|383:32|383:32|430:149,1,160,0|4,0:0|0:0,0:0:0:0:
476,288,90685,54,0,L|356:328,2,80,0|0|4,0:0|0:0|0:0,0:0:0:0:
328,212,91018,2,0,L|233:128,2,80
160,124,91352,2,0,L|185:1,1,80,4|0,0:0|0:0,0:0:0:0:
312,20,91574,22,0,P|344:43|382:54,1,80
472,216,91796,2,0,P|400:180|372:132,1,80,4|0,0:0|0:0,0:0:0:0:
200,224,92018,2,0,P|259:276|336:292,1,160,0|4,0:0|0:0,0:0:0:0:
24,288,92463,54,0,L|108:264,2,80,0|0|4,0:0|0:0|0:0,0:0:0:0:
68,120,92796,2,0,L|152:148,2,80
236,64,93130,2,0,L|320:36,1,80,4|0,0:0|0:0,0:0:0:0:
400,4,93352,53,0,0:0:0:0:
483,43,93463,1,0,0:0:0:0:
483,131,93574,1,4,0:0:0:0:
483,223,93685,1,0,0:0:0:0:
399,255,93796,2,0,B|303:211|303:211|303:139,1,160,0|4,0:0|0:0,0:0:0:0:
406,45,94241,6,0,L|310:65,1,80
136,88,94463,1,4,0:0:0:0:
406,145,94574,54,0,L|310:165,1,80
138,189,94796,1,0,0:0:0:0:
406,245,94907,22,0,L|310:265,1,80,4|0,0:0|0:0,0:0:0:0:
138,289,95130,2,0,B|94:293|94:293|56:280,3,80,2|0|4|0,0:0|0:0|0:0|0:0,0:0:0:0:
60,156,95574,2,0,B|60:56|60:56|108:16,1,160,2|4,0:0|0:0,0:0:0:0:
220,168,96018,54,0,B|236:252|236:252|312:292,1,160,0|4,0:0|0:0,0:0:0:0:
432,288,96352,1,0,0:0:0:0:
340,108,96463,2,0,L|324:192,1,80
444,88,96685,2,0,L|421:11,1,80,4|0,0:0|0:0,0:0:0:0:
444,200,96907,53,0,0:0:0:0:
432,288,97018,1,0,0:0:0:0:
372,356,97130,1,4,0:0:0:0:
284,356,97241,1,0,0:0:0:0:
216,300,97352,2,0,B|144:296|144:296|112:320|112:320|32:316,1,160,0|4,0:0|0:0,0:0:0:0:
84,164,97796,2,0,B|124:44|124:44|168:80|236:68,2,240,0|0|4,0:0|0:0|0:0,0:0:0:0:
64,317,98685,21,2,0:0:0:0:
88,321,99018,1,2,0:0:0:0:
112,325,99352,1,6,0:0:0:0:
224,320,99574,54,0,L|312:316,2,80,0|0|4,0:0|0:0|0:0,0:0:0:0:
112,236,99907,2,0,L|24:232,2,80
200,128,100241,2,0,L|279:131,1,80,4|0,0:0|0:0,0:0:0:0:
376,272,100463,54,0,B|416:272|448:240|448:240|484:256|504:304|456:388,2,240,8|8|4,0:0|0:0|0:0,0:0:0:0:
320,176,101352,6,0,L|360:88,2,80,0|0|4,0:0|0:0|0:0,0:0:0:0:
188,136,101685,2,0,L|168:48,2,80
92,208,102018,2,0,L|12:172,1,80,4|0,0:0|0:0,0:0:0:0:
176,244,102241,5,0,0:0:0:0:
256,280,102352,1,0,0:0:0:0:
336,320,102463,1,4,0:0:0:0:
416,288,102574,1,0,0:0:0:0:
488,240,102685,54,0,B|488:160,1,80
488,72,102907,1,4,0:0:0:0:
356,196,103130,54,0,L|248:164,2,80,0|0|4,0:0|0:0|0:0,0:0:0:0:
256,280,103463,2,0,L|176:292,2,80
112,204,103796,2,0,L|24:188,1,80,4|0,0:0|0:0,0:0:0:0:
104,72,104018,6,0,B|156:68|156:68|236:20|344:60,2,240,8|8|4,0:0|0:0|0:0,0:0:0:0:
200,224,104907,54,0,L|292:244,2,80,0|0|4,0:0|0:0|0:0,0:0:0:0:
308,88,105241,2,0,L|356:168,2,80
468,32,105574,2,0,L|460:124,1,80,4|0,0:0|0:0,0:0:0:0:
408,236,105796,22,0,L|344:296,1,80,2|0,0:0|0:0,0:0:0:0:
180,344,106018,2,0,L|260:280,1,80,4|0,0:0|0:0,0:0:0:0:
408,236,106241,2,0,P|356:176|276:156,1,160,2|4,0:0|0:0,0:0:0:0:
36,152,106685,54,0,L|128:108,2,80,0|0|4,0:0|0:0|0:0,0:0:0:0:
140,256,107018,2,0,L|52:300,2,80
292,320,107352,2,0,L|204:364,1,80,4|0,0:0|0:0,0:0:0:0:
326,188,107574,54,0,B|262:182|262:182|206:106|94:118,2,240,8|8|4,0:0|0:0|0:0,0:0:0:0:
160,212,108463,6,0,L|72:220,2,80,0|0|4,0:0|0:0|0:0,0:0:0:0:
304,268,108796,2,0,L|392:276,2,80
208,352,109130,2,0,L|120:360,1,80,4|0,0:0|0:0,0:0:0:0:
36,340,109352,5,0,0:0:0:0:
28,252,109463,1,0,0:0:0:0:
20,164,109574,1,4,0:0:0:0:
84,104,109685,1,0,0:0:0:0:
156,56,109796,2,0,B|196:36|196:36|320:56,1,160,0|4,0:0|0:0,0:0:0:0:
468,120,110241,38,0,P|488:160|432:256,1,160,0|4,0:0|0:0,0:0:0:0:
328,200,110574,1,0,0:0:0:0:
212,256,110685,2,0,L|132:240,1,80,0|0,1:0|1:0,1:0:0:0:
328,336,110907,2,0,L|408:352,1,80,4|0,0:0|0:0,0:0:0:0:
328,200,111130,6,0,B|376:120|336:40|336:40|300:28|264:36,2,240,8|8|4,0:0|0:0|0:0,0:0:0:0:
196,344,112018,2,0,B|92:348|44:276|44:276|60:244|96:220,2,240,0|0|4,0:0|0:0|0:0,0:0:0:0:
320,260,112907,5,2,0:0:0:0:
332,256,113241,1,2,0:0:0:0:
344,252,113574,1,2,0:0:0:0:
400,172,113796,38,0,B|420:124|420:124|412:104|412:104|432:48,2,120,8|0|4,0:0|0:0|0:0,0:0:0:0:
364,288,114685,2,0,L|272:248,1,80,8|0,0:0|0:0,0:0:0:0:
212,296,115018,2,0,L|68:232,1,120,0|4,0:0|0:0,0:0:0:0:
160,120,115574,6,0,P|224:116|280:68,2,120,8|0|4,0:0|0:0|0:0,0:0:0:0:
160,292,116463,2,0,P|208:334|281:340,1,120,8|0,0:0|0:0,3:0:0:0:
320,208,117130,1,4,0:0:0:0:
232,156,117352,54,0,B|307:123|307:123|348:128,2,120,8|0|4,0:0|0:0|0:0,0:0:0:0:
84,208,118241,22,0,L|156:232,1,60.0000022888184,8|4,0:0|0:0,0:0:0:0:
220,288,118574,2,0,L|320:272,1,70.4000021484376,0|4,0:0|0:0,0:0:0:0:
388,280,118907,2,0,L|448:300,1,40,0|4,0:0|0:0,0:0:0:0:
512,316,119130,5,0,0:0:0:0:
512,316,119463,1,0,0:0:0:0:
512,316,119796,1,2,0:0:0:0:
508,228,119907,1,2,0:0:0:0:
452,160,120018,1,2,0:0:0:0:
364,156,120130,1,2,0:0:0:0:
288,200,120241,2,2,L|348:256,1,80
444,336,120685,1,2,0:0:0:0:
272,304,120907,38,0,B|216:308|216:308|140:348|80:268|80:268|120:224|88:172,1,311.999985717774,8|4,0:0|0:0,0:0:0:0:
172,140,121685,1,0,0:0:0:0:
256,108,121796,2,0,B|360:80|360:80|356:160|444:168|444:168|368:232,1,311.999985717774,8|4,0:0|0:0,0:0:0:0:
292,280,122685,54,0,B|232:320|232:320|196:264|132:252|132:252|60:240|32:172,1,311.999985717774,8|4,0:0|0:0,0:0:0:0:
80,108,123463,1,4,0:0:0:0:
168,124,123574,2,0,L|320:56,2,155.999992858887,8|0|0,0:0|0:0|0:0,0:0:0:0:
232,256,124463,6,0,P|288:224|356:232,1,103.999995239258,8|0,0:0|0:0,0:0:0:0:
436,264,124796,2,0,B|412:316|336:312|336:312|296:332,1,155.999992858887,4|4,0:0|0:0,0:0:0:0:
216,352,125241,1,4,0:0:0:0:
148,296,125352,54,0,L|84:204,1,103.999995239258,8|0,0:0|0:0,0:0:0:0:
112,64,125685,2,0,L|204:204,1,155.999992858887,4|0,0:0|0:0,0:0:0:0:
288,216,126130,1,4,0:0:0:0:
364,160,126241,38,0,L|448:128,1,80.0000030517579,8|8,0:0|0:0,0:0:0:0:
256,124,126685,1,8,0:0:0:0:
84,80,126833,1,8,0:0:0:0:
128,276,126981,1,8,0:0:0:0:
288,216,127130,1,8,0:0:0:0:
436,380,127278,1,8,0:0:0:0:
260,340,127426,1,8,0:0:0:0:
288,216,127574,2,0,B|324:204|324:204|376:212,1,90.0000034332277,8|0,0:0|0:0,0:0:0:0:
464,228,128018,38,0,L|484:112,1,80
392,132,128241,2,0,L|376:40,1,70.000000667572
296,64,128463,6,0,P|264:44|232:40,1,60
144,76,128907,38,0,B|64:108|64:108|20:180|20:180|80:188|80:188|132:168|132:168|94:222|94:222|72:264|112:300,1,420.000004005432
236,159,129685,1,0,0:0:0:0:
172,328,129796,1,0,0:0:0:0:
316,200,129907,1,0,0:0:0:0:
270,331,130019,1,0,0:0:0:0:
396,236,130130,1,0,0:0:0:0:
363,328,130241,1,0,0:0:0:0:
228,248,130685,22,0,B|176:224|176:224|120:236|120:236|60:212|60:120|124:108,1,280.000002670288
332,56,131352,1,4,0:0:0:0:
256,240,131574,5,0,0:0:0:0:
180,204,131685,1,0,0:0:0:0:
104,168,131796,1,0,0:0:0:0:
32,124,131907,1,0,0:0:0:0:
88,60,132018,2,0,B|132:36|132:36|232:36,1,140.000001335144
416,40,132463,22,0,L|424:136,1,80
432,264,133130,22,0,L|352:244,1,70.000000667572,4|0,0:0|0:0,0:0:0:0:
272,296,133352,2,0,L|184:312,1,70.000000667572
168,224,133574,1,0,0:0:0:0:
136,140,133685,1,0,0:0:0:0:
188,64,133796,5,0,0:0:0:0:
260,8,133907,1,0,0:0:0:0:
320,76,134018,1,0,0:0:0:0:
248,132,134129,1,0,0:0:0:0:
296,208,134241,22,0,B|344:236|408:228|444:188|444:188|496:200,2,210.000002002716
114,83,135130,6,2,L|202:67,1,70.000000667572
306,43,135352,1,2,0:0:0:0:
120,228,135574,1,2,0:0:0:0:
364,312,135796,1,2,0:0:0:0:
215,147,136018,22,0,B|195:119|163:103|163:103|163:39|163:39|235:59|235:59|323:39,1,280.000002670288
476,4,136685,1,4,0:0:0:0:
488,176,136907,21,0,0:0:0:0:
452,263,137018,1,0,0:0:0:0:
361,229,137129,1,0,0:0:0:0:
324,317,137240,1,0,0:0:0:0:
234,283,137351,1,0,0:0:0:0:
64,216,137796,38,0,B|64:184|64:184|89:125,1,70.000000667572
144,52,138018,1,8,0:0:0:0:
248,320,138241,1,8,0:0:0:0:
340,56,138463,1,12,0:0:0:0:
420,264,138685,22,0,L|520:288,1,70.000000667572
315,340,138907,2,0,L|235:316,1,70.000000667572,12|0,0:0|0:0,0:0:0:0:
208,172,139130,2,0,L|140:192,1,70.000000667572,8|0,0:0|0:0,0:0:0:0:
24,112,139352,1,12,0:0:0:0:
100,76,139463,1,0,0:0:0:0:
176,40,139574,22,0,B|228:48|228:48|308:24|308:24|396:56|396:56|396:96|428:120,1,280.000002670288
448,232,140241,1,4,0:0:0:0:
258,296,140463,37,0,0:0:0:0:
186,248,140574,1,0,0:0:0:0:
238,176,140685,1,0,0:0:0:0:
310,224,140796,1,0,0:0:0:0:
258,296,140907,1,0,0:0:0:0:
60,56,141352,37,0,0:0:0:0:
144,39,141463,1,0,0:0:0:0:
158,126,141574,1,0,0:0:0:0:
74,143,141685,1,0,0:0:0:0:
60,56,141796,53,2,0:0:0:0:
232,8,141944,1,2,0:0:0:0:
400,60,142093,1,2,0:0:0:0:
256,136,142241,2,0,P|228:176|316:188,1,160
424,40,142907,6,0,P|416:72|428:124,1,70.000000667572
456,204,143130,2,0,B|460:264|460:264|508:252|508:252|484:296|488:344|488:344|432:352|432:352|392:328|316:336|316:336|336:288,1,431.999986816407
372,204,143907,1,0,0:0:0:0:
284,172,144018,1,0,0:0:0:0:
212,232,144130,1,0,0:0:0:0:
136,176,144241,1,0,0:0:0:0:
52,220,144352,1,0,0:0:0:0:
108,292,144463,1,0,0:0:0:0:
372,204,144907,54,0,B|372:248|372:248|424:292|384:340|384:340|312:308|240:340,1,287.999991210938
464,212,145574,1,4,0:0:0:0:
276,176,145796,37,0,0:0:0:0:
192,152,145907,1,0,0:0:0:0:
108,132,146018,1,0,0:0:0:0:
24,112,146130,1,0,0:0:0:0:
76,44,146241,2,0,B|116:28|116:28|224:52,1,143.999995605469
356,56,146685,6,0,L|440:24,1,80
284,112,147352,54,0,P|252:132|232:164,1,70.000000667572,4|0,0:0|0:0,0:0:0:0:
184,276,147574,2,0,P|160:300|116:316,1,70.000000667572
64,208,147796,1,0,0:0:0:0:
44,128,147907,1,0,0:0:0:0:
28,44,148018,1,0,0:0:0:0:
112,36,148130,1,0,0:0:0:0:
196,36,148241,1,0,0:0:0:0:
280,32,148352,1,0,0:0:0:0:
356,84,148463,22,0,B|400:108|400:108|416:140|416:140|472:176,1,140.000001335144
424,284,148796,2,0,B|388:228|388:228|304:172,1,140.000001335144
248,244,149130,2,0,L|305:283,1,70.000000667572
336,368,149352,1,0,0:0:0:0:
192,348,149574,37,2,0:0:0:0:
160,352,149685,1,2,0:0:0:0:
128,356,149796,1,2,0:0:0:0:
144,268,149907,21,2,0:0:0:0:
216,264,150018,1,2,0:0:0:0:
288,256,150130,1,2,0:0:0:0:
328,332,150241,54,0,B|400:316|400:316|448:256|448:256|392:200|392:200|392:112,1,280.000002670288
460,32,150907,1,4,0:0:0:0:
292,144,151130,21,0,0:0:0:0:
228,204,151241,1,0,0:0:0:0:
144,172,151352,1,0,0:0:0:0:
84,240,151463,1,0,0:0:0:0:
0,208,151574,1,0,0:0:0:0:
200,56,151796,54,4,P|232:36|272:32,1,70.000000667572,4|0,0:0|0:0,0:0:0:0:
464,64,152018,2,4,B|436:36|396:40|396:40|352:96,1,140.000001335144,0|8,0:0|0:0,0:0:0:0:
351,330,152463,1,8,0:0:0:0:
436,172,152685,1,12,0:0:0:0:
176,352,152907,54,0,L|100:352,1,70.000000667572
184,132,153130,2,0,L|260:132,1,70.000000667572,8|0,0:0|0:0,0:0:0:0:
32,204,153352,2,0,L|-4:132,1,70.000000667572,8|0,0:0|0:0,0:0:0:0:
320,268,153575,2,0,L|356:340,1,70.000000667572,12|0,0:0|0:0,0:0:0:0:
200,276,153796,6,0,B|136:276|136:276|112:232|112:232|120:188|120:188|76:128|128:64,1,280.000002670288
296,52,154463,1,4,0:0:0:0:
360,224,154685,37,6,0:0:0:0:
368,252,154796,1,6,0:0:0:0:
379,280,154907,1,6,0:0:0:0:
387,308,155018,1,6,0:0:0:0:
476,256,155130,37,6,0:0:0:0:
460,204,155241,1,6,0:0:0:0:
445,152,155352,1,6,0:0:0:0:
431,101,155463,1,6,0:0:0:0:
340,148,155574,37,6,0:0:0:0:
256,136,155685,1,6,0:0:0:0:
172,120,155796,1,6,0:0:0:0:
88,108,155907,1,6,0:0:0:0:
20,56,156018,54,0,P|72:24|140:40,1,120.000004577637
236,64,156796,1,0,0:0:0:0:
236,64,157130,1,0,0:0:0:0:
264,148,157352,2,0,L|280:192,2,40
176,200,158241,5,0,0:0:0:0:
176,200,158574,1,0,0:0:0:0:
176,200,158908,1,0,0:0:0:0:
152,296,159130,2,0,L|196:308,1,40
264,256,159463,2,0,L|312:248,1,40
360,320,159796,2,0,L|388:324,1,20
460,332,160018,53,0,0:0:0:0:
460,332,160352,1,0,0:0:0:0:
460,332,160685,1,0,0:0:0:0:
292,296,160907,2,0,L|248:284,2,40
392,64,161685,5,0,0:0:0:0:
320,116,161796,2,0,P|296:124|272:120,1,40
204,68,162130,2,0,P|176:68|156:80,1,40
96,136,162463,1,0,0:0:0:0:
236,248,162685,2,0,L|296:296,2,60
96,136,163574,53,0,0:0:0:0:
96,136,163907,1,0,0:0:0:0:
96,136,164241,1,0,0:0:0:0:
232,48,164463,2,0,L|272:20,2,40
320,100,165352,5,0,0:0:0:0:
320,100,165685,1,0,0:0:0:0:
320,100,166019,1,0,0:0:0:0:
448,140,166241,2,0,L|492:152,1,40
500,236,166574,2,0,L|456:224,1,40
412,296,166907,2,0,L|448:308,1,20
508,324,167130,53,0,0:0:0:0:
508,324,167463,1,0,0:0:0:0:
508,324,167796,1,0,0:0:0:0:
340,284,168018,2,0,L|296:272,2,40
136,292,168796,5,0,0:0:0:0:
152,200,168907,2,0,P|164:176|184:168,1,40
268,152,169241,2,0,P|292:136|304:112,1,40
320,36,169574,1,0,0:0:0:0:
444,172,169796,2,0,L|456:232,1,60
232,144,170463,1,0,0:0:0:0:
232,144,170685,53,0,0:0:0:0:
232,144,171018,1,0,0:0:0:0:
232,144,171352,1,0,0:0:0:0:
296,216,171574,2,0,L|268:244,2,40
408,88,172463,5,0,0:0:0:0:
408,88,172796,1,0,0:0:0:0:
408,88,173130,1,0,0:0:0:0:
404,176,173685,1,0,0:0:0:0:
400,228,174018,1,0,0:0:0:0:
396,260,174241,53,0,0:0:0:0:
396,260,174574,1,0,0:0:0:0:
396,260,174907,1,0,0:0:0:0:
296,244,175130,2,0,L|252:216,2,40
168,268,176018,5,0,0:0:0:0:
168,268,176352,1,0,0:0:0:0:
168,268,176685,1,0,0:0:0:0:
180,164,177241,1,0,0:0:0:0:
188,112,177574,1,0,0:0:0:0:
192,76,177796,53,0,0:0:0:0:
192,76,178130,1,0,0:0:0:0:
192,76,178463,1,0,0:0:0:0:
300,92,178685,2,0,L|344:96,2,40
180,160,179574,5,0,0:0:0:0:
180,160,179907,1,0,0:0:0:0:
180,160,180241,1,0,0:0:0:0:
296,172,180463,2,0,L|340:176,1,40
364,180,180796,1,0,0:0:0:0:
220,244,181130,1,0,0:0:0:0:
280,328,181352,53,0,0:0:0:0:
280,328,181685,1,0,0:0:0:0:
280,328,182018,1,0,0:0:0:0:
408,304,182241,2,0,L|448:328,2,40
328,204,183130,5,0,0:0:0:0:
236,152,183463,1,0,0:0:0:0:
144,96,183796,1,0,0:0:0:0:
256,192,184018,12,0,187574,0:0:0:0:
