osu file format v14

[General]
AudioFilename: SO SUS + KONKA _ ACORN_244096741_soundcloud.mp3
AudioLeadIn: 0
PreviewTime: 14907
Countdown: 0
SampleSet: Normal
StackLeniency: 0.4
Mode: 0
LetterboxInBreaks: 0
WidescreenStoryboard: 1

[Editor]
Bookmarks: 23123,26678,71123,76463,83567,85345,108456,113789,126234,128011,140456
DistanceSpacing: 0.9
BeatDivisor: 8
GridSize: 4
TimelineZoom: 3.199998

[Metadata]
Title:ACORN
TitleUnicode:ACORN
Artist:SO SUS + KONKA
ArtistUnicode:SO SUS + KONKA
Creator:squirrelpascals
Version:NUTS
Source:
Tags:trap experimental door hinge
BeatmapID:897024
BeatmapSetID:413701

[Difficulty]
HPDrainRate:6.6
CircleSize:4
OverallDifficulty:9.4
ApproachRate:9.7
SliderMultiplier:1.7
SliderTickRate:1

[Events]
//Background and Video events
0,0,"acorn1366x768.png",0,0
//Break Periods
2,42885,54635
//Storyboard Layer 0 (Background)
//Storyboard Layer 1 (Fail)
//Storyboard Layer 2 (Pass)
//Storyboard Layer 3 (Foreground)
//Storyboard Sound Samples

[TimingPoints]
19,444.444444444444,4,1,1,100,1,0
1685,-100,4,1,1,30,0,0
1796,-100,4,1,1,100,0,0
13796,-200,4,1,1,100,0,0
14907,-50,4,1,1,100,0,0
15130,-50,4,1,1,100,0,1
18685,-200,4,1,1,100,0,0
19352,-50,4,1,1,100,0,0
19574,-50,4,1,1,100,0,1
20074,-50,4,1,1,30,0,1
20130,-50,4,1,1,100,0,1
20185,-50,4,1,1,30,0,1
20241,-50,4,1,1,100,0,1
20296,-50,4,1,1,30,0,1
20352,-50,4,1,1,100,0,1
20407,-50,4,1,1,30,0,1
20463,-50,4,1,1,100,0,1
21352,-50,4,1,1,100,0,0
21463,-50,4,1,1,30,0,0
21574,-50,4,1,1,100,0,0
22018,-50,4,1,1,100,0,0
22241,-50,4,1,1,100,0,1
27130,-50,4,1,1,100,0,1
27574,-50,4,1,1,100,0,0
27630,-50,4,1,1,30,0,0
27685,-50,4,1,1,100,0,0
27741,-50,4,1,1,30,0,0
27796,-50,4,1,1,100,0,0
27852,-50,4,1,1,30,0,0
27907,-50,4,1,1,100,0,0
27963,-50,4,1,1,30,0,0
28018,-50,4,1,1,100,0,0
28463,-100,4,1,1,100,0,0
29130,-50,4,1,1,100,0,0
29352,-50,4,1,1,100,0,1
32018,-50,4,1,1,100,0,1
32907,-200,4,1,1,100,0,0
33574,-50,4,1,1,100,0,0
33796,-50,4,1,1,100,0,1
35574,-66.6666666666667,4,1,1,100,0,0
38407,-66.6666666666667,4,1,1,30,0,0
38463,-66.6666666666667,4,1,1,100,0,0
42241,-133.333333333333,4,1,1,100,0,0
42574,-133.333333333333,4,1,1,20,0,0
42685,-133.333333333333,4,1,1,100,0,0
56907,-66.6666666666667,4,1,1,100,0,0
70241,-66.6666666666667,4,1,1,52,0,0
71130,-50,4,1,1,100,0,0
71852,-50,4,1,1,52,0,0
72018,-50,4,1,1,100,0,0
72130,-50,4,1,1,52,0,0
72352,-50,4,1,1,100,0,0
83574,-153.846153846154,4,1,1,100,0,0
84907,-50,4,1,1,100,0,0
85352,-50,4,1,1,100,0,1
98685,-50,4,1,1,100,0,0
99352,-100,4,1,1,100,0,0
99518,-100,4,1,1,30,0,0
99574,-50,4,1,1,100,0,1
112018,-100,4,1,1,100,0,1
112907,-100,4,1,1,100,0,0
124463,-83.3333333333333,4,1,1,100,0,0
125352,-71.4285714285714,4,1,1,100,0,0
126241,-200,4,1,1,100,0,0
128018,-50,4,1,1,100,0,0
128241,-66.6666666666667,4,1,1,100,0,0
128463,-200,4,1,1,100,0,0
128852,-200,4,1,1,30,0,0
128907,-50,4,1,1,100,0,1
132463,-133.333333333333,4,1,1,100,0,0
133130,-50,4,1,1,100,0,0
133352,-50,4,1,1,100,0,1
133630,-50,4,1,1,30,0,1
133685,-50,4,1,1,100,0,1
133741,-50,4,1,1,30,0,1
133796,-50,4,1,1,100,0,1
133852,-50,4,1,1,30,0,1
133907,-50,4,1,1,100,0,1
133963,-50,4,1,1,30,0,1
134018,-50,4,1,1,100,0,1
134074,-50,4,1,1,30,0,1
134130,-50,4,1,1,100,0,1
134185,-50,4,1,1,30,0,1
134241,-50,4,1,1,100,0,1
135130,-50,4,1,1,100,0,0
135352,-50,4,1,1,100,0,0
135407,-50,4,1,1,30,0,0
135574,-50,4,1,1,100,0,0
135630,-50,4,1,1,30,0,0
135796,-50,4,1,1,100,0,0
135852,-50,4,1,1,30,0,0
136018,-50,4,1,1,100,0,1
136963,-50,4,1,1,30,0,1
137018,-50,4,1,1,100,0,1
137074,-50,4,1,1,30,0,1
137130,-50,4,1,1,100,0,1
137185,-50,4,1,1,30,0,1
137241,-50,4,1,1,100,0,1
137296,-50,4,1,1,30,0,1
137352,-50,4,1,1,100,0,1
137407,-50,4,1,1,30,0,1
137796,-50,4,1,1,100,0,1
140518,-50,4,1,1,30,0,1
140574,-50,4,1,1,100,0,1
140630,-50,4,1,1,30,0,1
140685,-50,4,1,1,100,0,1
140741,-50,4,1,1,30,0,1
140796,-50,4,1,1,100,0,1
140852,-50,4,1,1,30,0,1
140907,-50,4,1,1,100,0,1
140963,-50,4,1,1,30,0,1
141352,-50,4,1,1,100,0,0
142241,-100,4,1,1,100,0,0
142907,-50,4,1,1,100,0,0
143130,-50,4,1,1,100,0,1
146685,-200,4,1,1,100,0,0
147352,-50,4,1,1,100,0,0
147574,-50,4,1,1,100,0,1
149352,-50,4,1,1,100,0,0
149574,-66.6666666666667,4,1,1,100,0,0
150241,-50,4,1,1,100,0,0
152185,-50,4,1,1,30,0,0
152241,-50,4,1,1,100,0,0
156018,-100,4,1,1,100,0,0
156796,-100,4,1,1,75,0,0
170685,-100,4,1,1,50,0,0
181352,-200,4,1,1,50,0,0
184907,-200,4,1,1,40,0,0
185796,-200,4,1,1,30,0,0
186685,-200,4,1,1,20,0,0
187574,-200,4,1,1,10,0,0

[Colours]
Combo1 : 49,130,47
Combo2 : 218,218,218
Combo3 : 125,125,125
Combo4 : 242,136,30
Combo5 : 158,88,12

[HitObjects]
328,236,19,53,0,1:1:0:0:
356,164,352,2,0,P|290:170|256:224,1,127.5,4|0,1:1|1:1,1:1:0:0:
160,104,907,1,4,1:1:0:0:
120,192,1018,1,4,1:1:0:0:
304,336,1241,1,4,1:1:0:0:
264,248,1352,2,0,L|112:268,1,127.5,4|0,1:1|1:1,1:1:0:0:
96,352,1796,22,0,L|216:336,2,85,0|4|4,1:1|1:1|1:1,1:1:0:0:
120,192,2463,1,0,1:1:0:0:
264,260,2685,1,0,1:1:0:0:
316,332,2796,1,4,1:1:0:0:
432,172,3018,1,4,1:1:0:0:
380,244,3129,1,4,1:1:0:0:
424,72,3352,2,0,P|436:48|460:24,1,42.5,0|0,1:1|1:1,1:1:0:0:
352,104,3574,6,0,L|216:128,1,127.5,0|4,1:1|1:1,1:1:0:0:
352,104,4241,1,0,1:1:0:0:
240,216,4463,1,0,1:1:0:0:
304,296,4574,1,4,1:1:0:0:
420,172,4796,1,4,1:1:0:0:
352,104,4907,1,4,1:1:0:0:
304,296,5130,1,0,1:1:0:0:
252,376,5241,1,0,1:1:0:0:
212,284,5352,6,0,L|232:172,1,85,12|0,1:1|1:1,1:1:0:0:
244,112,5685,1,0,1:1:0:0:
151,178,5796,2,0,L|131:78,1,85,12|0,1:1|1:1,1:1:0:0:
151,178,6241,1,4,1:1:0:0:
111,254,6352,1,4,1:1:0:0:
264,52,6574,1,4,1:1:0:0:
304,128,6685,2,0,L|396:136,1,85,4|0,1:1|1:1,1:1:0:0:
444,252,7130,37,0,1:1:0:0:
368,340,7463,2,0,P|374:274|436:252,1,127.5,4|0,1:1|1:1,1:1:0:0:
251,180,8018,1,4,1:1:0:0:
214,258,8129,1,4,1:1:0:0:
352,68,8352,1,4,1:1:0:0:
410,131,8463,22,0,B|416:152|416:152|408:180|408:180|412:208|412:208|400:236|400:236|400:264,1,127.5,4|0,1:1|1:1,1:1:0:0:
288,288,8907,2,4,L|232:304,1,42.5,4|4,1:1|1:1,1:1:0:0:
180,224,9130,2,4,L|204:172,1,42.5,4|4,1:1|1:1,1:1:0:0:
104,144,9352,2,4,L|80:92,1,42.5,4|4,1:1|1:1,1:1:0:0:
180,64,9574,2,4,L|228:40,1,42.5,4|4,1:1|1:1,1:1:0:0:
296,100,9796,6,4,L|347:114,1,42.5,4|4,1:1|1:1,1:1:0:0:
444,76,10018,2,0,L|432:128,1,42.5,4|4,1:1|1:1,1:1:0:0:
376,196,10241,2,4,L|396:268,1,42.5
432,332,10463,2,4,L|384:348,1,42.5,4|4,1:1|1:1,1:1:0:0:
284,300,10685,21,4,1:1:0:0:
256,192,10796,12,0,12241,1:1:0:0:
296,140,12463,37,8,1:1:0:0:
296,140,12537,1,8,1:1:0:0:
296,140,12611,1,8,1:1:0:0:
96,128,12759,1,8,1:1:0:0:
172,252,12907,1,8,1:1:0:0:
192,64,13056,1,8,1:1:0:0:
96,304,13204,1,8,1:1:0:0:
256,144,13352,37,8,1:1:0:0:
44,192,13500,1,8,1:1:0:0:
220,320,13648,1,8,1:1:0:0:
186,177,13796,22,8,P|260:145|268:149,1,85,8|0,1:1|1:1,1:1:0:0:
384,260,14907,22,0,P|388:236|448:180,1,85,0|0,1:1|1:1,1:1:0:0:
316,156,15130,2,0,B|240:152|268:64|268:64|228:139|228:139|216:15|216:15|196:92|196:92|164:74|164:74|96:78,1,510,0|0,1:1|1:1,1:1:0:0:
137,183,15907,1,0,1:1:0:0:
107,77,16018,1,0,1:1:0:0:
27,166,16130,1,0,1:1:0:0:
54,272,16241,1,0,1:1:0:0:
139,328,16352,1,0,1:1:0:0:
216,319,16463,1,0,0:0:0:0:
402,195,16685,22,0,P|370:223|362:275,1,85,0|0,1:1|1:1,1:1:0:0:
317,130,16907,2,0,B|349:103|349:58|349:58|369:102|369:102|419:17|419:17|415:80|415:80|453:74|477:90,1,340,0|0,1:1|1:1,1:1:0:0:
256,40,17574,1,4,0:0:0:0:
103,198,17796,5,0,1:1:0:0:
193,290,17907,1,0,1:1:0:0:
321,290,18018,1,0,1:1:0:0:
411,198,18129,1,0,1:1:0:0:
351,84,18241,2,0,B|340:63|311:45|311:45|328:129|294:166,1,170
397,311,18685,54,0,B|375:290|375:290|319:290,1,85,0|0,1:1|1:1,1:1:0:0:
176,244,19352,38,0,B|147:277|147:277|108:290,1,85,4|0,1:1|1:1,1:1:0:0:
120,144,19574,2,0,B|148:110|148:110|187:97,1,85,0|0,1:1|1:1,1:1:0:0:
316,68,19796,1,0,1:1:0:0:
416,140,19907,1,0,1:1:0:0:
320,96,20018,6,0,L|276:56,1,42.5,0|0,1:1|1:1,1:1:0:0:
200,116,20129,2,0,L|140:108,1,42.5,0|0,1:1|1:1,1:1:0:0:
180,216,20240,2,0,L|140:252,1,42.5,0|0,1:1|1:1,1:1:0:0:
240,304,20352,2,0,L|230:356,1,42.5,0|0,1:1|1:1,1:1:0:0:
360,336,20463,22,0,P|384:292|360:244,1,85,0|0,1:1|1:1,1:1:0:0:
312,168,20685,2,0,B|352:112|352:112|364:40|364:40|376:156|376:156|412:112|412:112|424:168|424:168|488:192,1,425,0|0,1:1|1:1,1:1:0:0:
480,296,21352,22,0,B|424:276|424:276|364:292,1,85,0|4,1:1|1:1,1:1:0:0:
272,328,21574,1,2,1:1:0:0:
280,52,21796,1,2,1:1:0:0:
168,216,22018,2,0,L|76:240,1,85,2|0,1:1|1:1,1:1:0:0:
140,120,22241,22,0,B|215:103|215:103|256:144|256:144|344:116|344:116|336:160,1,255,0|0,1:1|1:1,1:1:0:0:
452,140,22685,2,0,P|459:94|441:57,1,85,0|0,1:1|1:1,1:1:0:0:
136,76,22907,2,0,L|220:104,1,85,4|0,1:1|1:1,1:1:0:0:
339,143,23130,37,0,1:1:0:0:
311,348,23241,1,0,1:1:0:0:
256,196,23352,1,0,1:1:0:0:
436,260,23463,1,0,1:1:0:0:
147,289,23574,1,0,1:1:0:0:
136,76,24018,6,0,L|232:108,1,85,0|0,1:1|1:1,1:1:0:0:
339,143,24241,1,8,1:1:0:0:
196,368,24463,1,8,1:1:0:0:
84,200,24685,2,0,P|117:181|192:176,1,85,4|0,1:1|1:1,1:1:0:0:
404,88,24907,6,0,P|371:69|296:64,1,85,0|0,1:1|1:1,1:1:0:0:
136,76,25130,1,8,1:1:0:0:
432,188,25352,1,8,1:1:0:0:
112,276,25574,1,12,1:1:0:0:
184,232,25685,1,0,1:1:0:0:
223,303,25796,38,0,B|256:300|280:264|280:264|304:288|304:288|348:204|348:204|344:240|352:268|384:264,1,255,0|0,1:1|1:1,1:1:0:0:
440,272,26241,1,0,1:1:0:0:
148,48,26463,1,4,1:1:0:0:
216,260,26685,5,0,1:1:0:0:
168,144,26796,1,0,1:1:0:0:
248,44,26907,1,0,1:1:0:0:
372,72,27018,1,0,1:1:0:0:
424,188,27130,1,0,1:1:0:0:
400,200,27574,22,0,L|416:160,1,42.5,0|0,1:1|1:1,1:1:0:0:
368,96,27685,2,0,L|342:61,1,42.5,0|0,1:1|1:1,1:1:0:0:
260,64,27796,2,0,L|205:65,1,42.5,0|0,1:1|1:1,1:1:0:0:
192,144,27907,2,0,L|167:188,1,42.5,0|0,1:1|1:1,1:1:0:0:
236,276,28018,53,2,1:1:0:0:
444,128,28167,1,2,1:1:0:0:
328,324,28315,1,2,1:1:0:0:
444,128,28463,54,0,B|420:148|420:148|440:180|440:180|408:220|444:292,1,170,0|0,1:1|1:1,1:1:0:0:
328,324,29130,54,0,P|284:304|264:268,1,85,0|0,1:1|1:1,1:1:0:0:
208,196,29352,2,0,B|264:152|264:152|216:148|216:148|292:88|292:88|192:88|192:88|140:112|140:112|120:88|120:88|44:120|44:120|96:152,1,510,0|0,1:1|1:1,1:1:0:0:
156,258,30130,1,0,1:1:0:0:
63,131,30241,1,0,1:1:0:0:
172,57,30352,1,0,1:1:0:0:
256,146,30463,1,0,1:1:0:0:
365,73,30574,1,0,1:1:0:0:
450,161,30685,1,0,1:1:0:0:
239,244,30907,22,0,L|139:260,1,85,0|0,1:1|1:1,1:1:0:0:
256,146,31130,2,0,B|260:102|260:102|312:50|312:50|232:66|232:66|232:38|232:38|168:58|168:58|110:40,1,340,0|0,1:1|1:1,1:1:0:0:
7,182,31796,1,4,0:0:0:0:
218,324,32018,5,0,0:0:0:0:
341,357,32130,1,0,0:0:0:0:
436,277,32241,1,0,0:0:0:0:
428,149,32352,1,0,0:0:0:0:
309,217,32463,2,0,B|261:233|261:233|205:233|205:233|213:209|213:209|165:209|165:209|185:175|163:125,1,255,0|0,1:1|1:1,1:1:0:0:
96,36,32907,38,0,B|68:60|68:60|68:120,1,85,0|0,1:1|1:1,1:1:0:0:
114,191,33574,6,4,P|160:212|201:206,1,85,4|0,1:1|1:1,1:1:0:0:
406,87,33796,2,0,P|360:66|319:72,1,85,0|0,1:1|1:1,1:1:0:0:
114,191,34018,37,0,0:0:0:0:
326,314,34130,1,0,0:0:0:0:
185,69,34241,1,0,0:0:0:0:
397,192,34352,1,0,0:0:0:0:
185,314,34463,1,0,0:0:0:0:
326,69,34574,1,0,0:0:0:0:
152,68,34685,22,0,B|124:76|104:92|104:92|88:84|64:84,1,85,0|0,1:1|1:1,1:1:0:0:
60,182,34907,2,0,B|68:222|84:242|84:242|60:262|24:266|24:266|40:294|44:326|44:326|104:318|104:318|152:338|152:338|184:254|184:254|200:286,1,425,0|0,1:1|1:1,1:1:0:0:
272,344,35574,1,0,1:1:0:0:
392,160,35796,37,2,1:1:0:0:
400,80,35907,1,2,1:1:0:0:
324,104,36018,1,2,1:1:0:0:
392,160,36130,1,2,1:1:0:0:
392,248,36241,2,2,L|344:292,1,63.7500024318696,2|2,1:1|1:1,1:1:0:0:
308,212,36463,6,0,B|237:153|237:153|200:184|200:184|110:102,1,255.000009727478,0|0,1:1|1:1,1:1:0:0:
248,64,37130,1,4,1:1:0:0:
312,120,37241,1,0,1:1:0:0:
376,64,37352,2,0,P|408:68|424:100,1,63.7500024318696,0|0,1:1|1:1,1:1:0:0:
384,168,37574,2,0,P|388:200|420:224,1,63.7500024318696,0|0,1:1|1:1,1:1:0:0:
472,160,37796,1,0,1:1:0:0:
332,280,38018,6,0,L|270:261,1,63.7500024318696,0|0,1:1|1:1,1:1:0:0:
272,176,38241,2,0,B|264:140|264:140|276:104|276:104|264:80,1,95.6250036478044,0|0,1:1|1:1,1:1:0:0:
256,64,38463,1,8,1:1:0:0:
112,180,38685,1,8,1:1:0:0:
352,180,38907,2,0,P|376:204|376:240,1,63.7500024318696,4|0,1:1|1:1,1:1:0:0:
316,284,39130,53,0,1:1:0:0:
160,120,39352,1,8,1:1:0:0:
416,120,39574,1,12,1:1:0:0:
396,152,39685,1,4,1:1:0:0:
416,184,39796,1,12,1:1:0:0:
396,220,39907,1,4,1:1:0:0:
416,256,40018,54,0,P|312:276|232:224,1,191.250007295609,0|0,1:1|1:1,1:1:0:0:
184,176,40463,1,0,1:1:0:0:
176,32,40685,2,4,L|120:68,1,63.7500024318696,4|0,1:1|1:1,1:1:0:0:
96,104,40907,21,6,1:1:0:0:
120,144,41018,1,6,1:1:0:0:
92,176,41130,1,6,1:1:0:0:
120,212,41241,1,6,1:1:0:0:
208,296,41352,5,6,1:1:0:0:
232,272,41463,1,6,1:1:0:0:
268,280,41574,1,6,1:1:0:0:
280,248,41685,1,6,1:1:0:0:
288,148,41796,53,6,1:1:0:0:
276,124,41907,1,6,1:1:0:0:
284,100,42018,1,6,1:1:0:0:
308,88,42130,1,6,1:1:0:0:
332,88,42241,38,0,P|372:112|384:168,1,95.6250036478044,0|0,1:1|1:1,1:1:0:0:
352,296,42685,1,8,1:1:0:0:
256,192,55130,12,0,56685,1:1:0:0:
256,192,56907,6,0,P|268:132|340:104,1,127.500004863739,0|0,1:1|1:1,1:1:0:0:
336,184,57241,2,0,P|396:148|400:88,1,127.500004863739,0|0,1:1|1:1,1:1:0:0:
344,32,57574,2,0,L|272:24,1,63.7500024318696,0|0,1:1|1:1,1:1:0:0:
232,88,57796,2,0,P|168:92|136:164,1,127.500004863739,0|0,1:1|1:1,1:1:0:0:
212,164,58130,2,0,P|288:148|308:84,1,127.500004863739,0|0,1:1|1:1,1:1:0:0:
376,168,58463,2,0,L|340:232,1,63.7500024318696,0|0,1:1|1:1,1:1:0:0:
260,232,58685,54,0,P|224:276|140:256,1,127.500004863739,0|0,1:1|1:1,1:1:0:0:
192,208,59018,2,0,L|240:352,1,127.500004863739,0|0,1:1|1:1,1:1:0:0:
328,280,59352,2,0,P|352:236|348:200,1,63.7500024318696,0|0,1:1|1:1,1:1:0:0:
272,220,59574,2,0,P|300:160|368:140,1,127.500004863739,0|0,1:1|1:1,1:1:0:0:
428,104,59907,2,0,P|372:60|284:100,1,127.500004863739,0|0,1:1|1:1,1:1:0:0:
228,60,60241,2,0,L|168:96,1,63.7500024318696,0|0,1:1|1:1,1:1:0:0:
88,128,60463,6,0,L|195:197,1,127.500004863739,0|0,1:1|1:1,1:1:0:0:
88,220,60796,2,0,L|195:289,1,127.500004863739,0|0,1:1|1:1,1:1:0:0:
100,320,61130,2,0,L|172:368,1,63.7500024318696,0|0,1:1|1:1,1:1:0:0:
308,356,61352,2,0,L|415:286,1,127.500004863739,0|0,1:1|1:1,1:1:0:0:
308,264,61685,2,0,L|415:194,1,127.500004863739,0|0,1:1|1:1,1:1:0:0:
316,168,62019,2,0,L|388:120,1,63.7500024318696,0|0,1:1|1:1,1:1:0:0:
216,136,62241,54,0,P|176:132|144:100,1,63.7500024318696,0|0,1:1|1:1,1:1:0:0:
208,48,62463,1,0,1:1:0:0:
292,88,62574,2,0,P|348:48|412:56,1,127.500004863739,0|0,1:1|1:1,1:1:0:0:
369,132,62907,2,0,L|345:192,1,63.7500024318696,0|0,1:1|1:1,1:1:0:0:
268,168,63130,2,0,L|221:286,1,127.500004863739,0|0,1:1|1:1,1:1:0:0:
164,204,63463,2,0,L|117:322,1,127.500004863739,0|0,1:1|1:1,1:1:0:0:
64,244,63796,2,0,L|40:184,1,63.7500024318696,0|0,1:1|1:1,1:1:0:0:
64,100,64018,6,0,P|108:132|188:100,1,127.500004863739,0|0,1:1|1:1,1:1:0:0:
192,32,64352,2,0,P|244:60|252:136,1,127.500004863739,0|0,1:1|1:1,1:1:0:0:
208,188,64685,2,0,P|196:228|220:268,1,63.7500024318696,0|0,1:1|1:1,1:1:0:0:
288,228,64907,2,0,P|352:248|412:228,1,127.500004863739,0|0,1:1|1:1,1:1:0:0:
376,156,65241,2,0,L|316:36,1,127.500004863739,0|0,1:1|1:1,1:1:0:0:
416,56,65574,2,0,L|445:114,1,63.7500024318696,0|0,1:1|1:1,1:1:0:0:
484,184,65796,54,0,P|482:268|429:300,1,127.500004863739,0|0,1:1|1:1,1:1:0:0:
372,264,66130,2,0,P|320:228|252:240,1,127.500004863739,0|0,1:1|1:1,1:1:0:0:
300,312,66463,2,0,P|264:324|220:308,1,63.7500024318696,0|0,1:1|1:1,1:1:0:0:
180,260,66685,2,0,P|126:190|78:188,1,127.500004863739,0|0,1:1|1:1,1:1:0:0:
96,268,67018,2,0,L|189:167,1,127.500004863739,0|0,1:1|1:1,1:1:0:0:
268,204,67352,2,0,P|288:172|292:136,1,63.7500024318696,0|0,1:1|1:1,1:1:0:0:
220,100,67574,6,0,P|268:64|348:84,1,127.500004863739,0|0,1:1|1:1,1:1:0:0:
368,168,67907,2,0,L|444:56,1,127.500004863739,0|0,1:1|1:1,1:1:0:0:
484,152,68241,2,0,L|444:212,1,63.7500024318696,0|0,1:1|1:1,1:1:0:0:
372,256,68463,2,0,P|376:320|296:348,1,127.500004863739,0|0,1:1|1:1,1:1:0:0:
256,288,68796,2,0,P|224:343|142:323,1,127.500004863739,0|0,1:1|1:1,1:1:0:0:
120,264,69130,2,0,P|92:288|40:280,1,63.7500024318696,0|0,1:1|1:1,1:1:0:0:
64,200,69352,54,0,L|96:140,1,63.7500024318696,0|0,1:1|1:1,1:1:0:0:
168,184,69574,1,0,1:1:0:0:
180,100,69685,2,0,P|236:84|284:24,1,127.500004863739,0|0,1:1|1:1,1:1:0:0:
328,104,70018,2,0,P|296:136|264:156,1,63.7500024318696,0|0,1:1|1:1,1:1:0:0:
240,252,70241,22,2,P|284:236|328:244,1,63.7500024318696,2|2,1:1|1:1,1:1:0:0:
380,208,70463,2,6,L|408:180,4,31.8750012159348,6|6|6|6|6,1:1|1:1|1:1|1:1|1:1,1:1:0:0:
300,236,70796,1,2,1:1:0:0:
368,288,70907,1,2,1:1:0:0:
380,208,71018,1,2,1:1:0:0:
443,121,71130,38,0,B|467:45|467:45|415:49|367:9,1,170,0|0,1:1|1:1,1:1:0:0:
272,168,71574,1,0,1:1:0:0:
95,92,71796,2,0,L|47:48,1,42.5,6|0,1:1|1:1,1:1:0:0:
160,336,72018,2,2,L|104:376,4,42.5,2|2|2|2|2,1:1|1:1|1:1|1:1|1:1,1:1:0:0:
284,340,72352,2,0,P|320:244|292:168,1,170,0|0,1:1|1:1,1:1:0:0:
224,56,72685,2,0,P|188:108|188:164,1,85,0|0,1:1|1:1,1:1:0:0:
64,64,72907,37,0,1:1:0:0:
40,172,73018,1,0,1:1:0:0:
80,276,73130,1,0,1:1:0:0:
184,316,73241,1,0,1:1:0:0:
184,208,73352,53,0,1:1:0:0:
308,256,73463,1,0,1:1:0:0:
418,181,73575,1,0,1:1:0:0:
419,47,73685,1,0,1:1:0:0:
292,64,73796,38,0,B|272:52|272:52|259:70|259:70|255:56|255:56|244:76|244:76|241:59|241:59|229:79|229:79|225:64|225:64|213:83|213:83|193:71,1,170,0|0,1:1|1:1,1:1:0:0:
144,160,74130,1,0,1:1:0:0:
184,152,74241,1,0,1:1:0:0:
252,164,74352,1,0,1:1:0:0:
320,228,74463,1,0,1:1:0:0:
304,336,74574,1,0,1:1:0:0:
232,256,74685,6,0,P|248:168|336:108,1,170,0|0,1:1|1:1,1:1:0:0:
348,196,75018,2,0,B|316:216|324:236|324:236|356:272|356:272|440:272,1,170,0|0,1:1|1:1,1:1:0:0:
432,184,75352,2,0,L|492:108,1,85,0|0,1:1|1:1,1:1:0:0:
432,32,75574,6,0,L|325:164,1,170,0|0,1:1|1:1,1:1:0:0:
264,88,75907,2,0,L|157:220,1,170,0|0,1:1|1:1,1:1:0:0:
232,264,76241,2,0,L|136:376,1,85,0|0,1:1|1:1,1:1:0:0:
24,320,76463,37,0,1:1:0:0:
104,280,76574,1,0,1:1:0:0:
24,304,76685,1,0,1:1:0:0:
112,292,76796,1,0,1:1:0:0:
111,162,76907,5,0,1:1:0:0:
240,220,77018,1,0,1:1:0:0:
108,176,77129,1,0,1:1:0:0:
234,204,77240,1,0,1:1:0:0:
16,96,77352,5,0,1:1:0:0:
134,0,77463,1,0,1:1:0:0:
14,77,77574,1,0,1:1:0:0:
148,11,77685,1,0,1:1:0:0:
206,136,77796,5,0,1:1:0:0:
396,139,77907,1,0,1:1:0:0:
217,127,78018,1,0,1:1:0:0:
393,157,78129,1,0,1:1:0:0:
208,216,78241,38,0,P|188:312|224:392,1,170,0|0,1:1|1:1,1:1:0:0:
280,276,78574,2,0,P|302:197|252:112,1,170,0|0,1:1|1:1,1:1:0:0:
388,200,78907,2,0,L|416:108,1,85,0|0,1:1|1:1,1:1:0:0:
464,0,79130,22,0,L|301:48,1,170,0|0,1:1|1:1,1:1:0:0:
208,16,79463,2,0,L|45:64,1,170,0|0,1:1|1:1,1:1:0:0:
108,140,79796,2,0,L|194:111,1,85,0|0,1:1|1:1,1:1:0:0:
289,196,80018,37,0,1:1:0:0:
306,102,80130,1,0,1:1:0:0:
212,132,80241,1,0,1:1:0:0:
304,201,80352,1,0,1:1:0:0:
308,81,80463,5,0,1:1:0:0:
192,141,80574,1,0,1:1:0:0:
322,205,80685,1,0,1:1:0:0:
304,63,80796,1,0,1:1:0:0:
296,42,80907,5,0,1:1:0:0:
171,157,81018,1,0,1:1:0:0:
338,200,81130,1,0,1:1:0:0:
283,30,81241,1,0,1:1:0:0:
265,198,81352,37,0,1:1:0:0:
283,30,81463,1,0,1:1:0:0:
287,229,81574,1,0,1:1:0:0:
257,1,81685,1,0,1:1:0:0:
110,205,81796,38,0,P|138:173|178:165,1,85,0|0,1:1|1:1,1:1:0:0:
372,214,82018,2,0,B|380:174|380:174|356:142|356:142|380:98|364:58|364:58|356:38|376:6|396:34|396:34|416:50,1,255.000009727478,0|0,1:1|1:1,1:1:0:0:
469,137,82463,5,0,1:1:0:0:
448,236,82574,2,0,L|484:348,2,85,0|0|0,1:1|1:1|1:1,1:1:0:0:
342,283,82907,1,0,1:1:0:0:
352,160,83018,2,0,P|320:136|264:144,1,85,0|0,1:1|1:1,1:1:0:0:
208,180,83241,2,0,P|168:196|125:170,1,85,0|0,1:1|1:1,1:1:0:0:
48,176,83463,1,0,1:1:0:0:
47,263,83574,54,0,B|95:283|95:283|139:271|139:271|175:279|203:271|203:271|251:283|251:283|259:271|259:271|307:291|343:263,1,303.874986089707,0|0,1:1|1:1,1:1:0:0:
388,196,84907,2,0,P|413:233|424:136,1,255,8|0,1:1|1:1,1:1:0:0:
340,320,85352,6,0,L|252:304,1,85,0|0,1:1|1:1,1:1:0:0:
84,272,85574,1,4,1:1:0:0:
328,40,85685,2,0,L|303:125,1,85,0|0,1:1|1:1,1:1:0:0:
256,304,85907,1,0,1:1:0:0:
96,168,86018,2,0,L|176:124,1,85,4|0,1:1|1:1,1:1:0:0:
328,40,86241,5,0,1:1:0:0:
436,60,86352,1,0,1:1:0:0:
472,164,86463,1,4,1:1:0:0:
404,252,86574,1,0,1:1:0:0:
296,216,86685,54,0,P|258:203|215:202,1,85,0|0,1:1|1:1,1:1:0:0:
80,316,86907,2,0,P|118:329|161:330,1,85,4|0,1:1|1:1,1:1:0:0:
392,336,87130,2,0,L|407:238,1,85,0|0,1:1|1:1,1:1:0:0:
436,60,87352,1,4,1:1:0:0:
384,160,87463,2,0,L|280:144,1,85,0|0,1:1|1:1,1:1:0:0:
120,124,87685,1,0,1:1:0:0:
84,276,87796,2,0,B|120:288|120:288|168:276,1,85,4|0,1:1|1:1,1:1:0:0:
384,160,88018,21,2,0:0:0:0:
256,316,88241,1,0,0:0:0:0:
256,36,88463,1,2,0:0:0:0:
128,192,88686,1,4,1:1:0:0:
84,116,88796,1,0,1:1:0:0:
152,48,88907,38,0,B|208:44|208:44|264:72,1,85,0|0,1:1|1:1,1:1:0:0:
384,208,89130,1,4,1:1:0:0:
128,192,89241,2,0,B|184:196|184:196|244:172,1,85,0|0,1:1|1:1,1:1:0:0:
380,68,89463,1,0,1:1:0:0:
240,292,89574,2,0,P|280:320|324:316,1,85,4|0,1:1|1:1,1:1:0:0:
269,130,89796,6,0,L|190:161,1,85,0|0,1:1|1:1,1:1:0:0:
44,72,90018,2,0,L|132:104,1,85,4|0,1:1|1:1,1:1:0:0:
136,264,90241,2,0,L|104:180,1,85,0|0,1:1|1:1,1:1:0:0:
220,81,90463,2,0,L|188:165,1,85,4|0,1:1|1:1,1:1:0:0:
372,296,90685,54,0,L|340:212,1,85,0|0,1:1|1:1,1:1:0:0:
288,56,90907,1,4,1:1:0:0:
110,130,91018,2,0,L|205:166,1,85,0|0,1:1|1:1,1:1:0:0:
341,216,91241,1,0,1:1:0:0:
288,56,91352,2,0,L|188:16,1,85,4|0,1:1|1:1,1:1:0:0:
152,264,91574,37,6,1:1:0:0:
96,120,91685,2,0,P|112:52|144:40,1,85,4|0,1:1|1:1,1:1:0:0:
272,172,91907,2,0,P|261:241|356:300,1,170,2|0,1:1|1:1,1:1:0:0:
424,116,92241,2,0,L|400:20,1,85,4|0,1:1|1:1,1:1:0:0:
164,144,92463,22,0,L|264:164,1,85,0|0,1:1|1:1,1:1:0:0:
436,192,92685,1,4,1:1:0:0:
344,324,92796,2,0,L|320:232,1,85,0|0,1:1|1:1,1:1:0:0:
280,52,93018,1,0,1:1:0:0:
164,144,93130,2,0,L|188:236,1,85,4|0,1:1|1:1,1:1:0:0:
220,356,93352,5,0,1:1:0:0:
344,324,93463,1,0,1:1:0:0:
464,280,93574,1,4,1:1:0:0:
420,176,93685,1,0,1:1:0:0:
368,76,93796,54,0,P|296:84|284:124,1,85,0|0,1:1|1:1,1:1:0:0:
185,226,94018,1,4,1:1:0:0:
344,324,94130,1,0,1:1:0:0:
368,76,94241,6,0,L|416:168,1,85,0|0,1:1|1:1,1:1:0:0:
464,280,94463,1,4,1:1:0:0:
251,278,94574,2,0,L|175:218,1,85,0|0,1:1|1:1,1:1:0:0:
68,132,94796,1,0,1:1:0:0:
252,84,94907,2,0,L|352:56,1,85,4|0,1:1|1:1,1:1:0:0:
328,172,95130,54,0,L|425:209,1,85,2|0,1:1|1:1,1:1:0:0:
251,278,95352,2,0,L|315:351,1,85,4|0,1:1|1:1,1:1:0:0:
124,308,95574,2,0,L|100:208,1,85,2|0,1:1|1:1,1:1:0:0:
68,24,95796,1,4,1:1:0:0:
216,80,95907,1,0,1:1:0:0:
88,164,96018,6,0,L|196:188,1,85,0|0,1:1|1:1,1:1:0:0:
392,232,96241,1,4,1:1:0:0:
88,256,96352,2,0,L|196:280,1,85,0|0,1:1|1:1,1:1:0:0:
392,332,96575,1,4,1:1:0:0:
207,105,96685,2,0,L|168:188,1,85,0|4,1:1|1:1,1:1:0:0:
84,348,96907,54,0,L|192:324,1,85,0|0,1:1|1:1,1:1:0:0:
395,255,97130,1,4,1:1:0:0:
88,256,97241,2,0,L|176:200,1,85,0|0,1:1|1:1,1:1:0:0:
346,91,97464,1,4,1:1:0:0:
64,148,97574,2,0,L|132:56,1,85,0|4,1:1|1:1,1:1:0:0:
285,46,97796,6,0,P|341:73|345:105,1,85,0|0,1:1|1:1,1:1:0:0:
332,256,98018,1,4,1:1:0:0:
88,256,98130,2,0,L|136:176,1,85,0|0,1:1|1:1,1:1:0:0:
208,56,98352,1,4,1:1:0:0:
332,256,98463,2,0,L|276:332,1,85,0|4,1:1|1:1,1:1:0:0:
88,256,98685,5,2,1:1:0:0:
144,228,99018,1,2,1:1:0:0:
208,224,99352,2,0,P|240:224|280:240,1,63.75,6|0,1:1|1:1,1:1:0:0:
300,256,99574,54,0,L|328:160,1,85,0|0,1:1|1:1,1:1:0:0:
364,32,99796,1,4,1:1:0:0:
143,100,99907,2,0,L|247:124,1,85,0|0,1:1|1:1,1:1:0:0:
424,164,100130,1,0,1:1:0:0:
301,323,100241,2,0,L|267:231,1,85,4|0,1:1|1:1,1:1:0:0:
240,92,100463,54,0,B|248:68|260:62|260:62|208:86|156:78|156:78|136:114|136:114,1,170,8|4,1:1|1:1,1:1:0:0:
113,260,100796,2,0,P|197:276|285:232,1,170,8|4,1:1|1:1,1:1:0:0:
404,136,101130,2,0,P|364:108|312:112,1,85,4|0,0:0|0:0,0:0:0:0:
272,243,101352,6,0,L|312:352,2,85,0|0|4,1:1|1:1|1:1,1:1:0:0:
152,92,101685,2,0,L|196:8,2,85,0|0|0,1:1|1:1|1:1,1:1:0:0:
88,276,102018,2,0,P|128:288|184:272,1,85,4|0,1:1|1:1,1:1:0:0:
432,248,102241,21,2,1:1:0:0:
400,152,102352,1,0,1:1:0:0:
308,196,102463,1,4,1:1:0:0:
276,100,102574,1,0,1:1:0:0:
100,80,102685,38,0,P|84:128|112:180,1,85,2|0,1:1|1:1,1:1:0:0:
169,280,102907,2,4,L|256:268,1,85,4|0,1:1|1:1,1:1:0:0:
432,248,103130,6,0,P|436:192|424:156,1,85,0|0,1:1|1:1,1:1:0:0:
376,36,103352,1,4,1:1:0:0:
276,140,103463,2,0,L|184:160,1,85,0|0,1:1|1:1,1:1:0:0:
24,192,103685,1,0,1:1:0:0:
156,288,103796,2,0,L|248:268,1,85,4|0,1:1|1:1,1:1:0:0:
376,248,104018,38,0,B|412:280|412:280|396:224|408:184|408:184|436:152,1,170,8|4,1:1|1:1,1:1:0:0:
448,64,104352,2,0,P|364:32|268:52,1,170,8|4,1:1|1:1,1:1:0:0:
113,106,104685,2,0,L|168:172,1,85,4|0,1:1|1:1,1:1:0:0:
344,320,104907,6,0,L|256:300,1,85,0|0,1:1|1:1,1:1:0:0:
80,272,105130,1,4,1:1:0:0:
286,43,105241,2,0,L|276:140,1,85,0|0,1:1|1:1,1:1:0:0:
261,301,105463,1,0,1:1:0:0:
168,172,105574,2,0,L|104:96,1,85,4|0,1:1|1:1,1:1:0:0:
80,272,105796,5,2,1:1:0:0:
168,172,105907,2,0,P|204:132|244:120,1,85,0|4,1:1|1:1,1:1:0:0:
392,92,106130,2,0,P|380:16|356:96,1,170,2|0,1:1|1:1,1:1:0:0:
392,196,106463,2,0,P|409:234|406:276,1,85,4|0,1:1|1:1,1:1:0:0:
280,290,106685,6,0,L|177:257,1,85,0|0,1:1|1:1,1:1:0:0:
30,224,106907,1,4,1:1:0:0:
143,130,107018,2,0,L|245:162,1,85,0|0,1:1|1:1,1:1:0:0:
392,196,107240,1,0,1:1:0:0:
199,265,107352,2,0,B|175:257|140:252|140:252|160:220,1,85,4|0,1:1|1:1,1:1:0:0:
288,112,107574,22,0,B|316:92|324:72|324:72|268:36|208:64,1,170,8|4,1:1|1:1,1:1:0:0:
96,136,107907,2,0,B|76:148|52:156|52:156|16:216|64:276,1,170,8|4,1:1|1:1,1:1:0:0:
156,336,108241,2,4,P|208:356|248:344,1,85,4|0,1:1|1:1,1:1:0:0:
344,276,108463,6,0,L|312:184,1,85,0|0,1:1|1:1,1:1:0:0:
272,36,108685,1,4,1:1:0:0:
164,116,108796,2,0,L|193:214,1,85,0|0,1:1|1:1,1:1:0:0:
235,350,109018,1,0,1:1:0:0:
344,276,109130,2,0,L|396:200,1,85,4|0,1:1|1:1,1:1:0:0:
444,112,109352,5,2,1:1:0:0:
380,32,109463,1,0,1:1:0:0:
272,36,109574,1,4,1:1:0:0:
216,128,109685,1,0,1:1:0:0:
272,228,109796,6,0,L|384:264,1,85,2|0,1:1|1:1,1:1:0:0:
444,112,110018,2,0,L|328:128,1,85,4|0,1:1|1:1,1:1:0:0:
100,152,110241,22,0,P|96:200|124:236,1,85,0|0,1:1|1:1,1:1:0:0:
256,360,110463,1,4,1:1:0:0:
112,120,110574,2,0,P|136:152|212:176,1,85,0|0,1:1|1:1,1:1:0:0:
372,240,110796,1,4,1:1:0:0:
120,96,110907,2,0,P|172:116|224:104,1,85,0|4,1:1|1:1,1:1:0:0:
456,96,111130,6,0,B|428:56|384:52|384:52|376:72|376:72|304:48,1,170,8|4,1:1|1:1,1:1:0:0:
136,80,111463,2,0,P|196:156|272:176,1,170,8|4,1:1|1:1,1:1:0:0:
456,96,111796,2,0,P|428:52|384:44,1,85,4|0,1:1|1:1,1:1:0:0:
136,80,112018,22,0,L|112:168,1,85,0|4,1:1|1:1,1:1:0:0:
212,136,112352,2,0,L|200:240,1,85
296,180,112685,2,0,L|304:236,1,42.5,0|4,1:1|1:1,1:1:0:0:
456,120,112907,53,2,1:1:0:0:
284,16,113241,1,2,1:1:0:0:
264,212,113574,1,2,1:1:0:0:
164,240,113796,38,0,B|140:256|140:256|176:296|240:292,1,127.5,8|0,1:1|1:1,1:1:0:0:
392,216,114463,1,4,1:1:0:0:
364,112,114685,2,0,P|320:52|260:40,2,127.5,8|4|0,1:1|1:1|1:1,1:1:0:0:
256,216,115574,2,0,L|124:168,1,127.5,8|4,1:1|1:1,1:1:0:0:
180,320,116241,1,0,1:1:0:0:
368,192,116463,2,8,B|356:176|340:164|340:164|364:108|336:64,1,127.5,8|4,1:1|1:1,1:1:0:0:
304,320,117130,2,0,L|348:308,1,42.5,0|0,1:1|1:1,1:1:0:0:
428,320,117352,6,0,L|304:352,1,127.5,8|4,1:1|1:1,1:1:0:0:
144,264,118018,1,4,1:1:0:0:
116,240,118130,1,4,1:1:0:0:
124,204,118241,2,0,P|136:152|112:116,1,85,8|0,1:1|1:1,1:1:0:0:
172,56,118574,2,0,L|268:32,1,85,4|0,1:1|1:1,1:1:0:0:
316,104,118907,2,0,L|368:88,1,42.5,4|0,1:1|1:1,1:1:0:0:
436,60,119130,21,0,1:1:0:0:
392,332,119463,1,0,1:1:0:0:
268,176,119796,2,6,L|240:136,1,42.5,6|6,1:1|1:1,1:1:0:0:
180,56,120018,1,2,1:1:0:0:
68,36,120130,1,2,1:1:0:0:
104,148,120241,1,2,1:1:0:0:
180,56,120463,54,2,P|216:36|264:40,1,85,2|2,1:1|1:1,1:1:0:0:
364,152,120907,38,0,B|367:127|367:127|428:132|448:188,1,127.5,8|0,1:1|1:1,1:1:0:0:
224,220,121574,1,4,1:1:0:0:
188,232,121685,1,4,1:1:0:0:
164,200,121796,2,4,P|116:176|32:188,2,127.5,12|0|0,1:1|1:1|1:1,1:1:0:0:
336,224,122685,6,4,B|360:236|360:236|388:180|360:128|360:128|328:152,1,170,12|4,1:1|1:1,1:1:0:0:
122,196,123352,2,4,L|170:201,1,42.5,4|4,1:1|1:1,1:1:0:0:
336,224,123574,2,4,P|408:248|448:292,2,127.5,12|0|0,1:1|1:1|1:1,1:1:0:0:
68,296,124463,54,4,B|84:293|84:293|240:284,1,152.999995330811,12|4,1:1|1:1,1:1:0:0:
408,296,125018,2,4,L|388:232,1,50.9999984436036,4|4,1:1|1:1,1:1:0:0:
404,220,125241,1,4,1:1:0:0:
292,24,125352,2,4,L|188:172,1,178.499994552612,12|4,1:1|1:1,1:1:0:0:
100,296,125907,2,4,L|144:356,1,59.4999981842042,4|4,1:1|1:1,1:1:0:0:
164,348,126130,1,4,1:1:0:0:
284,197,126241,6,0,B|269:165|236:158,1,56.6666666666667,12|0,1:1|1:1,1:1:0:0:
120,200,126685,21,8,1:1:0:0:
216,280,126833,1,8,1:1:0:0:
243,159,126981,1,8,1:1:0:0:
128,48,127130,1,8,1:1:0:0:
72,320,127278,1,8,1:1:0:0:
16,144,127426,1,8,1:1:0:0:
201,178,127574,38,0,L|276:152,1,63.75,8|0,1:1|1:1,1:1:0:0:
272,168,128018,22,0,L|256:280,1,85,0|0,1:1|1:1,1:1:0:0:
332,232,128241,2,0,L|344:312,1,63.7500024318696,0|0,1:1|1:1,1:1:0:0:
408,272,128463,54,0,P|420:296|464:324,1,74.375,0|0,1:1|1:1,1:1:0:0:
504,256,128907,38,0,B|464:208|472:144|516:88|516:88|436:172|436:172|432:104|432:104|372:196|372:196|360:148,1,510,0|0,1:1|1:1,1:1:0:0:
304,36,129685,1,0,1:1:0:0:
164,20,129796,1,0,1:1:0:0:
52,68,129907,1,0,1:1:0:0:
20,160,130018,1,0,1:1:0:0:
60,252,130130,1,0,1:1:0:0:
128,284,130241,1,0,1:1:0:0:
360,232,130463,22,0,P|336:176|288:168,1,85,0|0,1:1|1:1,1:1:0:0:
252,208,130685,2,0,B|232:164|196:152|196:152|228:96|228:96|300:68|368:104|368:104|368:68|408:56,1,340,0|0,1:1|1:1,1:1:0:0:
388,348,131352,2,0,P|344:324|296:324,1,85,4|0,0:0|0:0,0:0:0:0:
252,208,131574,38,0,B|240:172|240:172|204:260|204:260|192:220|192:220|152:236|112:204,1,255,0|0,1:1|1:1,1:1:0:0:
120,92,132018,2,0,B|140:56|140:56|168:148|168:148|188:100|228:92|228:92|240:60,1,255,0|0,1:1|1:1,1:1:0:0:
380,32,132463,38,0,B|369:86|369:86|385:114|385:114|372:160,1,127.500004863739,0|0,1:1|1:1,1:1:0:0:
266,168,133130,54,0,P|250:224|270:272,1,85,4|0,1:1|1:1,1:1:0:0:
396,364,133352,2,0,P|412:308|392:260,1,85,0|0,1:1|1:1,1:1:0:0:
266,168,133574,54,0,L|274:103,1,42.5,0|0,1:1|1:1,1:1:0:0:
148,172,133685,2,0,L|114:142,1,42.5,0|0,1:1|1:1,1:1:0:0:
88,268,133796,2,0,L|39:283,1,42.5,0|0,1:1|1:1,1:1:0:0:
184,340,133907,2,0,L|161:380,1,42.5,0|0,1:1|1:1,1:1:0:0:
304,344,134018,2,0,L|323:384,1,42.5,0|0,1:1|1:1,1:1:0:0:
406,283,134130,2,0,L|448:310,1,42.5,0|0,1:1|1:1,1:1:0:0:
448,196,134241,6,0,B|432:184|408:184|408:184|424:120|424:120|400:48,1,170,0|0,1:1|1:1,1:1:0:0:
340,124,134574,2,0,B|256:168|160:120,1,170,0|0,1:1|1:1,1:1:0:0:
180,48,134907,2,0,B|148:48|148:48|108:64|96:104,1,85,0|0,1:1|1:1,1:1:0:0:
104,184,135130,37,4,1:1:0:0:
248,296,135352,2,0,L|232:336,1,42.5,2|0,1:1|1:1,1:1:0:0:
452,184,135574,2,0,L|500:196,1,42.5,2|0,1:1|1:1,1:1:0:0:
236,72,135796,2,0,L|212:32,1,42.5,2|0,1:1|1:1,1:1:0:0:
120,260,136018,6,0,B|152:296|152:296|176:188|176:188|208:220|244:216|244:216|248:288|248:288|300:240,1,340,0|0,1:1|1:1,1:1:0:0:
384,128,136685,1,4,1:1:0:0:
189,45,136907,2,0,L|161:13,1,42.5,0|0,1:1|1:1,1:1:0:0:
128,124,137018,2,0,L|76:108,1,42.5,0|0,1:1|1:1,1:1:0:0:
136,224,137130,2,0,L|84:244,1,42.5,0|0,1:1|1:1,1:1:0:0:
208,296,137241,2,0,L|200:340,1,42.5,0|0,1:1|1:1,1:1:0:0:
304,264,137352,2,0,L|344:292,1,42.5,0|0,1:1|1:1,1:1:0:0:
256,36,137796,5,0,1:1:0:0:
232,200,137907,1,0,1:1:0:0:
384,128,138018,2,0,P|396:76|376:32,1,85,0|0,1:1|1:1,1:1:0:0:
125,47,138241,2,0,P|115:87|128:128,1,85,0|0,1:1|1:1,1:1:0:0:
244,296,138463,2,0,L|328:248,1,85,4|0,1:1|1:1,1:1:0:0:
448,176,138685,5,0,1:1:0:0:
304,368,138907,1,8,1:1:0:0:
84,244,139130,1,8,1:1:0:0:
148,156,139241,1,0,1:1:0:0:
256,192,139352,1,12,1:1:0:0:
312,104,139463,1,0,1:1:0:0:
408,264,139574,54,0,B|428:204|404:156|404:156|448:176|448:176|416:64|416:64|448:84|492:56,1,340,0|0,1:1|1:1,1:1:0:0:
488,296,140241,1,4,1:1:0:0:
296,324,140463,54,0,L|248:348,1,42.5,0|0,1:1|1:1,1:1:0:0:
156,296,140574,2,0,L|96:292,1,42.5,0|0,1:1|1:1,1:1:0:0:
88,196,140685,2,0,L|32:160,1,42.5,0|0,1:1|1:1,1:1:0:0:
120,84,140796,2,0,L|108:12,1,42.5,0|0,1:1|1:1,1:1:0:0:
224,40,140907,2,0,L|260:-32,1,42.5,0|0,1:1|1:1,1:1:0:0:
224,40,141352,5,0,1:1:0:0:
112,64,141463,1,0,1:1:0:0:
64,184,141574,1,0,1:1:0:0:
136,300,141685,1,0,1:1:0:0:
252,352,141796,5,2,1:1:0:0:
276,348,141944,1,2,1:1:0:0:
296,344,142093,1,2,1:1:0:0:
412,292,142241,38,0,B|424:260|424:260|440:232|440:232|424:208|424:208|444:168|420:120,1,170,0|0,1:1|1:1,1:1:0:0:
372,60,142907,54,0,P|328:36|280:40,1,85,0|0,1:1|1:1,1:1:0:0:
208,48,143130,2,0,B|136:64|80:52|80:52|96:108|88:152|88:152|112:156|136:156|136:156|152:136|152:136|164:228|164:228|192:180|192:180|228:184|272:152,1,510,0|0,1:1|1:1,1:1:0:0:
360,104,143907,1,0,1:1:0:0:
468,180,144018,1,0,1:1:0:0:
464,294,144130,1,0,1:1:0:0:
388,359,144241,1,0,1:1:0:0:
297,374,144352,1,0,1:1:0:0:
227,342,144463,1,0,1:1:0:0:
112,208,144685,22,0,B|104:160|104:160|128:148|140:128,1,85,0|0,1:1|1:1,1:1:0:0:
152,52,144907,2,0,B|180:48|204:28|204:28|220:60|252:80|252:80|236:124|236:124|276:140|328:136|328:136|296:156|288:204,1,340,0|0,1:1|1:1,1:1:0:0:
295,362,145574,6,0,P|349:360|388:376,1,85,4|0,0:0|0:0,0:0:0:0:
448,296,145796,2,0,B|444:268|428:240|428:240|464:236|464:236|480:160|480:160|424:168|396:128,1,255,0|0,1:1|1:1,1:1:0:0:
304,144,146241,2,0,B|296:120|320:80|320:80|272:76|236:56|236:56|240:84|240:84|192:84|192:84|148:100,1,255,0|0,1:1|1:1,1:1:0:0:
204,184,146685,54,0,P|220:220|260:244,1,85,0|0,1:1|1:1,1:1:0:0:
390,143,147352,54,0,B|360:112|360:112|304:104,1,85,4|0,1:1|1:1,1:1:0:0:
122,241,147574,2,0,B|152:272|152:272|208:280,1,85,0|0,1:1|1:1,1:1:0:0:
348,228,147796,53,0,1:1:0:0:
164,156,147907,1,0,1:1:0:0:
324,288,148018,1,0,1:1:0:0:
188,96,148129,1,0,1:1:0:0:
284,336,148241,1,0,1:1:0:0:
228,48,148352,1,0,1:1:0:0:
348,228,148463,22,0,B|376:264|376:264|412:216|412:216|396:184|408:152,1,170,0|0,1:1|1:1,1:1:0:0:
492,148,148796,2,0,B|500:116|484:80|484:80|452:72|432:52|432:52|360:60,1,170,0|0,1:1|1:1,1:1:0:0:
332,120,149130,2,0,B|288:116|288:116|248:128,1,85,0|0,1:1|1:1,1:1:0:0:
184,212,149352,1,0,1:1:0:0:
328,244,149574,54,2,L|373:289,1,63.75,2|2,1:1|1:1,1:1:0:0:
388,268,149796,1,2,1:1:0:0:
424,140,149907,1,2,1:1:0:0:
416,116,150018,2,2,L|368:68,1,63.75,2|2,1:1|1:1,1:1:0:0:
236,68,150241,22,0,B|208:92|208:92|216:148|216:148|160:120|160:120|116:60|116:60|120:140|120:140|104:176,1,340,0|0,1:1|1:1,1:1:0:0:
236,360,150907,2,0,P|284:340|340:344,1,85,4|0,1:1|1:1,1:1:0:0:
464,332,151130,1,0,1:1:0:0:
360,256,151241,1,0,1:1:0:0:
316,140,151352,1,0,1:1:0:0:
372,24,151463,1,0,1:1:0:0:
455,122,151574,54,0,B|430:163|430:163|378:115|289:148,1,170,0|0,1:1|1:1,1:1:0:0:
324,356,152018,2,0,P|301:298|333:245,1,127.5,0|8,1:1|1:1,1:1:0:0:
356,228,152241,1,8,1:1:0:0:
132,72,152463,1,8,1:1:0:0:
324,356,152685,1,4,1:1:0:0:
432,112,152907,6,0,L|352:60,1,85,0|0,1:1|1:1,1:1:0:0:
80,272,153130,2,0,L|160:324,1,85,12|0,1:1|1:1,1:1:0:0:
377,264,153352,2,0,L|416:188,1,85,12|4,1:1|1:1,1:1:0:0:
134,119,153574,2,0,L|96:196,1,85,12|4,1:1|1:1,1:1:0:0:
151,318,153796,38,0,B|179:350|179:350|207:290|207:290|223:322|223:322|259:342|295:322|295:322|335:322,1,255,0|0,1:1|1:1,1:1:0:0:
412,336,154241,2,0,B|420:292|408:252|408:252|360:236|304:244,1,170,0|4,1:1|1:1,1:1:0:0:
204,248,154574,1,0,1:1:0:0:
384,116,154685,5,6,1:1:0:0:
264,172,154796,1,6,1:1:0:0:
432,116,154907,1,6,1:1:0:0:
236,156,155018,1,6,1:1:0:0:
436,84,155130,5,6,1:1:0:0:
327,9,155241,1,6,1:1:0:0:
193,7,155352,1,6,1:1:0:0:
92,82,155463,1,6,1:1:0:0:
144,240,155574,21,6,1:1:0:0:
92,148,155685,1,6,1:1:0:0:
124,260,155796,1,6,1:1:0:0:
104,120,155907,1,6,1:1:0:0:
228,188,156018,6,0,P|260:164|348:196,1,127.5,0|0,1:1|1:1,1:1:0:0:
360,164,156463,53,0,1:1:0:0:
396,80,156796,1,0,1:1:0:0:
304,92,157130,1,0,1:1:0:0:
252,184,157352,1,0,1:1:0:0:
224,236,157574,1,0,1:1:0:0:
192,284,157796,1,0,1:1:0:0:
304,332,158241,6,0,P|364:348|432:320,2,127.5,0|0|0,1:1|1:1|1:1,1:1:0:0:
228,264,159130,1,0,1:1:0:0:
152,192,159352,1,0,1:1:0:0:
168,180,159463,2,0,L|204:92,1,85,0|0,1:1|1:1,1:1:0:0:
216,92,159796,1,0,1:1:0:0:
296,176,160018,54,0,B|324:200|324:200|364:176|408:208,2,127.5,0|0|0,1:1|1:1|1:1,1:1:0:0:
216,92,160907,1,0,1:1:0:0:
184,52,161130,1,0,1:1:0:0:
152,12,161352,1,0,1:1:0:0:
104,104,161685,5,0,1:1:0:0:
96,124,161796,2,0,L|160:224,1,85,0|0,1:1|1:1,1:1:0:0:
54,211,162130,2,0,L|99:282,1,85,0|0,1:1|1:1,1:1:0:0:
92,300,162463,1,0,1:1:0:0:
260,208,162685,2,0,B|276:172|276:172|228:140|244:80,2,127.5,0|0|0,1:1|1:1|1:1,1:1:0:0:
196,292,163574,54,0,L|64:256,2,127.5,0|0|0,1:1|1:1|1:1,1:1:0:0:
328,296,164463,2,0,B|364:296|364:296|392:296|412:280,2,85,0|0|0,1:1|1:1|1:1,1:1:0:0:
372,140,165352,5,0,1:1:0:0:
236,64,165685,1,0,1:1:0:0:
116,144,166018,1,0,1:1:0:0:
176,204,166241,2,0,L|132:296,1,85,0|0,1:1|1:1,1:1:0:0:
152,300,166574,1,0,1:1:0:0:
288,248,166907,1,0,1:1:0:0:
304,328,167130,54,0,P|356:292|364:220,2,127.5,0|0|0,1:1|1:1|1:1,1:1:0:0:
208,304,168018,1,0,1:1:0:0:
184,268,168241,1,0,1:1:0:0:
160,232,168463,1,0,1:1:0:0:
308,64,168796,5,0,1:1:0:0:
298,85,168907,2,0,L|350:161,1,85,0|0,1:1|1:1,1:1:0:0:
252,184,169241,2,0,L|204:113,1,85,0|0,1:1|1:1,1:1:0:0:
215,94,169574,1,0,1:1:0:0:
280,280,169796,2,0,P|360:264|396:216,2,127.5,0|0|0,1:1|1:1|1:1,1:1:0:0:
256,192,170685,53,0,1:1:0:0:
248,184,171018,1,0,1:1:0:0:
240,176,171352,1,0,1:1:0:0:
136,76,171574,2,0,L|108:116,1,42.5,0|0,1:1|1:1,1:1:0:0:
116,132,171796,1,0,1:1:0:0:
52,204,172018,1,0,1:1:0:0:
192,280,172463,5,0,1:1:0:0:
200,272,172796,1,0,1:1:0:0:
208,264,173130,1,0,1:1:0:0:
332,216,173685,1,0,1:1:0:0:
284,144,174018,1,0,1:1:0:0:
376,144,174241,53,0,1:1:0:0:
368,136,174574,1,0,1:1:0:0:
360,128,174907,1,0,1:1:0:0:
264,48,175130,2,0,L|236:88,1,42.5,0|0,1:1|1:1,1:1:0:0:
244,104,175352,1,0,1:1:0:0:
184,172,175574,1,0,1:1:0:0:
256,296,176018,5,0,1:1:0:0:
264,304,176352,1,0,1:1:0:0:
272,312,176685,1,0,1:1:0:0:
384,240,177241,1,0,1:1:0:0:
288,160,177574,1,0,1:1:0:0:
192,160,177796,53,0,1:1:0:0:
200,172,178130,1,0,1:1:0:0:
208,184,178463,1,0,1:1:0:0:
312,228,178685,2,0,L|356:188,1,42.5,0|0,1:1|1:1,1:1:0:0:
364,204,178907,1,0,1:1:0:0:
436,140,179130,1,0,1:1:0:0:
236,56,179574,5,0,1:1:0:0:
228,64,179907,1,0,1:1:0:0:
220,72,180241,1,0,1:1:0:0:
80,104,180463,1,0,1:1:0:0:
172,152,180685,1,0,1:1:0:0:
184,160,180796,2,0,P|212:212|292:212,1,127.5,0|0,1:1|1:1,1:1:0:0:
368,200,181352,53,0,1:1:0:0:
360,192,181685,1,0,1:1:0:0:
352,184,182018,1,0,1:1:0:0:
284,112,182241,2,0,L|328:72,2,42.5,0|0|0,1:1|1:1|1:1,1:1:0:0:
144,184,183130,5,0,1:1:0:0:
360,192,183463,1,0,1:1:0:0:
160,200,183796,1,0,1:1:0:0:
256,192,184018,12,0,187574,1:1:0:0:
