osu file format v14

[General]
AudioFilename: SO SUS + KONKA _ ACORN_244096741_soundcloud.mp3
AudioLeadIn: 0
PreviewTime: 14907
Countdown: 0
SampleSet: Normal
StackLeniency: 0.4
Mode: 0
LetterboxInBreaks: 0
WidescreenStoryboard: 0

[Editor]
Bookmarks: 23123,26678,56678,71123,83567,85345,108456,113789,126234,128011,140456
DistanceSpacing: 1.3
BeatDivisor: 4
GridSize: 4
TimelineZoom: 1.299999

[Metadata]
Title:ACORN
TitleUnicode:ACORN
Artist:SO SUS + KONKA
ArtistUnicode:SO SUS + KONKA
Creator:squirrelpascals
Version:NORMAL
Source:
Tags:trap experimental door hinge
BeatmapID:965167
BeatmapSetID:413701

[Difficulty]
HPDrainRate:4
CircleSize:3.3
OverallDifficulty:4.5
ApproachRate:5
SliderMultiplier:1.2
SliderTickRate:1

[Events]
//Background and Video events
0,0,"acorn1366x768.png",0,0
//Break Periods
2,42885,52152
//Storyboard Layer 0 (Background)
//Storyboard Layer 1 (Fail)
//Storyboard Layer 2 (Pass)
//Storyboard Layer 3 (Foreground)
//Storyboard Sound Samples

[TimingPoints]
19,444.444444444444,4,1,1,100,1,0
15130,-100,4,1,1,100,0,1
18685,-100,4,1,1,100,0,0
19574,-100,4,1,1,100,0,1
21352,-100,4,1,1,100,0,0
22241,-100,4,1,1,100,0,1
27574,-100,4,1,1,100,0,0
29352,-100,4,1,1,100,0,1
32907,-100,4,1,1,100,0,0
33796,-100,4,1,1,100,0,1
35796,-100,4,1,1,100,0,0
70241,-100,4,1,1,50,0,0
71130,-100,4,1,1,100,0,0
85352,-100,4,1,1,100,0,1
98685,-100,4,1,1,100,0,0
99574,-100,4,1,1,100,0,1
112907,-100,4,1,1,100,0,0
128907,-100,4,1,1,100,0,1
132463,-100,4,1,1,100,0,0
133352,-100,4,1,1,100,0,1
135130,-100,4,1,1,100,0,0
136018,-100,4,1,1,100,0,1
141352,-100,4,1,1,100,0,0
143130,-100,4,1,1,100,0,1
146685,-100,4,1,1,100,0,0
147574,-100,4,1,1,100,0,1
149352,-100,4,1,1,100,0,0
156463,-100,4,1,1,50,0,0
184907,-100,4,1,1,40,0,0
185796,-100,4,1,1,30,0,0
186685,-100,4,1,1,20,0,0
187574,-100,4,1,1,10,0,0

[Colours]
Combo1 : 49,130,47
Combo2 : 218,218,218
Combo3 : 125,125,125
Combo4 : 242,136,30
Combo5 : 158,88,12

[HitObjects]
296,64,19,6,0,P|308:140|224:156,1,180
152,124,907,2,4,L|136:64,2,60
184,276,1796,6,0,P|216:316|284:320,1,120,4|4,0:0|0:0,0:0:0:0:
353,290,2463,1,0,0:0:0:0:
396,224,2685,2,4,B|396:160,2,60
436,292,3352,1,0,0:0:0:0:
353,290,3574,54,0,B|284:290|284:232|284:232|285:130,1,180,4|4,0:0|0:0,0:0:0:0:
284,76,4463,2,4,B|228:56,2,60
428,112,5352,5,8,0:0:0:0:
288,180,5796,1,8,0:0:0:0:
436,232,6241,2,4,B|504:256,2,60
288,180,7130,54,0,P|244:120|280:76,1,120,0|4,0:0|0:0,0:0:0:0:
336,60,7796,1,4,0:0:0:0:
412,40,8018,2,4,L|476:24,2,60
256,192,8907,12,4,11574,0:0:0:0:
316,180,12463,6,8,L|360:148,2,40
340,228,12907,2,8,L|392:228,2,40
332,280,13352,2,8,L|388:312,2,40
292,316,13796,1,8,0:0:0:0:
136,316,14241,54,0,B|84:288|84:288|120:272|136:232,1,120
224,124,15130,22,0,B|264:140|264:140|296:132|296:132|368:124|400:184,1,180
424,236,16018,2,0,L|496:236,2,60
267,226,16907,38,0,B|267:178|267:178|227:154|219:106,1,120
220,44,17574,1,4,0:0:0:0:
152,84,17796,38,0,L|96:140,1,60
84,200,18241,2,0,P|104:252|180:236,1,120
328,84,19352,1,4,0:0:0:0:
404,100,19574,38,0,B|432:124|428:168,1,60
404,228,20018,1,0,0:0:0:0:
328,252,20241,1,0,0:0:0:0:
264,204,20463,2,0,B|228:176|228:176|168:176,2,90
328,252,21352,22,0,L|328:316,2,60
356,180,22018,1,0,0:0:0:0:
324,108,22241,54,0,B|296:68|256:64|256:64|212:80,1,120
156,116,22907,1,4,0:0:0:0:
156,196,23130,2,0,L|156:260,2,60
156,40,24018,38,0,L|76:24,2,60,0|8|8,0:0|0:0|0:0,0:0:0:0:
224,76,24685,1,4,0:0:0:0:
300,84,24907,2,0,P|336:104|360:128,1,60,0|8,0:0|0:0,0:0:0:0:
351,195,25352,2,0,P|371:235|415:255,1,60,8|8,0:0|0:0,0:0:0:0:
424,312,25796,38,0,P|356:288|276:300,1,120
236,256,26463,1,4,0:0:0:0:
292,199,26685,2,0,L|356:195,2,60
176,95,27574,38,0,L|96:107,1,60
60,160,28018,2,2,L|8:140,2,40
104,188,28463,6,0,B|228:168,1,120
268,104,29130,1,0,0:0:0:0:
312,172,29352,54,0,B|340:208|340:208|340:248|340:248|304:280|228:264,1,180
204,204,30241,2,0,L|168:155,2,60
288,72,31130,54,0,B|320:56|320:56|364:60|380:120,1,120
372,188,31796,1,4,0:0:0:0:
404,264,32018,22,0,P|432:272|468:264,1,60
484,192,32463,2,0,B|496:128|496:128|476:64,1,120
248,40,33574,1,4,0:0:0:0:
172,56,33796,6,0,P|136:72|108:104,1,60
84,156,34241,1,0,0:0:0:0:
92,232,34463,1,0,0:0:0:0:
144,296,34685,2,0,B|200:304|200:304|228:236|300:236,1,180
368,268,35574,21,2,0:0:0:0:
416,208,35796,2,2,L|492:208,2,60
352,164,36463,22,0,B|304:136|304:136|220:140,1,120
160,140,37130,1,4,0:0:0:0:
104,88,37352,2,0,L|36:88,2,60
260,64,38241,38,0,B|276:52|304:52|304:52|332:56|332:56|384:40,1,120,0|8,0:0|0:0,0:0:0:0:
428,100,38907,1,4,0:0:0:0:
400,172,39130,2,0,L|304:200,1,60,0|8,0:0|0:0,0:0:0:0:
292,248,39574,2,8,L|232:220,1,60,8|12,0:0|0:0,0:0:0:0:
172,180,40018,6,0,P|148:128|188:48,1,120
236,36,40685,1,4,0:0:0:0:
292,92,40907,2,6,L|364:116,2,60
168,204,41796,2,6,L|96:228,1,60
64,284,42241,54,0,P|96:336|160:312,1,120
256,192,53352,12,0,56018,0:0:0:0:
300,96,56907,6,0,B|264:152|300:180|300:180|264:208|300:264,1,180
356,308,57796,2,0,P|416:320|408:216,1,180
380,164,58685,2,0,B|340:140|320:96|320:96|280:120|227:121,1,180,0|0,0:3|0:3,0:3:0:0:
160,124,59574,2,0,P|112:132|64:160,2,90
236,120,60463,54,0,B|280:120|320:96|320:96|368:64|424:68,1,180
424,144,61352,2,0,B|404:184|364:208|364:208|404:240|420:296,1,180
364,340,62241,2,0,P|328:332|272:340,2,90
440,356,63130,2,0,P|508:332|468:236,1,180
428,192,64018,6,0,B|352:140|352:140|256:152,1,180
196,192,64907,2,0,B|196:296|196:296|228:268|276:256,1,180
340,252,65796,2,0,L|436:292,2,90
300,184,66685,2,0,P|256:104|300:20,1,180
348,88,67574,54,0,P|256:116|168:80,1,180
100,80,68463,2,0,B|64:160|64:160|112:240,1,180
160,300,69352,2,0,P|152:340|96:376,2,90
188,228,70241,21,2,0:0:0:0:
316,140,70685,1,2,0:0:0:0:
392,276,71130,54,0,P|448:220|436:168,1,120,0|4,0:0|0:0,0:0:0:0:
384,84,72018,2,0,B|372:56|372:56|376:36|376:36|360:-4,2,90,0|2|0,0:0|0:0|0:0,0:0:0:0:
348,152,72907,2,0,B|300:196|228:164,1,120
236,12,73796,2,0,B|192:12|192:12|136:36,2,90
308,40,74685,54,2,P|380:36|428:68,1,120,0|0,0:0|0:0,0:0:0:0:
496,196,75574,2,2,P|424:200|376:168,1,120,0|0,0:0|0:0,0:0:0:0:
268,72,76463,2,0,L|276:8,2,60
160,184,77352,2,0,L|152:243,2,60
88,44,78241,6,0,P|32:68|16:108,2,90
148,92,79130,2,0,B|164:180|164:180|204:156|256:156,1,180
320,192,80018,2,0,P|384:132|348:52,2,180
164,204,81796,38,0,B|104:180|60:180|60:180|48:132|84:84|84:84|148:124|252:92,1,360
380,60,83574,2,0,B|412:52|432:36|432:36|448:52|452:72|452:72|444:100|452:128|452:128|448:156|420:172|420:172|444:192|456:216|456:216|424:256|452:300,1,360
296,320,85352,6,0,P|232:320|168:352,2,120,0|4|0,0:0|0:0|0:0,0:0:0:0:
356,372,86463,1,0,0:0:0:0:
424,328,86685,1,4,0:0:0:0:
428,172,87130,6,0,B|428:108|428:108|400:52,1,120,0|4,0:0|0:0,0:0:0:0:
248,48,88018,1,2,0:0:0:0:
212,200,88463,1,6,0:0:0:0:
72,132,88907,54,0,P|52:200|68:260,1,120,0|4,0:0|0:0,0:0:0:0:
204,308,89796,2,0,B|220:372,2,60,0|0|4,0:0|0:0|0:0,0:0:0:0:
188,156,90685,6,0,P|240:136|316:160,1,120,0|4,0:0|0:0,0:0:0:0:
444,212,91574,1,2,0:0:0:0:
436,56,92018,1,6,0:0:0:0:
280,48,92463,54,0,P|216:80|228:116,1,120,0|4,0:0|0:0,0:0:0:0:
332,224,93352,2,0,B|360:232|360:232|416:232,2,60,0|0|4,0:0|0:0|0:0,0:0:0:0:
180,184,94241,6,0,P|116:212|164:264,1,120,0|4,0:0|0:0,0:0:0:0:
264,320,95130,2,0,B|296:328|296:328|336:328,2,60,2|0|6,0:0|0:0|0:0,0:0:0:0:
108,332,96018,54,0,P|56:296|44:232,1,120,0|4,0:0|0:0,0:0:0:0:
40,165,96685,1,0,0:0:0:0:
43,87,96907,2,0,B|75:55|75:55|175:47,1,120,0|4,0:0|0:0,0:0:0:0:
228,44,97574,1,0,0:0:0:0:
288,96,97796,22,0,P|288:164|232:188,1,120,0|4,0:0|0:0,0:0:0:0:
116,276,98685,2,2,B|60:264|60:264|36:236,2,90
192,288,99574,54,0,L|312:256,1,120,0|4,0:0|0:0,0:0:0:0:
364,204,100241,1,0,0:0:0:0:
388,132,100463,2,8,B|392:98|392:98|379:66|351:50,2,90,8|12|0,0:0|0:0|0:0,0:0:0:0:
364,204,101352,54,0,B|300:240|240:184,1,120,0|4,0:0|0:0,0:0:0:0:
196,140,102018,1,0,0:0:0:0:
144,84,102241,2,0,B|124:60|124:60|112:24,2,60,2|0|6,0:0|0:0|0:0,0:0:0:0:
276,136,103130,6,0,B|266:212|196:220,1,120,0|4,0:0|0:0,0:0:0:0:
60,284,104018,2,0,B|60:312|60:312|60:344|88:376,2,90,8|12|0,0:0|0:0|0:0,0:0:0:0:
60,204,104907,54,0,B|60:176|60:176|60:128|100:92,1,120,0|4,0:0|0:0,0:0:0:0:
240,36,105796,1,2,0:0:0:0:
240,192,106241,1,6,0:0:0:0:
384,136,106685,6,0,P|448:112|496:136,1,120,0|4,0:0|0:0,0:0:0:0:
492,212,107352,1,0,0:0:0:0:
440,268,107574,2,0,B|440:300|440:300|448:332|484:360,2,90,8|12|0,0:0|0:0|0:0,0:0:0:0:
492,212,108463,54,0,P|472:152|408:128,1,120,0|4,0:0|0:0,0:0:0:0:
276,84,109352,1,2,0:0:0:0:
264,240,109796,1,6,0:0:0:0:
108,224,110241,6,0,P|92:288|144:304,1,120,0|4,0:0|0:0,0:0:0:0:
208,300,110907,1,0,0:0:0:0:
284,320,111130,2,0,B|368:356,2,90,8|12|0,0:0|0:0|0:0,0:0:0:0:
264,240,112018,54,0,P|224:184|160:204,1,120,0|4,0:0|0:0,0:0:0:0:
120,240,112685,1,0,0:0:0:0:
64,188,112907,2,2,B|36:148|36:148|36:100,2,90
120,240,113796,6,0,B|152:268|152:268|188:280|252:252,1,120,8|0,0:0|0:0,0:0:0:0:
371,235,114685,2,0,B|423:207|423:207|447:171|431:119|387:92,1,180,8|0,0:0|0:0,0:0:0:0:
324,72,115574,54,0,L|236:32,2,90,8|0|4,0:0|0:0|0:0,0:0:0:0:
398,100,116463,2,0,L|398:224,1,120,8|0,0:0|0:0,0:0:0:0:
364,292,117130,1,4,0:0:0:0:
300,336,117352,6,0,B|248:360|200:344,2,90,8|0|4,0:0|0:0|0:0,0:0:0:0:
364,292,118241,2,0,B|364:224|290:218|290:218|282:190|282:190|258:182|246:162,1,180,8|4,0:0|0:0,0:0:0:0:
236,96,119130,54,0,L|212:4,2,90,8|0|0,0:0|0:0|0:0,0:0:0:0:
254,172,120018,2,2,P|274:204|306:224,1,60
360,256,120463,1,2,0:0:0:0:
416,204,120685,1,2,0:0:0:0:
444,276,120907,6,8,B|492:288|496:352|440:360|440:360|384:348|384:348|320:364,1,240
36,252,122685,2,8,B|80:196|40:132|40:132|40:72|40:72|72:28,1,240
376,32,124463,54,0,B|424:48|424:48|436:128,1,120,8|0,0:0|0:0,0:0:0:0:
296,184,125352,2,0,B|248:200|248:200|236:280,1,120,8|0,0:0|0:0,0:0:0:0:
388,304,126241,38,0,P|424:272|424:232,1,80,8|8,0:0|0:0,0:0:0:0:
404,196,126685,2,8,L|456:172,2,40
368,156,127130,2,8,L|388:112,2,40
316,144,127574,1,8,0:0:0:0:
280,296,128018,38,0,B|232:256|212:336|144:264,1,120
100,144,128907,54,0,B|180:144|180:144|240:60,1,180
316,48,129796,2,0,L|380:64,2,60
160,48,130685,38,0,P|136:116|176:176,1,120
212,208,131352,1,4,0:0:0:0:
272,256,131574,54,0,L|316:216,1,60
384,180,132018,2,0,P|380:120|312:96,1,120
144,236,133130,1,4,0:0:0:0:
108,164,133352,38,0,L|144:88,1,60
212,124,133796,2,0,L|240:64,1,60
304,28,134241,2,0,B|336:8|336:8|408:8,2,90
237,69,135130,6,0,B|208:84|208:84|176:120,1,60,0|2,0:0|0:0,0:0:0:0:
148,172,135574,2,2,B|144:204|144:204|123:243,1,60
172,296,136018,54,0,B|212:312|212:312|248:288|292:312,1,120
356,340,136685,1,4,0:0:0:0:
420,296,136907,2,0,L|496:288,2,60
372,148,137796,6,0,L|448:140,2,60,0|8|8,0:0|0:0|0:0,0:0:0:0:
296,124,138463,1,4,0:0:0:0:
232,80,138685,2,0,L|232:16,2,60,0|8|8,0:0|0:0|0:0,0:0:0:0:
220,156,139352,1,12,0:0:0:0:
148,184,139574,6,0,P|120:232|148:312,1,120
200,332,140241,1,4,0:0:0:0:
272,300,140463,2,0,L|324:328,2,60
192,168,141352,6,0,L|244:140,1,60
268,64,141796,2,2,L|316:40,2,40
216,64,142241,38,0,B|172:64|148:40|148:40|100:60,1,120
40,96,142907,1,0,0:0:0:0:
20,172,143130,54,0,B|36:232|36:232|28:276|60:312|104:300,1,180
184,308,144018,2,0,L|200:372,2,60
152,156,144907,6,0,P|152:120|224:80,1,120
276,28,145574,1,4,0:0:0:0:
332,84,145796,22,0,L|412:76,1,60
456,120,146241,2,0,P|484:144|448:216,1,120
228,260,147352,1,4,0:0:0:0:
156,228,147574,54,0,L|128:164,1,60
108,96,148018,2,0,B|156:60,1,60
232,44,148463,2,0,P|272:48|320:76,2,90
156,60,149352,37,2,0:0:0:0:
92,104,149574,2,0,B|44:140,1,60,2|2,0:0|0:0,0:0:0:0:
20,216,150018,1,2,0:0:0:0:
72,276,150241,2,0,B|124:308|124:308|196:308,1,120
248,264,150907,1,4,0:0:0:0:
292,200,151130,38,0,L|292:128,2,60
384,328,152018,2,0,B|412:340|444:332,1,60
484,264,152463,2,0,L|464:132,1,120
424,80,153130,21,8,0:0:0:0:
352,112,153352,1,8,0:0:0:0:
296,60,153574,1,12,0:0:0:0:
232,104,153796,6,0,B|172:104|172:104|120:140,1,120
136,216,154463,1,4,0:0:0:0:
200,264,154685,6,6,B|232:264|232:264|260:280,1,60
320,324,155130,1,6,0:0:0:0:
396,332,155352,1,6,0:0:0:0:
460,288,155574,2,6,L|476:212,1,60
488,152,156018,37,0,0:0:0:0:
364,56,156463,2,0,P|324:28|280:16,2,90
428,100,157352,2,0,B|480:36,2,60
288,160,158241,2,0,L|188:160,2,90
364,172,159130,2,0,P|380:212|356:260,1,90
276,332,159796,1,0,0:0:0:0:
224,272,160018,6,0,B|172:280|172:280|132:300,2,90
303,253,160907,2,0,L|367:253,2,60
188,164,161796,2,0,P|152:128|140:72,2,90
264,140,162685,2,0,B|284:116|286:93|286:93|332:62,1,90
420,128,163352,1,0,0:0:0:0:
456,200,163574,54,0,B|440:248|440:248|396:288,2,90
496,132,164463,2,0,L|504:64,2,60
356,196,165352,2,0,P|308:208|252:192,2,90
404,136,166241,2,0,B|380:92|380:92|404:72|400:28|400:28|332:28,1,180
260,32,167130,6,0,P|204:40|148:36,2,90
339,28,168018,2,0,B|416:28|416:28|406:80,1,120
364,220,168907,2,0,P|352:264|312:320,2,90
328,152,169796,2,0,B|272:144|228:112,2,90
396,116,170685,54,0,P|420:76|428:28,2,90
328,152,171574,2,0,L|348:216,2,60
208,56,172463,2,0,B|184:56|184:56|148:44|112:60,2,90
372,164,173685,2,0,P|380:112|412:92,1,90
488,100,174241,6,0,B|504:208,2,90
456,28,175130,2,0,P|424:16|388:16,1,60
324,32,175574,1,0,0:0:0:0:
196,124,176018,2,0,P|152:88|148:40,2,90
276,304,177241,2,0,L|376:276,1,90
432,244,177796,54,0,B|448:272|436:308|436:308|436:352,2,90
432,164,178685,2,0,L|432:96,2,60
288,220,179574,2,0,B|240:252|240:204|192:236,2,90
360,184,180463,1,0,0:0:0:0:
448,104,180796,2,0,P|444:56|396:44,1,90
332,56,181352,6,0,B|288:76|288:76|272:136,2,90
409,41,182241,2,0,P|440:52|456:88,1,60
456,152,182685,1,0,0:0:0:0:
384,292,183130,54,0,B|340:296|340:296|284:260,2,90
256,192,184018,12,0,187574,0:0:0:0:
