osu file format v14

[General]
AudioFilename: SO SUS + KONKA _ ACORN_244096741_soundcloud.mp3
AudioLeadIn: 0
PreviewTime: 14907
Countdown: 0
SampleSet: Normal
StackLeniency: 0.4
Mode: 0
LetterboxInBreaks: 0
WidescreenStoryboard: 0

[Editor]
Bookmarks: 23123,26678,71123,83567,85345,108456,113789,120018,126234,128011,140456
DistanceSpacing: 0.8
BeatDivisor: 2
GridSize: 4
TimelineZoom: 0.8999988

[Metadata]
Title:ACORN
TitleUnicode:ACORN
Artist:SO SUS + KONKA
ArtistUnicode:SO SUS + KONKA
Creator:squirrelpascals
Version:EASY
Source:
Tags:trap experimental door hinge
BeatmapID:916643
BeatmapSetID:413701

[Difficulty]
HPDrainRate:2
CircleSize:3
OverallDifficulty:3
ApproachRate:3
SliderMultiplier:0.999999999999999
SliderTickRate:1

[Events]
//Background and Video events
0,0,"acorn1366x768.png",0,0
//Break Periods
2,42885,51912
//Storyboard Layer 0 (Background)
//Storyboard Layer 1 (Fail)
//Storyboard Layer 2 (Pass)
//Storyboard Layer 3 (Foreground)
//Storyboard Sound Samples

[TimingPoints]
19,444.444444444444,4,1,1,100,1,0
15130,-100,4,1,1,100,0,1
18685,-100,4,1,1,100,0,0
19574,-100,4,1,1,100,0,1
21352,-100,4,1,1,100,0,0
22241,-100,4,1,1,100,0,1
27574,-100,4,1,1,100,0,0
29352,-100,4,1,1,100,0,1
32907,-100,4,1,1,100,0,0
33796,-100,4,1,1,100,0,1
35574,-100,4,1,1,100,0,0
70241,-100,4,1,1,50,0,0
71130,-100,4,1,1,100,0,0
85352,-100,4,1,1,100,0,1
98685,-100,4,1,1,100,0,0
99574,-100,4,1,1,100,0,1
112907,-100,4,1,1,100,0,0
128907,-100,4,1,1,100,0,1
132463,-100,4,1,1,100,0,0
133352,-100,4,1,1,100,0,1
135130,-100,4,1,1,100,0,0
136018,-100,4,1,1,100,0,1
141352,-100,4,1,1,100,0,0
143130,-100,4,1,1,100,0,1
146685,-100,4,1,1,100,0,0
147574,-100,4,1,1,100,0,1
149352,-100,4,1,1,100,0,0
157352,-100,4,1,1,50,0,0
184907,-100,4,1,1,40,0,0
185796,-100,4,1,1,30,0,0
186685,-100,4,1,1,20,0,0
187574,-100,4,1,1,10,0,0

[Colours]
Combo1 : 49,130,47
Combo2 : 218,218,218
Combo3 : 125,125,125
Combo4 : 242,136,30
Combo5 : 158,88,12

[HitObjects]
124,92,19,5,0,0:0:0:0:
264,168,907,2,0,B|356:198|356:102|452:134,1,200,4|0,0:0|0:0,0:0:0:0:
492,204,2241,1,0,0:0:0:0:
448,272,2685,2,0,B|408:304|344:284,1,99.9999999999999,4|0,0:0|0:0,0:0:0:0:
276,260,3574,5,0,0:0:0:0:
120,292,4463,2,0,B|88:252|108:188,1,99.9999999999999,4|4,0:0|0:0,0:0:0:0:
152,132,5352,1,4,0:0:0:0:
216,184,5796,2,4,L|324:200,1,99.9999999999999
388,240,6685,1,4,0:0:0:0:
466,207,7130,53,4,0:0:0:0:
376,76,8018,2,4,B|332:48|332:48|276:100|236:36|176:112,1,200
136,148,9352,1,0,0:0:0:0:
161,229,9796,2,0,P|129:317|17:313,2,200,4|4|4,0:0|0:0|0:0,0:0:0:0:
304,152,12463,6,8,B|360:168|360:168|400:240|344:328,2,200
144,172,15130,6,0,B|112:188|76:188|76:188|80:236|64:268|64:268|100:284|128:300|128:300|164:284|208:284,1,300
280,284,16907,1,4,0:0:0:0:
464,340,17796,6,0,B|484:288|484:288|476:244,1,99.9999999999999
452,168,18685,1,4,0:0:0:0:
320,80,19574,2,0,P|320:36|276:0,2,99.9999999999999
288,152,20907,1,4,0:0:0:0:
208,136,21352,22,0,P|168:176|192:232,1,99.9999999999999,2|2,0:0|0:0,0:0:0:0:
224,280,22241,2,0,L|332:240,1,99.9999999999999,0|4,0:0|0:0,0:0:0:0:
376,192,23130,2,4,P|416:152|416:72,2,99.9999999999999,0|0|8,0:0|0:0|0:0,0:0:0:0:
317,245,24463,1,12,0:0:0:0:
364,312,24907,22,4,P|416:348|484:364,2,99.9999999999999,8|12|8,0:0|0:0|0:0,0:0:0:0:
317,245,26241,1,4,0:0:0:0:
284,172,26685,2,0,B|252:128|252:128|192:96,1,99.9999999999999
132,124,27574,2,2,B|136:176|136:176|172:232,1,99.9999999999999,0|2,0:0|0:0,0:0:0:0:
188,292,28463,53,2,0:0:0:0:
348,276,29352,2,0,B|412:240|412:240|356:184|356:184|408:160|432:104|392:48,1,300
332,104,31130,1,4,0:0:0:0:
176,76,32018,22,0,B|144:116|144:116|104:116|80:136,1,99.9999999999999
48,188,32907,1,4,0:0:0:0:
156,292,33796,2,0,P|196:336|256:328,1,99.9999999999999,4|4,0:0|0:0,0:0:0:0:
292,284,34685,2,0,P|340:291|369:330,1,99.9999999999999,4|4,0:0|0:0,0:0:0:0:
448,304,35574,54,2,P|480:276|488:208,2,99.9999999999999,2|2|0,0:0|0:0|0:0,0:0:0:0:
304,232,37352,2,0,L|216:184,2,99.9999999999999,0|0|8,0:0|0:0|0:0,0:0:0:0:
360,172,38685,2,0,L|412:80,1,99.9999999999999,8|8,0:0|0:0,0:0:0:0:
364,16,39574,53,8,0:0:0:0:
292,52,40018,2,0,P|255:84|206:84,1,99.9999999999999,8|0,0:0|0:0,0:0:0:0:
124,72,40907,2,6,P|72:88|48:144,1,99.9999999999999
96,192,41796,2,6,P|112:244|168:268,1,99.9999999999999,6|0,0:0|0:0,0:0:0:0:
228,244,42685,53,0,0:0:0:0:
256,192,53352,12,0,55574,0:0:0:0:
312,212,56907,6,0,L|424:176,2,99.9999999999999
248,164,58241,2,0,P|184:148|164:92,2,99.9999999999999,0|0|0,0:0|0:0|0:0,0:0:0:0:
308,108,59574,2,0,P|367:80|418:111,1,99.9999999999999,0|0,0:0|0:0,0:0:0:0:
464,136,60463,54,0,B|444:208|444:208|464:240|464:240|440:332,1,200
364,352,61796,1,0,0:0:0:0:
300,300,62241,2,0,P|252:276|212:296,1,99.9999999999999,0|0,0:0|0:0,0:0:0:0:
144,336,63130,1,0,0:0:0:0:
80,288,63574,1,0,0:0:0:0:
126,218,64018,6,0,P|120:168|94:126,2,99.9999999999999
80,288,65352,1,0,0:0:0:0:
160,296,65796,2,0,P|210:290|252:264,2,99.9999999999999
124,224,67130,1,0,0:0:0:0:
141,143,67574,54,0,L|245:115,1,99.9999999999999
312,83,68463,1,0,0:0:0:0:
392,68,68907,1,0,0:0:0:0:
412,144,69352,2,0,P|376:176|324:156,1,99.9999999999999
312,83,70241,2,2,P|292:44|240:32,1,99.9999999999999
164,56,71130,22,8,B|136:92|136:92|168:128|168:128|116:184|168:244,1,200
232,240,72463,1,4,0:0:0:0:
304,204,72907,2,0,L|404:148,1,99.9999999999999,0|0,0:0|0:0,0:0:0:0:
396,76,73796,2,0,B|364:76|364:76|292:116,1,99.9999999999999,0|4,0:0|0:0,0:0:0:0:
232,148,74685,6,0,P|176:148|136:116,2,99.9999999999999,0|0|0,0:0|0:0|0:0,0:0:0:0:
304,109,76018,1,4,0:0:0:0:
372,152,76463,2,0,B|412:184|412:184|412:236,1,99.9999999999999,0|0,0:0|0:0,0:0:0:0:
368,304,77352,2,0,B|324:324|324:324|268:308,1,99.9999999999999,0|4,0:0|0:0,0:0:0:0:
205,268,78241,54,0,B|141:216|141:216|209:200|237:140,1,200
256,72,79574,2,0,B|296:28|356:56|356:56|384:108|384:108|384:144,1,200,0|0,0:0|0:0,0:0:0:0:
324,192,80907,2,0,B|280:216|280:216|228:200,1,99.9999999999999,0|0,0:0|0:0,0:0:0:0:
160,164,81796,22,0,B|140:152|120:128|120:128|96:144|72:152|72:152|48:192|76:264|76:264|108:252|156:256,1,300
232,252,83574,2,0,B|276:248|300:268|300:268|328:256|328:256|368:268|404:256|404:256|456:272|488:208|444:180,1,300,0|8,0:0|0:0,0:0:0:0:
392,128,85352,6,0,P|352:92|340:32,2,99.9999999999999,0|4|0,0:0|0:0|0:0,0:0:0:0:
452,184,86685,1,4,0:0:0:0:
388,232,87130,2,0,P|372:278|335:311,1,99.9999999999999,0|4,0:0|0:0,0:0:0:0:
256,308,88018,2,2,L|176:224,1,99.9999999999999,2|6,0:0|0:0,0:0:0:0:
136,172,88907,6,0,B|104:132|104:132|104:72,2,99.9999999999999,0|4|0,0:0|0:0|0:0,0:0:0:0:
187,235,90241,1,4,0:0:0:0:
268,236,90685,2,0,B|324:236|324:236|372:208,1,99.9999999999999,0|4,0:0|0:0,0:0:0:0:
400,144,91574,1,2,0:0:0:0:
400,64,92018,1,6,0:0:0:0:
324,40,92463,54,0,L|204:72,1,99.9999999999999,0|4,0:0|0:0,0:0:0:0:
152,92,93352,1,0,0:0:0:0:
136,168,93796,1,4,0:0:0:0:
200,220,94241,2,0,P|260:232|308:196,1,99.9999999999999,0|4,0:0|0:0,0:0:0:0:
348,156,95130,1,2,0:0:0:0:
424,180,95574,1,6,0:0:0:0:
468,248,96018,6,0,B|496:300|496:300|497:347,2,99.9999999999999,0|4|0,0:0|0:0|0:0,0:0:0:0:
424,180,97352,1,4,0:0:0:0:
436,100,97796,2,0,P|404:52|352:44,1,99.9999999999999,0|4,0:0|0:0,0:0:0:0:
284,48,98685,1,2,0:0:0:0:
216,92,99130,1,6,0:0:0:0:
144,60,99574,54,0,P|88:128|100:140,1,99.9999999999999,0|4,0:0|0:0,0:0:0:0:
92,192,100463,2,12,B|100:240|100:240|156:268,1,99.9999999999999
224,276,101352,2,0,P|296:276|344:252,2,99.9999999999999,0|4|2,0:0|0:0|0:0,0:0:0:0:
196,200,102685,1,6,0:0:0:0:
192,120,103130,6,0,B|212:76|212:76|280:48,1,99.9999999999999,0|4,0:0|0:0,0:0:0:0:
340,40,104018,2,0,B|420:32|432:116,1,99.9999999999999,8|12,0:0|0:0,0:0:0:0:
392,156,104907,1,0,0:0:0:0:
316,176,105352,1,4,0:0:0:0:
276,248,105796,2,2,B|296:296|296:296|336:324,1,99.9999999999999,2|6,0:0|0:0,0:0:0:0:
408,288,106685,54,0,P|424:228|404:196,1,99.9999999999999,0|4,0:0|0:0,0:0:0:0:
356,132,107574,2,0,P|306:132|262:109,2,99.9999999999999,8|12|0,0:0|0:0|0:0,0:0:0:0:
432,112,108907,1,4,0:0:0:0:
432,32,109352,2,0,P|384:8|332:12,1,99.9999999999999,0|4,0:0|0:0,0:0:0:0:
292,72,110241,6,0,B|268:120|268:120|224:140,1,99.9999999999999,0|4,0:0|0:0,0:0:0:0:
148,134,111130,2,4,P|92:142|52:190,2,99.9999999999999,8|12|0,0:0|0:0|0:0,0:0:0:0:
226,139,112463,1,4,0:0:0:0:
304,144,112907,5,2,0:0:0:0:
280,280,113796,38,0,B|248:304|248:304|164:304,1,99.9999999999999,0|4,0:0|0:0,0:0:0:0:
120,264,114685,2,0,B|84:212|136:160,1,99.9999999999999,8|0,0:0|0:0,0:0:0:0:
196,132,115574,1,0,0:0:0:0:
260,180,116018,1,4,0:0:0:0:
284,256,116463,2,0,P|336:284|400:248,1,99.9999999999999,8|0,0:0|0:0,0:0:0:0:
432,220,117352,5,0,0:0:0:0:
396,148,117796,1,4,0:0:0:0:
320,168,118241,2,0,P|224:152|208:52,1,200,8|0,0:0|0:0,0:0:0:0:
272,20,119574,1,4,0:0:0:0:
352,32,120018,2,0,P|400:8|452:16,1,99.9999999999999,8|0,0:0|0:0,0:0:0:0:
476,88,120907,54,8,B|468:136|468:136|508:172|484:244|424:244,1,200
292,152,122685,2,8,P|188:112|88:152,1,200
212,260,124463,38,0,L|284:340,1,99.9999999999999,8|4,0:0|0:0,0:0:0:0:
356,320,125352,2,0,B|356:288|356:288|300:228,1,99.9999999999999,8|4,0:0|0:0,0:0:0:0:
264,172,126241,1,8,0:0:0:0:
312,108,126685,2,0,L|284:-12,2,99.9999999999999,8|8|8,0:0|0:0|0:0,0:0:0:0:
348,180,128018,54,0,P|400:212|396:256,1,99.9999999999999
340,300,128907,2,0,B|256:296|256:296|232:264|232:264|172:296|84:232|112:168,1,300
144,116,130685,1,4,0:0:0:0:
296,68,131574,54,0,B|320:72|348:64|348:64|360:80|388:88,1,99.9999999999999
384,168,132463,1,4,0:0:0:0:
272,284,133352,1,0,0:0:0:0:
212,232,133796,1,0,0:0:0:0:
216,152,134241,2,4,B|264:132|264:132|320:132,1,99.9999999999999,0|0,0:0|0:0,0:0:0:0:
384,168,135130,54,0,B|432:188|432:188|488:188,1,99.9999999999999,2|2,0:0|0:0,0:0:0:0:
476,268,136018,2,0,P|432:296|364:292,1,99.9999999999999,0|4,0:0|0:0,0:0:0:0:
316,248,136907,1,0,0:0:0:0:
236,273,137352,1,4,0:0:0:0:
180,216,137796,2,0,B|156:184|156:184|156:112,1,99.9999999999999,8|12,0:0|0:0,0:0:0:0:
196,56,138685,22,0,P|260:48|288:80,1,99.9999999999999,8|12,0:0|0:0,0:0:0:0:
312,144,139574,2,0,B|324:192|324:192|368:220,1,99.9999999999999,0|4,0:0|0:0,0:0:0:0:
372,304,140463,2,0,P|324:340|276:344,1,99.9999999999999
204,340,141352,1,2,0:0:0:0:
176,264,141796,1,2,0:0:0:0:
104,232,142241,6,0,P|80:184|92:128,1,99.9999999999999
148,88,143130,2,0,B|192:80|192:80|200:68|200:68|256:44|312:72|312:72|320:84|320:84|364:92|364:92|400:100|416:140,1,300
432,212,144907,1,4,0:0:0:0:
304,308,145796,22,0,P|239:320|191:276,1,99.9999999999999,0|0,0:0|0:0,0:0:0:0:
154,248,146685,1,4,0:0:0:0:
96,80,147574,5,0,0:0:0:0:
144,16,148018,1,0,0:0:0:0:
216,52,148463,2,4,L|328:76,1,99.9999999999999,4|0,0:0|0:0,0:0:0:0:
392,64,149352,5,2,0:0:0:0:
412,140,149796,1,2,0:0:0:0:
480,184,150241,2,0,P|472:248|404:248,1,99.9999999999999,0|4,0:0|0:0,0:0:0:0:
364,252,151130,5,0,0:0:0:0:
320,184,151574,1,4,0:0:0:0:
320,104,152018,2,0,P|272:80|224:92,1,99.9999999999999,8|12,0:0|0:0,0:0:0:0:
160,132,152907,21,8,0:0:0:0:
100,184,153352,1,12,0:0:0:0:
136,256,153796,2,0,P|192:296|240:292,1,99.9999999999999,0|4,0:0|0:0,0:0:0:0:
300,292,154685,2,6,B|348:284|348:284|392:248,1,99.9999999999999
436,188,155574,2,0,P|408:140|356:116,1,99.9999999999999,2|0,0:0|0:0,0:0:0:0:
292,116,156463,5,0,0:0:0:0:
240,260,157352,2,0,L|316:344,2,99.9999999999999
152,128,159130,2,0,P|128:84|128:16,2,99.9999999999999,0|0|0,0:0|0:0|0:0,0:0:0:0:
296,196,160907,54,0,L|408:168,1,99.9999999999999,0|0,0:0|0:0,0:0:0:0:
472,188,161796,1,0,0:0:0:0:
512,260,162241,1,0,0:0:0:0:
468,328,162685,2,0,P|424:348|356:312,1,99.9999999999999
316,280,163574,6,0,L|216:240,2,99.9999999999999
436,172,165352,2,0,L|508:84,2,99.9999999999999
280,228,167130,54,0,P|220:236|168:200,1,99.9999999999999,0|0,0:0|0:0,0:0:0:0:
136,156,168018,1,0,0:0:0:0:
152,76,168463,1,0,0:0:0:0:
228,48,168907,2,0,P|276:52|320:88,2,99.9999999999999,0|0|0,0:0|0:0|0:0,0:0:0:0:
84,120,170685,5,0,0:0:0:0:
116,192,171130,1,0,0:0:0:0:
196,208,171574,2,0,L|248:304,1,99.9999999999999,0|0,0:0|0:0,0:0:0:0:
320,324,172463,1,0,0:0:0:0:
392,292,172908,1,0,0:0:0:0:
404,76,174241,53,0,0:0:0:0:
328,112,174685,1,0,0:0:0:0:
280,48,175130,2,0,P|220:32|176:44,1,99.9999999999999
112,72,176018,1,0,0:0:0:0:
72,144,176463,1,0,0:0:0:0:
280,264,177796,6,0,B|328:292|392:272,1,99.9999999999999
452,244,178685,2,0,B|467:195|439:147,1,99.9999999999999
360,148,179574,1,0,0:0:0:0:
296,100,180018,1,0,0:0:0:0:
56,180,181352,54,0,P|48:244|68:296,1,99.9999999999999
132,308,182241,2,0,P|196:316|248:296,1,99.9999999999999
304,272,183130,1,0,0:0:0:0:
376,236,183574,1,0,0:0:0:0:
256,192,184018,12,0,187574,0:0:0:0:
