osu file format v14

[General]
AudioFilename: audio.mp3
AudioLeadIn: 0
PreviewTime: 47108
Countdown: 0
SampleSet: Soft
StackLeniency: 0.7
Mode: 0
LetterboxInBreaks: 0
SkinPreference:Default
WidescreenStoryboard: 1

[Editor]
DistanceSpacing: 1.2
BeatDivisor: 16
GridSize: 4
TimelineZoom: 1

[Metadata]
Title:Sleeping Beast
TitleUnicode:Sleeping Beast
Artist:SNoW
ArtistUnicode:SNoW
Creator:Oofington3
Version:Insane
Source:
Tags:english, pop
BeatmapID:4575803
BeatmapSetID:2168552

[Difficulty]
HPDrainRate:7
CircleSize:5.5
OverallDifficulty:5
ApproachRate:7
SliderMultiplier:1.7
SliderTickRate:1

[Events]
//Background and Video events
0,0,"bg.jpg",0,0
//Break Periods
2,86760,113426
//Storyboard Layer 0 (Background)
//Storyboard Layer 1 (Fail)
//Storyboard Layer 2 (Pass)
//Storyboard Layer 3 (Foreground)
//Storyboard Layer 4 (Overlay)
//Storyboard Sound Samples

[TimingPoints]
8530.10273972603,410.958904109589,4,2,0,100,1,0

[HitObjects]
220,192,1672,5,4,0:0:0:0:
324,193,2006,1,0,0:0:0:0:
347,149,2108,1,0,0:0:0:0:
268,125,2417,1,0,0:0:0:0:
296,82,2519,1,0,0:0:0:0:
365,128,2776,1,0,0:0:0:0:
330,170,2905,1,0,0:0:0:0:
272,96,3187,1,0,0:0:0:0:
234,133,3316,1,0,0:0:0:0:
184,186,3623,1,0,0:0:0:0:
149,230,3727,1,0,0:0:0:0:
64,220,4008,1,0,0:0:0:0:
48,172,4112,1,0,0:0:0:0:
84,56,4446,1,0,0:0:0:0:
136,76,4523,1,0,0:0:0:0:
211,158,4831,1,0,0:0:0:0:
245,197,4934,1,0,0:0:0:0:
300,208,5242,1,0,0:0:0:0:
357,208,5524,6,4,L|388:83,2,127.5
324,160,6372,1,0,0:0:0:0:
281,122,6475,1,0,0:0:0:0:
239,85,6578,1,0,0:0:0:0:
196,128,6886,1,0,0:0:0:0:
200,180,6989,1,0,0:0:0:0:
288,208,7297,1,0,0:0:0:0:
328,244,7399,1,0,0:0:0:0:
319,135,7708,1,0,0:0:0:0:
306,75,7990,2,4,B|189:124|196:131|188:124|195:131|184:118,1,138.125
191,123,8530,6,0,L|366:253,1,212.5
361,249,9120,2,0,L|367:130,1,116.875
355,89,9531,1,0,0:0:0:0:
332,91,9660,1,0,0:0:0:0:
263,97,9840,2,0,P|143:120|143:121,1,170
238,189,10687,6,4,L|333:153,1,95.625
384,114,11175,1,0,0:0:0:0:
314,186,11483,1,0,0:0:0:0:
309,210,11586,1,0,0:0:0:0:
238,189,11740,1,0,0:0:0:0:
96,208,12716,6,0,B|185:141|185:141|273:189,1,212.5
158,223,14360,6,4,L|161:186,1,31.875
170,166,14540,1,0,0:0:0:0:
190,130,14720,1,0,0:0:0:0:
217,144,14899,1,0,0:0:0:0:
234,156,14977,1,0,0:0:0:0:
254,167,15079,1,0,0:0:0:0:
208,181,16107,6,0,L|308:150,2,95.625
173,219,16723,1,0,0:0:0:0:
167,248,16877,1,0,0:0:0:0:
158,280,17006,1,0,0:0:0:0:
315,207,17828,2,4,L|125:206,1,180.625
132,155,18444,1,0,0:0:0:0:
131,121,18598,1,0,0:0:0:0:
134,242,19163,1,0,0:0:0:0:
214,277,19574,1,0,0:0:0:0:
286,219,20165,5,0,0:0:0:0:
232,160,20627,1,0,0:0:0:0:
288,228,20781,1,0,0:0:0:0:
285,228,20961,2,0,L|377:316,1,127.5
285,228,22091,1,0,0:0:0:0:
354,197,22708,2,4,B|388:160|388:160|400:152|412:148|412:148,1,74.375
352,108,23170,1,8,0:0:0:0:
328,144,23427,1,0,0:0:0:0:
304,193,23607,1,8,0:0:0:0:
304,193,23941,5,8,0:0:0:0:
304,193,24172,2,0,B|143:184|191:217,2,138.125
291,263,25225,2,0,L|171:151,2,159.375
306,180,26355,1,0,0:0:0:0:
282,198,26817,2,0,B|200:264|200:264|152:264|108:268,1,191.25
104,204,27434,1,0,0:0:0:0:
224,204,27588,1,0,0:0:0:0:
252,176,27691,1,0,0:0:0:0:
278,146,27793,1,0,0:0:0:0:
199,141,28179,1,8,0:0:0:0:
199,141,28333,2,4,B|121:148|120:148|119:123|119:123|132:111|150:93,1,138.125
264,121,29026,5,8,0:0:0:0:
252,185,29283,2,4,P|281:254|315:208,1,159.375
363,133,30054,1,0,0:0:0:0:
336,160,30310,1,0,0:0:0:0:
309,185,30516,1,0,0:0:0:0:
288,207,31132,2,0,L|170:169,1,116.875
197,153,31697,1,0,0:0:0:0:
250,133,31929,1,0,0:0:0:0:
336,170,32108,2,0,B|193:89|193:89|152:123|152:123,2,212.5
336,170,33367,1,0,0:0:0:0:
256,241,33804,5,0,0:0:0:0:
297,192,33983,1,0,0:0:0:0:
320,167,34060,1,0,0:0:0:0:
336,143,34137,1,0,0:0:0:0:
336,104,34240,2,0,L|248:112,1,85
336,143,35139,2,4,B|284:144|284:144|139:144|193:217,1,212.5
256,241,35833,1,8,0:0:0:0:
319,200,36167,1,8,0:0:0:0:
316,169,36244,1,8,0:0:0:0:
309,140,36578,1,8,0:0:0:0:
306,123,36655,1,8,0:0:0:0:
306,123,37220,6,4,B|312:216|312:216|320:209|319:208,1,95.625
364,172,37631,1,4,0:0:0:0:
304,122,38221,2,0,B|234:146|234:146|220:150|198:167,1,116.875
202,205,38658,1,0,0:0:0:0:
297,224,39043,2,0,B|381:221|325:182|325:182,1,201.875
232,168,39968,1,0,0:0:0:0:
299,225,40353,1,0,0:0:0:0:
228,243,40867,6,4,L|222:180,2,63.75
299,225,41304,1,8,0:0:0:0:
356,216,41509,1,8,0:0:0:0:
346,165,41612,1,0,0:0:0:0:
316,132,41689,1,8,0:0:0:0:
283,95,41869,2,4,B|205:164|304:183|304:183|352:164,1,180.625
346,166,42716,5,0,0:0:0:0:
309,166,42947,2,0,P|234:211|230:213,2,85
361,181,43564,1,0,0:0:0:0:
326,162,44129,5,2,0:0:0:0:
293,147,44334,1,2,0:0:0:0:
251,126,44514,1,2,0:0:0:0:
213,107,44720,1,2,0:0:0:0:
186,114,44822,1,0,0:0:0:0:
164,124,44951,1,2,0:0:0:0:
145,140,45054,1,0,0:0:0:0:
126,151,45182,1,2,0:0:0:0:
130,182,45233,1,0,0:0:0:0:
140,214,45336,1,2,0:0:0:0:
144,220,45542,2,2,B|7:344|151:320|279:140|261:296|256:290,1,286.875
276,272,46569,5,0,0:0:0:0:
192,224,46877,1,0,0:0:0:0:
144,208,47185,1,0,0:0:0:0:
176,176,47391,1,0,0:0:0:0:
192,224,47494,2,4,L|236:225,1,42.5
288,232,47776,1,0,0:0:0:0:
256,272,48033,1,0,0:0:0:0:
214,302,48213,2,0,P|160:301|117:257,1,116.875
192,224,48624,5,0,0:0:0:0:
240,48,48881,1,0,0:0:0:0:
288,224,49266,1,0,0:0:0:0:
136,136,49625,1,0,0:0:0:0:
328,136,50062,1,8,0:0:0:0:
191,217,50293,1,8,0:0:0:0:
240,212,50473,1,0,0:0:0:0:
308,205,50653,1,0,0:0:0:0:
308,205,50756,1,0,0:0:0:0:
191,217,51167,5,0,0:0:0:0:
280,125,51423,1,0,0:0:0:0:
321,227,51886,1,0,0:0:0:0:
376,224,52014,1,0,0:0:0:0:
321,227,52220,2,0,P|222:193|277:169,1,255
272,169,52939,1,0,0:0:0:0:
384,184,53093,1,8,0:0:0:0:
276,179,53401,1,8,0:0:0:0:
384,184,53658,1,8,0:0:0:0:
276,179,53889,2,4,P|186:182|186:182,2,85
232,184,54737,5,0,0:0:0:0:
202,131,55122,2,0,P|248:125|302:207,1,148.75
303,199,55790,1,0,0:0:0:0:
207,253,56201,1,0,0:0:0:0:
282,156,56637,1,0,0:0:0:0:
207,253,56843,1,0,0:0:0:0:
207,253,57203,6,4,L|284:148,1,127.5
206,159,57819,1,0,0:0:0:0:
343,157,58024,1,0,0:0:0:0:
277,274,58461,2,0,B|274:143|274:143|273:95,2,170
196,294,59617,5,8,0:0:0:0:
301,290,59822,1,8,0:0:0:0:
267,249,59951,1,8,0:0:0:0:
232,205,60156,1,8,0:0:0:0:
196,164,60259,1,8,0:0:0:0:
164,120,60465,1,8,0:0:0:0:
253,178,60901,1,0,0:0:0:0:
253,178,61286,2,0,B|155:161|169:162,2,85
253,178,61903,2,0,L|377:201,1,116.875
367,199,62571,1,0,0:0:0:0:
320,262,62802,1,0,0:0:0:0:
214,197,63187,2,0,P|148:151|80:216,1,180.625
77,214,63727,6,4,L|219:197,1,138.125
213,194,64343,1,0,0:0:0:0:
174,270,64548,1,0,0:0:0:0:
139,129,64780,1,0,0:0:0:0:
312,164,64985,1,0,0:0:0:0:
299,251,65139,1,0,0:0:0:0:
243,251,65473,2,0,B|131:255|302:202|243:156,1,148.75
253,166,66167,1,8,0:0:0:0:
162,81,66475,1,8,0:0:0:0:
253,166,66783,1,8,0:0:0:0:
163,88,66989,1,8,0:0:0:0:
162,81,67399,2,0,L|248:162,1,116.875
251,160,67785,1,0,0:0:0:0:
251,160,68247,5,0,0:0:0:0:
240,78,68504,2,0,P|174:139|324:151,1,350.625
324,150,69429,1,0,0:0:0:0:
298,206,69685,1,0,0:0:0:0:
297,203,69840,2,0,B|280:236|244:238|217:223,1,85
167,182,70225,2,0,L|178:204,5,21.25
121,129,70739,1,0,0:0:0:0:
170,121,71047,5,0,0:0:0:0:
203,116,71458,1,0,0:0:0:0:
236,111,71894,1,0,0:0:0:0:
283,109,72280,1,0,0:0:0:0:
340,106,72691,1,8,0:0:0:0:
326,138,72870,1,8,0:0:0:0:
320,167,72999,1,8,0:0:0:0:
334,203,73307,1,8,0:0:0:0:
349,235,73512,1,8,0:0:0:0:
349,235,74078,2,0,B|184:240|184:240|169:244,2,180.625
349,235,75156,1,0,0:0:0:0:
355,146,75567,5,0,0:0:0:0:
257,71,75978,1,0,0:0:0:0:
146,70,76364,1,0,0:0:0:0:
105,163,76800,1,0,0:0:0:0:
176,204,77185,1,2,0:0:0:0:
247,239,77622,1,2,0:0:0:0:
317,180,78007,1,2,0:0:0:0:
201,153,78444,1,0,0:0:0:0:
116,172,78855,5,0,0:0:0:0:
168,180,79215,1,8,0:0:0:0:
184,212,79420,1,8,0:0:0:0:
200,256,79523,1,8,0:0:0:0:
195,305,79625,1,8,0:0:0:0:
147,282,79831,1,8,0:0:0:0:
136,248,80036,1,8,0:0:0:0:
120,177,80627,1,0,0:0:0:0:
110,146,80833,1,0,0:0:0:0:
101,112,80935,1,0,0:0:0:0:
186,128,81655,5,0,0:0:0:0:
295,149,82477,1,0,0:0:0:0:
190,226,83298,1,0,0:0:0:0:
53,147,83709,1,0,0:0:0:0:
162,87,84095,1,0,0:0:0:0:
274,142,84531,1,0,0:0:0:0:
232,203,84917,1,0,0:0:0:0:
159,236,85328,1,0,0:0:0:0:
232,203,85764,1,8,0:0:0:0:
156,247,85970,1,8,0:0:0:0:
156,247,86047,1,8,0:0:0:0:
234,209,86175,1,8,0:0:0:0:
264,152,86355,1,8,0:0:0:0:
281,124,86560,1,12,0:0:0:0:
172,290,114326,6,0,P|149:246|149:245,4,53.125
189,250,115148,1,0,0:0:0:0:
145,243,115456,6,4,P|174:115|175:115,2,180.625
145,243,116792,1,0,0:0:0:0:
168,188,116971,2,0,B|192:136|192:136|128:108,1,127.5
82,153,117434,1,0,0:0:0:0:
61,188,117819,1,0,0:0:0:0:
46,238,118281,1,0,0:0:0:0:
212,218,118872,1,8,0:0:0:0:
166,237,119103,1,8,0:0:0:0:
136,248,119206,1,4,0:0:0:0:
39,230,119848,6,0,B|49:97|56:100|56:100|59:98,1,127.5
148,138,120336,1,0,0:0:0:0:
191,83,120670,2,8,L|289:181,2,138.125
191,83,121518,1,2,0:0:0:0:
278,69,121903,1,4,0:0:0:0:
274,148,122494,6,0,P|243:195|243:196,2,53.125
274,148,122879,2,0,P|339:160|386:168,1,106.25
404,224,123341,1,0,0:0:0:0:
328,224,123547,1,0,0:0:0:0:
279,153,123958,2,0,L|204:88,1,95.625
280,88,124394,5,0,0:0:0:0:
279,153,124677,1,0,0:0:0:0:
279,153,124857,2,0,L|277:254,3,95.625
155,197,125756,1,8,0:0:0:0:
117,148,125961,1,8,0:0:0:0:
83,100,126167,1,8,0:0:0:0:
119,66,126372,1,8,0:0:0:0:
159,60,126552,1,8,0:0:0:0:
229,57,126757,5,8,0:0:0:0:
263,75,126834,1,8,0:0:0:0:
288,88,126936,1,8,0:0:0:0:
315,112,127039,1,8,0:0:0:0:
337,137,127142,1,8,0:0:0:0:
338,164,127245,1,8,0:0:0:0:
335,192,127347,1,8,0:0:0:0:
328,226,127450,1,8,0:0:0:0:
302,244,127578,1,8,0:0:0:0:
268,260,127656,1,8,0:0:0:0:
212,267,127707,2,8,L|212:284,4,10.625
200,205,128015,5,4,0:0:0:0:
195,173,128195,1,4,0:0:0:0:
128,160,128298,2,8,L|128:183,4,21.25
128,160,128632,1,8,0:0:0:0:
164,97,128838,1,0,0:0:0:0:
209,104,129043,1,0,0:0:0:0:
253,113,129300,1,0,0:0:0:0:
288,125,129480,2,0,P|237:212|237:212,1,95.625
208,213,129840,5,0,0:0:0:0:
247,47,130225,1,0,0:0:0:0:
329,210,130456,1,0,0:0:0:0:
169,129,130893,1,0,0:0:0:0:
351,128,131278,1,0,0:0:0:0:
213,216,131689,1,8,0:0:0:0:
247,47,131946,1,8,0:0:0:0:
247,47,132357,6,0,B|209:208|209:207,1,159.375
209,213,132896,2,0,P|180:204|160:208,1,42.5
216,276,133127,1,0,0:0:0:0:
214,216,133487,2,0,L|267:184,1,53.125
264,183,133744,2,0,P|217:135|125:223,1,223.125
179,210,134746,1,8,0:0:0:0:
264,183,134925,1,8,0:0:0:0:
179,210,135028,1,8,0:0:0:0:
264,183,135336,1,8,0:0:0:0:
246,240,135542,6,0,P|309:298|311:298,2,95.625
310,159,136415,1,0,0:0:0:0:
245,192,136775,1,0,0:0:0:0:
305,98,137032,2,0,P|199:125|194:132,1,116.875
163,189,137442,1,0,0:0:0:0:
98,218,137802,1,0,0:0:0:0:
85,160,138136,2,0,P|86:134|85:134,4,31.875
125,210,138804,1,4,0:0:0:0:
184,178,139420,6,0,P|238:142|238:142,1,63.75
235,141,139677,1,0,0:0:0:0:
325,150,140037,1,0,0:0:0:0:
307,200,140319,2,0,L|291:232,8,31.875
341,144,141270,1,8,0:0:0:0:
334,86,141501,1,8,0:0:0:0:
316,50,141578,1,8,0:0:0:0:
269,31,141860,1,8,0:0:0:0:
245,88,142091,6,0,B|248:136|248:136|292:192,1,116.875
290,190,142528,1,0,0:0:0:0:
316,76,142811,1,0,0:0:0:0:
300,104,142913,1,0,0:0:0:0:
289,132,143299,1,0,0:0:0:0:
245,158,143504,1,0,0:0:0:0:
205,220,143787,1,0,0:0:0:0:
173,158,143941,1,0,0:0:0:0:
206,95,144403,1,0,0:0:0:0:
311,100,144788,2,0,L|310:141,4,31.875
240,81,145353,1,4,0:0:0:0:
202,159,146021,5,0,0:0:0:0:
255,194,146201,1,0,0:0:0:0:
281,214,146278,1,0,0:0:0:0:
306,231,146381,1,0,0:0:0:0:
363,254,146561,1,0,0:0:0:0:
435,204,146740,2,0,L|347:123,1,116.875
352,130,147203,1,0,0:0:0:0:
297,169,147588,2,0,L|275:196,4,31.875
332,120,148025,1,0,0:0:0:0:
357,85,148127,1,8,0:0:0:0:
410,77,148410,5,8,0:0:0:0:
431,133,148615,2,0,L|337:152,1,95.625
276,162,149052,2,0,P|280:216|281:217,2,53.125
353,186,149489,1,0,0:0:0:0:
310,246,149848,1,0,0:0:0:0:
253,243,150157,2,0,B|181:69|181:69|140:109|140:109,1,244.375
128,162,151081,1,0,0:0:0:0:
100,216,151312,1,0,0:0:0:0:
68,280,151466,1,0,0:0:0:0:
128,162,151877,2,0,B|146:144|146:144|155:134,5,31.875
82,217,152417,2,0,L|70:243,2,21.25
82,217,152674,5,0,0:0:0:0:
116,223,152905,1,0,0:0:0:0:
162,223,153162,1,0,0:0:0:0:
210,214,153341,1,0,0:0:0:0:
256,195,153521,1,2,0:0:0:0:
304,172,153701,1,2,0:0:0:0:
352,148,153907,1,0,0:0:0:0:
397,124,154086,1,0,0:0:0:0:
400,47,154343,5,8,0:0:0:0:
347,47,154523,1,8,0:0:0:0:
294,51,154651,1,8,0:0:0:0:
242,59,154960,1,8,0:0:0:0:
194,79,155191,1,8,0:0:0:0:
140,106,155679,2,0,L|132:153,5,42.5
199,160,156809,5,0,0:0:0:0:
313,170,157605,1,0,0:0:0:0:
426,94,158401,1,0,0:0:0:0:
221,69,158838,1,0,0:0:0:0:
93,78,159249,1,0,0:0:0:0:
25,145,159634,1,0,0:0:0:0:
116,223,160071,1,0,0:0:0:0:
284,206,160482,1,0,0:0:0:0:
323,102,160867,1,8,0:0:0:0:
276,79,161047,1,8,0:0:0:0:
237,62,161150,1,8,0:0:0:0:
196,47,161278,1,8,0:0:0:0:
162,76,161458,1,8,0:0:0:0:
126,111,161663,1,4,0:0:0:0:
95,178,162331,6,0,L|130:185,7,31.875
261,186,163307,1,0,0:0:0:0:
401,244,163718,1,0,0:0:0:0:
451,106,164129,1,0,0:0:0:0:
301,161,164540,1,0,0:0:0:0:
195,197,164951,1,0,0:0:0:0:
383,187,165362,1,0,0:0:0:0:
187,35,165773,1,0,0:0:0:0:
378,29,166184,1,0,0:0:0:0:
383,187,166595,1,0,0:0:0:0:
183,192,166980,1,0,0:0:0:0:
166,153,167391,1,8,0:0:0:0:
228,228,167597,1,8,0:0:0:0:
166,153,167699,1,8,0:0:0:0:
228,228,167802,1,8,0:0:0:0:
300,171,167982,1,8,0:0:0:0:
228,228,168187,1,8,0:0:0:0:
152,240,168367,2,0,L|104:128,1,116.875
228,76,169009,5,0,0:0:0:0:
308,140,169292,1,0,0:0:0:0:
328,160,169446,1,0,0:0:0:0:
296,184,169703,2,4,P|220:192|220:192,1,74.375
120,264,170679,1,0,0:0:0:0:
148,212,171090,2,4,B|172:168|172:168|205:167,1,74.375
251,187,171526,1,0,0:0:0:0:
287,186,171578,1,0,0:0:0:0:
328,186,171629,1,0,0:0:0:0:
148,212,172631,5,0,0:0:0:0:
220,208,172811,1,0,0:0:0:0:
276,168,173016,1,0,0:0:0:0:
316,116,173196,1,0,0:0:0:0:
312,104,174222,5,0,0:0:0:0:
272,104,174325,2,4,B|200:104|200:104|192:96,2,74.375
342,138,175584,1,0,0:0:0:0:
312,104,175712,5,0,0:0:0:0:
272,104,175943,2,4,B|200:104|200:104|192:96,2,74.375
312,144,176637,1,0,0:0:0:0:
288,236,177202,5,0,0:0:0:0:
320,160,177947,1,0,0:0:0:0:
280,160,178050,2,4,B|208:160|208:160|144:68,2,180.625
325,214,179540,1,0,0:0:0:0:
280,212,179668,2,4,L|148:175,2,127.5
256,192,181543,12,0,184831,0:0:0:0:
