osu file format v14

[General]
AudioFilename: audio.mp3
AudioLeadIn: 0
PreviewTime: 47108
Countdown: 0
SampleSet: Soft
StackLeniency: 0.7
Mode: 0
LetterboxInBreaks: 0
SkinPreference:Default
WidescreenStoryboard: 1

[Editor]
DistanceSpacing: 1.2
BeatDivisor: 1
GridSize: 4
TimelineZoom: 1

[Metadata]
Title:Sleeping Beast
TitleUnicode:Sleeping Beast
Artist:SNoW
ArtistUnicode:SNoW
Creator:Oofington3
Version:Hard
Source:
Tags:english, pop
BeatmapID:4575802
BeatmapSetID:2168552

[Difficulty]
HPDrainRate:4
CircleSize:3.5
OverallDifficulty:5.5
ApproachRate:6
SliderMultiplier:1.7
SliderTickRate:1

[Events]
//Background and Video events
0,0,"bg.jpg",0,0
//Break Periods
2,86862,98434
2,112137,114329
2,168387,180493
//Storyboard Layer 0 (Background)
//Storyboard Layer 1 (Fail)
//Storyboard Layer 2 (Pass)
//Storyboard Layer 3 (Foreground)
//Storyboard Layer 4 (Overlay)
//Storyboard Sound Samples

[TimingPoints]
8530,410.958904109589,4,2,0,100,1,0

[HitObjects]
256,192,6005,12,0,7990,0:0:0:0:
214,158,8530,6,0,B|256:170|300:170|324:166|336:154,1,116.875
329,160,9043,1,0,0:0:0:0:
380,138,9146,1,0,0:0:0:0:
423,120,9531,2,0,B|429:31|474:79|508:104|485:84,1,116.875
461,137,9916,1,0,0:0:0:0:
475,168,10148,1,0,0:0:0:0:
509,202,10687,1,0,0:0:0:0:
510,251,10867,1,0,0:0:0:0:
510,301,11047,1,0,0:0:0:0:
449,317,11483,2,0,L|332:316,1,116.875
104,124,12716,2,0,L|112:148,7,21.25
124,208,13204,1,8,0:0:0:0:
90,228,14400,1,0,0:0:0:0:
80,164,14518,1,0,0:0:0:0:
74,104,14899,2,0,B|169:105|315:102,1,233.75
231,156,16338,2,4,P|90:157|72:108,1,212.5
87,133,17982,2,4,B|164:56|345:107|335:70,1,255
31,97,20165,5,0,0:0:0:0:
86,122,20627,2,8,L|275:211,1,201.875
277,133,22091,5,0,0:0:0:0:
341,72,22708,1,0,0:0:0:0:
391,69,23170,1,0,0:0:0:0:
440,94,23607,1,0,0:0:0:0:
441,161,24069,5,8,0:0:0:0:
419,236,24249,1,8,0:0:0:0:
354,199,24454,2,0,P|257:196|238:184,1,116.875
202,135,24942,2,0,B|278:86|435:136|441:201|461:196,1,276.25
364,290,25790,1,0,0:0:0:0:
350,255,25995,2,0,L|269:127,1,148.75
203,84,26817,1,0,0:0:0:0:
203,84,27434,5,0,0:0:0:0:
192,151,27793,2,8,P|207:243|281:172,1,233.75
278,120,28667,1,0,0:0:0:0:
165,60,29283,2,0,P|63:67|57:68,1,106.25
112,64,29694,1,0,0:0:0:0:
272,144,30105,2,0,L|85:292,1,170
97,216,31132,6,0,P|207:116|262:100,1,194.285714285714
250,52,31800,1,0,0:0:0:0:
318,92,32108,1,0,0:0:0:0:
358,131,32545,1,0,0:0:0:0:
388,168,32956,1,0,0:0:0:0:
309,166,33367,1,0,0:0:0:0:
303,240,33804,5,0,0:0:0:0:
212,97,33983,1,0,0:0:0:0:
222,183,34240,2,4,L|114:155,1,106.25
90,119,35139,2,4,L|306:118,1,212.5
312,72,35858,2,4,L|80:232,1,255
102,216,36783,1,0,0:0:0:0:
104,120,37245,1,0,0:0:0:0:
208,216,37631,1,0,0:0:0:0:
232,108,38221,2,0,P|384:146|409:145,1,180.625
400,152,39043,2,0,L|269:263,1,170
304,232,39865,1,8,0:0:0:0:
400,152,40302,1,8,0:0:0:0:
284,94,40867,6,0,B|384:125|533:81|530:397,1,340
496,268,41869,1,0,0:0:0:0:
402,267,42280,2,0,B|280:272|256:272|236:272,1,159.375
242,271,42768,2,0,B|208:208|208:208|208:204,1,74.375
176,152,43153,1,0,0:0:0:0:
96,208,43487,1,0,0:0:0:0:
141,96,44129,1,8,0:0:0:0:
181,109,44514,1,8,0:0:0:0:
224,128,44951,1,8,0:0:0:0:
268,152,45156,1,0,0:0:0:0:
313,192,45336,1,8,0:0:0:0:
292,216,45439,1,0,0:0:0:0:
268,240,45541,1,0,0:0:0:0:
244,264,45644,1,0,0:0:0:0:
224,288,45747,1,12,0:0:0:0:
200,196,45927,2,0,L|188:216,10,21.25
170,94,46569,5,10,0:0:0:0:
126,169,46852,1,10,0:0:0:0:
219,171,47211,1,10,0:0:0:0:
276,174,47417,2,8,L|426:176,1,148.75
469,205,48239,1,0,0:0:0:0:
393,256,48624,1,0,0:0:0:0:
295,139,48855,1,0,0:0:0:0:
393,256,49266,1,0,0:0:0:0:
328,191,49625,1,0,0:0:0:0:
393,256,49985,1,0,0:0:0:0:
320,287,50242,1,0,0:0:0:0:
302,226,50653,6,4,P|255:78|344:70,1,255
288,63,51475,2,4,P|352:93|465:61,1,170
454,109,52091,2,4,L|378:274,1,170
382,263,52656,2,0,L|240:304,1,148.75
239,304,53119,1,0,0:0:0:0:
192,256,53427,5,8,0:0:0:0:
239,304,53735,1,8,0:0:0:0:
160,188,54018,1,0,0:0:0:0:
384,104,54377,1,0,0:0:0:0:
184,96,54891,1,0,0:0:0:0:
282,151,55173,1,0,0:0:0:0:
319,220,55405,1,0,0:0:0:0:
363,290,55790,1,0,0:0:0:0:
412,240,56201,2,0,P|455:113|372:96,1,255
251,117,57280,5,12,0:0:0:0:
167,159,57845,1,0,0:0:0:0:
90,224,58102,1,0,0:0:0:0:
148,263,58461,2,0,B|132:114|368:121|450:104,1,340
424,48,59668,1,10,0:0:0:0:
427,149,59951,1,10,0:0:0:0:
375,177,60156,2,0,L|140:217,1,170
155,182,60953,1,0,0:0:0:0:
250,110,61286,1,0,0:0:0:0:
317,100,61903,2,0,L|394:261,1,170
346,259,62776,1,0,0:0:0:0:
304,220,63187,2,0,B|244:49|244:49,1,170
192,59,63727,6,4,L|224:161,1,106.25
259,78,64369,1,0,0:0:0:0:
351,41,64600,1,0,0:0:0:0:
394,127,64985,2,0,P|492:209|492:210,1,138.125
410,171,65576,2,0,B|219:217|231:208,1,170
158,224,66167,1,8,0:0:0:0:
143,142,66475,1,0,0:0:0:0:
209,139,66783,6,8,L|367:134,1,148.75
384,204,67502,1,0,0:0:0:0:
253,235,67810,1,0,0:0:0:0:
128,134,68298,1,0,0:0:0:0:
45,96,68530,2,0,L|9:222,1,127.5
202,124,69685,1,0,0:0:0:0:
296,119,69942,1,0,0:0:0:0:
405,158,70328,1,0,0:0:0:0:
256,192,70686,12,0,72202,0:0:0:0:
208,84,72690,5,8,0:0:0:0:
272,108,73076,1,0,0:0:0:0:
269,103,73152,2,8,L|371:191,1,127.5
372,188,73589,2,4,B|414:223|383:230|290:181,1,138.125
293,182,74205,2,0,L|114:97,1,191.25
118,92,75156,1,0,0:0:0:0:
256,80,75977,1,0,0:0:0:0:
392,84,76363,1,0,0:0:0:0:
400,216,76800,5,0,0:0:0:0:
256,216,77185,1,0,0:0:0:0:
256,80,77622,1,0,0:0:0:0:
256,216,78007,1,0,0:0:0:0:
148,132,78444,5,0,0:0:0:0:
61,67,78855,1,0,0:0:0:0:
62,172,79214,1,8,0:0:0:0:
148,132,79625,1,8,0:0:0:0:
64,66,79830,5,8,0:0:0:0:
148,132,80036,1,12,0:0:0:0:
188,184,80627,2,0,L|160:224,1,42.5
156,237,80858,1,0,0:0:0:0:
258,193,81706,1,0,0:0:0:0:
127,114,82502,1,0,0:0:0:0:
285,111,83324,1,0,0:0:0:0:
234,278,84095,1,0,0:0:0:0:
215,104,84531,1,0,0:0:0:0:
53,143,84916,1,0,0:0:0:0:
132,57,85405,1,0,0:0:0:0:
202,132,85764,1,8,0:0:0:0:
242,131,86047,1,8,0:0:0:0:
279,131,86355,1,8,0:0:0:0:
328,128,86560,2,0,L|328:152,2,21.25
304,144,99660,5,8,0:0:0:0:
244,216,100071,5,8,0:0:0:0:
176,145,100482,5,8,0:0:0:0:
240,80,100893,5,8,0:0:0:0:
304,145,101098,5,0,0:0:0:0:
244,216,101303,5,8,0:0:0:0:
176,145,101714,5,8,0:0:0:0:
240,80,102151,5,8,0:0:0:0:
304,145,102536,5,8,0:0:0:0:
240,220,102947,5,8,0:0:0:0:
176,148,103153,5,0,0:0:0:0:
240,80,103358,5,8,0:0:0:0:
304,145,103769,5,8,0:0:0:0:
248,212,104181,5,8,0:0:0:0:
176,148,104591,5,8,0:0:0:0:
309,144,105002,2,0,B|86:144|48:264|67:269,1,297.5
96,264,106209,5,0,0:0:0:0:
224,256,106620,1,0,0:0:0:0:
272,112,106980,1,0,0:0:0:0:
362,212,107365,1,0,0:0:0:0:
256,208,107571,1,0,0:0:0:0:
152,208,107776,1,0,0:0:0:0:
362,212,108187,1,0,0:0:0:0:
244,119,108598,1,4,0:0:0:0:
362,212,109009,1,0,0:0:0:0:
411,175,109420,5,4,0:0:0:0:
362,212,109625,1,0,0:0:0:0:
312,256,109831,1,0,0:0:0:0:
211,173,110242,1,0,0:0:0:0:
200,103,110859,2,8,B|484:119|348:184|296:78,1,276.25
368,136,111937,5,0,0:0:0:0:
177,120,115379,6,4,P|344:205|433:244,1,276.25
485,268,116766,2,4,P|389:269|287:270,1,170
315,269,117434,6,4,L|313:42,1,223.125
313,45,118872,1,8,0:0:0:0:
391,142,119180,1,8,0:0:0:0:
320,48,119976,2,0,B|219:149|207:137|302:122,1,180.625
312,184,120670,2,0,B|354:167|394:139|436:62,2,170
318,152,121518,1,0,0:0:0:0:
336,132,121903,1,0,0:0:0:0:
193,39,122519,5,0,0:0:0:0:
216,102,122879,1,0,0:0:0:0:
252,147,123136,2,0,L|357:252,3,148.75
381,208,124369,1,0,0:0:0:0:
352,80,124805,2,4,L|216:108,1,138.125
133,102,125755,6,8,B|132:100|135:103|136:155|136:163|136:191,2,85
133,102,126371,2,8,L|208:104,2,74.375
133,102,126936,2,8,L|137:235,1,127.5
136,229,127348,1,8,0:0:0:0:
260,72,127759,2,0,L|280:84,5,21.25
350,103,128169,1,8,0:0:0:0:
236,193,128503,1,8,0:0:0:0:
284,157,128838,2,0,B|398:126|432:129|490:137,2,191.25
190,184,130302,1,0,0:0:0:0:
285,98,130559,2,0,L|71:143,1,170
0,219,131252,1,0,0:0:0:0:
91,282,131663,1,0,0:0:0:0:
152,192,131946,1,0,0:0:0:0:
236,156,132331,5,4,0:0:0:0:
304,120,132947,1,0,0:0:0:0:
383,102,133127,2,0,P|440:168|357:195,1,201.875
352,192,133821,2,0,P|144:64|144:64,1,244.375
207,104,134643,2,0,L|143:206,2,116.875
98,59,135490,2,0,L|211:105,1,116.875
208,192,136363,1,0,0:0:0:0:
133,160,136672,6,0,L|37:276,3,148.75
135,279,138213,1,0,0:0:0:0:
204,225,138444,1,0,0:0:0:0:
268,178,138804,2,4,L|373:144,1,106.25
314,135,139420,1,0,0:0:0:0:
208,152,139677,1,0,0:0:0:0:
93,200,140165,1,0,0:0:0:0:
144,240,140473,2,0,P|316:231|336:236,2,191.25
113,178,141577,5,0,0:0:0:0:
160,125,141860,1,0,0:0:0:0:
230,116,142091,1,0,0:0:0:0:
292,155,142553,1,0,0:0:0:0:
228,184,142913,2,0,L|100:212,1,127.5
13,111,143530,1,0,0:0:0:0:
136,144,143940,1,0,0:0:0:0:
263,148,144352,1,0,0:0:0:0:
358,211,144737,1,0,0:0:0:0:
290,219,144968,2,0,L|209:212,1,74.375
176,155,145328,1,0,0:0:0:0:
147,28,145944,5,0,0:0:0:0:
304,114,146201,2,2,L|362:210,1,106.25
278,198,146612,1,8,0:0:0:0:
212,239,146817,2,0,P|215:125|215:125,1,106.25
214,132,147203,1,0,0:0:0:0:
102,129,147536,1,0,0:0:0:0:
117,176,147819,1,0,0:0:0:0:
135,232,148102,1,4,0:0:0:0:
242,251,148410,1,4,0:0:0:0:
351,227,148538,2,0,L|332:113,2,85
384,224,149488,1,0,0:0:0:0:
440,248,149797,1,0,0:0:0:0:
440,185,149899,1,0,0:0:0:0:
440,185,150079,2,0,P|345:150|345:150,1,95.625
242,125,151261,5,0,0:0:0:0:
152,168,151518,2,0,P|152:176|208:240,1,95.625
201,240,151876,1,0,0:0:0:0:
201,240,152673,1,0,0:0:0:0:
22,181,153546,1,0,0:0:0:0:
121,205,154316,2,4,B|202:120|188:136|203:120,1,116.875
202,120,154625,2,4,P|304:183|319:190,1,127.5
316,229,155139,1,4,0:0:0:0:
254,300,155960,5,0,0:0:0:0:
413,159,156757,1,0,0:0:0:0:
268,186,157605,1,0,0:0:0:0:
118,117,158349,1,0,0:0:0:0:
259,142,159249,1,0,0:0:0:0:
90,70,160071,1,8,0:0:0:0:
163,149,160482,1,8,0:0:0:0:
231,156,160893,2,0,P|312:136|361:125,2,127.5
231,156,161662,2,0,L|76:68,1,170
157,163,162484,1,0,0:0:0:0:
264,66,163306,5,0,0:0:0:0:
430,150,164128,1,4,0:0:0:0:
252,235,164950,1,0,0:0:0:0:
200,72,165362,1,0,0:0:0:0:
29,157,165772,5,4,0:0:0:0:
252,235,166132,1,0,0:0:0:0:
316,172,166363,1,0,0:0:0:0:
370,104,166594,1,0,0:0:0:0:
456,148,167005,1,8,0:0:0:0:
420,192,167391,1,8,0:0:0:0:
376,228,167596,1,0,0:0:0:0:
320,240,167725,1,0,0:0:0:0:
264,240,167802,1,0,0:0:0:0:
208,236,167982,1,0,0:0:0:0:
152,232,168187,1,0,0:0:0:0:
256,192,181543,12,0,184831,0:0:0:0:
