osu file format v14

[General]
AudioFilename: audio.mp3
AudioLeadIn: 0
PreviewTime: 47108
Countdown: 0
SampleSet: Normal
StackLeniency: 0.7
Mode: 0
LetterboxInBreaks: 0
SkinPreference:Default
WidescreenStoryboard: 1

[Editor]
DistanceSpacing: 1.2
BeatDivisor: 16
GridSize: 8
TimelineZoom: 1

[Metadata]
Title:Sleeping Beast
TitleUnicode:Sleeping Beast
Artist:SNoW
ArtistUnicode:SNoW
Creator:Oofington3
Version:Easy
Source:
Tags:english, pop
BeatmapID:4575801
BeatmapSetID:2168552

[Difficulty]
HPDrainRate:4
CircleSize:3.5
OverallDifficulty:5.5
ApproachRate:6
SliderMultiplier:1.7
SliderTickRate:1

[Events]
//Background and Video events
0,0,"bg.jpg",0,0
//Break Periods
2,111752,114740
//Storyboard Layer 0 (Background)
//Storyboard Layer 1 (Fail)
//Storyboard Layer 2 (Pass)
//Storyboard Layer 3 (Foreground)
//Storyboard Layer 4 (Overlay)
//Storyboard Sound Samples

[TimingPoints]
8530.10273972603,410.958904109589,4,1,0,100,1,0

[HitObjects]
39,122,8530,6,2,P|389:213|394:200,1,531.25
426,128,10687,2,2,L|0:115,1,425
18,101,12691,2,2,P|132:101|305:190,1,308.125
248,248,14283,2,0,B|428:128|505:79,1,297.5
400,264,16107,2,0,B|168:240|168:240|27:222,1,371.875
27,223,17828,2,4,L|483:77,1,478.125
241,210,20165,5,0,0:0:0:0:
417,227,20627,1,0,0:0:0:0:
378,77,21115,1,0,0:0:0:0:
256,208,22091,1,0,0:0:0:0:
256,88,22708,1,0,0:0:0:0:
92,88,23119,1,0,0:0:0:0:
88,216,23581,1,0,0:0:0:0:
256,216,23941,1,8,0:0:0:0:
88,216,24352,1,8,0:0:0:0:
176,272,24557,1,0,0:0:0:0:
256,216,25328,5,0,0:0:0:0:
179,285,25944,1,0,0:0:0:0:
328,296,26406,1,0,0:0:0:0:
282,145,26843,1,0,0:0:0:0:
146,127,27434,1,0,0:0:0:0:
181,166,27588,1,0,0:0:0:0:
224,208,27793,1,0,0:0:0:0:
344,208,28204,1,0,0:0:0:0:
226,93,28667,1,8,0:0:0:0:
224,208,29283,5,0,0:0:0:0:
226,93,29745,1,0,0:0:0:0:
104,80,30105,1,0,0:0:0:0:
93,126,30516,1,0,0:0:0:0:
108,184,31132,2,0,B|333:180|334:179|172:235|173:235,3,255
112,296,33367,5,0,0:0:0:0:
41,205,34189,1,4,0:0:0:0:
149,109,35139,1,8,0:0:0:0:
415,302,35807,1,0,0:0:0:0:
274,197,36578,1,0,0:0:0:0:
460,162,37631,1,4,0:0:0:0:
416,248,38273,1,0,0:0:0:0:
359,204,38478,5,0,0:0:0:0:
302,78,39043,1,0,0:0:0:0:
208,207,39865,1,0,0:0:0:0:
350,98,40867,1,0,0:0:0:0:
138,245,41637,1,0,0:0:0:0:
234,280,42331,1,0,0:0:0:0:
344,208,43076,1,0,0:0:0:0:
344,208,44129,5,8,0:0:0:0:
344,104,44514,1,8,0:0:0:0:
233,104,44951,1,8,0:0:0:0:
234,208,45336,1,8,0:0:0:0:
344,208,45744,1,12,0:0:0:0:
128,108,46543,6,4,B|188:144|248:180,1,127.5
348,269,47160,1,0,0:0:0:0:
348,269,47468,1,0,0:0:0:0:
472,216,47776,1,0,0:0:0:0:
384,120,48239,1,0,0:0:0:0:
272,64,48701,1,0,0:0:0:0:
330,208,49266,1,0,0:0:0:0:
272,64,49625,1,0,0:0:0:0:
328,192,50191,1,0,0:0:0:0:
272,64,50653,5,4,0:0:0:0:
165,88,51269,1,0,0:0:0:0:
180,142,51475,1,0,0:0:0:0:
298,253,51886,1,0,0:0:0:0:
423,180,52220,1,0,0:0:0:0:
400,60,52708,1,0,0:0:0:0:
262,161,53221,2,4,L|97:297,1,212.5
98,296,53992,5,0,0:0:0:0:
93,185,54788,1,0,0:0:0:0:
295,210,55379,1,0,0:0:0:0:
208,111,56201,1,0,0:0:0:0:
240,264,57203,1,8,0:0:0:0:
409,248,57845,1,0,0:0:0:0:
336,176,58102,1,0,0:0:0:0:
464,164,58667,1,0,0:0:0:0:
309,84,59540,6,4,B|97:183|97:183|35:212,1,297.5
39,209,60465,1,0,0:0:0:0:
91,136,60901,1,0,0:0:0:0:
167,58,61286,1,0,0:0:0:0:
204,154,61954,1,0,0:0:0:0:
374,101,63084,1,0,0:0:0:0:
383,156,63290,1,0,0:0:0:0:
289,207,63829,1,0,0:0:0:0:
299,75,64420,5,0,0:0:0:0:
243,194,65036,1,0,0:0:0:0:
165,111,66064,2,4,L|363:86,1,170
428,130,66886,1,0,0:0:0:0:
384,214,67708,1,0,0:0:0:0:
228,243,68221,1,0,0:0:0:0:
176,232,68581,1,0,0:0:0:0:
106,191,69095,1,0,0:0:0:0:
200,236,69429,1,0,0:0:0:0:
200,236,69634,6,0,L|270:106,1,138.125
177,81,70379,2,0,P|156:200|156:200,1,85
162,164,71098,1,0,0:0:0:0:
159,120,71869,1,0,0:0:0:0:
57,89,72639,1,8,0:0:0:0:
121,150,72999,1,8,0:0:0:0:
181,211,73307,1,8,0:0:0:0:
36,235,74283,1,0,0:0:0:0:
237,164,75927,5,8,0:0:0:0:
402,95,77571,1,0,0:0:0:0:
415,194,79215,1,8,0:0:0:0:
373,231,79523,1,8,0:0:0:0:
315,248,79831,1,8,0:0:0:0:
252,262,80036,1,0,0:0:0:0:
242,149,80858,1,0,0:0:0:0:
109,104,82502,1,8,0:0:0:0:
272,200,84146,1,0,0:0:0:0:
256,192,84968,12,0,86612,0:0:0:0:
408,72,89026,5,0,0:0:0:0:
181,132,90670,5,8,0:0:0:0:
304,149,92288,1,0,0:0:0:0:
205,141,93906,1,8,0:0:0:0:
272,276,95576,1,0,0:0:0:0:
403,134,97194,1,8,0:0:0:0:
296,216,98170,2,0,L|312:256,9,42.5
256,224,99608,5,0,0:0:0:0:
136,224,100071,1,0,0:0:0:0:
136,104,100482,1,0,0:0:0:0:
256,104,100893,1,0,0:0:0:0:
376,208,101304,5,0,0:0:0:0:
368,64,101715,1,0,0:0:0:0:
256,104,102100,1,8,0:0:0:0:
256,224,102485,1,0,0:0:0:0:
256,104,102896,1,0,0:0:0:0:
376,208,103358,5,0,0:0:0:0:
368,64,103718,1,0,0:0:0:0:
256,104,104129,1,0,0:0:0:0:
256,240,104540,1,0,0:0:0:0:
112,120,104951,1,0,0:0:0:0:
256,104,105362,1,8,0:0:0:0:
256,232,105747,1,0,0:0:0:0:
112,120,106209,1,0,0:0:0:0:
256,104,106595,5,0,0:0:0:0:
256,240,107006,1,0,0:0:0:0:
256,104,107417,1,0,0:0:0:0:
256,248,107828,1,0,0:0:0:0:
90,209,108239,1,0,0:0:0:0:
256,240,108649,1,0,0:0:0:0:
200,96,109060,1,0,0:0:0:0:
90,209,109446,5,0,0:0:0:0:
256,240,109882,1,0,0:0:0:0:
200,96,110293,1,0,0:0:0:0:
344,168,110679,1,0,0:0:0:0:
344,168,111115,1,0,0:0:0:0:
200,104,111552,1,0,0:0:0:0:
195,123,115790,5,0,0:0:0:0:
279,210,116612,1,0,0:0:0:0:
328,263,117434,1,0,0:0:0:0:
437,265,118256,1,8,0:0:0:0:
415,131,119078,1,0,0:0:0:0:
280,102,119899,1,0,0:0:0:0:
183,127,120721,1,0,0:0:0:0:
119,199,121543,1,0,0:0:0:0:
197,242,122365,6,8,B|382:206|382:206|-17:153,2,510
143,257,125139,1,8,0:0:0:0:
74,158,125756,1,8,0:0:0:0:
148,136,126167,1,8,0:0:0:0:
243,144,126578,1,8,0:0:0:0:
318,187,126937,1,8,0:0:0:0:
344,266,127379,1,8,0:0:0:0:
286,273,127605,2,4,P|97:214|97:213,1,255
47,148,128504,1,0,0:0:0:0:
148,146,128838,1,0,0:0:0:0:
120,96,129043,5,8,0:0:0:0:
212,160,129429,1,0,0:0:0:0:
320,228,129917,1,0,0:0:0:0:
384,140,130173,1,0,0:0:0:0:
299,137,130610,1,0,0:0:0:0:
316,56,130893,1,0,0:0:0:0:
384,140,131201,1,0,0:0:0:0:
192,143,132331,5,0,0:0:0:0:
318,230,133050,1,4,0:0:0:0:
428,251,133564,1,0,0:0:0:0:
424,196,133769,1,0,0:0:0:0:
322,109,134745,1,8,0:0:0:0:
293,210,135054,1,8,0:0:0:0:
212,272,135336,1,8,0:0:0:0:
141,226,135593,1,8,0:0:0:0:
221,194,136338,5,0,0:0:0:0:
165,83,137237,1,0,0:0:0:0:
260,101,138804,1,8,0:0:0:0:
201,223,140036,1,0,0:0:0:0:
105,164,141269,1,8,0:0:0:0:
186,210,141578,1,8,0:0:0:0:
265,269,141860,1,8,0:0:0:0:
240,122,142913,5,0,0:0:0:0:
380,142,144557,1,4,0:0:0:0:
186,119,146201,1,0,0:0:0:0:
396,233,147845,1,8,0:0:0:0:
275,179,148179,1,8,0:0:0:0:
219,133,148410,1,8,0:0:0:0:
170,85,148615,1,8,0:0:0:0:
95,74,149489,5,0,0:0:0:0:
185,172,151081,1,4,0:0:0:0:
389,200,152673,1,0,0:0:0:0:
292,127,154317,1,8,0:0:0:0:
239,99,154523,2,8,L|139:104,2,85
347,100,155961,1,0,0:0:0:0:
390,216,157605,5,8,0:0:0:0:
143,132,159249,1,0,0:0:0:0:
171,225,160482,2,0,P|230:187|233:192,1,106.25
258,246,160893,1,8,0:0:0:0:
356,246,161201,1,8,0:0:0:0:
352,156,161509,1,8,0:0:0:0:
357,206,162485,5,0,0:0:0:0:
202,143,164129,1,0,0:0:0:0:
426,140,165773,1,0,0:0:0:0:
336,168,166543,2,8,P|280:120|180:64,2,170
380,212,167571,1,0,0:0:0:0:
384,216,167725,1,0,0:0:0:0:
197,180,169009,5,0,0:0:0:0:
335,200,170653,1,8,0:0:0:0:
180,103,172297,1,0,0:0:0:0:
364,248,173915,1,8,0:0:0:0:
227,171,175584,5,0,0:0:0:0:
251,183,177177,1,8,0:0:0:0:
170,92,178821,1,4,0:0:0:0:
256,192,180490,1,0,0:0:0:0:
256,192,181543,12,0,184831,0:0:0:0:
