osu file format v14

[General]
AudioFilename: MAIS SI C'EST POSSIBLE AVEC LA CARTE KIWI - 10 minutes.mp3
AudioLeadIn: 0
PreviewTime: -1
Countdown: 1
SampleSet: None
StackLeniency: 0.7
Mode: 3
LetterboxInBreaks: 0
SpecialStyle: 0
WidescreenStoryboard: 0

[Editor]
DistanceSpacing: 2
BeatDivisor: 4
GridSize: 16
TimelineZoom: 0.7

[Metadata]
Title:La Carte Kiwi
TitleUnicode:La Carte Kiwi
Artist:SNCF
ArtistUnicode:SNCF
Creator:Yami Le Lama
Version:
Source:
Tags:
BeatmapID:894719
BeatmapSetID:412446

[Difficulty]
HPDrainRate:10
CircleSize:1
OverallDifficulty:10
ApproachRate:5
SliderMultiplier:1.4
SliderTickRate:1

[Events]
//Background and Video events
0,0,"maxresdefault (1).jpg",0,0
//Break Periods
//Storyboard Layer 0 (Background)
//Storyboard Layer 1 (Fail)
//Storyboard Layer 2 (Pass)
//Storyboard Layer 3 (Foreground)
//Storyboard Sound Samples

[TimingPoints]
0,361.44578313253,4,1,0,0,1,0

[HitObjects]
256,192,14367,5,0,0:0:0:0:
256,192,14728,1,0,0:0:0:0:
256,192,15090,1,0,0:0:0:0:
256,192,15271,1,0,0:0:0:0:
256,192,15451,1,0,0:0:0:0:
256,192,15632,1,0,0:0:0:0:
256,192,15813,1,0,0:0:0:0:
256,192,15993,1,0,0:0:0:0:
256,192,16174,1,0,0:0:0:0:
256,192,16355,1,0,0:0:0:0:
256,192,16536,1,0,0:0:0:0:
256,192,16807,1,0,0:0:0:0:
256,192,16987,1,0,0:0:0:0:
256,192,17168,1,0,0:0:0:0:
256,192,17349,1,0,0:0:0:0:
256,192,17530,1,0,0:0:0:0:
256,192,17710,1,0,0:0:0:0:
256,192,17891,1,0,0:0:0:0:
256,192,18072,1,0,0:0:0:0:
256,192,18433,1,0,0:0:0:0:
256,192,18614,1,0,0:0:0:0:
256,192,18795,1,0,0:0:0:0:
256,192,18975,1,0,0:0:0:0:
256,192,19156,1,0,0:0:0:0:
256,192,19337,1,0,0:0:0:0:
256,192,19518,1,0,0:0:0:0:
256,192,19698,1,0,0:0:0:0:
256,192,19879,1,0,0:0:0:0:
256,192,20060,1,0,0:0:0:0:
256,192,20240,1,0,0:0:0:0:
256,192,20421,1,0,0:0:0:0:
256,192,20783,1,0,0:0:0:0:
256,192,21144,1,0,0:0:0:0:
256,192,21506,1,0,0:0:0:0:
256,192,21867,1,0,0:0:0:0:
256,192,22048,1,0,0:0:0:0:
256,192,22228,1,0,0:0:0:0:
256,192,22590,1,0,0:0:0:0:
256,192,22771,1,0,0:0:0:0:
256,192,22951,1,0,0:0:0:0:
256,192,23313,1,0,0:0:0:0:
256,192,23403,1,0,0:0:0:0:
256,192,23493,1,0,0:0:0:0:
256,192,23584,1,0,0:0:0:0:
256,192,23674,1,0,0:0:0:0:
256,192,24036,1,0,0:0:0:0:
256,192,24397,1,0,0:0:0:0:
256,192,24759,1,0,0:0:0:0:
256,192,24939,1,0,0:0:0:0:
256,192,25120,1,0,0:0:0:0:
256,192,25301,1,0,0:0:0:0:
256,192,25481,1,0,0:0:0:0:
256,192,25662,1,0,0:0:0:0:
256,192,25843,1,0,0:0:0:0:
256,192,26024,1,0,0:0:0:0:
256,192,26204,1,0,0:0:0:0:
256,192,26475,1,0,0:0:0:0:
256,192,26656,1,0,0:0:0:0:
256,192,26837,1,0,0:0:0:0:
256,192,27018,1,0,0:0:0:0:
256,192,27198,1,0,0:0:0:0:
256,192,27379,1,0,0:0:0:0:
256,192,27560,1,0,0:0:0:0:
256,192,27740,1,0,0:0:0:0:
256,192,28102,1,0,0:0:0:0:
256,192,28283,1,0,0:0:0:0:
256,192,28463,1,0,0:0:0:0:
256,192,28644,1,0,0:0:0:0:
256,192,28825,1,0,0:0:0:0:
256,192,29006,1,0,0:0:0:0:
256,192,29186,1,0,0:0:0:0:
256,192,29367,1,0,0:0:0:0:
256,192,29548,1,0,0:0:0:0:
256,192,29728,1,0,0:0:0:0:
256,192,29909,1,0,0:0:0:0:
256,192,30090,1,0,0:0:0:0:
256,192,30451,1,0,0:0:0:0:
256,192,30813,1,0,0:0:0:0:
256,192,31174,1,0,0:0:0:0:
256,192,31445,1,0,0:0:0:0:
256,192,31626,1,0,0:0:0:0:
256,192,31807,1,0,0:0:0:0:
256,192,32259,1,0,0:0:0:0:
256,192,32439,1,0,0:0:0:0:
256,192,32620,1,0,0:0:0:0:
256,192,32981,1,0,0:0:0:0:
256,192,33072,1,0,0:0:0:0:
256,192,33162,1,0,0:0:0:0:
256,192,33253,1,0,0:0:0:0:
256,192,33343,1,0,0:0:0:0:
256,192,33795,1,0,0:0:0:0:
256,192,34156,1,0,0:0:0:0:
256,192,34518,1,0,0:0:0:0:
256,192,34698,1,0,0:0:0:0:
256,192,34879,1,0,0:0:0:0:
256,192,35060,1,0,0:0:0:0:
256,192,35240,1,0,0:0:0:0:
256,192,35421,1,0,0:0:0:0:
256,192,35602,1,0,0:0:0:0:
256,192,35783,1,0,0:0:0:0:
256,192,35963,1,0,0:0:0:0:
256,192,36234,1,0,0:0:0:0:
256,192,36415,1,0,0:0:0:0:
256,192,36596,1,0,0:0:0:0:
256,192,36777,1,0,0:0:0:0:
256,192,36957,1,0,0:0:0:0:
256,192,37138,1,0,0:0:0:0:
256,192,37319,1,0,0:0:0:0:
256,192,37499,1,0,0:0:0:0:
256,192,37861,1,0,0:0:0:0:
256,192,38042,1,0,0:0:0:0:
256,192,38222,1,0,0:0:0:0:
256,192,38403,1,0,0:0:0:0:
256,192,38584,1,0,0:0:0:0:
256,192,38765,1,0,0:0:0:0:
256,192,38945,1,0,0:0:0:0:
256,192,39126,1,0,0:0:0:0:
256,192,39307,1,0,0:0:0:0:
256,192,39487,1,0,0:0:0:0:
256,192,39668,1,0,0:0:0:0:
256,192,39849,1,0,0:0:0:0:
256,192,40210,1,0,0:0:0:0:
256,192,40572,1,0,0:0:0:0:
256,192,40933,1,0,0:0:0:0:
256,192,41204,1,0,0:0:0:0:
256,192,41385,1,0,0:0:0:0:
256,192,41566,1,0,0:0:0:0:
256,192,42018,1,0,0:0:0:0:
256,192,42198,1,0,0:0:0:0:
256,192,42379,1,0,0:0:0:0:
256,192,42740,1,0,0:0:0:0:
256,192,42831,1,0,0:0:0:0:
256,192,42921,1,0,0:0:0:0:
256,192,43012,1,0,0:0:0:0:
256,192,43102,1,0,0:0:0:0:
256,192,43554,1,0,0:0:0:0:
256,192,43915,1,0,0:0:0:0:
256,192,44277,1,0,0:0:0:0:
256,192,44457,1,0,0:0:0:0:
256,192,44638,1,0,0:0:0:0:
256,192,44819,1,0,0:0:0:0:
256,192,44999,1,0,0:0:0:0:
256,192,45180,1,0,0:0:0:0:
256,192,45361,1,0,0:0:0:0:
256,192,45542,1,0,0:0:0:0:
256,192,45722,1,0,0:0:0:0:
256,192,45993,1,0,0:0:0:0:
256,192,46174,1,0,0:0:0:0:
256,192,46355,1,0,0:0:0:0:
256,192,46536,1,0,0:0:0:0:
256,192,46716,1,0,0:0:0:0:
256,192,46897,1,0,0:0:0:0:
256,192,47078,1,0,0:0:0:0:
256,192,47259,1,0,0:0:0:0:
256,192,47620,1,0,0:0:0:0:
256,192,47801,1,0,0:0:0:0:
256,192,47981,1,0,0:0:0:0:
256,192,48162,1,0,0:0:0:0:
256,192,48343,1,0,0:0:0:0:
256,192,48524,1,0,0:0:0:0:
256,192,48704,1,0,0:0:0:0:
256,192,48885,1,0,0:0:0:0:
256,192,49066,1,0,0:0:0:0:
256,192,49246,1,0,0:0:0:0:
256,192,49427,1,0,0:0:0:0:
256,192,49608,1,0,0:0:0:0:
256,192,49969,1,0,0:0:0:0:
256,192,50331,1,0,0:0:0:0:
256,192,50692,1,0,0:0:0:0:
256,192,50963,1,0,0:0:0:0:
256,192,51144,1,0,0:0:0:0:
256,192,51325,1,0,0:0:0:0:
256,192,51777,1,0,0:0:0:0:
256,192,51957,1,0,0:0:0:0:
256,192,52138,1,0,0:0:0:0:
256,192,52499,1,0,0:0:0:0:
256,192,52590,1,0,0:0:0:0:
256,192,52680,1,0,0:0:0:0:
256,192,52771,1,0,0:0:0:0:
256,192,52861,1,0,0:0:0:0:
256,192,53313,1,0,0:0:0:0:
256,192,53674,1,0,0:0:0:0:
256,192,54036,1,0,0:0:0:0:
256,192,54216,1,0,0:0:0:0:
256,192,54397,1,0,0:0:0:0:
256,192,54578,1,0,0:0:0:0:
256,192,54759,1,0,0:0:0:0:
256,192,54939,1,0,0:0:0:0:
256,192,55120,1,0,0:0:0:0:
256,192,55301,1,0,0:0:0:0:
256,192,55481,1,0,0:0:0:0:
256,192,55753,1,0,0:0:0:0:
256,192,55933,1,0,0:0:0:0:
256,192,56114,1,0,0:0:0:0:
256,192,56295,1,0,0:0:0:0:
256,192,56475,1,0,0:0:0:0:
256,192,56656,1,0,0:0:0:0:
256,192,56837,1,0,0:0:0:0:
256,192,57018,1,0,0:0:0:0:
256,192,57379,1,0,0:0:0:0:
256,192,57560,1,0,0:0:0:0:
256,192,57740,1,0,0:0:0:0:
256,192,57921,1,0,0:0:0:0:
256,192,58102,1,0,0:0:0:0:
256,192,58283,1,0,0:0:0:0:
256,192,58463,1,0,0:0:0:0:
256,192,58644,1,0,0:0:0:0:
256,192,58825,1,0,0:0:0:0:
256,192,59006,1,0,0:0:0:0:
256,192,59186,1,0,0:0:0:0:
256,192,59367,1,0,0:0:0:0:
256,192,59728,1,0,0:0:0:0:
256,192,60090,1,0,0:0:0:0:
256,192,60451,1,0,0:0:0:0:
256,192,60813,1,0,0:0:0:0:
256,192,60993,1,0,0:0:0:0:
256,192,61174,1,0,0:0:0:0:
256,192,61536,1,0,0:0:0:0:
256,192,61716,1,0,0:0:0:0:
256,192,61897,1,0,0:0:0:0:
256,192,62259,1,0,0:0:0:0:
256,192,62349,1,0,0:0:0:0:
256,192,62439,1,0,0:0:0:0:
256,192,62530,1,0,0:0:0:0:
256,192,62620,1,0,0:0:0:0:
256,192,62981,1,0,0:0:0:0:
256,192,63343,1,0,0:0:0:0:
256,192,63704,1,0,0:0:0:0:
256,192,63885,1,0,0:0:0:0:
256,192,64066,1,0,0:0:0:0:
256,192,64246,1,0,0:0:0:0:
256,192,64427,1,0,0:0:0:0:
256,192,64608,1,0,0:0:0:0:
256,192,64789,1,0,0:0:0:0:
256,192,64969,1,0,0:0:0:0:
256,192,65150,1,0,0:0:0:0:
256,192,65421,1,0,0:0:0:0:
256,192,65602,1,0,0:0:0:0:
256,192,65783,1,0,0:0:0:0:
256,192,65963,1,0,0:0:0:0:
256,192,66144,1,0,0:0:0:0:
256,192,66325,1,0,0:0:0:0:
256,192,66506,1,0,0:0:0:0:
256,192,66686,1,0,0:0:0:0:
256,192,67048,1,0,0:0:0:0:
256,192,67228,1,0,0:0:0:0:
256,192,67409,1,0,0:0:0:0:
256,192,67590,1,0,0:0:0:0:
256,192,67771,1,0,0:0:0:0:
256,192,67951,1,0,0:0:0:0:
256,192,68132,1,0,0:0:0:0:
256,192,68313,1,0,0:0:0:0:
256,192,68493,1,0,0:0:0:0:
256,192,68674,1,0,0:0:0:0:
256,192,68855,1,0,0:0:0:0:
256,192,69036,1,0,0:0:0:0:
256,192,69397,1,0,0:0:0:0:
256,192,69759,1,0,0:0:0:0:
256,192,70120,1,0,0:0:0:0:
256,192,70391,1,0,0:0:0:0:
256,192,70572,1,0,0:0:0:0:
256,192,70753,1,0,0:0:0:0:
256,192,71204,1,0,0:0:0:0:
256,192,71385,1,0,0:0:0:0:
256,192,71566,1,0,0:0:0:0:
256,192,71927,1,0,0:0:0:0:
256,192,72018,1,0,0:0:0:0:
256,192,72108,1,0,0:0:0:0:
256,192,72198,1,0,0:0:0:0:
256,192,72289,1,0,0:0:0:0:
256,192,72740,1,0,0:0:0:0:
256,192,73102,1,0,0:0:0:0:
256,192,73463,1,0,0:0:0:0:
256,192,73644,1,0,0:0:0:0:
256,192,73825,1,0,0:0:0:0:
256,192,74006,1,0,0:0:0:0:
256,192,74186,1,0,0:0:0:0:
256,192,74367,1,0,0:0:0:0:
256,192,74548,1,0,0:0:0:0:
256,192,74728,1,0,0:0:0:0:
256,192,74909,1,0,0:0:0:0:
256,192,75180,1,0,0:0:0:0:
256,192,75361,1,0,0:0:0:0:
256,192,75542,1,0,0:0:0:0:
256,192,75722,1,0,0:0:0:0:
256,192,75903,1,0,0:0:0:0:
256,192,76084,1,0,0:0:0:0:
256,192,76265,1,0,0:0:0:0:
256,192,76445,1,0,0:0:0:0:
256,192,76807,1,0,0:0:0:0:
256,192,76987,1,0,0:0:0:0:
256,192,77168,1,0,0:0:0:0:
256,192,77349,1,0,0:0:0:0:
256,192,77530,1,0,0:0:0:0:
256,192,77710,1,0,0:0:0:0:
256,192,77891,1,0,0:0:0:0:
256,192,78072,1,0,0:0:0:0:
256,192,78253,1,0,0:0:0:0:
256,192,78433,1,0,0:0:0:0:
256,192,78614,1,0,0:0:0:0:
256,192,78795,1,0,0:0:0:0:
256,192,79156,1,0,0:0:0:0:
256,192,79518,1,0,0:0:0:0:
256,192,79879,1,0,0:0:0:0:
256,192,80150,1,0,0:0:0:0:
256,192,80331,1,0,0:0:0:0:
256,192,80512,1,0,0:0:0:0:
256,192,80963,1,0,0:0:0:0:
256,192,81144,1,0,0:0:0:0:
256,192,81325,1,0,0:0:0:0:
256,192,81686,1,0,0:0:0:0:
256,192,81777,1,0,0:0:0:0:
256,192,81867,1,0,0:0:0:0:
256,192,81957,1,0,0:0:0:0:
256,192,82048,1,0,0:0:0:0:
256,192,82499,1,0,0:0:0:0:
256,192,82861,1,0,0:0:0:0:
256,192,83222,1,0,0:0:0:0:
256,192,83403,1,0,0:0:0:0:
256,192,83584,1,0,0:0:0:0:
256,192,83765,1,0,0:0:0:0:
256,192,83945,1,0,0:0:0:0:
256,192,84126,1,0,0:0:0:0:
256,192,84307,1,0,0:0:0:0:
256,192,84487,1,0,0:0:0:0:
256,192,84668,1,0,0:0:0:0:
256,192,84939,1,0,0:0:0:0:
256,192,85120,1,0,0:0:0:0:
256,192,85301,1,0,0:0:0:0:
256,192,85481,1,0,0:0:0:0:
256,192,85662,1,0,0:0:0:0:
256,192,85843,1,0,0:0:0:0:
256,192,86024,1,0,0:0:0:0:
256,192,86204,1,0,0:0:0:0:
256,192,86566,1,0,0:0:0:0:
256,192,86746,1,0,0:0:0:0:
256,192,86927,1,0,0:0:0:0:
256,192,87108,1,0,0:0:0:0:
256,192,87289,1,0,0:0:0:0:
256,192,87469,1,0,0:0:0:0:
256,192,87650,1,0,0:0:0:0:
256,192,87831,1,0,0:0:0:0:
256,192,88012,1,0,0:0:0:0:
256,192,88192,1,0,0:0:0:0:
256,192,88373,1,0,0:0:0:0:
256,192,88554,1,0,0:0:0:0:
256,192,88915,1,0,0:0:0:0:
256,192,89277,1,0,0:0:0:0:
256,192,89638,1,0,0:0:0:0:
256,192,89909,1,0,0:0:0:0:
256,192,90090,1,0,0:0:0:0:
256,192,90271,1,0,0:0:0:0:
256,192,90722,1,0,0:0:0:0:
256,192,90903,1,0,0:0:0:0:
256,192,91084,1,0,0:0:0:0:
256,192,91445,1,0,0:0:0:0:
256,192,91536,1,0,0:0:0:0:
256,192,91626,1,0,0:0:0:0:
256,192,91716,1,0,0:0:0:0:
256,192,91807,1,0,0:0:0:0:
256,192,92168,1,0,0:0:0:0:
256,192,92530,1,0,0:0:0:0:
256,192,92891,1,0,0:0:0:0:
256,192,93072,1,0,0:0:0:0:
256,192,93253,1,0,0:0:0:0:
256,192,93433,1,0,0:0:0:0:
256,192,93614,1,0,0:0:0:0:
256,192,93795,1,0,0:0:0:0:
256,192,93975,1,0,0:0:0:0:
256,192,94156,1,0,0:0:0:0:
256,192,94337,1,0,0:0:0:0:
256,192,94608,1,0,0:0:0:0:
256,192,94789,1,0,0:0:0:0:
256,192,94969,1,0,0:0:0:0:
256,192,95150,1,0,0:0:0:0:
256,192,95331,1,0,0:0:0:0:
256,192,95512,1,0,0:0:0:0:
256,192,95692,1,0,0:0:0:0:
256,192,95873,1,0,0:0:0:0:
256,192,96234,1,0,0:0:0:0:
256,192,96415,1,0,0:0:0:0:
256,192,96596,1,0,0:0:0:0:
256,192,96777,1,0,0:0:0:0:
256,192,96957,1,0,0:0:0:0:
256,192,97138,1,0,0:0:0:0:
256,192,97319,1,0,0:0:0:0:
256,192,97499,1,0,0:0:0:0:
256,192,97680,1,0,0:0:0:0:
256,192,97861,1,0,0:0:0:0:
256,192,98042,1,0,0:0:0:0:
256,192,98222,1,0,0:0:0:0:
256,192,98584,1,0,0:0:0:0:
256,192,98945,1,0,0:0:0:0:
256,192,99307,1,0,0:0:0:0:
256,192,99668,1,0,0:0:0:0:
256,192,99849,1,0,0:0:0:0:
256,192,100030,1,0,0:0:0:0:
256,192,100391,1,0,0:0:0:0:
256,192,100572,1,0,0:0:0:0:
256,192,100753,1,0,0:0:0:0:
256,192,101114,1,0,0:0:0:0:
256,192,101204,1,0,0:0:0:0:
256,192,101295,1,0,0:0:0:0:
256,192,101385,1,0,0:0:0:0:
256,192,101475,1,0,0:0:0:0:
256,192,101837,1,0,0:0:0:0:
256,192,102198,1,0,0:0:0:0:
256,192,102560,1,0,0:0:0:0:
256,192,102740,1,0,0:0:0:0:
256,192,102921,1,0,0:0:0:0:
256,192,103102,1,0,0:0:0:0:
256,192,103283,1,0,0:0:0:0:
256,192,103463,1,0,0:0:0:0:
256,192,103644,1,0,0:0:0:0:
256,192,103825,1,0,0:0:0:0:
256,192,104006,1,0,0:0:0:0:
256,192,104277,1,0,0:0:0:0:
256,192,104457,1,0,0:0:0:0:
256,192,104638,1,0,0:0:0:0:
256,192,104819,1,0,0:0:0:0:
256,192,104999,1,0,0:0:0:0:
256,192,105180,1,0,0:0:0:0:
256,192,105361,1,0,0:0:0:0:
256,192,105542,1,0,0:0:0:0:
256,192,105903,1,0,0:0:0:0:
256,192,106084,1,0,0:0:0:0:
256,192,106265,1,0,0:0:0:0:
256,192,106445,1,0,0:0:0:0:
256,192,106626,1,0,0:0:0:0:
256,192,106807,1,0,0:0:0:0:
256,192,106987,1,0,0:0:0:0:
256,192,107168,1,0,0:0:0:0:
256,192,107349,1,0,0:0:0:0:
256,192,107530,1,0,0:0:0:0:
256,192,107710,1,0,0:0:0:0:
256,192,107891,1,0,0:0:0:0:
256,192,108253,1,0,0:0:0:0:
256,192,108614,1,0,0:0:0:0:
256,192,108975,1,0,0:0:0:0:
256,192,109246,1,0,0:0:0:0:
256,192,109427,1,0,0:0:0:0:
256,192,109608,1,0,0:0:0:0:
256,192,110060,1,0,0:0:0:0:
256,192,110240,1,0,0:0:0:0:
256,192,110421,1,0,0:0:0:0:
256,192,110783,1,0,0:0:0:0:
256,192,110873,1,0,0:0:0:0:
256,192,110963,1,0,0:0:0:0:
256,192,111054,1,0,0:0:0:0:
256,192,111144,1,0,0:0:0:0:
256,192,111596,1,0,0:0:0:0:
256,192,111957,1,0,0:0:0:0:
256,192,112319,1,0,0:0:0:0:
256,192,112499,1,0,0:0:0:0:
256,192,112680,1,0,0:0:0:0:
256,192,112861,1,0,0:0:0:0:
256,192,113042,1,0,0:0:0:0:
256,192,113222,1,0,0:0:0:0:
256,192,113403,1,0,0:0:0:0:
256,192,113584,1,0,0:0:0:0:
256,192,113765,1,0,0:0:0:0:
256,192,114036,1,0,0:0:0:0:
256,192,114216,1,0,0:0:0:0:
256,192,114397,1,0,0:0:0:0:
256,192,114578,1,0,0:0:0:0:
256,192,114759,1,0,0:0:0:0:
256,192,114939,1,0,0:0:0:0:
256,192,115120,1,0,0:0:0:0:
256,192,115301,1,0,0:0:0:0:
256,192,115662,1,0,0:0:0:0:
256,192,115843,1,0,0:0:0:0:
256,192,116024,1,0,0:0:0:0:
256,192,116204,1,0,0:0:0:0:
256,192,116385,1,0,0:0:0:0:
256,192,116566,1,0,0:0:0:0:
256,192,116746,1,0,0:0:0:0:
256,192,116927,1,0,0:0:0:0:
256,192,117108,1,0,0:0:0:0:
256,192,117289,1,0,0:0:0:0:
256,192,117469,1,0,0:0:0:0:
256,192,117650,1,0,0:0:0:0:
256,192,118012,1,0,0:0:0:0:
256,192,118373,1,0,0:0:0:0:
256,192,118734,1,0,0:0:0:0:
256,192,119006,1,0,0:0:0:0:
256,192,119186,1,0,0:0:0:0:
256,192,119367,1,0,0:0:0:0:
256,192,119819,1,0,0:0:0:0:
256,192,119999,1,0,0:0:0:0:
256,192,120180,1,0,0:0:0:0:
256,192,120542,1,0,0:0:0:0:
256,192,120632,1,0,0:0:0:0:
256,192,120722,1,0,0:0:0:0:
256,192,120813,1,0,0:0:0:0:
256,192,120903,1,0,0:0:0:0:
256,192,121355,1,0,0:0:0:0:
256,192,121716,1,0,0:0:0:0:
256,192,122078,1,0,0:0:0:0:
256,192,122259,1,0,0:0:0:0:
256,192,122439,1,0,0:0:0:0:
256,192,122620,1,0,0:0:0:0:
256,192,122801,1,0,0:0:0:0:
256,192,122981,1,0,0:0:0:0:
256,192,123162,1,0,0:0:0:0:
256,192,123343,1,0,0:0:0:0:
256,192,123524,1,0,0:0:0:0:
256,192,123795,1,0,0:0:0:0:
256,192,123975,1,0,0:0:0:0:
256,192,124156,1,0,0:0:0:0:
256,192,124337,1,0,0:0:0:0:
256,192,124518,1,0,0:0:0:0:
256,192,124698,1,0,0:0:0:0:
256,192,124879,1,0,0:0:0:0:
256,192,125060,1,0,0:0:0:0:
256,192,125421,1,0,0:0:0:0:
256,192,125602,1,0,0:0:0:0:
256,192,125783,1,0,0:0:0:0:
256,192,125963,1,0,0:0:0:0:
256,192,126144,1,0,0:0:0:0:
256,192,126325,1,0,0:0:0:0:
256,192,126506,1,0,0:0:0:0:
256,192,126686,1,0,0:0:0:0:
256,192,126867,1,0,0:0:0:0:
256,192,127048,1,0,0:0:0:0:
256,192,127228,1,0,0:0:0:0:
256,192,127409,1,0,0:0:0:0:
256,192,127771,1,0,0:0:0:0:
256,192,128132,1,0,0:0:0:0:
256,192,128493,1,0,0:0:0:0:
256,192,128765,1,0,0:0:0:0:
256,192,128945,1,0,0:0:0:0:
256,192,129126,1,0,0:0:0:0:
256,192,129578,1,0,0:0:0:0:
256,192,129759,1,0,0:0:0:0:
256,192,129939,1,0,0:0:0:0:
256,192,130301,1,0,0:0:0:0:
256,192,130391,1,0,0:0:0:0:
256,192,130481,1,0,0:0:0:0:
256,192,130572,1,0,0:0:0:0:
256,192,130662,1,0,0:0:0:0:
256,192,131114,1,0,0:0:0:0:
256,192,131475,1,0,0:0:0:0:
256,192,131837,1,0,0:0:0:0:
256,192,132018,1,0,0:0:0:0:
256,192,132198,1,0,0:0:0:0:
256,192,132379,1,0,0:0:0:0:
256,192,132560,1,0,0:0:0:0:
256,192,132740,1,0,0:0:0:0:
256,192,132921,1,0,0:0:0:0:
256,192,133102,1,0,0:0:0:0:
256,192,133283,1,0,0:0:0:0:
256,192,133554,1,0,0:0:0:0:
256,192,133734,1,0,0:0:0:0:
256,192,133915,1,0,0:0:0:0:
256,192,134096,1,0,0:0:0:0:
256,192,134277,1,0,0:0:0:0:
256,192,134457,1,0,0:0:0:0:
256,192,134638,1,0,0:0:0:0:
256,192,134819,1,0,0:0:0:0:
256,192,135180,1,0,0:0:0:0:
256,192,135361,1,0,0:0:0:0:
256,192,135542,1,0,0:0:0:0:
256,192,135722,1,0,0:0:0:0:
256,192,135903,1,0,0:0:0:0:
256,192,136084,1,0,0:0:0:0:
256,192,136265,1,0,0:0:0:0:
256,192,136445,1,0,0:0:0:0:
256,192,136626,1,0,0:0:0:0:
256,192,136807,1,0,0:0:0:0:
256,192,136987,1,0,0:0:0:0:
256,192,137168,1,0,0:0:0:0:
256,192,137530,1,0,0:0:0:0:
256,192,137891,1,0,0:0:0:0:
256,192,138253,1,0,0:0:0:0:
256,192,138614,1,0,0:0:0:0:
256,192,138795,1,0,0:0:0:0:
256,192,138975,1,0,0:0:0:0:
256,192,139337,1,0,0:0:0:0:
256,192,139518,1,0,0:0:0:0:
256,192,139698,1,0,0:0:0:0:
256,192,140060,1,0,0:0:0:0:
256,192,140150,1,0,0:0:0:0:
256,192,140240,1,0,0:0:0:0:
256,192,140331,1,0,0:0:0:0:
256,192,140421,1,0,0:0:0:0:
256,192,140783,1,0,0:0:0:0:
256,192,141144,1,0,0:0:0:0:
256,192,141506,1,0,0:0:0:0:
256,192,141686,1,0,0:0:0:0:
256,192,141867,1,0,0:0:0:0:
256,192,142048,1,0,0:0:0:0:
256,192,142228,1,0,0:0:0:0:
256,192,142409,1,0,0:0:0:0:
256,192,142590,1,0,0:0:0:0:
256,192,142771,1,0,0:0:0:0:
256,192,142951,1,0,0:0:0:0:
256,192,143222,1,0,0:0:0:0:
256,192,143403,1,0,0:0:0:0:
256,192,143584,1,0,0:0:0:0:
256,192,143765,1,0,0:0:0:0:
256,192,143945,1,0,0:0:0:0:
256,192,144126,1,0,0:0:0:0:
256,192,144307,1,0,0:0:0:0:
256,192,144487,1,0,0:0:0:0:
256,192,144849,1,0,0:0:0:0:
256,192,145030,1,0,0:0:0:0:
256,192,145210,1,0,0:0:0:0:
256,192,145391,1,0,0:0:0:0:
256,192,145572,1,0,0:0:0:0:
256,192,145753,1,0,0:0:0:0:
256,192,145933,1,0,0:0:0:0:
256,192,146114,1,0,0:0:0:0:
256,192,146295,1,0,0:0:0:0:
256,192,146475,1,0,0:0:0:0:
256,192,146656,1,0,0:0:0:0:
256,192,146837,1,0,0:0:0:0:
256,192,147198,1,0,0:0:0:0:
256,192,147560,1,0,0:0:0:0:
256,192,147921,1,0,0:0:0:0:
256,192,148192,1,0,0:0:0:0:
256,192,148373,1,0,0:0:0:0:
256,192,148554,1,0,0:0:0:0:
256,192,149006,1,0,0:0:0:0:
256,192,149186,1,0,0:0:0:0:
256,192,149367,1,0,0:0:0:0:
256,192,149728,1,0,0:0:0:0:
256,192,149819,1,0,0:0:0:0:
256,192,149909,1,0,0:0:0:0:
256,192,149999,1,0,0:0:0:0:
256,192,150090,1,0,0:0:0:0:
256,192,150542,1,0,0:0:0:0:
256,192,150903,1,0,0:0:0:0:
256,192,151265,1,0,0:0:0:0:
256,192,151445,1,0,0:0:0:0:
256,192,151626,1,0,0:0:0:0:
256,192,151807,1,0,0:0:0:0:
256,192,151987,1,0,0:0:0:0:
256,192,152168,1,0,0:0:0:0:
256,192,152349,1,0,0:0:0:0:
256,192,152530,1,0,0:0:0:0:
256,192,152710,1,0,0:0:0:0:
256,192,152981,1,0,0:0:0:0:
256,192,153162,1,0,0:0:0:0:
256,192,153343,1,0,0:0:0:0:
256,192,153524,1,0,0:0:0:0:
256,192,153704,1,0,0:0:0:0:
256,192,153885,1,0,0:0:0:0:
256,192,154066,1,0,0:0:0:0:
256,192,154246,1,0,0:0:0:0:
256,192,154608,1,0,0:0:0:0:
256,192,154789,1,0,0:0:0:0:
256,192,154969,1,0,0:0:0:0:
256,192,155150,1,0,0:0:0:0:
256,192,155331,1,0,0:0:0:0:
256,192,155512,1,0,0:0:0:0:
256,192,155692,1,0,0:0:0:0:
256,192,155873,1,0,0:0:0:0:
256,192,156054,1,0,0:0:0:0:
256,192,156234,1,0,0:0:0:0:
256,192,156415,1,0,0:0:0:0:
256,192,156596,1,0,0:0:0:0:
256,192,156957,1,0,0:0:0:0:
256,192,157319,1,0,0:0:0:0:
256,192,157680,1,0,0:0:0:0:
256,192,157951,1,0,0:0:0:0:
256,192,158132,1,0,0:0:0:0:
256,192,158313,1,0,0:0:0:0:
256,192,158765,1,0,0:0:0:0:
256,192,158945,1,0,0:0:0:0:
256,192,159126,1,0,0:0:0:0:
256,192,159487,1,0,0:0:0:0:
256,192,159578,1,0,0:0:0:0:
256,192,159668,1,0,0:0:0:0:
256,192,159759,1,0,0:0:0:0:
256,192,159849,1,0,0:0:0:0:
256,192,160301,1,0,0:0:0:0:
256,192,160662,1,0,0:0:0:0:
256,192,161024,1,0,0:0:0:0:
256,192,161204,1,0,0:0:0:0:
256,192,161385,1,0,0:0:0:0:
256,192,161566,1,0,0:0:0:0:
256,192,161746,1,0,0:0:0:0:
256,192,161927,1,0,0:0:0:0:
256,192,162108,1,0,0:0:0:0:
256,192,162289,1,0,0:0:0:0:
256,192,162469,1,0,0:0:0:0:
256,192,162740,1,0,0:0:0:0:
256,192,162921,1,0,0:0:0:0:
256,192,163102,1,0,0:0:0:0:
256,192,163283,1,0,0:0:0:0:
256,192,163463,1,0,0:0:0:0:
256,192,163644,1,0,0:0:0:0:
256,192,163825,1,0,0:0:0:0:
256,192,164006,1,0,0:0:0:0:
256,192,164367,1,0,0:0:0:0:
256,192,164548,1,0,0:0:0:0:
256,192,164728,1,0,0:0:0:0:
256,192,164909,1,0,0:0:0:0:
256,192,165090,1,0,0:0:0:0:
256,192,165271,1,0,0:0:0:0:
256,192,165451,1,0,0:0:0:0:
256,192,165632,1,0,0:0:0:0:
256,192,165813,1,0,0:0:0:0:
256,192,165993,1,0,0:0:0:0:
256,192,166174,1,0,0:0:0:0:
256,192,166355,1,0,0:0:0:0:
256,192,166716,1,0,0:0:0:0:
256,192,167078,1,0,0:0:0:0:
256,192,167439,1,0,0:0:0:0:
256,192,167710,1,0,0:0:0:0:
256,192,167891,1,0,0:0:0:0:
256,192,168072,1,0,0:0:0:0:
256,192,168524,1,0,0:0:0:0:
256,192,168704,1,0,0:0:0:0:
256,192,168885,1,0,0:0:0:0:
256,192,169246,1,0,0:0:0:0:
256,192,169337,1,0,0:0:0:0:
256,192,169427,1,0,0:0:0:0:
256,192,169518,1,0,0:0:0:0:
256,192,169608,1,0,0:0:0:0:
256,192,170060,1,0,0:0:0:0:
256,192,170421,1,0,0:0:0:0:
256,192,170783,1,0,0:0:0:0:
256,192,170963,1,0,0:0:0:0:
256,192,171144,1,0,0:0:0:0:
256,192,171325,1,0,0:0:0:0:
256,192,171506,1,0,0:0:0:0:
256,192,171686,1,0,0:0:0:0:
256,192,171867,1,0,0:0:0:0:
256,192,172048,1,0,0:0:0:0:
256,192,172228,1,0,0:0:0:0:
256,192,172499,1,0,0:0:0:0:
256,192,172680,1,0,0:0:0:0:
256,192,172861,1,0,0:0:0:0:
256,192,173042,1,0,0:0:0:0:
256,192,173222,1,0,0:0:0:0:
256,192,173403,1,0,0:0:0:0:
256,192,173584,1,0,0:0:0:0:
256,192,173765,1,0,0:0:0:0:
256,192,174126,1,0,0:0:0:0:
256,192,174307,1,0,0:0:0:0:
256,192,174487,1,0,0:0:0:0:
256,192,174668,1,0,0:0:0:0:
256,192,174849,1,0,0:0:0:0:
256,192,175030,1,0,0:0:0:0:
256,192,175210,1,0,0:0:0:0:
256,192,175391,1,0,0:0:0:0:
256,192,175572,1,0,0:0:0:0:
256,192,175753,1,0,0:0:0:0:
256,192,175933,1,0,0:0:0:0:
256,192,176114,1,0,0:0:0:0:
256,192,176475,1,0,0:0:0:0:
256,192,176837,1,0,0:0:0:0:
256,192,177198,1,0,0:0:0:0:
256,192,177560,1,0,0:0:0:0:
256,192,177740,1,0,0:0:0:0:
256,192,177921,1,0,0:0:0:0:
256,192,178283,1,0,0:0:0:0:
256,192,178463,1,0,0:0:0:0:
256,192,178644,1,0,0:0:0:0:
256,192,179006,1,0,0:0:0:0:
256,192,179096,1,0,0:0:0:0:
256,192,179186,1,0,0:0:0:0:
256,192,179277,1,0,0:0:0:0:
256,192,179367,1,0,0:0:0:0:
256,192,179728,1,0,0:0:0:0:
256,192,180090,1,0,0:0:0:0:
256,192,180451,1,0,0:0:0:0:
256,192,180632,1,0,0:0:0:0:
256,192,180813,1,0,0:0:0:0:
256,192,180993,1,0,0:0:0:0:
256,192,181174,1,0,0:0:0:0:
256,192,181355,1,0,0:0:0:0:
256,192,181536,1,0,0:0:0:0:
256,192,181716,1,0,0:0:0:0:
256,192,181897,1,0,0:0:0:0:
256,192,182168,1,0,0:0:0:0:
256,192,182349,1,0,0:0:0:0:
256,192,182530,1,0,0:0:0:0:
256,192,182710,1,0,0:0:0:0:
256,192,182891,1,0,0:0:0:0:
256,192,183072,1,0,0:0:0:0:
256,192,183253,1,0,0:0:0:0:
256,192,183433,1,0,0:0:0:0:
256,192,183795,1,0,0:0:0:0:
256,192,183975,1,0,0:0:0:0:
256,192,184156,1,0,0:0:0:0:
256,192,184337,1,0,0:0:0:0:
256,192,184518,1,0,0:0:0:0:
256,192,184698,1,0,0:0:0:0:
256,192,184879,1,0,0:0:0:0:
256,192,185060,1,0,0:0:0:0:
256,192,185240,1,0,0:0:0:0:
256,192,185421,1,0,0:0:0:0:
256,192,185602,1,0,0:0:0:0:
256,192,185783,1,0,0:0:0:0:
256,192,186144,1,0,0:0:0:0:
256,192,186506,1,0,0:0:0:0:
256,192,186867,1,0,0:0:0:0:
256,192,187138,1,0,0:0:0:0:
256,192,187319,1,0,0:0:0:0:
256,192,187499,1,0,0:0:0:0:
256,192,187951,1,0,0:0:0:0:
256,192,188132,1,0,0:0:0:0:
256,192,188313,1,0,0:0:0:0:
256,192,188674,1,0,0:0:0:0:
256,192,188765,1,0,0:0:0:0:
256,192,188855,1,0,0:0:0:0:
256,192,188945,1,0,0:0:0:0:
256,192,189036,1,0,0:0:0:0:
256,192,189487,1,0,0:0:0:0:
256,192,189849,1,0,0:0:0:0:
256,192,190210,1,0,0:0:0:0:
256,192,190391,1,0,0:0:0:0:
256,192,190572,1,0,0:0:0:0:
256,192,190753,1,0,0:0:0:0:
256,192,190933,1,0,0:0:0:0:
256,192,191114,1,0,0:0:0:0:
256,192,191295,1,0,0:0:0:0:
256,192,191475,1,0,0:0:0:0:
256,192,191656,1,0,0:0:0:0:
256,192,191927,1,0,0:0:0:0:
256,192,192108,1,0,0:0:0:0:
256,192,192289,1,0,0:0:0:0:
256,192,192469,1,0,0:0:0:0:
256,192,192650,1,0,0:0:0:0:
256,192,192831,1,0,0:0:0:0:
256,192,193012,1,0,0:0:0:0:
256,192,193192,1,0,0:0:0:0:
256,192,193554,1,0,0:0:0:0:
256,192,193734,1,0,0:0:0:0:
256,192,193915,1,0,0:0:0:0:
256,192,194096,1,0,0:0:0:0:
256,192,194277,1,0,0:0:0:0:
256,192,194457,1,0,0:0:0:0:
256,192,194638,1,0,0:0:0:0:
256,192,194819,1,0,0:0:0:0:
256,192,194999,1,0,0:0:0:0:
256,192,195180,1,0,0:0:0:0:
256,192,195361,1,0,0:0:0:0:
256,192,195542,1,0,0:0:0:0:
256,192,195903,1,0,0:0:0:0:
256,192,196265,1,0,0:0:0:0:
256,192,196626,1,0,0:0:0:0:
256,192,196897,1,0,0:0:0:0:
256,192,197078,1,0,0:0:0:0:
256,192,197259,1,0,0:0:0:0:
256,192,197710,1,0,0:0:0:0:
256,192,197891,1,0,0:0:0:0:
256,192,198072,1,0,0:0:0:0:
256,192,198433,1,0,0:0:0:0:
256,192,198524,1,0,0:0:0:0:
256,192,198614,1,0,0:0:0:0:
256,192,198704,1,0,0:0:0:0:
256,192,198795,1,0,0:0:0:0:
256,192,199246,1,0,0:0:0:0:
256,192,199608,1,0,0:0:0:0:
256,192,199969,1,0,0:0:0:0:
256,192,200150,1,0,0:0:0:0:
256,192,200331,1,0,0:0:0:0:
256,192,200512,1,0,0:0:0:0:
256,192,200692,1,0,0:0:0:0:
256,192,200873,1,0,0:0:0:0:
256,192,201054,1,0,0:0:0:0:
256,192,201234,1,0,0:0:0:0:
256,192,201415,1,0,0:0:0:0:
256,192,201686,1,0,0:0:0:0:
256,192,201867,1,0,0:0:0:0:
256,192,202048,1,0,0:0:0:0:
256,192,202228,1,0,0:0:0:0:
256,192,202409,1,0,0:0:0:0:
256,192,202590,1,0,0:0:0:0:
256,192,202771,1,0,0:0:0:0:
256,192,202951,1,0,0:0:0:0:
256,192,203313,1,0,0:0:0:0:
256,192,203493,1,0,0:0:0:0:
256,192,203674,1,0,0:0:0:0:
256,192,203855,1,0,0:0:0:0:
256,192,204036,1,0,0:0:0:0:
256,192,204216,1,0,0:0:0:0:
256,192,204397,1,0,0:0:0:0:
256,192,204578,1,0,0:0:0:0:
256,192,204759,1,0,0:0:0:0:
256,192,204939,1,0,0:0:0:0:
256,192,205120,1,0,0:0:0:0:
256,192,205301,1,0,0:0:0:0:
256,192,205662,1,0,0:0:0:0:
256,192,206024,1,0,0:0:0:0:
256,192,206385,1,0,0:0:0:0:
256,192,206656,1,0,0:0:0:0:
256,192,206837,1,0,0:0:0:0:
256,192,207018,1,0,0:0:0:0:
256,192,207469,1,0,0:0:0:0:
256,192,207650,1,0,0:0:0:0:
256,192,207831,1,0,0:0:0:0:
256,192,208192,1,0,0:0:0:0:
256,192,208283,1,0,0:0:0:0:
256,192,208373,1,0,0:0:0:0:
256,192,208463,1,0,0:0:0:0:
256,192,208554,1,0,0:0:0:0:
256,192,209006,1,0,0:0:0:0:
256,192,209367,1,0,0:0:0:0:
256,192,209728,1,0,0:0:0:0:
256,192,209909,1,0,0:0:0:0:
256,192,210090,1,0,0:0:0:0:
256,192,210271,1,0,0:0:0:0:
256,192,210451,1,0,0:0:0:0:
256,192,210632,1,0,0:0:0:0:
256,192,210813,1,0,0:0:0:0:
256,192,210993,1,0,0:0:0:0:
256,192,211174,1,0,0:0:0:0:
256,192,211445,1,0,0:0:0:0:
256,192,211626,1,0,0:0:0:0:
256,192,211807,1,0,0:0:0:0:
256,192,211987,1,0,0:0:0:0:
256,192,212168,1,0,0:0:0:0:
256,192,212349,1,0,0:0:0:0:
256,192,212530,1,0,0:0:0:0:
256,192,212710,1,0,0:0:0:0:
256,192,213072,1,0,0:0:0:0:
256,192,213253,1,0,0:0:0:0:
256,192,213433,1,0,0:0:0:0:
256,192,213614,1,0,0:0:0:0:
256,192,213795,1,0,0:0:0:0:
256,192,213975,1,0,0:0:0:0:
256,192,214156,1,0,0:0:0:0:
256,192,214337,1,0,0:0:0:0:
256,192,214518,1,0,0:0:0:0:
256,192,214698,1,0,0:0:0:0:
256,192,214879,1,0,0:0:0:0:
256,192,215060,1,0,0:0:0:0:
256,192,215421,1,0,0:0:0:0:
256,192,215783,1,0,0:0:0:0:
256,192,216144,1,0,0:0:0:0:
256,192,216506,1,0,0:0:0:0:
256,192,216686,1,0,0:0:0:0:
256,192,216867,1,0,0:0:0:0:
256,192,217228,1,0,0:0:0:0:
256,192,217409,1,0,0:0:0:0:
256,192,217590,1,0,0:0:0:0:
256,192,217951,1,0,0:0:0:0:
256,192,218042,1,0,0:0:0:0:
256,192,218132,1,0,0:0:0:0:
256,192,218222,1,0,0:0:0:0:
256,192,218313,1,0,0:0:0:0:
256,192,218674,1,0,0:0:0:0:
256,192,219036,1,0,0:0:0:0:
256,192,219397,1,0,0:0:0:0:
256,192,219578,1,0,0:0:0:0:
256,192,219759,1,0,0:0:0:0:
256,192,219939,1,0,0:0:0:0:
256,192,220120,1,0,0:0:0:0:
256,192,220301,1,0,0:0:0:0:
256,192,220481,1,0,0:0:0:0:
256,192,220662,1,0,0:0:0:0:
256,192,220843,1,0,0:0:0:0:
256,192,221114,1,0,0:0:0:0:
256,192,221295,1,0,0:0:0:0:
256,192,221475,1,0,0:0:0:0:
256,192,221656,1,0,0:0:0:0:
256,192,221837,1,0,0:0:0:0:
256,192,222018,1,0,0:0:0:0:
256,192,222198,1,0,0:0:0:0:
256,192,222379,1,0,0:0:0:0:
256,192,222740,1,0,0:0:0:0:
256,192,222921,1,0,0:0:0:0:
256,192,223102,1,0,0:0:0:0:
256,192,223283,1,0,0:0:0:0:
256,192,223463,1,0,0:0:0:0:
256,192,223644,1,0,0:0:0:0:
256,192,223825,1,0,0:0:0:0:
256,192,224006,1,0,0:0:0:0:
256,192,224186,1,0,0:0:0:0:
256,192,224367,1,0,0:0:0:0:
256,192,224548,1,0,0:0:0:0:
256,192,224728,1,0,0:0:0:0:
256,192,225090,1,0,0:0:0:0:
256,192,225451,1,0,0:0:0:0:
256,192,225813,1,0,0:0:0:0:
256,192,226084,1,0,0:0:0:0:
256,192,226265,1,0,0:0:0:0:
256,192,226445,1,0,0:0:0:0:
256,192,226897,1,0,0:0:0:0:
256,192,227078,1,0,0:0:0:0:
256,192,227259,1,0,0:0:0:0:
256,192,227620,1,0,0:0:0:0:
256,192,227710,1,0,0:0:0:0:
256,192,227801,1,0,0:0:0:0:
256,192,227891,1,0,0:0:0:0:
256,192,227981,1,0,0:0:0:0:
256,192,228433,1,0,0:0:0:0:
256,192,228795,1,0,0:0:0:0:
256,192,229156,1,0,0:0:0:0:
256,192,229337,1,0,0:0:0:0:
256,192,229518,1,0,0:0:0:0:
256,192,229698,1,0,0:0:0:0:
256,192,229879,1,0,0:0:0:0:
256,192,230060,1,0,0:0:0:0:
256,192,230240,1,0,0:0:0:0:
256,192,230421,1,0,0:0:0:0:
256,192,230602,1,0,0:0:0:0:
256,192,230873,1,0,0:0:0:0:
256,192,231054,1,0,0:0:0:0:
256,192,231234,1,0,0:0:0:0:
256,192,231415,1,0,0:0:0:0:
256,192,231596,1,0,0:0:0:0:
256,192,231777,1,0,0:0:0:0:
256,192,231957,1,0,0:0:0:0:
256,192,232138,1,0,0:0:0:0:
256,192,232499,1,0,0:0:0:0:
256,192,232680,1,0,0:0:0:0:
256,192,232861,1,0,0:0:0:0:
256,192,233042,1,0,0:0:0:0:
256,192,233222,1,0,0:0:0:0:
256,192,233403,1,0,0:0:0:0:
256,192,233584,1,0,0:0:0:0:
256,192,233765,1,0,0:0:0:0:
256,192,233945,1,0,0:0:0:0:
256,192,234126,1,0,0:0:0:0:
256,192,234307,1,0,0:0:0:0:
256,192,234487,1,0,0:0:0:0:
256,192,234849,1,0,0:0:0:0:
256,192,235210,1,0,0:0:0:0:
256,192,235572,1,0,0:0:0:0:
256,192,235843,1,0,0:0:0:0:
256,192,236024,1,0,0:0:0:0:
256,192,236204,1,0,0:0:0:0:
256,192,236656,1,0,0:0:0:0:
256,192,236837,1,0,0:0:0:0:
256,192,237018,1,0,0:0:0:0:
256,192,237379,1,0,0:0:0:0:
256,192,237469,1,0,0:0:0:0:
256,192,237560,1,0,0:0:0:0:
256,192,237650,1,0,0:0:0:0:
256,192,237740,1,0,0:0:0:0:
256,192,238192,1,0,0:0:0:0:
256,192,238554,1,0,0:0:0:0:
256,192,238915,1,0,0:0:0:0:
256,192,239096,1,0,0:0:0:0:
256,192,239277,1,0,0:0:0:0:
256,192,239457,1,0,0:0:0:0:
256,192,239638,1,0,0:0:0:0:
256,192,239819,1,0,0:0:0:0:
256,192,239999,1,0,0:0:0:0:
256,192,240180,1,0,0:0:0:0:
256,192,240361,1,0,0:0:0:0:
256,192,240632,1,0,0:0:0:0:
256,192,240813,1,0,0:0:0:0:
256,192,240993,1,0,0:0:0:0:
256,192,241174,1,0,0:0:0:0:
256,192,241355,1,0,0:0:0:0:
256,192,241536,1,0,0:0:0:0:
256,192,241716,1,0,0:0:0:0:
256,192,241897,1,0,0:0:0:0:
256,192,242259,1,0,0:0:0:0:
256,192,242439,1,0,0:0:0:0:
256,192,242620,1,0,0:0:0:0:
256,192,242801,1,0,0:0:0:0:
256,192,242981,1,0,0:0:0:0:
256,192,243162,1,0,0:0:0:0:
256,192,243343,1,0,0:0:0:0:
256,192,243524,1,0,0:0:0:0:
256,192,243704,1,0,0:0:0:0:
256,192,243885,1,0,0:0:0:0:
256,192,244066,1,0,0:0:0:0:
256,192,244246,1,0,0:0:0:0:
256,192,244608,1,0,0:0:0:0:
256,192,244969,1,0,0:0:0:0:
256,192,245331,1,0,0:0:0:0:
256,192,245602,1,0,0:0:0:0:
256,192,245783,1,0,0:0:0:0:
256,192,245963,1,0,0:0:0:0:
256,192,246415,1,0,0:0:0:0:
256,192,246596,1,0,0:0:0:0:
256,192,246777,1,0,0:0:0:0:
256,192,247138,1,0,0:0:0:0:
256,192,247228,1,0,0:0:0:0:
256,192,247319,1,0,0:0:0:0:
256,192,247409,1,0,0:0:0:0:
256,192,247499,1,0,0:0:0:0:
256,192,247951,1,0,0:0:0:0:
256,192,248313,1,0,0:0:0:0:
256,192,248674,1,0,0:0:0:0:
256,192,248855,1,0,0:0:0:0:
256,192,249036,1,0,0:0:0:0:
256,192,249216,1,0,0:0:0:0:
256,192,249397,1,0,0:0:0:0:
256,192,249578,1,0,0:0:0:0:
256,192,249759,1,0,0:0:0:0:
256,192,249939,1,0,0:0:0:0:
256,192,250120,1,0,0:0:0:0:
256,192,250391,1,0,0:0:0:0:
256,192,250572,1,0,0:0:0:0:
256,192,250753,1,0,0:0:0:0:
256,192,250933,1,0,0:0:0:0:
256,192,251114,1,0,0:0:0:0:
256,192,251295,1,0,0:0:0:0:
256,192,251475,1,0,0:0:0:0:
256,192,251656,1,0,0:0:0:0:
256,192,252018,1,0,0:0:0:0:
256,192,252198,1,0,0:0:0:0:
256,192,252379,1,0,0:0:0:0:
256,192,252560,1,0,0:0:0:0:
256,192,252740,1,0,0:0:0:0:
256,192,252921,1,0,0:0:0:0:
256,192,253102,1,0,0:0:0:0:
256,192,253283,1,0,0:0:0:0:
256,192,253463,1,0,0:0:0:0:
256,192,253644,1,0,0:0:0:0:
256,192,253825,1,0,0:0:0:0:
256,192,254006,1,0,0:0:0:0:
256,192,254367,1,0,0:0:0:0:
256,192,254728,1,0,0:0:0:0:
256,192,255090,1,0,0:0:0:0:
256,192,255451,1,0,0:0:0:0:
256,192,255632,1,0,0:0:0:0:
256,192,255813,1,0,0:0:0:0:
256,192,256174,1,0,0:0:0:0:
256,192,256355,1,0,0:0:0:0:
256,192,256536,1,0,0:0:0:0:
256,192,256897,1,0,0:0:0:0:
256,192,256987,1,0,0:0:0:0:
256,192,257078,1,0,0:0:0:0:
256,192,257168,1,0,0:0:0:0:
256,192,257259,1,0,0:0:0:0:
256,192,257620,1,0,0:0:0:0:
256,192,257981,1,0,0:0:0:0:
256,192,258343,1,0,0:0:0:0:
256,192,258524,1,0,0:0:0:0:
256,192,258704,1,0,0:0:0:0:
256,192,258885,1,0,0:0:0:0:
256,192,259066,1,0,0:0:0:0:
256,192,259246,1,0,0:0:0:0:
256,192,259427,1,0,0:0:0:0:
256,192,259608,1,0,0:0:0:0:
256,192,259789,1,0,0:0:0:0:
256,192,260060,1,0,0:0:0:0:
256,192,260240,1,0,0:0:0:0:
256,192,260421,1,0,0:0:0:0:
256,192,260602,1,0,0:0:0:0:
256,192,260783,1,0,0:0:0:0:
256,192,260963,1,0,0:0:0:0:
256,192,261144,1,0,0:0:0:0:
256,192,261325,1,0,0:0:0:0:
256,192,261686,1,0,0:0:0:0:
256,192,261867,1,0,0:0:0:0:
256,192,262048,1,0,0:0:0:0:
256,192,262228,1,0,0:0:0:0:
256,192,262409,1,0,0:0:0:0:
256,192,262590,1,0,0:0:0:0:
256,192,262771,1,0,0:0:0:0:
256,192,262951,1,0,0:0:0:0:
256,192,263132,1,0,0:0:0:0:
256,192,263313,1,0,0:0:0:0:
256,192,263493,1,0,0:0:0:0:
256,192,263674,1,0,0:0:0:0:
256,192,264036,1,0,0:0:0:0:
256,192,264397,1,0,0:0:0:0:
256,192,264759,1,0,0:0:0:0:
256,192,265030,1,0,0:0:0:0:
256,192,265210,1,0,0:0:0:0:
256,192,265391,1,0,0:0:0:0:
256,192,265843,1,0,0:0:0:0:
256,192,266024,1,0,0:0:0:0:
256,192,266204,1,0,0:0:0:0:
256,192,266566,1,0,0:0:0:0:
256,192,266656,1,0,0:0:0:0:
256,192,266746,1,0,0:0:0:0:
256,192,266837,1,0,0:0:0:0:
256,192,266927,1,0,0:0:0:0:
256,192,267379,1,0,0:0:0:0:
256,192,267740,1,0,0:0:0:0:
256,192,268102,1,0,0:0:0:0:
256,192,268283,1,0,0:0:0:0:
256,192,268463,1,0,0:0:0:0:
256,192,268644,1,0,0:0:0:0:
256,192,268825,1,0,0:0:0:0:
256,192,269006,1,0,0:0:0:0:
256,192,269186,1,0,0:0:0:0:
256,192,269367,1,0,0:0:0:0:
256,192,269548,1,0,0:0:0:0:
256,192,269819,1,0,0:0:0:0:
256,192,269999,1,0,0:0:0:0:
256,192,270180,1,0,0:0:0:0:
256,192,270361,1,0,0:0:0:0:
256,192,270542,1,0,0:0:0:0:
256,192,270722,1,0,0:0:0:0:
256,192,270903,1,0,0:0:0:0:
256,192,271084,1,0,0:0:0:0:
256,192,271445,1,0,0:0:0:0:
256,192,271626,1,0,0:0:0:0:
256,192,271807,1,0,0:0:0:0:
256,192,271987,1,0,0:0:0:0:
256,192,272168,1,0,0:0:0:0:
256,192,272349,1,0,0:0:0:0:
256,192,272530,1,0,0:0:0:0:
256,192,272710,1,0,0:0:0:0:
256,192,272891,1,0,0:0:0:0:
256,192,273072,1,0,0:0:0:0:
256,192,273253,1,0,0:0:0:0:
256,192,273433,1,0,0:0:0:0:
256,192,273795,1,0,0:0:0:0:
256,192,274156,1,0,0:0:0:0:
256,192,274518,1,0,0:0:0:0:
256,192,274789,1,0,0:0:0:0:
256,192,274969,1,0,0:0:0:0:
256,192,275150,1,0,0:0:0:0:
256,192,275602,1,0,0:0:0:0:
256,192,275783,1,0,0:0:0:0:
256,192,275963,1,0,0:0:0:0:
256,192,276325,1,0,0:0:0:0:
256,192,276415,1,0,0:0:0:0:
256,192,276506,1,0,0:0:0:0:
256,192,276596,1,0,0:0:0:0:
256,192,276686,1,0,0:0:0:0:
256,192,277138,1,0,0:0:0:0:
256,192,277499,1,0,0:0:0:0:
256,192,277861,1,0,0:0:0:0:
256,192,278042,1,0,0:0:0:0:
256,192,278222,1,0,0:0:0:0:
256,192,278403,1,0,0:0:0:0:
256,192,278584,1,0,0:0:0:0:
256,192,278765,1,0,0:0:0:0:
256,192,278945,1,0,0:0:0:0:
256,192,279126,1,0,0:0:0:0:
256,192,279307,1,0,0:0:0:0:
256,192,279578,1,0,0:0:0:0:
256,192,279759,1,0,0:0:0:0:
256,192,279939,1,0,0:0:0:0:
256,192,280120,1,0,0:0:0:0:
256,192,280301,1,0,0:0:0:0:
256,192,280481,1,0,0:0:0:0:
256,192,280662,1,0,0:0:0:0:
256,192,280843,1,0,0:0:0:0:
256,192,281204,1,0,0:0:0:0:
256,192,281385,1,0,0:0:0:0:
256,192,281566,1,0,0:0:0:0:
256,192,281746,1,0,0:0:0:0:
256,192,281927,1,0,0:0:0:0:
256,192,282108,1,0,0:0:0:0:
256,192,282289,1,0,0:0:0:0:
256,192,282469,1,0,0:0:0:0:
256,192,282650,1,0,0:0:0:0:
256,192,282831,1,0,0:0:0:0:
256,192,283012,1,0,0:0:0:0:
256,192,283192,1,0,0:0:0:0:
256,192,283554,1,0,0:0:0:0:
256,192,283915,1,0,0:0:0:0:
256,192,284277,1,0,0:0:0:0:
256,192,284548,1,0,0:0:0:0:
256,192,284728,1,0,0:0:0:0:
256,192,284909,1,0,0:0:0:0:
256,192,285361,1,0,0:0:0:0:
256,192,285542,1,0,0:0:0:0:
256,192,285722,1,0,0:0:0:0:
256,192,286084,1,0,0:0:0:0:
256,192,286174,1,0,0:0:0:0:
256,192,286265,1,0,0:0:0:0:
256,192,286355,1,0,0:0:0:0:
256,192,286445,1,0,0:0:0:0:
256,192,286807,1,0,0:0:0:0:
256,192,287168,1,0,0:0:0:0:
256,192,287530,1,0,0:0:0:0:
256,192,287710,1,0,0:0:0:0:
256,192,287891,1,0,0:0:0:0:
256,192,288072,1,0,0:0:0:0:
256,192,288253,1,0,0:0:0:0:
256,192,288433,1,0,0:0:0:0:
256,192,288614,1,0,0:0:0:0:
256,192,288795,1,0,0:0:0:0:
256,192,288975,1,0,0:0:0:0:
256,192,289246,1,0,0:0:0:0:
256,192,289427,1,0,0:0:0:0:
256,192,289608,1,0,0:0:0:0:
256,192,289789,1,0,0:0:0:0:
256,192,289969,1,0,0:0:0:0:
256,192,290150,1,0,0:0:0:0:
256,192,290331,1,0,0:0:0:0:
256,192,290512,1,0,0:0:0:0:
256,192,290873,1,0,0:0:0:0:
256,192,291054,1,0,0:0:0:0:
256,192,291234,1,0,0:0:0:0:
256,192,291415,1,0,0:0:0:0:
256,192,291596,1,0,0:0:0:0:
256,192,291777,1,0,0:0:0:0:
256,192,291957,1,0,0:0:0:0:
256,192,292138,1,0,0:0:0:0:
256,192,292319,1,0,0:0:0:0:
256,192,292499,1,0,0:0:0:0:
256,192,292680,1,0,0:0:0:0:
256,192,292861,1,0,0:0:0:0:
256,192,293222,1,0,0:0:0:0:
256,192,293584,1,0,0:0:0:0:
256,192,293945,1,0,0:0:0:0:
256,192,294307,1,0,0:0:0:0:
256,192,294487,1,0,0:0:0:0:
256,192,294668,1,0,0:0:0:0:
256,192,295030,1,0,0:0:0:0:
256,192,295210,1,0,0:0:0:0:
256,192,295391,1,0,0:0:0:0:
256,192,295753,1,0,0:0:0:0:
256,192,295843,1,0,0:0:0:0:
256,192,295933,1,0,0:0:0:0:
256,192,296024,1,0,0:0:0:0:
256,192,296114,1,0,0:0:0:0:
256,192,296475,1,0,0:0:0:0:
256,192,296837,1,0,0:0:0:0:
256,192,297198,1,0,0:0:0:0:
256,192,297379,1,0,0:0:0:0:
256,192,297560,1,0,0:0:0:0:
256,192,297740,1,0,0:0:0:0:
256,192,297921,1,0,0:0:0:0:
256,192,298102,1,0,0:0:0:0:
256,192,298283,1,0,0:0:0:0:
256,192,298463,1,0,0:0:0:0:
256,192,298644,1,0,0:0:0:0:
256,192,298915,1,0,0:0:0:0:
256,192,299096,1,0,0:0:0:0:
256,192,299277,1,0,0:0:0:0:
256,192,299457,1,0,0:0:0:0:
256,192,299638,1,0,0:0:0:0:
256,192,299819,1,0,0:0:0:0:
256,192,299999,1,0,0:0:0:0:
256,192,300180,1,0,0:0:0:0:
256,192,300542,1,0,0:0:0:0:
256,192,300722,1,0,0:0:0:0:
256,192,300903,1,0,0:0:0:0:
256,192,301084,1,0,0:0:0:0:
256,192,301265,1,0,0:0:0:0:
256,192,301445,1,0,0:0:0:0:
256,192,301626,1,0,0:0:0:0:
256,192,301807,1,0,0:0:0:0:
256,192,301987,1,0,0:0:0:0:
256,192,302168,1,0,0:0:0:0:
256,192,302349,1,0,0:0:0:0:
256,192,302530,1,0,0:0:0:0:
256,192,302891,1,0,0:0:0:0:
256,192,303253,1,0,0:0:0:0:
256,192,303614,1,0,0:0:0:0:
256,192,303885,1,0,0:0:0:0:
256,192,304066,1,0,0:0:0:0:
256,192,304246,1,0,0:0:0:0:
256,192,304698,1,0,0:0:0:0:
256,192,304879,1,0,0:0:0:0:
256,192,305060,1,0,0:0:0:0:
256,192,305421,1,0,0:0:0:0:
256,192,305512,1,0,0:0:0:0:
256,192,305602,1,0,0:0:0:0:
256,192,305692,1,0,0:0:0:0:
256,192,305783,1,0,0:0:0:0:
256,192,306234,1,0,0:0:0:0:
256,192,306596,1,0,0:0:0:0:
256,192,306957,1,0,0:0:0:0:
256,192,307138,1,0,0:0:0:0:
256,192,307319,1,0,0:0:0:0:
256,192,307499,1,0,0:0:0:0:
256,192,307680,1,0,0:0:0:0:
256,192,307861,1,0,0:0:0:0:
256,192,308042,1,0,0:0:0:0:
256,192,308222,1,0,0:0:0:0:
256,192,308403,1,0,0:0:0:0:
256,192,308674,1,0,0:0:0:0:
256,192,308855,1,0,0:0:0:0:
256,192,309036,1,0,0:0:0:0:
256,192,309216,1,0,0:0:0:0:
256,192,309397,1,0,0:0:0:0:
256,192,309578,1,0,0:0:0:0:
256,192,309759,1,0,0:0:0:0:
256,192,309939,1,0,0:0:0:0:
256,192,310301,1,0,0:0:0:0:
256,192,310481,1,0,0:0:0:0:
256,192,310662,1,0,0:0:0:0:
256,192,310843,1,0,0:0:0:0:
256,192,311024,1,0,0:0:0:0:
256,192,311204,1,0,0:0:0:0:
256,192,311385,1,0,0:0:0:0:
256,192,311566,1,0,0:0:0:0:
256,192,311746,1,0,0:0:0:0:
256,192,311927,1,0,0:0:0:0:
256,192,312108,1,0,0:0:0:0:
256,192,312289,1,0,0:0:0:0:
256,192,312650,1,0,0:0:0:0:
256,192,313012,1,0,0:0:0:0:
256,192,313373,1,0,0:0:0:0:
256,192,313644,1,0,0:0:0:0:
256,192,313825,1,0,0:0:0:0:
256,192,314006,1,0,0:0:0:0:
256,192,314457,1,0,0:0:0:0:
256,192,314638,1,0,0:0:0:0:
256,192,314819,1,0,0:0:0:0:
256,192,315180,1,0,0:0:0:0:
256,192,315271,1,0,0:0:0:0:
256,192,315361,1,0,0:0:0:0:
256,192,315451,1,0,0:0:0:0:
256,192,315542,1,0,0:0:0:0:
256,192,315993,1,0,0:0:0:0:
256,192,316355,1,0,0:0:0:0:
256,192,316716,1,0,0:0:0:0:
256,192,316897,1,0,0:0:0:0:
256,192,317078,1,0,0:0:0:0:
256,192,317259,1,0,0:0:0:0:
256,192,317439,1,0,0:0:0:0:
256,192,317620,1,0,0:0:0:0:
256,192,317801,1,0,0:0:0:0:
256,192,317981,1,0,0:0:0:0:
256,192,318162,1,0,0:0:0:0:
256,192,318433,1,0,0:0:0:0:
256,192,318614,1,0,0:0:0:0:
256,192,318795,1,0,0:0:0:0:
256,192,318975,1,0,0:0:0:0:
256,192,319156,1,0,0:0:0:0:
256,192,319337,1,0,0:0:0:0:
256,192,319518,1,0,0:0:0:0:
256,192,319698,1,0,0:0:0:0:
256,192,320060,1,0,0:0:0:0:
256,192,320240,1,0,0:0:0:0:
256,192,320421,1,0,0:0:0:0:
256,192,320602,1,0,0:0:0:0:
256,192,320783,1,0,0:0:0:0:
256,192,320963,1,0,0:0:0:0:
256,192,321144,1,0,0:0:0:0:
256,192,321325,1,0,0:0:0:0:
256,192,321506,1,0,0:0:0:0:
256,192,321686,1,0,0:0:0:0:
256,192,321867,1,0,0:0:0:0:
256,192,322048,1,0,0:0:0:0:
256,192,322409,1,0,0:0:0:0:
256,192,322771,1,0,0:0:0:0:
256,192,323132,1,0,0:0:0:0:
256,192,323403,1,0,0:0:0:0:
256,192,323584,1,0,0:0:0:0:
256,192,323765,1,0,0:0:0:0:
256,192,324216,1,0,0:0:0:0:
256,192,324397,1,0,0:0:0:0:
256,192,324578,1,0,0:0:0:0:
256,192,324939,1,0,0:0:0:0:
256,192,325030,1,0,0:0:0:0:
256,192,325120,1,0,0:0:0:0:
256,192,325210,1,0,0:0:0:0:
256,192,325301,1,0,0:0:0:0:
256,192,325753,1,0,0:0:0:0:
256,192,326114,1,0,0:0:0:0:
256,192,326475,1,0,0:0:0:0:
256,192,326656,1,0,0:0:0:0:
256,192,326837,1,0,0:0:0:0:
256,192,327018,1,0,0:0:0:0:
256,192,327198,1,0,0:0:0:0:
256,192,327379,1,0,0:0:0:0:
256,192,327560,1,0,0:0:0:0:
256,192,327740,1,0,0:0:0:0:
256,192,327921,1,0,0:0:0:0:
256,192,328192,1,0,0:0:0:0:
256,192,328373,1,0,0:0:0:0:
256,192,328554,1,0,0:0:0:0:
256,192,328734,1,0,0:0:0:0:
256,192,328915,1,0,0:0:0:0:
256,192,329096,1,0,0:0:0:0:
256,192,329277,1,0,0:0:0:0:
256,192,329457,1,0,0:0:0:0:
256,192,329819,1,0,0:0:0:0:
256,192,329999,1,0,0:0:0:0:
256,192,330180,1,0,0:0:0:0:
256,192,330361,1,0,0:0:0:0:
256,192,330542,1,0,0:0:0:0:
256,192,330722,1,0,0:0:0:0:
256,192,330903,1,0,0:0:0:0:
256,192,331084,1,0,0:0:0:0:
256,192,331265,1,0,0:0:0:0:
256,192,331445,1,0,0:0:0:0:
256,192,331626,1,0,0:0:0:0:
256,192,331807,1,0,0:0:0:0:
256,192,332168,1,0,0:0:0:0:
256,192,332530,1,0,0:0:0:0:
256,192,332891,1,0,0:0:0:0:
256,192,333253,1,0,0:0:0:0:
256,192,333433,1,0,0:0:0:0:
256,192,333614,1,0,0:0:0:0:
256,192,333975,1,0,0:0:0:0:
256,192,334156,1,0,0:0:0:0:
256,192,334337,1,0,0:0:0:0:
256,192,334698,1,0,0:0:0:0:
256,192,334789,1,0,0:0:0:0:
256,192,334879,1,0,0:0:0:0:
256,192,334969,1,0,0:0:0:0:
256,192,335060,1,0,0:0:0:0:
256,192,335421,1,0,0:0:0:0:
256,192,335783,1,0,0:0:0:0:
256,192,336144,1,0,0:0:0:0:
256,192,336325,1,0,0:0:0:0:
256,192,336506,1,0,0:0:0:0:
256,192,336686,1,0,0:0:0:0:
256,192,336867,1,0,0:0:0:0:
256,192,337048,1,0,0:0:0:0:
256,192,337228,1,0,0:0:0:0:
256,192,337409,1,0,0:0:0:0:
256,192,337590,1,0,0:0:0:0:
256,192,337861,1,0,0:0:0:0:
256,192,338042,1,0,0:0:0:0:
256,192,338222,1,0,0:0:0:0:
256,192,338403,1,0,0:0:0:0:
256,192,338584,1,0,0:0:0:0:
256,192,338765,1,0,0:0:0:0:
256,192,338945,1,0,0:0:0:0:
256,192,339126,1,0,0:0:0:0:
256,192,339487,1,0,0:0:0:0:
256,192,339668,1,0,0:0:0:0:
256,192,339849,1,0,0:0:0:0:
256,192,340030,1,0,0:0:0:0:
256,192,340210,1,0,0:0:0:0:
256,192,340391,1,0,0:0:0:0:
256,192,340572,1,0,0:0:0:0:
256,192,340753,1,0,0:0:0:0:
256,192,340933,1,0,0:0:0:0:
256,192,341114,1,0,0:0:0:0:
256,192,341295,1,0,0:0:0:0:
256,192,341475,1,0,0:0:0:0:
256,192,341837,1,0,0:0:0:0:
256,192,342198,1,0,0:0:0:0:
256,192,342560,1,0,0:0:0:0:
256,192,342831,1,0,0:0:0:0:
256,192,343012,1,0,0:0:0:0:
256,192,343192,1,0,0:0:0:0:
256,192,343644,1,0,0:0:0:0:
256,192,343825,1,0,0:0:0:0:
256,192,344006,1,0,0:0:0:0:
256,192,344367,1,0,0:0:0:0:
256,192,344457,1,0,0:0:0:0:
256,192,344548,1,0,0:0:0:0:
256,192,344638,1,0,0:0:0:0:
256,192,344728,1,0,0:0:0:0:
256,192,345180,1,0,0:0:0:0:
256,192,345542,1,0,0:0:0:0:
256,192,345903,1,0,0:0:0:0:
256,192,346084,1,0,0:0:0:0:
256,192,346265,1,0,0:0:0:0:
256,192,346445,1,0,0:0:0:0:
256,192,346626,1,0,0:0:0:0:
256,192,346807,1,0,0:0:0:0:
256,192,346987,1,0,0:0:0:0:
256,192,347168,1,0,0:0:0:0:
256,192,347349,1,0,0:0:0:0:
256,192,347620,1,0,0:0:0:0:
256,192,347801,1,0,0:0:0:0:
256,192,347981,1,0,0:0:0:0:
256,192,348162,1,0,0:0:0:0:
256,192,348343,1,0,0:0:0:0:
256,192,348524,1,0,0:0:0:0:
256,192,348704,1,0,0:0:0:0:
256,192,348885,1,0,0:0:0:0:
256,192,349246,1,0,0:0:0:0:
256,192,349427,1,0,0:0:0:0:
256,192,349608,1,0,0:0:0:0:
256,192,349789,1,0,0:0:0:0:
256,192,349969,1,0,0:0:0:0:
256,192,350150,1,0,0:0:0:0:
256,192,350331,1,0,0:0:0:0:
256,192,350512,1,0,0:0:0:0:
256,192,350692,1,0,0:0:0:0:
256,192,350873,1,0,0:0:0:0:
256,192,351054,1,0,0:0:0:0:
256,192,351234,1,0,0:0:0:0:
256,192,351596,1,0,0:0:0:0:
256,192,351957,1,0,0:0:0:0:
256,192,352319,1,0,0:0:0:0:
256,192,352590,1,0,0:0:0:0:
256,192,352771,1,0,0:0:0:0:
256,192,352951,1,0,0:0:0:0:
256,192,353403,1,0,0:0:0:0:
256,192,353584,1,0,0:0:0:0:
256,192,353765,1,0,0:0:0:0:
256,192,354126,1,0,0:0:0:0:
256,192,354216,1,0,0:0:0:0:
256,192,354307,1,0,0:0:0:0:
256,192,354397,1,0,0:0:0:0:
256,192,354487,1,0,0:0:0:0:
256,192,354939,1,0,0:0:0:0:
256,192,355301,1,0,0:0:0:0:
256,192,355662,1,0,0:0:0:0:
256,192,355843,1,0,0:0:0:0:
256,192,356024,1,0,0:0:0:0:
256,192,356204,1,0,0:0:0:0:
256,192,356385,1,0,0:0:0:0:
256,192,356566,1,0,0:0:0:0:
256,192,356746,1,0,0:0:0:0:
256,192,356927,1,0,0:0:0:0:
256,192,357108,1,0,0:0:0:0:
256,192,357379,1,0,0:0:0:0:
256,192,357560,1,0,0:0:0:0:
256,192,357740,1,0,0:0:0:0:
256,192,357921,1,0,0:0:0:0:
256,192,358102,1,0,0:0:0:0:
256,192,358283,1,0,0:0:0:0:
256,192,358463,1,0,0:0:0:0:
256,192,358644,1,0,0:0:0:0:
256,192,359006,1,0,0:0:0:0:
256,192,359186,1,0,0:0:0:0:
256,192,359367,1,0,0:0:0:0:
256,192,359548,1,0,0:0:0:0:
256,192,359728,1,0,0:0:0:0:
256,192,359909,1,0,0:0:0:0:
256,192,360090,1,0,0:0:0:0:
256,192,360271,1,0,0:0:0:0:
256,192,360451,1,0,0:0:0:0:
256,192,360632,1,0,0:0:0:0:
256,192,360813,1,0,0:0:0:0:
256,192,360993,1,0,0:0:0:0:
256,192,361355,1,0,0:0:0:0:
256,192,361716,1,0,0:0:0:0:
256,192,362078,1,0,0:0:0:0:
256,192,362349,1,0,0:0:0:0:
256,192,362530,1,0,0:0:0:0:
256,192,362710,1,0,0:0:0:0:
256,192,363162,1,0,0:0:0:0:
256,192,363343,1,0,0:0:0:0:
256,192,363524,1,0,0:0:0:0:
256,192,363885,1,0,0:0:0:0:
256,192,363975,1,0,0:0:0:0:
256,192,364066,1,0,0:0:0:0:
256,192,364156,1,0,0:0:0:0:
256,192,364246,1,0,0:0:0:0:
256,192,364698,1,0,0:0:0:0:
256,192,365060,1,0,0:0:0:0:
256,192,365421,1,0,0:0:0:0:
256,192,365602,1,0,0:0:0:0:
256,192,365783,1,0,0:0:0:0:
256,192,365963,1,0,0:0:0:0:
256,192,366144,1,0,0:0:0:0:
256,192,366325,1,0,0:0:0:0:
256,192,366506,1,0,0:0:0:0:
256,192,366686,1,0,0:0:0:0:
256,192,366867,1,0,0:0:0:0:
256,192,367138,1,0,0:0:0:0:
256,192,367319,1,0,0:0:0:0:
256,192,367499,1,0,0:0:0:0:
256,192,367680,1,0,0:0:0:0:
256,192,367861,1,0,0:0:0:0:
256,192,368042,1,0,0:0:0:0:
256,192,368222,1,0,0:0:0:0:
256,192,368403,1,0,0:0:0:0:
256,192,368765,1,0,0:0:0:0:
256,192,368945,1,0,0:0:0:0:
256,192,369126,1,0,0:0:0:0:
256,192,369307,1,0,0:0:0:0:
256,192,369487,1,0,0:0:0:0:
256,192,369668,1,0,0:0:0:0:
256,192,369849,1,0,0:0:0:0:
256,192,370030,1,0,0:0:0:0:
256,192,370210,1,0,0:0:0:0:
256,192,370391,1,0,0:0:0:0:
256,192,370572,1,0,0:0:0:0:
256,192,370753,1,0,0:0:0:0:
256,192,371114,1,0,0:0:0:0:
256,192,371475,1,0,0:0:0:0:
256,192,371837,1,0,0:0:0:0:
256,192,372198,1,0,0:0:0:0:
256,192,372379,1,0,0:0:0:0:
256,192,372560,1,0,0:0:0:0:
256,192,372921,1,0,0:0:0:0:
256,192,373102,1,0,0:0:0:0:
256,192,373283,1,0,0:0:0:0:
256,192,373644,1,0,0:0:0:0:
256,192,373734,1,0,0:0:0:0:
256,192,373825,1,0,0:0:0:0:
256,192,373915,1,0,0:0:0:0:
256,192,374006,1,0,0:0:0:0:
256,192,374367,1,0,0:0:0:0:
256,192,374728,1,0,0:0:0:0:
256,192,375090,1,0,0:0:0:0:
256,192,375271,1,0,0:0:0:0:
256,192,375451,1,0,0:0:0:0:
256,192,375632,1,0,0:0:0:0:
256,192,375813,1,0,0:0:0:0:
256,192,375993,1,0,0:0:0:0:
256,192,376174,1,0,0:0:0:0:
256,192,376355,1,0,0:0:0:0:
256,192,376536,1,0,0:0:0:0:
256,192,376807,1,0,0:0:0:0:
256,192,376987,1,0,0:0:0:0:
256,192,377168,1,0,0:0:0:0:
256,192,377349,1,0,0:0:0:0:
256,192,377530,1,0,0:0:0:0:
256,192,377710,1,0,0:0:0:0:
256,192,377891,1,0,0:0:0:0:
256,192,378072,1,0,0:0:0:0:
256,192,378433,1,0,0:0:0:0:
256,192,378614,1,0,0:0:0:0:
256,192,378795,1,0,0:0:0:0:
256,192,378975,1,0,0:0:0:0:
256,192,379156,1,0,0:0:0:0:
256,192,379337,1,0,0:0:0:0:
256,192,379518,1,0,0:0:0:0:
256,192,379698,1,0,0:0:0:0:
256,192,379879,1,0,0:0:0:0:
256,192,380060,1,0,0:0:0:0:
256,192,380240,1,0,0:0:0:0:
256,192,380421,1,0,0:0:0:0:
256,192,380783,1,0,0:0:0:0:
256,192,381144,1,0,0:0:0:0:
256,192,381506,1,0,0:0:0:0:
256,192,381777,1,0,0:0:0:0:
256,192,381957,1,0,0:0:0:0:
256,192,382138,1,0,0:0:0:0:
256,192,382590,1,0,0:0:0:0:
256,192,382771,1,0,0:0:0:0:
256,192,382951,1,0,0:0:0:0:
256,192,383313,1,0,0:0:0:0:
256,192,383403,1,0,0:0:0:0:
256,192,383493,1,0,0:0:0:0:
256,192,383584,1,0,0:0:0:0:
256,192,383674,1,0,0:0:0:0:
256,192,384126,1,0,0:0:0:0:
256,192,384487,1,0,0:0:0:0:
256,192,384849,1,0,0:0:0:0:
256,192,385030,1,0,0:0:0:0:
256,192,385210,1,0,0:0:0:0:
256,192,385391,1,0,0:0:0:0:
256,192,385572,1,0,0:0:0:0:
256,192,385753,1,0,0:0:0:0:
256,192,385933,1,0,0:0:0:0:
256,192,386114,1,0,0:0:0:0:
256,192,386295,1,0,0:0:0:0:
256,192,386566,1,0,0:0:0:0:
256,192,386746,1,0,0:0:0:0:
256,192,386927,1,0,0:0:0:0:
256,192,387108,1,0,0:0:0:0:
256,192,387289,1,0,0:0:0:0:
256,192,387469,1,0,0:0:0:0:
256,192,387650,1,0,0:0:0:0:
256,192,387831,1,0,0:0:0:0:
256,192,388192,1,0,0:0:0:0:
256,192,388373,1,0,0:0:0:0:
256,192,388554,1,0,0:0:0:0:
256,192,388734,1,0,0:0:0:0:
256,192,388915,1,0,0:0:0:0:
256,192,389096,1,0,0:0:0:0:
256,192,389277,1,0,0:0:0:0:
256,192,389457,1,0,0:0:0:0:
256,192,389638,1,0,0:0:0:0:
256,192,389819,1,0,0:0:0:0:
256,192,389999,1,0,0:0:0:0:
256,192,390180,1,0,0:0:0:0:
256,192,390542,1,0,0:0:0:0:
256,192,390903,1,0,0:0:0:0:
256,192,391265,1,0,0:0:0:0:
256,192,391536,1,0,0:0:0:0:
256,192,391716,1,0,0:0:0:0:
256,192,391897,1,0,0:0:0:0:
256,192,392349,1,0,0:0:0:0:
256,192,392530,1,0,0:0:0:0:
256,192,392710,1,0,0:0:0:0:
256,192,393072,1,0,0:0:0:0:
256,192,393162,1,0,0:0:0:0:
256,192,393253,1,0,0:0:0:0:
256,192,393343,1,0,0:0:0:0:
256,192,393433,1,0,0:0:0:0:
256,192,393885,1,0,0:0:0:0:
256,192,394246,1,0,0:0:0:0:
256,192,394608,1,0,0:0:0:0:
256,192,394789,1,0,0:0:0:0:
256,192,394969,1,0,0:0:0:0:
256,192,395150,1,0,0:0:0:0:
256,192,395331,1,0,0:0:0:0:
256,192,395512,1,0,0:0:0:0:
256,192,395692,1,0,0:0:0:0:
256,192,395873,1,0,0:0:0:0:
256,192,396054,1,0,0:0:0:0:
256,192,396325,1,0,0:0:0:0:
256,192,396506,1,0,0:0:0:0:
256,192,396686,1,0,0:0:0:0:
256,192,396867,1,0,0:0:0:0:
256,192,397048,1,0,0:0:0:0:
256,192,397228,1,0,0:0:0:0:
256,192,397409,1,0,0:0:0:0:
256,192,397590,1,0,0:0:0:0:
256,192,397951,1,0,0:0:0:0:
256,192,398132,1,0,0:0:0:0:
256,192,398313,1,0,0:0:0:0:
256,192,398493,1,0,0:0:0:0:
256,192,398674,1,0,0:0:0:0:
256,192,398855,1,0,0:0:0:0:
256,192,399036,1,0,0:0:0:0:
256,192,399216,1,0,0:0:0:0:
256,192,399397,1,0,0:0:0:0:
256,192,399578,1,0,0:0:0:0:
256,192,399759,1,0,0:0:0:0:
256,192,399939,1,0,0:0:0:0:
256,192,400301,1,0,0:0:0:0:
256,192,400662,1,0,0:0:0:0:
256,192,401024,1,0,0:0:0:0:
256,192,401295,1,0,0:0:0:0:
256,192,401475,1,0,0:0:0:0:
256,192,401656,1,0,0:0:0:0:
256,192,402108,1,0,0:0:0:0:
256,192,402289,1,0,0:0:0:0:
256,192,402469,1,0,0:0:0:0:
256,192,402831,1,0,0:0:0:0:
256,192,402921,1,0,0:0:0:0:
256,192,403012,1,0,0:0:0:0:
256,192,403102,1,0,0:0:0:0:
256,192,403192,1,0,0:0:0:0:
256,192,403644,1,0,0:0:0:0:
256,192,404006,1,0,0:0:0:0:
256,192,404367,1,0,0:0:0:0:
256,192,404548,1,0,0:0:0:0:
256,192,404728,1,0,0:0:0:0:
256,192,404909,1,0,0:0:0:0:
256,192,405090,1,0,0:0:0:0:
256,192,405271,1,0,0:0:0:0:
256,192,405451,1,0,0:0:0:0:
256,192,405632,1,0,0:0:0:0:
256,192,405813,1,0,0:0:0:0:
256,192,406084,1,0,0:0:0:0:
256,192,406265,1,0,0:0:0:0:
256,192,406445,1,0,0:0:0:0:
256,192,406626,1,0,0:0:0:0:
256,192,406807,1,0,0:0:0:0:
256,192,406987,1,0,0:0:0:0:
256,192,407168,1,0,0:0:0:0:
256,192,407349,1,0,0:0:0:0:
256,192,407710,1,0,0:0:0:0:
256,192,407891,1,0,0:0:0:0:
256,192,408072,1,0,0:0:0:0:
256,192,408253,1,0,0:0:0:0:
256,192,408433,1,0,0:0:0:0:
256,192,408614,1,0,0:0:0:0:
256,192,408795,1,0,0:0:0:0:
256,192,408975,1,0,0:0:0:0:
256,192,409156,1,0,0:0:0:0:
256,192,409337,1,0,0:0:0:0:
256,192,409518,1,0,0:0:0:0:
256,192,409698,1,0,0:0:0:0:
256,192,410060,1,0,0:0:0:0:
256,192,410421,1,0,0:0:0:0:
256,192,410783,1,0,0:0:0:0:
256,192,411144,1,0,0:0:0:0:
256,192,411325,1,0,0:0:0:0:
256,192,411506,1,0,0:0:0:0:
256,192,411867,1,0,0:0:0:0:
256,192,412048,1,0,0:0:0:0:
256,192,412228,1,0,0:0:0:0:
256,192,412590,1,0,0:0:0:0:
256,192,412680,1,0,0:0:0:0:
256,192,412771,1,0,0:0:0:0:
256,192,412861,1,0,0:0:0:0:
256,192,412951,1,0,0:0:0:0:
256,192,413313,1,0,0:0:0:0:
256,192,413674,1,0,0:0:0:0:
256,192,414036,1,0,0:0:0:0:
256,192,414216,1,0,0:0:0:0:
256,192,414397,1,0,0:0:0:0:
256,192,414578,1,0,0:0:0:0:
256,192,414759,1,0,0:0:0:0:
256,192,414939,1,0,0:0:0:0:
256,192,415120,1,0,0:0:0:0:
256,192,415301,1,0,0:0:0:0:
256,192,415481,1,0,0:0:0:0:
256,192,415753,1,0,0:0:0:0:
256,192,415933,1,0,0:0:0:0:
256,192,416114,1,0,0:0:0:0:
256,192,416295,1,0,0:0:0:0:
256,192,416475,1,0,0:0:0:0:
256,192,416656,1,0,0:0:0:0:
256,192,416837,1,0,0:0:0:0:
256,192,417018,1,0,0:0:0:0:
256,192,417379,1,0,0:0:0:0:
256,192,417560,1,0,0:0:0:0:
256,192,417740,1,0,0:0:0:0:
256,192,417921,1,0,0:0:0:0:
256,192,418102,1,0,0:0:0:0:
256,192,418283,1,0,0:0:0:0:
256,192,418463,1,0,0:0:0:0:
256,192,418644,1,0,0:0:0:0:
256,192,418825,1,0,0:0:0:0:
256,192,419006,1,0,0:0:0:0:
256,192,419186,1,0,0:0:0:0:
256,192,419367,1,0,0:0:0:0:
256,192,419728,1,0,0:0:0:0:
256,192,420090,1,0,0:0:0:0:
256,192,420451,1,0,0:0:0:0:
256,192,420722,1,0,0:0:0:0:
256,192,420903,1,0,0:0:0:0:
256,192,421084,1,0,0:0:0:0:
256,192,421536,1,0,0:0:0:0:
256,192,421716,1,0,0:0:0:0:
256,192,421897,1,0,0:0:0:0:
256,192,422259,1,0,0:0:0:0:
256,192,422349,1,0,0:0:0:0:
256,192,422439,1,0,0:0:0:0:
256,192,422530,1,0,0:0:0:0:
256,192,422620,1,0,0:0:0:0:
256,192,423072,1,0,0:0:0:0:
256,192,423433,1,0,0:0:0:0:
256,192,423795,1,0,0:0:0:0:
256,192,423975,1,0,0:0:0:0:
256,192,424156,1,0,0:0:0:0:
256,192,424337,1,0,0:0:0:0:
256,192,424518,1,0,0:0:0:0:
256,192,424698,1,0,0:0:0:0:
256,192,424879,1,0,0:0:0:0:
256,192,425060,1,0,0:0:0:0:
256,192,425240,1,0,0:0:0:0:
256,192,425512,1,0,0:0:0:0:
256,192,425692,1,0,0:0:0:0:
256,192,425873,1,0,0:0:0:0:
256,192,426054,1,0,0:0:0:0:
256,192,426234,1,0,0:0:0:0:
256,192,426415,1,0,0:0:0:0:
256,192,426596,1,0,0:0:0:0:
256,192,426777,1,0,0:0:0:0:
256,192,427138,1,0,0:0:0:0:
256,192,427319,1,0,0:0:0:0:
256,192,427499,1,0,0:0:0:0:
256,192,427680,1,0,0:0:0:0:
256,192,427861,1,0,0:0:0:0:
256,192,428042,1,0,0:0:0:0:
256,192,428222,1,0,0:0:0:0:
256,192,428403,1,0,0:0:0:0:
256,192,428584,1,0,0:0:0:0:
256,192,428765,1,0,0:0:0:0:
256,192,428945,1,0,0:0:0:0:
256,192,429126,1,0,0:0:0:0:
256,192,429487,1,0,0:0:0:0:
256,192,429849,1,0,0:0:0:0:
256,192,430210,1,0,0:0:0:0:
256,192,430481,1,0,0:0:0:0:
256,192,430662,1,0,0:0:0:0:
256,192,430843,1,0,0:0:0:0:
256,192,431295,1,0,0:0:0:0:
256,192,431475,1,0,0:0:0:0:
256,192,431656,1,0,0:0:0:0:
256,192,432018,1,0,0:0:0:0:
256,192,432108,1,0,0:0:0:0:
256,192,432198,1,0,0:0:0:0:
256,192,432289,1,0,0:0:0:0:
256,192,432379,1,0,0:0:0:0:
256,192,432831,1,0,0:0:0:0:
256,192,433192,1,0,0:0:0:0:
256,192,433554,1,0,0:0:0:0:
256,192,433734,1,0,0:0:0:0:
256,192,433915,1,0,0:0:0:0:
256,192,434096,1,0,0:0:0:0:
256,192,434277,1,0,0:0:0:0:
256,192,434457,1,0,0:0:0:0:
256,192,434638,1,0,0:0:0:0:
256,192,434819,1,0,0:0:0:0:
256,192,434999,1,0,0:0:0:0:
256,192,435271,1,0,0:0:0:0:
256,192,435451,1,0,0:0:0:0:
256,192,435632,1,0,0:0:0:0:
256,192,435813,1,0,0:0:0:0:
256,192,435993,1,0,0:0:0:0:
256,192,436174,1,0,0:0:0:0:
256,192,436355,1,0,0:0:0:0:
256,192,436536,1,0,0:0:0:0:
256,192,436897,1,0,0:0:0:0:
256,192,437078,1,0,0:0:0:0:
256,192,437259,1,0,0:0:0:0:
256,192,437439,1,0,0:0:0:0:
256,192,437620,1,0,0:0:0:0:
256,192,437801,1,0,0:0:0:0:
256,192,437981,1,0,0:0:0:0:
256,192,438162,1,0,0:0:0:0:
256,192,438343,1,0,0:0:0:0:
256,192,438524,1,0,0:0:0:0:
256,192,438704,1,0,0:0:0:0:
256,192,438885,1,0,0:0:0:0:
256,192,439246,1,0,0:0:0:0:
256,192,439608,1,0,0:0:0:0:
256,192,439969,1,0,0:0:0:0:
256,192,440240,1,0,0:0:0:0:
256,192,440421,1,0,0:0:0:0:
256,192,440602,1,0,0:0:0:0:
256,192,441054,1,0,0:0:0:0:
256,192,441234,1,0,0:0:0:0:
256,192,441415,1,0,0:0:0:0:
256,192,441777,1,0,0:0:0:0:
256,192,441867,1,0,0:0:0:0:
256,192,441957,1,0,0:0:0:0:
256,192,442048,1,0,0:0:0:0:
256,192,442138,1,0,0:0:0:0:
256,192,442590,1,0,0:0:0:0:
256,192,442951,1,0,0:0:0:0:
256,192,443313,1,0,0:0:0:0:
256,192,443493,1,0,0:0:0:0:
256,192,443674,1,0,0:0:0:0:
256,192,443855,1,0,0:0:0:0:
256,192,444036,1,0,0:0:0:0:
256,192,444216,1,0,0:0:0:0:
256,192,444397,1,0,0:0:0:0:
256,192,444578,1,0,0:0:0:0:
256,192,444759,1,0,0:0:0:0:
256,192,445030,1,0,0:0:0:0:
256,192,445210,1,0,0:0:0:0:
256,192,445391,1,0,0:0:0:0:
256,192,445572,1,0,0:0:0:0:
256,192,445753,1,0,0:0:0:0:
256,192,445933,1,0,0:0:0:0:
256,192,446114,1,0,0:0:0:0:
256,192,446295,1,0,0:0:0:0:
256,192,446656,1,0,0:0:0:0:
256,192,446837,1,0,0:0:0:0:
256,192,447018,1,0,0:0:0:0:
256,192,447198,1,0,0:0:0:0:
256,192,447379,1,0,0:0:0:0:
256,192,447560,1,0,0:0:0:0:
256,192,447740,1,0,0:0:0:0:
256,192,447921,1,0,0:0:0:0:
256,192,448102,1,0,0:0:0:0:
256,192,448283,1,0,0:0:0:0:
256,192,448463,1,0,0:0:0:0:
256,192,448644,1,0,0:0:0:0:
256,192,449006,1,0,0:0:0:0:
256,192,449367,1,0,0:0:0:0:
256,192,449728,1,0,0:0:0:0:
256,192,450090,1,0,0:0:0:0:
256,192,450271,1,0,0:0:0:0:
256,192,450451,1,0,0:0:0:0:
256,192,450813,1,0,0:0:0:0:
256,192,450993,1,0,0:0:0:0:
256,192,451174,1,0,0:0:0:0:
256,192,451536,1,0,0:0:0:0:
256,192,451626,1,0,0:0:0:0:
256,192,451716,1,0,0:0:0:0:
256,192,451807,1,0,0:0:0:0:
256,192,451897,1,0,0:0:0:0:
256,192,452259,1,0,0:0:0:0:
256,192,452620,1,0,0:0:0:0:
256,192,452981,1,0,0:0:0:0:
256,192,453162,1,0,0:0:0:0:
256,192,453343,1,0,0:0:0:0:
256,192,453524,1,0,0:0:0:0:
256,192,453704,1,0,0:0:0:0:
256,192,453885,1,0,0:0:0:0:
256,192,454066,1,0,0:0:0:0:
256,192,454246,1,0,0:0:0:0:
256,192,454427,1,0,0:0:0:0:
256,192,454698,1,0,0:0:0:0:
256,192,454879,1,0,0:0:0:0:
256,192,455060,1,0,0:0:0:0:
256,192,455240,1,0,0:0:0:0:
256,192,455421,1,0,0:0:0:0:
256,192,455602,1,0,0:0:0:0:
256,192,455783,1,0,0:0:0:0:
256,192,455963,1,0,0:0:0:0:
256,192,456325,1,0,0:0:0:0:
256,192,456506,1,0,0:0:0:0:
256,192,456686,1,0,0:0:0:0:
256,192,456867,1,0,0:0:0:0:
256,192,457048,1,0,0:0:0:0:
256,192,457228,1,0,0:0:0:0:
256,192,457409,1,0,0:0:0:0:
256,192,457590,1,0,0:0:0:0:
256,192,457771,1,0,0:0:0:0:
256,192,457951,1,0,0:0:0:0:
256,192,458132,1,0,0:0:0:0:
256,192,458313,1,0,0:0:0:0:
256,192,458674,1,0,0:0:0:0:
256,192,459036,1,0,0:0:0:0:
256,192,459397,1,0,0:0:0:0:
256,192,459668,1,0,0:0:0:0:
256,192,459849,1,0,0:0:0:0:
256,192,460030,1,0,0:0:0:0:
256,192,460481,1,0,0:0:0:0:
256,192,460662,1,0,0:0:0:0:
256,192,460843,1,0,0:0:0:0:
256,192,461204,1,0,0:0:0:0:
256,192,461295,1,0,0:0:0:0:
256,192,461385,1,0,0:0:0:0:
256,192,461475,1,0,0:0:0:0:
256,192,461566,1,0,0:0:0:0:
256,192,462018,1,0,0:0:0:0:
256,192,462379,1,0,0:0:0:0:
256,192,462740,1,0,0:0:0:0:
256,192,462921,1,0,0:0:0:0:
256,192,463102,1,0,0:0:0:0:
256,192,463283,1,0,0:0:0:0:
256,192,463463,1,0,0:0:0:0:
256,192,463644,1,0,0:0:0:0:
256,192,463825,1,0,0:0:0:0:
256,192,464006,1,0,0:0:0:0:
256,192,464186,1,0,0:0:0:0:
256,192,464457,1,0,0:0:0:0:
256,192,464638,1,0,0:0:0:0:
256,192,464819,1,0,0:0:0:0:
256,192,464999,1,0,0:0:0:0:
256,192,465180,1,0,0:0:0:0:
256,192,465361,1,0,0:0:0:0:
256,192,465542,1,0,0:0:0:0:
256,192,465722,1,0,0:0:0:0:
256,192,466084,1,0,0:0:0:0:
256,192,466265,1,0,0:0:0:0:
256,192,466445,1,0,0:0:0:0:
256,192,466626,1,0,0:0:0:0:
256,192,466807,1,0,0:0:0:0:
256,192,466987,1,0,0:0:0:0:
256,192,467168,1,0,0:0:0:0:
256,192,467349,1,0,0:0:0:0:
256,192,467530,1,0,0:0:0:0:
256,192,467710,1,0,0:0:0:0:
256,192,467891,1,0,0:0:0:0:
256,192,468072,1,0,0:0:0:0:
256,192,468433,1,0,0:0:0:0:
256,192,468795,1,0,0:0:0:0:
256,192,469156,1,0,0:0:0:0:
256,192,469427,1,0,0:0:0:0:
256,192,469608,1,0,0:0:0:0:
256,192,469789,1,0,0:0:0:0:
256,192,470240,1,0,0:0:0:0:
256,192,470421,1,0,0:0:0:0:
256,192,470602,1,0,0:0:0:0:
256,192,470963,1,0,0:0:0:0:
256,192,471054,1,0,0:0:0:0:
256,192,471144,1,0,0:0:0:0:
256,192,471234,1,0,0:0:0:0:
256,192,471325,1,0,0:0:0:0:
256,192,471777,1,0,0:0:0:0:
256,192,472138,1,0,0:0:0:0:
256,192,472499,1,0,0:0:0:0:
256,192,472680,1,0,0:0:0:0:
256,192,472861,1,0,0:0:0:0:
256,192,473042,1,0,0:0:0:0:
256,192,473222,1,0,0:0:0:0:
256,192,473403,1,0,0:0:0:0:
256,192,473584,1,0,0:0:0:0:
256,192,473765,1,0,0:0:0:0:
256,192,473945,1,0,0:0:0:0:
256,192,474216,1,0,0:0:0:0:
256,192,474397,1,0,0:0:0:0:
256,192,474578,1,0,0:0:0:0:
256,192,474759,1,0,0:0:0:0:
256,192,474939,1,0,0:0:0:0:
256,192,475120,1,0,0:0:0:0:
256,192,475301,1,0,0:0:0:0:
256,192,475481,1,0,0:0:0:0:
256,192,475843,1,0,0:0:0:0:
256,192,476024,1,0,0:0:0:0:
256,192,476204,1,0,0:0:0:0:
256,192,476385,1,0,0:0:0:0:
256,192,476566,1,0,0:0:0:0:
256,192,476746,1,0,0:0:0:0:
256,192,476927,1,0,0:0:0:0:
256,192,477108,1,0,0:0:0:0:
256,192,477289,1,0,0:0:0:0:
256,192,477469,1,0,0:0:0:0:
256,192,477650,1,0,0:0:0:0:
256,192,477831,1,0,0:0:0:0:
256,192,478192,1,0,0:0:0:0:
256,192,478554,1,0,0:0:0:0:
256,192,478915,1,0,0:0:0:0:
256,192,479186,1,0,0:0:0:0:
256,192,479367,1,0,0:0:0:0:
256,192,479548,1,0,0:0:0:0:
256,192,479999,1,0,0:0:0:0:
256,192,480180,1,0,0:0:0:0:
256,192,480361,1,0,0:0:0:0:
256,192,480722,1,0,0:0:0:0:
256,192,480813,1,0,0:0:0:0:
256,192,480903,1,0,0:0:0:0:
256,192,480993,1,0,0:0:0:0:
256,192,481084,1,0,0:0:0:0:
256,192,481445,1,0,0:0:0:0:
256,192,481807,1,0,0:0:0:0:
256,192,482168,1,0,0:0:0:0:
256,192,482349,1,0,0:0:0:0:
256,192,482530,1,0,0:0:0:0:
256,192,482710,1,0,0:0:0:0:
256,192,482891,1,0,0:0:0:0:
256,192,483072,1,0,0:0:0:0:
256,192,483253,1,0,0:0:0:0:
256,192,483433,1,0,0:0:0:0:
256,192,483614,1,0,0:0:0:0:
256,192,483885,1,0,0:0:0:0:
256,192,484066,1,0,0:0:0:0:
256,192,484246,1,0,0:0:0:0:
256,192,484427,1,0,0:0:0:0:
256,192,484608,1,0,0:0:0:0:
256,192,484789,1,0,0:0:0:0:
256,192,484969,1,0,0:0:0:0:
256,192,485150,1,0,0:0:0:0:
256,192,485512,1,0,0:0:0:0:
256,192,485692,1,0,0:0:0:0:
256,192,485873,1,0,0:0:0:0:
256,192,486054,1,0,0:0:0:0:
256,192,486234,1,0,0:0:0:0:
256,192,486415,1,0,0:0:0:0:
256,192,486596,1,0,0:0:0:0:
256,192,486777,1,0,0:0:0:0:
256,192,486957,1,0,0:0:0:0:
256,192,487138,1,0,0:0:0:0:
256,192,487319,1,0,0:0:0:0:
256,192,487499,1,0,0:0:0:0:
256,192,487861,1,0,0:0:0:0:
256,192,488222,1,0,0:0:0:0:
256,192,488584,1,0,0:0:0:0:
256,192,488945,1,0,0:0:0:0:
256,192,489126,1,0,0:0:0:0:
256,192,489307,1,0,0:0:0:0:
256,192,489668,1,0,0:0:0:0:
256,192,489849,1,0,0:0:0:0:
256,192,490030,1,0,0:0:0:0:
256,192,490391,1,0,0:0:0:0:
256,192,490481,1,0,0:0:0:0:
256,192,490572,1,0,0:0:0:0:
256,192,490662,1,0,0:0:0:0:
256,192,490753,1,0,0:0:0:0:
256,192,491114,1,0,0:0:0:0:
256,192,491475,1,0,0:0:0:0:
256,192,491837,1,0,0:0:0:0:
256,192,492018,1,0,0:0:0:0:
256,192,492198,1,0,0:0:0:0:
256,192,492379,1,0,0:0:0:0:
256,192,492560,1,0,0:0:0:0:
256,192,492740,1,0,0:0:0:0:
256,192,492921,1,0,0:0:0:0:
256,192,493102,1,0,0:0:0:0:
256,192,493283,1,0,0:0:0:0:
256,192,493554,1,0,0:0:0:0:
256,192,493734,1,0,0:0:0:0:
256,192,493915,1,0,0:0:0:0:
256,192,494096,1,0,0:0:0:0:
256,192,494277,1,0,0:0:0:0:
256,192,494457,1,0,0:0:0:0:
256,192,494638,1,0,0:0:0:0:
256,192,494819,1,0,0:0:0:0:
256,192,495180,1,0,0:0:0:0:
256,192,495361,1,0,0:0:0:0:
256,192,495542,1,0,0:0:0:0:
256,192,495722,1,0,0:0:0:0:
256,192,495903,1,0,0:0:0:0:
256,192,496084,1,0,0:0:0:0:
256,192,496265,1,0,0:0:0:0:
256,192,496445,1,0,0:0:0:0:
256,192,496626,1,0,0:0:0:0:
256,192,496807,1,0,0:0:0:0:
256,192,496987,1,0,0:0:0:0:
256,192,497168,1,0,0:0:0:0:
256,192,497530,1,0,0:0:0:0:
256,192,497891,1,0,0:0:0:0:
256,192,498253,1,0,0:0:0:0:
256,192,498524,1,0,0:0:0:0:
256,192,498704,1,0,0:0:0:0:
256,192,498885,1,0,0:0:0:0:
256,192,499337,1,0,0:0:0:0:
256,192,499518,1,0,0:0:0:0:
256,192,499698,1,0,0:0:0:0:
256,192,500060,1,0,0:0:0:0:
256,192,500150,1,0,0:0:0:0:
256,192,500240,1,0,0:0:0:0:
256,192,500331,1,0,0:0:0:0:
256,192,500421,1,0,0:0:0:0:
256,192,500873,1,0,0:0:0:0:
256,192,501234,1,0,0:0:0:0:
256,192,501596,1,0,0:0:0:0:
256,192,501777,1,0,0:0:0:0:
256,192,501957,1,0,0:0:0:0:
256,192,502138,1,0,0:0:0:0:
256,192,502319,1,0,0:0:0:0:
256,192,502499,1,0,0:0:0:0:
256,192,502680,1,0,0:0:0:0:
256,192,502861,1,0,0:0:0:0:
256,192,503042,1,0,0:0:0:0:
256,192,503313,1,0,0:0:0:0:
256,192,503493,1,0,0:0:0:0:
256,192,503674,1,0,0:0:0:0:
256,192,503855,1,0,0:0:0:0:
256,192,504036,1,0,0:0:0:0:
256,192,504216,1,0,0:0:0:0:
256,192,504397,1,0,0:0:0:0:
256,192,504578,1,0,0:0:0:0:
256,192,504939,1,0,0:0:0:0:
256,192,505120,1,0,0:0:0:0:
256,192,505301,1,0,0:0:0:0:
256,192,505481,1,0,0:0:0:0:
256,192,505662,1,0,0:0:0:0:
256,192,505843,1,0,0:0:0:0:
256,192,506024,1,0,0:0:0:0:
256,192,506204,1,0,0:0:0:0:
256,192,506385,1,0,0:0:0:0:
256,192,506566,1,0,0:0:0:0:
256,192,506746,1,0,0:0:0:0:
256,192,506927,1,0,0:0:0:0:
256,192,507289,1,0,0:0:0:0:
256,192,507650,1,0,0:0:0:0:
256,192,508012,1,0,0:0:0:0:
256,192,508283,1,0,0:0:0:0:
256,192,508463,1,0,0:0:0:0:
256,192,508644,1,0,0:0:0:0:
256,192,509096,1,0,0:0:0:0:
256,192,509277,1,0,0:0:0:0:
256,192,509457,1,0,0:0:0:0:
256,192,509819,1,0,0:0:0:0:
256,192,509909,1,0,0:0:0:0:
256,192,509999,1,0,0:0:0:0:
256,192,510090,1,0,0:0:0:0:
256,192,510180,1,0,0:0:0:0:
256,192,510632,1,0,0:0:0:0:
256,192,510993,1,0,0:0:0:0:
256,192,511355,1,0,0:0:0:0:
256,192,511536,1,0,0:0:0:0:
256,192,511716,1,0,0:0:0:0:
256,192,511897,1,0,0:0:0:0:
256,192,512078,1,0,0:0:0:0:
256,192,512259,1,0,0:0:0:0:
256,192,512439,1,0,0:0:0:0:
256,192,512620,1,0,0:0:0:0:
256,192,512801,1,0,0:0:0:0:
256,192,513072,1,0,0:0:0:0:
256,192,513253,1,0,0:0:0:0:
256,192,513433,1,0,0:0:0:0:
256,192,513614,1,0,0:0:0:0:
256,192,513795,1,0,0:0:0:0:
256,192,513975,1,0,0:0:0:0:
256,192,514156,1,0,0:0:0:0:
256,192,514337,1,0,0:0:0:0:
256,192,514698,1,0,0:0:0:0:
256,192,514879,1,0,0:0:0:0:
256,192,515060,1,0,0:0:0:0:
256,192,515240,1,0,0:0:0:0:
256,192,515421,1,0,0:0:0:0:
256,192,515602,1,0,0:0:0:0:
256,192,515783,1,0,0:0:0:0:
256,192,515963,1,0,0:0:0:0:
256,192,516144,1,0,0:0:0:0:
256,192,516325,1,0,0:0:0:0:
256,192,516506,1,0,0:0:0:0:
256,192,516686,1,0,0:0:0:0:
256,192,517048,1,0,0:0:0:0:
256,192,517409,1,0,0:0:0:0:
256,192,517771,1,0,0:0:0:0:
256,192,518042,1,0,0:0:0:0:
256,192,518222,1,0,0:0:0:0:
256,192,518403,1,0,0:0:0:0:
256,192,518855,1,0,0:0:0:0:
256,192,519036,1,0,0:0:0:0:
256,192,519216,1,0,0:0:0:0:
256,192,519578,1,0,0:0:0:0:
256,192,519668,1,0,0:0:0:0:
256,192,519759,1,0,0:0:0:0:
256,192,519849,1,0,0:0:0:0:
256,192,519939,1,0,0:0:0:0:
256,192,520391,1,0,0:0:0:0:
256,192,520753,1,0,0:0:0:0:
256,192,521114,1,0,0:0:0:0:
256,192,521295,1,0,0:0:0:0:
256,192,521475,1,0,0:0:0:0:
256,192,521656,1,0,0:0:0:0:
256,192,521837,1,0,0:0:0:0:
256,192,522018,1,0,0:0:0:0:
256,192,522198,1,0,0:0:0:0:
256,192,522379,1,0,0:0:0:0:
256,192,522560,1,0,0:0:0:0:
256,192,522831,1,0,0:0:0:0:
256,192,523012,1,0,0:0:0:0:
256,192,523192,1,0,0:0:0:0:
256,192,523373,1,0,0:0:0:0:
256,192,523554,1,0,0:0:0:0:
256,192,523734,1,0,0:0:0:0:
256,192,523915,1,0,0:0:0:0:
256,192,524096,1,0,0:0:0:0:
256,192,524457,1,0,0:0:0:0:
256,192,524638,1,0,0:0:0:0:
256,192,524819,1,0,0:0:0:0:
256,192,524999,1,0,0:0:0:0:
256,192,525180,1,0,0:0:0:0:
256,192,525361,1,0,0:0:0:0:
256,192,525542,1,0,0:0:0:0:
256,192,525722,1,0,0:0:0:0:
256,192,525903,1,0,0:0:0:0:
256,192,526084,1,0,0:0:0:0:
256,192,526265,1,0,0:0:0:0:
256,192,526445,1,0,0:0:0:0:
256,192,526807,1,0,0:0:0:0:
256,192,527168,1,0,0:0:0:0:
256,192,527530,1,0,0:0:0:0:
256,192,527891,1,0,0:0:0:0:
256,192,528072,1,0,0:0:0:0:
256,192,528253,1,0,0:0:0:0:
256,192,528614,1,0,0:0:0:0:
256,192,528795,1,0,0:0:0:0:
256,192,528975,1,0,0:0:0:0:
256,192,529337,1,0,0:0:0:0:
256,192,529427,1,0,0:0:0:0:
256,192,529518,1,0,0:0:0:0:
256,192,529608,1,0,0:0:0:0:
256,192,529698,1,0,0:0:0:0:
256,192,530060,1,0,0:0:0:0:
256,192,530421,1,0,0:0:0:0:
256,192,530783,1,0,0:0:0:0:
256,192,530963,1,0,0:0:0:0:
256,192,531144,1,0,0:0:0:0:
256,192,531325,1,0,0:0:0:0:
256,192,531506,1,0,0:0:0:0:
256,192,531686,1,0,0:0:0:0:
256,192,531867,1,0,0:0:0:0:
256,192,532048,1,0,0:0:0:0:
256,192,532228,1,0,0:0:0:0:
256,192,532499,1,0,0:0:0:0:
256,192,532680,1,0,0:0:0:0:
256,192,532861,1,0,0:0:0:0:
256,192,533042,1,0,0:0:0:0:
256,192,533222,1,0,0:0:0:0:
256,192,533403,1,0,0:0:0:0:
256,192,533584,1,0,0:0:0:0:
256,192,533765,1,0,0:0:0:0:
256,192,534126,1,0,0:0:0:0:
256,192,534307,1,0,0:0:0:0:
256,192,534487,1,0,0:0:0:0:
256,192,534668,1,0,0:0:0:0:
256,192,534849,1,0,0:0:0:0:
256,192,535030,1,0,0:0:0:0:
256,192,535210,1,0,0:0:0:0:
256,192,535391,1,0,0:0:0:0:
256,192,535572,1,0,0:0:0:0:
256,192,535753,1,0,0:0:0:0:
256,192,535933,1,0,0:0:0:0:
256,192,536114,1,0,0:0:0:0:
256,192,536475,1,0,0:0:0:0:
256,192,536837,1,0,0:0:0:0:
256,192,537198,1,0,0:0:0:0:
256,192,537469,1,0,0:0:0:0:
256,192,537650,1,0,0:0:0:0:
256,192,537831,1,0,0:0:0:0:
256,192,538283,1,0,0:0:0:0:
256,192,538463,1,0,0:0:0:0:
256,192,538644,1,0,0:0:0:0:
256,192,539006,1,0,0:0:0:0:
256,192,539096,1,0,0:0:0:0:
256,192,539186,1,0,0:0:0:0:
256,192,539277,1,0,0:0:0:0:
256,192,539367,1,0,0:0:0:0:
256,192,539819,1,0,0:0:0:0:
256,192,540180,1,0,0:0:0:0:
256,192,540542,1,0,0:0:0:0:
256,192,540722,1,0,0:0:0:0:
256,192,540903,1,0,0:0:0:0:
256,192,541084,1,0,0:0:0:0:
256,192,541265,1,0,0:0:0:0:
256,192,541445,1,0,0:0:0:0:
256,192,541626,1,0,0:0:0:0:
256,192,541807,1,0,0:0:0:0:
256,192,541987,1,0,0:0:0:0:
256,192,542259,1,0,0:0:0:0:
256,192,542439,1,0,0:0:0:0:
256,192,542620,1,0,0:0:0:0:
256,192,542801,1,0,0:0:0:0:
256,192,542981,1,0,0:0:0:0:
256,192,543162,1,0,0:0:0:0:
256,192,543343,1,0,0:0:0:0:
256,192,543524,1,0,0:0:0:0:
256,192,543885,1,0,0:0:0:0:
256,192,544066,1,0,0:0:0:0:
256,192,544246,1,0,0:0:0:0:
256,192,544427,1,0,0:0:0:0:
256,192,544608,1,0,0:0:0:0:
256,192,544789,1,0,0:0:0:0:
256,192,544969,1,0,0:0:0:0:
256,192,545150,1,0,0:0:0:0:
256,192,545331,1,0,0:0:0:0:
256,192,545512,1,0,0:0:0:0:
256,192,545692,1,0,0:0:0:0:
256,192,545873,1,0,0:0:0:0:
256,192,546234,1,0,0:0:0:0:
256,192,546596,1,0,0:0:0:0:
256,192,546957,1,0,0:0:0:0:
256,192,547228,1,0,0:0:0:0:
256,192,547409,1,0,0:0:0:0:
256,192,547590,1,0,0:0:0:0:
256,192,548042,1,0,0:0:0:0:
256,192,548222,1,0,0:0:0:0:
256,192,548403,1,0,0:0:0:0:
256,192,548765,1,0,0:0:0:0:
256,192,548855,1,0,0:0:0:0:
256,192,548945,1,0,0:0:0:0:
256,192,549036,1,0,0:0:0:0:
256,192,549126,1,0,0:0:0:0:
256,192,549578,1,0,0:0:0:0:
256,192,549939,1,0,0:0:0:0:
256,192,550301,1,0,0:0:0:0:
256,192,550481,1,0,0:0:0:0:
256,192,550662,1,0,0:0:0:0:
256,192,550843,1,0,0:0:0:0:
256,192,551024,1,0,0:0:0:0:
256,192,551204,1,0,0:0:0:0:
256,192,551385,1,0,0:0:0:0:
256,192,551566,1,0,0:0:0:0:
256,192,551746,1,0,0:0:0:0:
256,192,552018,1,0,0:0:0:0:
256,192,552198,1,0,0:0:0:0:
256,192,552379,1,0,0:0:0:0:
256,192,552560,1,0,0:0:0:0:
256,192,552740,1,0,0:0:0:0:
256,192,552921,1,0,0:0:0:0:
256,192,553102,1,0,0:0:0:0:
256,192,553283,1,0,0:0:0:0:
256,192,553644,1,0,0:0:0:0:
256,192,553825,1,0,0:0:0:0:
256,192,554006,1,0,0:0:0:0:
256,192,554186,1,0,0:0:0:0:
256,192,554367,1,0,0:0:0:0:
256,192,554548,1,0,0:0:0:0:
256,192,554728,1,0,0:0:0:0:
256,192,554909,1,0,0:0:0:0:
256,192,555090,1,0,0:0:0:0:
256,192,555271,1,0,0:0:0:0:
256,192,555451,1,0,0:0:0:0:
256,192,555632,1,0,0:0:0:0:
256,192,555993,1,0,0:0:0:0:
256,192,556355,1,0,0:0:0:0:
256,192,556716,1,0,0:0:0:0:
256,192,556987,1,0,0:0:0:0:
256,192,557168,1,0,0:0:0:0:
256,192,557349,1,0,0:0:0:0:
256,192,557801,1,0,0:0:0:0:
256,192,557981,1,0,0:0:0:0:
256,192,558162,1,0,0:0:0:0:
256,192,558524,1,0,0:0:0:0:
256,192,558614,1,0,0:0:0:0:
256,192,558704,1,0,0:0:0:0:
256,192,558795,1,0,0:0:0:0:
256,192,558885,1,0,0:0:0:0:
256,192,559337,1,0,0:0:0:0:
256,192,559698,1,0,0:0:0:0:
256,192,560060,1,0,0:0:0:0:
256,192,560240,1,0,0:0:0:0:
256,192,560421,1,0,0:0:0:0:
256,192,560602,1,0,0:0:0:0:
256,192,560783,1,0,0:0:0:0:
256,192,560963,1,0,0:0:0:0:
256,192,561144,1,0,0:0:0:0:
256,192,561325,1,0,0:0:0:0:
256,192,561506,1,0,0:0:0:0:
256,192,561777,1,0,0:0:0:0:
256,192,561957,1,0,0:0:0:0:
256,192,562138,1,0,0:0:0:0:
256,192,562319,1,0,0:0:0:0:
256,192,562499,1,0,0:0:0:0:
256,192,562680,1,0,0:0:0:0:
256,192,562861,1,0,0:0:0:0:
256,192,563042,1,0,0:0:0:0:
256,192,563403,1,0,0:0:0:0:
256,192,563584,1,0,0:0:0:0:
256,192,563765,1,0,0:0:0:0:
256,192,563945,1,0,0:0:0:0:
256,192,564126,1,0,0:0:0:0:
256,192,564307,1,0,0:0:0:0:
256,192,564487,1,0,0:0:0:0:
256,192,564668,1,0,0:0:0:0:
256,192,564849,1,0,0:0:0:0:
256,192,565030,1,0,0:0:0:0:
256,192,565210,1,0,0:0:0:0:
256,192,565391,1,0,0:0:0:0:
256,192,565753,1,0,0:0:0:0:
256,192,566114,1,0,0:0:0:0:
256,192,566475,1,0,0:0:0:0:
256,192,566837,1,0,0:0:0:0:
256,192,567018,1,0,0:0:0:0:
256,192,567198,1,0,0:0:0:0:
256,192,567560,1,0,0:0:0:0:
256,192,567740,1,0,0:0:0:0:
256,192,567921,1,0,0:0:0:0:
256,192,568283,1,0,0:0:0:0:
256,192,568373,1,0,0:0:0:0:
256,192,568463,1,0,0:0:0:0:
256,192,568554,1,0,0:0:0:0:
256,192,568644,1,0,0:0:0:0:
256,192,569006,1,0,0:0:0:0:
256,192,569367,1,0,0:0:0:0:
256,192,569728,1,0,0:0:0:0:
256,192,569909,1,0,0:0:0:0:
256,192,570090,1,0,0:0:0:0:
256,192,570271,1,0,0:0:0:0:
256,192,570451,1,0,0:0:0:0:
256,192,570632,1,0,0:0:0:0:
256,192,570813,1,0,0:0:0:0:
256,192,570993,1,0,0:0:0:0:
256,192,571174,1,0,0:0:0:0:
256,192,571445,1,0,0:0:0:0:
256,192,571626,1,0,0:0:0:0:
256,192,571807,1,0,0:0:0:0:
256,192,571987,1,0,0:0:0:0:
256,192,572168,1,0,0:0:0:0:
256,192,572349,1,0,0:0:0:0:
256,192,572530,1,0,0:0:0:0:
256,192,572710,1,0,0:0:0:0:
256,192,573072,1,0,0:0:0:0:
256,192,573253,1,0,0:0:0:0:
256,192,573433,1,0,0:0:0:0:
256,192,573614,1,0,0:0:0:0:
256,192,573795,1,0,0:0:0:0:
256,192,573975,1,0,0:0:0:0:
256,192,574156,1,0,0:0:0:0:
256,192,574337,1,0,0:0:0:0:
256,192,574518,1,0,0:0:0:0:
256,192,574698,1,0,0:0:0:0:
256,192,574879,1,0,0:0:0:0:
256,192,575060,1,0,0:0:0:0:
256,192,575421,1,0,0:0:0:0:
256,192,575783,1,0,0:0:0:0:
256,192,576144,1,0,0:0:0:0:
256,192,576415,1,0,0:0:0:0:
256,192,576596,1,0,0:0:0:0:
256,192,576777,1,0,0:0:0:0:
256,192,577228,1,0,0:0:0:0:
256,192,577409,1,0,0:0:0:0:
256,192,577590,1,0,0:0:0:0:
256,192,577951,1,0,0:0:0:0:
256,192,578042,1,0,0:0:0:0:
256,192,578132,1,0,0:0:0:0:
256,192,578222,1,0,0:0:0:0:
256,192,578313,1,0,0:0:0:0:
256,192,578765,1,0,0:0:0:0:
256,192,579126,1,0,0:0:0:0:
256,192,579487,1,0,0:0:0:0:
256,192,579668,1,0,0:0:0:0:
256,192,579849,1,0,0:0:0:0:
256,192,580030,1,0,0:0:0:0:
256,192,580210,1,0,0:0:0:0:
256,192,580391,1,0,0:0:0:0:
256,192,580572,1,0,0:0:0:0:
256,192,580753,1,0,0:0:0:0:
256,192,580933,1,0,0:0:0:0:
256,192,581204,1,0,0:0:0:0:
256,192,581385,1,0,0:0:0:0:
256,192,581566,1,0,0:0:0:0:
256,192,581746,1,0,0:0:0:0:
256,192,581927,1,0,0:0:0:0:
256,192,582108,1,0,0:0:0:0:
256,192,582289,1,0,0:0:0:0:
256,192,582469,1,0,0:0:0:0:
256,192,582831,1,0,0:0:0:0:
256,192,583012,1,0,0:0:0:0:
256,192,583192,1,0,0:0:0:0:
256,192,583373,1,0,0:0:0:0:
256,192,583554,1,0,0:0:0:0:
256,192,583734,1,0,0:0:0:0:
256,192,583915,1,0,0:0:0:0:
256,192,584096,1,0,0:0:0:0:
256,192,584277,1,0,0:0:0:0:
256,192,584457,1,0,0:0:0:0:
256,192,584638,1,0,0:0:0:0:
256,192,584819,1,0,0:0:0:0:
256,192,585180,1,0,0:0:0:0:
256,192,585542,1,0,0:0:0:0:
256,192,585903,1,0,0:0:0:0:
256,192,586174,1,0,0:0:0:0:
256,192,586355,1,0,0:0:0:0:
256,192,586536,1,0,0:0:0:0:
256,192,586987,1,0,0:0:0:0:
256,192,587168,1,0,0:0:0:0:
256,192,587349,1,0,0:0:0:0:
256,192,587710,1,0,0:0:0:0:
256,192,587801,1,0,0:0:0:0:
256,192,587891,1,0,0:0:0:0:
256,192,587981,1,0,0:0:0:0:
256,192,588072,1,0,0:0:0:0:
256,192,588524,1,0,0:0:0:0:
256,192,588885,1,0,0:0:0:0:
256,192,589246,1,0,0:0:0:0:
256,192,589427,1,0,0:0:0:0:
256,192,589608,1,0,0:0:0:0:
256,192,589789,1,0,0:0:0:0:
256,192,589969,1,0,0:0:0:0:
256,192,590150,1,0,0:0:0:0:
256,192,590331,1,0,0:0:0:0:
256,192,590512,1,0,0:0:0:0:
256,192,590692,1,0,0:0:0:0:
256,192,590963,1,0,0:0:0:0:
256,192,591144,1,0,0:0:0:0:
256,192,591325,1,0,0:0:0:0:
256,192,591506,1,0,0:0:0:0:
256,192,591686,1,0,0:0:0:0:
256,192,591867,1,0,0:0:0:0:
256,192,592048,1,0,0:0:0:0:
256,192,592228,1,0,0:0:0:0:
256,192,592590,1,0,0:0:0:0:
256,192,592771,1,0,0:0:0:0:
256,192,592951,1,0,0:0:0:0:
256,192,593132,1,0,0:0:0:0:
256,192,593313,1,0,0:0:0:0:
256,192,593493,1,0,0:0:0:0:
256,192,593674,1,0,0:0:0:0:
256,192,593855,1,0,0:0:0:0:
256,192,594036,1,0,0:0:0:0:
256,192,594216,1,0,0:0:0:0:
256,192,594397,1,0,0:0:0:0:
256,192,594578,1,0,0:0:0:0:
256,192,594939,1,0,0:0:0:0:
256,192,595301,1,0,0:0:0:0:
256,192,595662,1,0,0:0:0:0:
256,192,595933,1,0,0:0:0:0:
256,192,596114,1,0,0:0:0:0:
256,192,596295,1,0,0:0:0:0:
256,192,596746,1,0,0:0:0:0:
256,192,596927,1,0,0:0:0:0:
256,192,597108,1,0,0:0:0:0:
256,192,597469,1,0,0:0:0:0:
256,192,597560,1,0,0:0:0:0:
256,192,597650,1,0,0:0:0:0:
256,192,597740,1,0,0:0:0:0:
256,192,597831,1,0,0:0:0:0:
256,192,598283,1,0,0:0:0:0:
256,192,598644,1,0,0:0:0:0:
256,192,599006,1,0,0:0:0:0:
256,192,599186,1,0,0:0:0:0:
256,192,599367,1,0,0:0:0:0:
256,192,599548,1,0,0:0:0:0:
256,192,599728,1,0,0:0:0:0:
256,192,599909,1,0,0:0:0:0:
256,192,600090,1,0,0:0:0:0:
256,192,600271,1,0,0:0:0:0:
256,192,600451,1,0,0:0:0:0:
256,192,600813,1,0,0:0:0:0:
256,192,600993,1,0,0:0:0:0:
256,192,601174,1,0,0:0:0:0:
256,192,601355,1,0,0:0:0:0:
256,192,601536,1,0,0:0:0:0:
256,192,601716,1,0,0:0:0:0:
256,192,601897,1,0,0:0:0:0:
256,192,602078,1,0,0:0:0:0:
256,192,602439,1,0,0:0:0:0:
256,192,602620,1,0,0:0:0:0:
256,192,602801,1,0,0:0:0:0:
256,192,602981,1,0,0:0:0:0:
256,192,603162,1,0,0:0:0:0:
256,192,603343,1,0,0:0:0:0:
256,192,603524,1,0,0:0:0:0:
256,192,603704,1,0,0:0:0:0:
256,192,603885,1,0,0:0:0:0:
256,192,604066,1,0,0:0:0:0:
256,192,604246,1,0,0:0:0:0:
256,192,604427,1,0,0:0:0:0:
256,192,604789,1,0,0:0:0:0:
256,192,605150,1,0,0:0:0:0:
256,192,605512,1,0,0:0:0:0:
256,192,605873,1,0,0:0:0:0:
256,192,606054,1,0,0:0:0:0:
256,192,606234,1,0,0:0:0:0:
256,192,606596,1,0,0:0:0:0:
256,192,606777,1,0,0:0:0:0:
256,192,606957,1,0,0:0:0:0:
256,192,607319,1,0,0:0:0:0:
256,192,607499,1,0,0:0:0:0:
256,192,607680,1,0,0:0:0:0:
256,192,607861,1,0,0:0:0:0:
256,192,608042,1,0,0:0:0:0:
256,192,608222,1,0,0:0:0:0:
256,192,608584,1,0,0:0:0:0:
256,192,608765,1,0,0:0:0:0:
256,192,608945,1,0,0:0:0:0:
256,192,609126,1,0,0:0:0:0:
256,192,609307,1,0,0:0:0:0:
256,192,609487,1,0,0:0:0:0:
256,192,609668,1,0,0:0:0:0:
256,192,609849,1,0,0:0:0:0:
256,192,610030,1,0,0:0:0:0:
