osu file format v14

[General]
AudioFilename: audio.mp3
AudioLeadIn: 0
PreviewTime:5610
Countdown: 0
SampleSet: Normal
StackLeniency: 0.7
Mode: 1
LetterboxInBreaks: 0
WidescreenStoryboard: 1

[Editor]
DistanceSpacing: 1.2
BeatDivisor: 4
GridSize: 32
TimelineZoom: 1.8

[Metadata]
Title:butterfly (UPSWING MIX)
TitleUnicode:butterfly (UPSWING MIX)
Artist:SMiLE.dk
ArtistUnicode:SMiLE.dk
Creator:Hivie
Version:futsuu
Source:DanceDanceRevolution 3rdMIX
Tags:electronic english europop remix smile konami DDR rhythm video game gimmick map low sv
BeatmapID:4005753
BeatmapSetID:1937815

[Difficulty]
HPDrainRate:8
CircleSize:2
OverallDifficulty:4
ApproachRate:10
SliderMultiplier:1.4
SliderTickRate:1

[Events]
//Background and Video events
0,0,"BG.jpg",0,0
//Break Periods
//Storyboard Layer 0 (Background)
//Storyboard Layer 1 (Fail)
//Storyboard Layer 2 (Pass)
//Storyboard Layer 3 (Foreground)
//Storyboard Layer 4 (Overlay)
//Storyboard Sound Samples

[TimingPoints]
52,352.941176470588,4,1,0,50,1,0
5257,-100,4,1,0,90,0,0
5610,-100,4,1,0,80,0,0
16993,-100,4,1,0,80,0,1
28287,-100,4,1,0,80,0,0
29699,352.941176470588,4,1,0,80,1,0
52287,-100,4,1,0,80,0,1
63581,-100,4,1,0,80,0,0

[Colours]
Combo1 : 230,230,230
Combo2 : 0,215,0
Combo3 : 0,215,215
Combo4 : 206,0,0
Combo5 : 255,64,255
Combo6 : 215,215,0

[HitObjects]
256,96,5699,5,12,0:0:0:0:
256,192,6051,1,8,0:0:0:0:
256,192,6228,1,0,0:0:0:0:
256,192,6404,1,8,0:0:0:0:
256,192,6757,1,0,0:0:0:0:
256,192,7110,1,8,0:0:0:0:
256,192,7287,1,0,0:0:0:0:
256,192,7463,1,8,0:0:0:0:
256,192,7640,1,0,0:0:0:0:
256,192,7816,1,8,0:0:0:0:
256,192,8522,1,8,0:0:0:0:
256,192,8875,1,0,0:0:0:0:
256,192,9051,1,0,0:0:0:0:
256,192,9228,1,8,0:0:0:0:
256,192,9581,1,8,0:0:0:0:
256,192,9757,1,0,0:0:0:0:
256,192,9934,1,8,0:0:0:0:
256,192,10110,1,8,0:0:0:0:
256,192,10287,1,0,0:0:0:0:
256,192,10640,1,8,0:0:0:0:
256,192,11346,1,8,0:0:0:0:
256,192,11699,1,8,0:0:0:0:
256,192,11875,1,0,0:0:0:0:
256,192,12051,1,8,0:0:0:0:
256,192,12404,1,0,0:0:0:0:
256,192,12757,1,8,0:0:0:0:
256,192,12934,1,8,0:0:0:0:
256,192,13110,1,0,0:0:0:0:
256,192,13287,1,0,0:0:0:0:
256,192,13463,1,8,0:0:0:0:
256,192,14169,1,8,0:0:0:0:
256,192,14522,1,0,0:0:0:0:
256,192,14699,1,0,0:0:0:0:
256,192,14875,1,8,0:0:0:0:
256,192,15228,1,8,0:0:0:0:
256,192,15404,1,0,0:0:0:0:
256,192,15581,1,8,0:0:0:0:
256,192,15757,1,8,0:0:0:0:
256,192,15934,1,0,0:0:0:0:
256,192,16287,1,8,0:0:0:0:
256,96,16993,1,4,0:0:0:0:
256,192,17346,1,8,0:0:0:0:
256,192,17699,1,0,0:0:0:0:
256,192,17875,1,0,0:0:0:0:
256,192,18051,1,8,0:0:0:0:
256,192,18228,1,8,0:0:0:0:
256,192,18404,1,0,0:0:0:0:
256,192,18757,1,8,0:0:0:0:
256,192,19110,1,0,0:0:0:0:
256,192,19287,1,8,0:0:0:0:
256,192,19463,1,0,0:0:0:0:
256,192,19640,1,0,0:0:0:0:
256,192,19816,1,8,0:0:0:0:
256,192,20169,1,0,0:0:0:0:
256,192,20522,1,8,0:0:0:0:
256,192,20699,1,0,0:0:0:0:
256,192,20875,1,8,0:0:0:0:
256,192,21051,1,8,0:0:0:0:
256,192,21228,1,0,0:0:0:0:
256,192,21581,1,0,0:0:0:0:
256,192,21934,1,8,0:0:0:0:
256,96,22640,1,4,0:0:0:0:
256,192,22993,1,8,0:0:0:0:
256,192,23346,1,8,0:0:0:0:
256,192,23522,1,8,0:0:0:0:
256,192,23699,1,0,0:0:0:0:
256,192,23875,1,0,0:0:0:0:
256,192,24051,1,8,0:0:0:0:
256,192,24404,1,0,0:0:0:0:
256,192,24757,1,8,0:0:0:0:
256,192,24934,1,8,0:0:0:0:
256,192,25110,1,0,0:0:0:0:
256,192,25287,1,8,0:0:0:0:
256,192,25463,1,0,0:0:0:0:
256,192,25816,1,8,0:0:0:0:
256,192,26169,1,0,0:0:0:0:
256,192,26346,1,0,0:0:0:0:
256,192,26522,1,8,0:0:0:0:
256,192,26699,1,8,0:0:0:0:
256,192,26875,1,0,0:0:0:0:
256,192,27228,1,0,0:0:0:0:
256,192,27581,1,8,0:0:0:0:
256,192,28287,1,4,0:0:0:0:
256,96,29699,1,12,0:0:0:0:
256,192,30051,1,0,0:0:0:0:
256,192,30228,1,0,0:0:0:0:
256,192,30404,1,8,0:0:0:0:
256,192,31110,1,8,0:0:0:0:
256,192,31463,1,0,0:0:0:0:
256,192,31640,1,8,0:0:0:0:
256,192,31816,1,8,0:0:0:0:
256,192,32522,1,8,0:0:0:0:
256,192,32875,1,0,0:0:0:0:
256,192,33051,1,0,0:0:0:0:
256,192,33228,1,8,0:0:0:0:
256,192,33581,1,0,0:0:0:0:
256,192,33934,1,8,0:0:0:0:
256,192,34110,1,0,0:0:0:0:
256,192,34287,1,8,0:0:0:0:
256,192,34640,1,8,0:0:0:0:
256,192,35346,1,12,0:0:0:0:
256,192,35699,1,0,0:0:0:0:
256,192,35875,1,8,0:0:0:0:
256,192,36051,1,0,0:0:0:0:
256,192,36404,1,8,0:0:0:0:
256,192,36757,1,0,0:0:0:0:
256,192,37110,1,8,0:0:0:0:
256,192,37287,1,0,0:0:0:0:
256,192,37463,1,8,0:0:0:0:
256,192,38169,1,8,0:0:0:0:
256,192,38522,1,8,0:0:0:0:
256,192,38698,1,8,0:0:0:0:
256,192,38875,1,0,0:0:0:0:
256,192,39228,1,8,0:0:0:0:
256,192,39581,1,0,0:0:0:0:
256,192,39757,1,8,0:0:0:0:
256,192,39934,1,8,0:0:0:0:
256,192,40110,1,0,0:0:0:0:
256,192,40287,1,8,0:0:0:0:
256,96,40993,1,12,0:0:0:0:
256,192,41346,1,8,0:0:0:0:
256,192,41522,1,0,0:0:0:0:
256,192,41698,1,8,0:0:0:0:
256,192,42051,1,0,0:0:0:0:
256,192,42404,1,8,0:0:0:0:
256,192,42581,1,0,0:0:0:0:
256,192,42757,1,8,0:0:0:0:
256,192,42934,1,0,0:0:0:0:
256,192,43110,1,8,0:0:0:0:
256,192,43816,1,8,0:0:0:0:
256,192,44169,1,0,0:0:0:0:
256,192,44346,1,0,0:0:0:0:
256,192,44522,1,8,0:0:0:0:
256,192,44875,1,8,0:0:0:0:
256,192,45051,1,0,0:0:0:0:
256,192,45228,1,8,0:0:0:0:
256,192,45404,1,8,0:0:0:0:
256,192,45581,1,0,0:0:0:0:
256,192,45934,1,8,0:0:0:0:
256,192,46640,1,8,0:0:0:0:
256,192,46993,1,8,0:0:0:0:
256,192,47169,1,0,0:0:0:0:
256,192,47346,1,8,0:0:0:0:
256,192,47698,1,0,0:0:0:0:
256,192,48051,1,8,0:0:0:0:
256,192,48228,1,8,0:0:0:0:
256,192,48404,1,0,0:0:0:0:
256,192,48581,1,0,0:0:0:0:
256,192,48757,1,8,0:0:0:0:
256,192,49463,1,8,0:0:0:0:
256,192,49816,1,0,0:0:0:0:
256,192,49993,1,0,0:0:0:0:
256,192,50169,1,8,0:0:0:0:
256,192,50522,1,8,0:0:0:0:
256,192,50698,1,0,0:0:0:0:
256,192,50875,1,8,0:0:0:0:
256,192,51051,1,8,0:0:0:0:
256,192,51228,1,0,0:0:0:0:
256,192,51581,1,8,0:0:0:0:
256,96,52287,1,4,0:0:0:0:
256,192,52640,1,8,0:0:0:0:
256,192,52993,1,0,0:0:0:0:
256,192,53169,1,0,0:0:0:0:
256,192,53346,1,8,0:0:0:0:
256,192,53522,1,8,0:0:0:0:
256,192,53698,1,0,0:0:0:0:
256,192,54051,1,8,0:0:0:0:
256,192,54404,1,0,0:0:0:0:
256,192,54581,1,8,0:0:0:0:
256,192,54757,1,0,0:0:0:0:
256,192,54934,1,0,0:0:0:0:
256,192,55110,1,8,0:0:0:0:
256,192,55463,1,0,0:0:0:0:
256,192,55816,1,8,0:0:0:0:
256,192,55993,1,0,0:0:0:0:
256,192,56169,1,8,0:0:0:0:
256,192,56346,1,8,0:0:0:0:
256,192,56522,1,0,0:0:0:0:
256,192,56875,1,0,0:0:0:0:
256,192,57228,1,8,0:0:0:0:
256,96,57934,1,4,0:0:0:0:
256,192,58287,1,8,0:0:0:0:
256,192,58640,1,8,0:0:0:0:
256,192,58816,1,8,0:0:0:0:
256,192,58993,1,0,0:0:0:0:
256,192,59169,1,0,0:0:0:0:
256,192,59346,1,8,0:0:0:0:
256,192,59698,1,0,0:0:0:0:
256,192,60051,1,8,0:0:0:0:
256,192,60228,1,8,0:0:0:0:
256,192,60404,1,0,0:0:0:0:
256,192,60581,1,8,0:0:0:0:
256,192,60757,1,0,0:0:0:0:
256,192,61110,1,8,0:0:0:0:
256,192,61463,1,0,0:0:0:0:
256,192,61640,1,0,0:0:0:0:
256,192,61816,1,8,0:0:0:0:
256,192,61993,1,8,0:0:0:0:
256,192,62169,1,0,0:0:0:0:
256,192,62522,1,0,0:0:0:0:
256,192,62875,1,8,0:0:0:0:
256,192,63581,1,12,0:0:0:0:
256,192,63934,1,0,0:0:0:0:
256,192,64110,1,8,0:0:0:0:
256,192,64287,1,8,0:0:0:0:
256,192,64993,1,8,0:0:0:0:
256,192,65346,1,0,0:0:0:0:
256,192,65522,1,0,0:0:0:0:
256,192,65698,1,8,0:0:0:0:
256,192,66404,1,8,0:0:0:0:
256,192,66757,1,0,0:0:0:0:
256,192,66934,1,0,0:0:0:0:
256,192,67110,1,8,0:0:0:0:
256,192,67463,1,0,0:0:0:0:
256,192,67816,1,8,0:0:0:0:
256,192,67993,1,0,0:0:0:0:
256,192,68169,1,8,0:0:0:0:
256,192,68522,1,8,0:0:0:0:
256,192,69228,1,12,0:0:0:0:
256,192,69581,1,0,0:0:0:0:
256,192,69757,1,8,0:0:0:0:
256,192,69934,1,0,0:0:0:0:
256,192,70287,1,8,0:0:0:0:
256,192,70640,1,0,0:0:0:0:
256,192,70993,1,8,0:0:0:0:
256,192,71169,1,0,0:0:0:0:
256,192,71346,1,8,0:0:0:0:
256,192,72051,1,8,0:0:0:0:
256,192,72404,1,8,0:0:0:0:
256,192,72581,1,8,0:0:0:0:
256,192,72757,1,0,0:0:0:0:
256,192,73110,1,8,0:0:0:0:
256,192,73463,1,0,0:0:0:0:
256,192,73640,1,8,0:0:0:0:
256,192,73816,1,8,0:0:0:0:
256,192,73993,1,0,0:0:0:0:
256,192,74169,1,8,0:0:0:0:
256,96,74875,1,12,0:0:0:0:
256,192,75228,1,8,0:0:0:0:
256,192,75404,1,0,0:0:0:0:
256,192,75581,1,8,0:0:0:0:
256,192,75934,1,0,0:0:0:0:
256,192,76287,1,8,0:0:0:0:
256,192,76463,1,0,0:0:0:0:
256,192,76640,1,8,0:0:0:0:
256,192,76816,1,0,0:0:0:0:
256,192,76993,1,8,0:0:0:0:
256,192,77698,1,8,0:0:0:0:
256,192,78051,1,0,0:0:0:0:
256,192,78228,1,0,0:0:0:0:
256,192,78404,1,8,0:0:0:0:
256,192,78757,1,8,0:0:0:0:
256,192,78934,1,0,0:0:0:0:
256,192,79110,1,8,0:0:0:0:
256,192,79287,1,8,0:0:0:0:
256,192,79463,1,0,0:0:0:0:
256,192,79816,1,8,0:0:0:0:
256,192,80522,1,8,0:0:0:0:
256,192,80875,1,8,0:0:0:0:
256,192,81051,1,0,0:0:0:0:
256,192,81228,1,8,0:0:0:0:
256,192,81581,1,0,0:0:0:0:
256,192,81934,1,8,0:0:0:0:
256,192,82110,1,8,0:0:0:0:
256,192,82287,1,0,0:0:0:0:
256,192,82463,1,0,0:0:0:0:
256,192,82640,1,8,0:0:0:0:
256,192,83346,1,8,0:0:0:0:
256,192,83698,1,0,0:0:0:0:
256,192,83875,1,0,0:0:0:0:
256,192,84051,1,8,0:0:0:0:
256,192,84404,1,8,0:0:0:0:
256,192,84581,1,0,0:0:0:0:
256,192,84757,1,8,0:0:0:0:
256,192,84934,1,8,0:0:0:0:
256,192,85110,1,0,0:0:0:0:
256,192,85463,1,8,0:0:0:0:
256,96,86169,1,4,0:0:0:0:
