osu file format v13

[General]
AudioFilename: Koko Soko.mp3
AudioLeadIn: 0
PreviewTime: 36077
Countdown: 0
SampleSet: Normal
StackLeniency: 0.7
Mode: 3
LetterboxInBreaks: 0
SpecialStyle: 0
WidescreenStoryboard: 1

[Editor]
Bookmarks: 83970
DistanceSpacing: 1.2
BeatDivisor: 4
GridSize: 4
TimelineZoom: 1

[Metadata]
Title:Koko Soko
TitleUnicode:Koko Soko
Artist:SMiLE.dk
ArtistUnicode:SMiLE.dk
Creator:Frozen Blade
Version:NM
Source:Dance Dance Revolution
Tags:
BeatmapID:455194
BeatmapSetID:191206

[Difficulty]
HPDrainRate:6
CircleSize:4
OverallDifficulty:6
ApproachRate:5
SliderMultiplier:1.4
SliderTickRate:1

[Events]
//Background and Video events
0,0,"smiledk_vh_main_1024x768.jpg",0,0
//Break Periods
//Storyboard Layer 0 (Background)
//Storyboard Layer 1 (Fail)
//Storyboard Layer 2 (Pass)
//Storyboard Layer 3 (Foreground)
//Storyboard Sound Samples
//Background Colour Transformations
3,100,163,162,255

[TimingPoints]
1685,428.571428571429,4,1,1,70,1,0
8542,-100,4,1,1,70,0,0
21720,-100,4,1,1,70,0,0
35970,-100,4,1,1,70,0,1
63399,-100,4,1,1,70,0,0
77220,-100,4,1,1,70,0,0

[HitObjects]
64,192,1685,5,0,0:0:0:0:
64,192,1899,1,0,0:0:0:0:
448,192,2113,1,0,0:0:0:0:
448,192,2327,1,0,0:0:0:0:
64,192,2542,1,0,0:0:0:0:
192,192,2756,1,0,0:0:0:0:
320,192,2970,1,0,0:0:0:0:
448,192,3399,1,0,0:0:0:0:
320,192,3613,1,0,0:0:0:0:
64,192,3827,1,0,0:0:0:0:
192,192,4042,1,0,0:0:0:0:
320,192,4256,1,0,0:0:0:0:
64,192,5113,1,0,0:0:0:0:
192,192,5113,1,0,0:0:0:0:
64,192,5327,1,0,0:0:0:0:
192,192,5327,1,0,0:0:0:0:
448,192,5542,1,0,0:0:0:0:
448,192,5756,1,0,0:0:0:0:
64,192,5970,1,0,0:0:0:0:
192,192,6185,1,0,0:0:0:0:
320,192,6399,1,0,0:0:0:0:
64,192,6613,1,0,0:0:0:0:
192,192,6827,1,0,0:0:0:0:
320,192,6827,1,0,0:0:0:0:
448,192,7042,1,0,0:0:0:0:
320,192,7256,1,0,0:0:0:0:
192,192,7256,1,0,0:0:0:0:
64,192,7685,1,0,0:0:0:0:
192,192,7899,1,0,0:0:0:0:
320,192,8113,1,0,0:0:0:0:
64,192,8542,1,0,0:0:0:0:
192,192,8542,1,0,0:0:0:0:
448,192,8970,1,0,0:0:0:0:
320,192,8970,1,0,0:0:0:0:
320,192,9399,1,0,0:0:0:0:
192,192,9613,1,0,0:0:0:0:
64,192,9827,1,0,0:0:0:0:
64,192,10256,1,0,0:0:0:0:
448,192,10256,1,0,0:0:0:0:
320,192,10685,1,0,0:0:0:0:
64,192,10685,1,0,0:0:0:0:
192,192,11113,1,0,0:0:0:0:
448,192,11113,1,0,0:0:0:0:
320,192,11327,1,0,0:0:0:0:
64,192,11542,1,0,0:0:0:0:
448,192,11542,1,0,0:0:0:0:
448,192,11970,1,0,0:0:0:0:
192,192,11970,1,0,0:0:0:0:
320,192,12399,1,0,0:0:0:0:
192,192,12399,1,0,0:0:0:0:
192,192,12827,1,0,0:0:0:0:
448,192,12827,1,0,0:0:0:0:
192,192,13042,1,0,0:0:0:0:
448,192,13256,1,0,0:0:0:0:
64,192,13256,1,0,0:0:0:0:
192,192,13470,1,0,0:0:0:0:
320,192,13685,1,0,0:0:0:0:
64,192,13685,1,0,0:0:0:0:
192,192,13899,1,0,0:0:0:0:
320,192,14113,1,0,0:0:0:0:
448,192,14327,1,0,0:0:0:0:
64,192,14542,1,0,0:0:0:0:
192,192,14542,1,0,0:0:0:0:
448,192,14756,1,0,0:0:0:0:
320,192,14756,1,0,0:0:0:0:
320,192,14970,1,0,0:0:0:0:
448,192,14970,1,0,0:0:0:0:
64,192,15399,1,0,0:0:0:0:
192,192,15399,1,0,0:0:0:0:
320,192,15827,1,0,0:0:0:0:
448,192,15827,1,0,0:0:0:0:
320,192,16256,1,0,0:0:0:0:
64,192,16256,1,0,0:0:0:0:
192,192,16470,1,0,0:0:0:0:
320,192,16685,1,0,0:0:0:0:
448,192,16685,1,0,0:0:0:0:
64,192,17113,1,0,0:0:0:0:
192,192,17113,1,0,0:0:0:0:
192,192,17542,1,0,0:0:0:0:
320,192,17542,1,0,0:0:0:0:
192,192,17756,1,0,0:0:0:0:
64,192,17970,1,0,0:0:0:0:
448,192,17970,1,0,0:0:0:0:
192,192,18185,1,0,0:0:0:0:
320,192,18399,1,0,0:0:0:0:
64,192,18399,1,0,0:0:0:0:
192,192,18827,1,0,0:0:0:0:
448,192,18827,1,0,0:0:0:0:
320,192,19256,1,0,0:0:0:0:
192,192,19256,1,0,0:0:0:0:
192,192,19685,1,0,0:0:0:0:
64,192,19685,1,0,0:0:0:0:
192,192,20113,1,0,0:0:0:0:
448,192,20113,1,0,0:0:0:0:
320,192,20327,1,0,0:0:0:0:
64,192,20542,1,0,0:0:0:0:
320,192,20756,1,0,0:0:0:0:
192,192,20970,1,0,0:0:0:0:
320,192,21185,1,0,0:0:0:0:
64,192,21399,1,0,0:0:0:0:
320,192,21613,1,0,0:0:0:0:
64,192,22042,1,0,0:0:0:0:
448,192,22256,1,0,0:0:0:0:
192,192,22256,1,0,0:0:0:0:
64,192,22685,1,0,0:0:0:0:
320,192,22685,1,0,0:0:0:0:
320,192,23113,1,0,0:0:0:0:
192,192,23113,1,0,0:0:0:0:
64,192,23542,1,0,0:0:0:0:
448,192,23542,1,0,0:0:0:0:
320,192,23970,1,0,0:0:0:0:
64,192,23970,1,0,0:0:0:0:
320,192,24399,1,0,0:0:0:0:
192,192,24399,1,0,0:0:0:0:
64,192,24827,1,0,0:0:0:0:
320,192,24827,1,0,0:0:0:0:
64,192,25256,1,0,0:0:0:0:
192,192,25256,1,0,0:0:0:0:
448,192,25685,1,0,0:0:0:0:
320,192,25685,1,0,0:0:0:0:
320,192,25899,1,0,0:0:0:0:
64,192,26113,1,0,0:0:0:0:
192,192,26113,1,0,0:0:0:0:
192,192,26327,1,0,0:0:0:0:
448,192,26542,1,0,0:0:0:0:
320,192,26542,1,0,0:0:0:0:
320,192,26756,1,0,0:0:0:0:
64,192,26970,1,0,0:0:0:0:
192,192,26970,1,0,0:0:0:0:
64,192,27185,1,0,0:0:0:0:
448,192,27399,1,0,0:0:0:0:
320,192,27399,1,0,0:0:0:0:
448,192,27613,1,0,0:0:0:0:
64,192,27827,1,0,0:0:0:0:
192,192,27827,1,0,0:0:0:0:
64,192,28042,1,0,0:0:0:0:
448,192,28256,1,0,0:0:0:0:
320,192,28470,1,0,0:0:0:0:
192,192,28685,1,0,0:0:0:0:
192,192,29113,1,0,0:0:0:0:
320,192,29113,1,0,0:0:0:0:
64,192,29542,1,0,0:0:0:0:
448,192,29542,1,0,0:0:0:0:
320,192,29756,1,0,0:0:0:0:
192,192,29970,1,0,0:0:0:0:
448,192,29970,1,0,0:0:0:0:
320,192,30399,1,0,0:0:0:0:
192,192,30399,1,0,0:0:0:0:
64,192,30613,1,0,0:0:0:0:
320,192,30827,1,0,0:0:0:0:
448,192,30827,1,0,0:0:0:0:
192,192,31256,1,0,0:0:0:0:
64,192,31256,1,0,0:0:0:0:
320,192,31685,1,0,0:0:0:0:
448,192,31685,1,0,0:0:0:0:
320,192,32113,1,0,0:0:0:0:
64,192,32113,1,0,0:0:0:0:
320,192,32542,1,0,0:0:0:0:
192,192,32542,1,0,0:0:0:0:
320,192,32970,1,0,0:0:0:0:
448,192,32970,1,0,0:0:0:0:
320,192,33399,1,0,0:0:0:0:
64,192,33399,1,0,0:0:0:0:
320,192,33827,1,0,0:0:0:0:
192,192,33827,1,0,0:0:0:0:
64,192,34256,1,0,0:0:0:0:
64,192,34470,1,0,0:0:0:0:
448,192,34685,1,0,0:0:0:0:
448,192,34899,1,0,0:0:0:0:
192,192,35113,1,0,0:0:0:0:
320,192,35113,1,0,0:0:0:0:
192,192,35327,1,0,0:0:0:0:
320,192,35327,1,0,0:0:0:0:
192,192,35542,1,0,0:0:0:0:
320,192,35542,1,0,0:0:0:0:
64,192,35970,1,0,0:0:0:0:
64,192,36185,1,0,0:0:0:0:
448,192,36399,1,0,0:0:0:0:
448,192,36613,1,0,0:0:0:0:
64,192,36827,1,0,0:0:0:0:
192,192,37042,1,0,0:0:0:0:
320,192,37256,1,0,0:0:0:0:
64,192,37685,1,0,0:0:0:0:
64,192,37899,1,0,0:0:0:0:
320,192,38113,1,0,0:0:0:0:
192,192,38327,1,0,0:0:0:0:
64,192,38542,1,0,0:0:0:0:
64,192,38970,1,0,0:0:0:0:
448,192,38970,1,0,0:0:0:0:
448,192,39399,1,0,0:0:0:0:
448,192,39613,1,0,0:0:0:0:
320,192,39827,1,0,0:0:0:0:
320,192,40042,1,0,0:0:0:0:
192,192,40256,1,0,0:0:0:0:
320,192,40470,1,0,0:0:0:0:
448,192,40685,1,0,0:0:0:0:
64,192,40899,1,0,0:0:0:0:
192,192,41113,1,0,0:0:0:0:
192,192,41327,1,0,0:0:0:0:
320,192,41542,1,0,0:0:0:0:
192,192,41756,1,0,0:0:0:0:
64,192,41970,1,0,0:0:0:0:
192,192,42185,1,0,0:0:0:0:
320,192,42185,1,0,0:0:0:0:
192,192,42399,1,0,0:0:0:0:
320,192,42399,1,0,0:0:0:0:
64,192,42827,1,0,0:0:0:0:
64,192,43042,1,0,0:0:0:0:
448,192,43256,1,0,0:0:0:0:
448,192,43470,1,0,0:0:0:0:
192,192,43685,1,0,0:0:0:0:
320,192,43899,1,0,0:0:0:0:
448,192,44113,1,0,0:0:0:0:
64,192,44327,1,0,0:0:0:0:
192,192,44542,1,0,0:0:0:0:
320,192,44756,1,0,0:0:0:0:
64,192,44970,1,0,0:0:0:0:
192,192,45185,1,0,0:0:0:0:
320,192,45399,1,0,0:0:0:0:
192,192,45827,1,0,0:0:0:0:
320,192,45827,1,0,0:0:0:0:
192,192,46042,1,0,0:0:0:0:
320,192,46042,1,0,0:0:0:0:
448,192,46256,1,0,0:0:0:0:
448,192,46470,1,0,0:0:0:0:
320,192,46685,1,0,0:0:0:0:
320,192,46899,1,0,0:0:0:0:
448,192,47113,1,0,0:0:0:0:
320,192,47327,1,0,0:0:0:0:
192,192,47542,1,0,0:0:0:0:
448,192,47756,1,0,0:0:0:0:
64,192,47970,1,0,0:0:0:0:
448,192,48185,1,0,0:0:0:0:
320,192,48399,1,0,0:0:0:0:
64,192,48613,1,0,0:0:0:0:
448,192,48827,128,0,49256:0:0:0:0:
320,192,48827,1,0,0:0:0:0:
320,192,49256,1,0,0:0:0:0:
64,192,49685,1,0,0:0:0:0:
320,192,49685,1,0,0:0:0:0:
448,192,50113,1,0,0:0:0:0:
192,192,50113,1,0,0:0:0:0:
64,192,50542,1,0,0:0:0:0:
320,192,50542,1,0,0:0:0:0:
192,192,50756,1,0,0:0:0:0:
320,192,50970,1,0,0:0:0:0:
320,192,51185,1,0,0:0:0:0:
64,192,51399,1,0,0:0:0:0:
192,192,51399,1,0,0:0:0:0:
448,192,51827,1,0,0:0:0:0:
320,192,51827,1,0,0:0:0:0:
448,192,52042,1,0,0:0:0:0:
192,192,52256,1,0,0:0:0:0:
320,192,52256,1,0,0:0:0:0:
192,192,52470,1,0,0:0:0:0:
320,192,52470,1,0,0:0:0:0:
64,192,52685,1,0,0:0:0:0:
448,192,52685,1,0,0:0:0:0:
192,192,52899,1,0,0:0:0:0:
320,192,53113,1,0,0:0:0:0:
64,192,53113,1,0,0:0:0:0:
64,192,53542,1,0,0:0:0:0:
320,192,53542,1,0,0:0:0:0:
448,192,53970,1,0,0:0:0:0:
64,192,53970,1,0,0:0:0:0:
320,192,54185,1,0,0:0:0:0:
192,192,54399,1,0,0:0:0:0:
192,192,54613,1,0,0:0:0:0:
448,192,54827,1,0,0:0:0:0:
64,192,54827,1,0,0:0:0:0:
320,192,55042,1,0,0:0:0:0:
192,192,55256,1,0,0:0:0:0:
320,192,55256,1,0,0:0:0:0:
192,192,55470,1,0,0:0:0:0:
64,192,55685,1,0,0:0:0:0:
448,192,55685,1,0,0:0:0:0:
320,192,55899,1,0,0:0:0:0:
192,192,55899,1,0,0:0:0:0:
192,192,56113,1,0,0:0:0:0:
320,192,56113,1,0,0:0:0:0:
64,192,56542,1,0,0:0:0:0:
320,192,56542,1,0,0:0:0:0:
448,192,56970,1,0,0:0:0:0:
192,192,56970,1,0,0:0:0:0:
320,192,57185,1,0,0:0:0:0:
64,192,57399,1,0,0:0:0:0:
192,192,57613,1,0,0:0:0:0:
320,192,57827,1,0,0:0:0:0:
320,192,58042,1,0,0:0:0:0:
448,192,58256,1,0,0:0:0:0:
192,192,58256,1,0,0:0:0:0:
320,192,58470,1,0,0:0:0:0:
64,192,58685,1,0,0:0:0:0:
192,192,58899,1,0,0:0:0:0:
320,192,59113,1,0,0:0:0:0:
192,192,59113,1,0,0:0:0:0:
448,192,59327,1,0,0:0:0:0:
448,192,59542,1,0,0:0:0:0:
320,192,59756,1,0,0:0:0:0:
192,192,59970,1,0,0:0:0:0:
448,192,60399,1,0,0:0:0:0:
320,192,60613,1,0,0:0:0:0:
64,192,60827,1,0,0:0:0:0:
192,192,61042,1,0,0:0:0:0:
320,192,61256,1,0,0:0:0:0:
448,192,61470,1,0,0:0:0:0:
64,192,61685,1,0,0:0:0:0:
192,192,61899,1,0,0:0:0:0:
320,192,62113,1,0,0:0:0:0:
448,192,62327,1,0,0:0:0:0:
192,192,62542,1,0,0:0:0:0:
64,192,62542,1,0,0:0:0:0:
320,192,62756,1,0,0:0:0:0:
448,192,62756,1,0,0:0:0:0:
192,192,62970,1,0,0:0:0:0:
64,192,62970,1,0,0:0:0:0:
320,192,63185,1,0,0:0:0:0:
448,192,63185,1,0,0:0:0:0:
64,192,63399,1,0,0:0:0:0:
448,192,63399,1,0,0:0:0:0:
320,192,63827,1,0,0:0:0:0:
192,192,63827,1,0,0:0:0:0:
64,192,64256,1,0,0:0:0:0:
192,192,64470,1,0,0:0:0:0:
320,192,64685,1,0,0:0:0:0:
192,192,65113,1,0,0:0:0:0:
320,192,65327,1,0,0:0:0:0:
64,192,65542,1,0,0:0:0:0:
320,192,65756,1,0,0:0:0:0:
192,192,65970,1,0,0:0:0:0:
448,192,66185,1,0,0:0:0:0:
192,192,66399,1,0,0:0:0:0:
320,192,66399,1,0,0:0:0:0:
192,192,66613,1,0,0:0:0:0:
320,192,66613,1,0,0:0:0:0:
64,192,66827,1,0,0:0:0:0:
448,192,67256,1,0,0:0:0:0:
448,192,67470,1,0,0:0:0:0:
320,192,67685,1,0,0:0:0:0:
192,192,67899,1,0,0:0:0:0:
64,192,68113,1,0,0:0:0:0:
448,192,68113,1,0,0:0:0:0:
192,192,68542,1,0,0:0:0:0:
448,192,68542,1,0,0:0:0:0:
448,192,68970,1,0,0:0:0:0:
320,192,68970,1,0,0:0:0:0:
448,192,69399,1,0,0:0:0:0:
64,192,69399,1,0,0:0:0:0:
192,192,69613,1,0,0:0:0:0:
320,192,69613,1,0,0:0:0:0:
192,192,69827,1,0,0:0:0:0:
320,192,69827,1,0,0:0:0:0:
320,192,70256,1,0,0:0:0:0:
64,192,70256,1,0,0:0:0:0:
448,192,70685,1,0,0:0:0:0:
320,192,70899,1,0,0:0:0:0:
192,192,71113,1,0,0:0:0:0:
64,192,71542,1,0,0:0:0:0:
448,192,71542,1,0,0:0:0:0:
320,192,71970,1,0,0:0:0:0:
192,192,71970,1,0,0:0:0:0:
448,192,72399,1,0,0:0:0:0:
320,192,72613,1,0,0:0:0:0:
192,192,72827,1,0,0:0:0:0:
64,192,72827,1,0,0:0:0:0:
448,192,73256,1,0,0:0:0:0:
320,192,73256,1,0,0:0:0:0:
64,192,73685,1,0,0:0:0:0:
192,192,73685,1,0,0:0:0:0:
448,192,74113,1,0,0:0:0:0:
320,192,74113,1,0,0:0:0:0:
320,192,74542,1,0,0:0:0:0:
64,192,74542,1,0,0:0:0:0:
64,192,74970,1,0,0:0:0:0:
192,192,74970,1,0,0:0:0:0:
448,192,75399,1,0,0:0:0:0:
320,192,75613,1,0,0:0:0:0:
192,192,75827,1,0,0:0:0:0:
64,192,76042,1,0,0:0:0:0:
320,192,76256,1,0,0:0:0:0:
448,192,76256,128,0,77113:0:0:0:0:
64,192,77113,1,0,0:0:0:0:
64,192,77327,1,0,0:0:0:0:
192,192,77542,1,0,0:0:0:0:
192,192,77756,1,0,0:0:0:0:
448,192,77970,1,0,0:0:0:0:
320,192,78185,1,0,0:0:0:0:
192,192,78399,1,0,0:0:0:0:
64,192,78827,1,0,0:0:0:0:
64,192,79042,1,0,0:0:0:0:
448,192,79256,1,0,0:0:0:0:
320,192,79470,1,0,0:0:0:0:
192,192,79685,1,0,0:0:0:0:
64,192,80113,1,0,0:0:0:0:
192,192,80113,1,0,0:0:0:0:
448,192,80542,1,0,0:0:0:0:
448,192,80756,1,0,0:0:0:0:
64,192,80970,1,0,0:0:0:0:
64,192,81185,1,0,0:0:0:0:
448,192,81399,1,0,0:0:0:0:
320,192,81613,1,0,0:0:0:0:
192,192,81827,1,0,0:0:0:0:
448,192,82042,1,0,0:0:0:0:
448,192,82256,1,0,0:0:0:0:
320,192,82470,1,0,0:0:0:0:
192,192,82685,1,0,0:0:0:0:
64,192,82899,1,0,0:0:0:0:
192,192,83113,1,0,0:0:0:0:
448,192,83113,128,0,83542:0:0:0:0:
64,192,83542,1,0,0:0:0:0:
192,192,83542,1,0,0:0:0:0:
