osu file format v14

[General]
AudioFilename: audio.mp3
AudioLeadIn: 0
PreviewTime: 80243
Countdown: 0
SampleSet: Soft
StackLeniency: 0.5
Mode: 0
LetterboxInBreaks: 0
WidescreenStoryboard: 0

[Editor]
Bookmarks: 3131,17354,31576,45798,60020,67131,81354,109798,124020,138243,166687,179131
DistanceSpacing: 1.6
BeatDivisor: 4
GridSize: 32
TimelineZoom: 1.8

[Metadata]
Title:Golden Sky
TitleUnicode:Golden Sky
Artist:SMiLE.dk
ArtistUnicode:SMiLE.dk
Creator:-Nenecchi
Version:Extra
Source:Dance Dance Revolution SuperNOVA
Tags:ddr
BeatmapID:2234214
BeatmapSetID:1067134

[Difficulty]
HPDrainRate:5.2
CircleSize:4
OverallDifficulty:8.7
ApproachRate:9.3
SliderMultiplier:1.4
SliderTickRate:1

[Events]
//Background and Video events
0,0,"194-1942919_photo-wallpaper-the-sky-sunset-girl-anime-character.jpg",0,0
//Break Periods
//Storyboard Layer 0 (Background)
//Storyboard Layer 1 (Fail)
//Storyboard Layer 2 (Pass)
//Storyboard Layer 3 (Foreground)
//Storyboard Layer 4 (Overlay)
//Storyboard Sound Samples

[TimingPoints]
2243,444.444444444444,4,2,0,67,1,0
3132,444.444444444444,4,2,0,67,1,0
3132,-100,4,2,0,67,0,0
8020,-66.6666666666667,4,2,0,67,0,0
8465,-200,4,2,0,67,0,0
10243,-100,4,2,0,67,0,0
12909,-133.333333333333,4,2,0,67,0,0
13798,-100,4,2,0,67,0,0
15576,-250,4,2,0,67,0,0
17354,-66.6666666666667,4,2,0,67,0,0
31576,-100,4,2,0,67,0,0
45354,-66.6666666666667,4,2,0,67,0,0
45798,-66.6666666666667,4,2,0,67,0,1
58243,-66.6666666666667,4,2,0,67,0,0

[Colours]
Combo1 : 125,125,191
Combo2 : 224,125,0
Combo3 : 116,141,209
Combo4 : 241,181,69

[HitObjects]
93,82,2243,5,0,0:0:0:0:
93,82,2687,5,0,0:0:0:0:
93,82,3132,6,0,P|107:146|89:206,1,105,0|0,0:0|0:0,0:0:0:0:
90,194,3576,2,0,L|107:250,1,35,0|0,0:0|0:0,0:0:0:0:
187,258,3798,2,0,L|177:309,1,35,0|0,0:0|0:0,0:0:0:0:
31,384,4020,6,0,P|92:355|146:374,1,105,0|0,0:0|0:0,0:0:0:0:
135,372,4465,2,0,L|200:364,1,35,0|0,0:0|0:0,0:0:0:0:
264,313,4687,2,0,L|316:327,1,35,0|0,0:0|0:0,0:0:0:0:
423,384,4909,6,0,P|436:322|418:270,1,105,0|0,0:0|0:0,0:0:0:0:
415,272,5354,5,0,0:0:0:0:
499,204,5576,1,0,0:0:0:0:
375,166,5798,5,0,0:0:0:0:
499,289,6020,1,0,0:0:0:0:
480,103,6243,5,0,0:0:0:0:
412,276,6465,1,0,0:0:0:0:
214,158,6687,6,0,P|267:139|330:150,1,105,0|0,0:0|0:0,0:0:0:0:
324,154,7131,2,0,L|273:163,1,35,0|0,0:0|0:0,0:0:0:0:
131,102,7354,1,0,0:0:0:0:
131,102,7576,6,0,P|114:161|133:221,1,105,0|0,0:0|0:0,0:0:0:0:
206,249,8020,2,0,P|238:315|199:388,1,157.500006008148,0|0,0:0|0:0,0:0:0:0:
46,334,8465,2,0,P|83:316|126:312,1,70,0|0,0:0|0:0,0:0:0:0:
124,314,9354,5,0,0:0:0:0:
124,314,9798,5,0,0:0:0:0:
124,314,10243,6,0,L|172:297,1,35,0|0,0:0|0:0,0:0:0:0:
230,361,10465,2,0,L|281:362,1,35,0|0,0:0|0:0,0:0:0:0:
329,243,10687,5,0,0:0:0:0:
252,281,10909,1,0,0:0:0:0:
411,314,11131,6,0,P|433:260|411:193,1,105,0|0,0:0|0:0,0:0:0:0:
413,207,11576,2,0,L|426:159,1,35,0|0,0:0|0:0,0:0:0:0:
339,128,11798,2,0,L|329:82,1,35,0|0,0:0|0:0,0:0:0:0:
512,64,12020,6,0,P|454:75|395:50,1,105,0|0,0:0|0:0,0:0:0:0:
400,51,12465,5,0,0:0:0:0:
506,178,12687,1,0,0:0:0:0:
238,125,12909,6,0,P|296:114|355:139,1,105,0|0,0:0|0:0,0:0:0:0:
338,127,13798,6,0,P|321:185|350:237,1,105,0|0,0:0|0:0,0:0:0:0:
347,234,14243,1,0,0:0:0:0:
348,118,14465,1,0,0:0:0:0:
280,210,14687,1,0,0:0:0:0:
390,175,14909,1,0,0:0:0:0:
280,141,15131,1,0,0:0:0:0:
347,234,15354,1,0,0:0:0:0:
419,111,15576,6,0,L|411:46,1,56,0|0,0:0|0:0,0:0:0:0:
412,55,16465,5,0,0:0:0:0:
412,55,16909,5,0,0:0:0:0:
334,126,17131,1,0,0:0:0:0:
302,109,17243,1,0,0:0:0:0:
267,106,17354,6,0,L|207:116,1,52.5000020027161,0|0,0:0|0:0,0:0:0:0:
198,316,17576,1,0,0:0:0:0:
264,273,17687,1,0,0:0:0:0:
279,196,17798,2,0,L|288:265,1,52.5000020027161,0|0,0:0|0:0,0:0:0:0:
385,366,18020,2,0,L|394:298,1,52.5000020027161,0|0,0:0|0:0,0:0:0:0:
386,77,18243,6,0,L|362:148,1,52.5000020027161,0|0,0:0|0:0,0:0:0:0:
185,222,18465,1,0,0:0:0:0:
127,168,18576,1,0,0:0:0:0:
47,170,18687,2,0,L|121:179,1,52.5000020027161,0|0,0:0|0:0,0:0:0:0:
221,77,18909,2,0,L|137:88,1,52.5000020027161,0|0,0:0|0:0,0:0:0:0:
84,315,19131,6,0,L|168:304,1,52.5000020027161,0|0,0:0|0:0,0:0:0:0:
356,211,19354,1,0,0:0:0:0:
376,286,19465,1,0,0:0:0:0:
337,353,19576,2,0,L|349:300,1,52.5000020027161,0|0,0:0|0:0,0:0:0:0:
464,216,19798,2,0,L|462:281,1,52.5000020027161,0|0,0:0|0:0,0:0:0:0:
253,204,20020,5,0,0:0:0:0:
459,347,20243,1,0,0:0:0:0:
191,384,20465,5,0,0:0:0:0:
437,339,20688,1,0,0:0:0:0:
164,216,20909,5,0,0:0:0:0:
288,312,21131,1,0,0:0:0:0:
288,312,21243,1,0,0:0:0:0:
288,312,21354,5,0,0:0:0:0:
130,307,21576,1,0,0:0:0:0:
261,218,21798,1,0,0:0:0:0:
209,369,22020,1,0,0:0:0:0:
164,216,22243,1,0,0:0:0:0:
292,315,22465,1,0,0:0:0:0:
396,158,22687,6,0,L|385:77,1,52.5000020027161,0|0,0:0|0:0,0:0:0:0:
122,45,22909,1,0,0:0:0:0:
166,109,23020,1,0,0:0:0:0:
242,123,23131,2,0,L|301:117,1,52.5000020027161,0|0,0:0|0:0,0:0:0:0:
378,27,23354,2,0,L|287:22,1,52.5000020027161,0|0,0:0|0:0,0:0:0:0:
191,181,23576,5,0,0:0:0:0:
469,137,23798,1,0,0:0:0:0:
284,380,24020,5,0,0:0:0:0:
449,152,24242,1,0,0:0:0:0:
192,300,24465,6,0,L|125:283,1,52.5000020027161,0|0,0:0|0:0,0:0:0:0:
58,85,24687,1,0,0:0:0:0:
131,113,24798,1,0,0:0:0:0:
162,184,24909,2,0,L|151:123,1,52.5000020027161,0|0,0:0|0:0,0:0:0:0:
256,47,25131,2,0,L|246:113,1,52.5000020027161,0|0,0:0|0:0,0:0:0:0:
21,244,25354,6,0,L|47:184,1,52.5000020027161,0|0,0:0|0:0,0:0:0:0:
261,186,25576,1,0,0:0:0:0:
288,259,25687,1,0,0:0:0:0:
358,291,25798,2,0,L|290:279,1,52.5000020027161,0|0,0:0|0:0,0:0:0:0:
203,368,26020,2,0,L|278:361,1,52.5000020027161,0|0,0:0|0:0,0:0:0:0:
466,211,26243,6,0,L|386:197,1,52.5000020027161,0|0,0:0|0:0,0:0:0:0:
185,260,26465,1,0,0:0:0:0:
162,184,26576,1,0,0:0:0:0:
199,113,26687,2,0,L|188:181,1,52.5000020027161,0|0,0:0|0:0,0:0:0:0:
93,256,26909,2,0,L|89:167,1,52.5000020027161,0|0,0:0|0:0,0:0:0:0:
324,123,27131,5,0,0:0:0:0:
132,338,27354,1,0,0:0:0:0:
443,313,27576,5,0,0:0:0:0:
155,329,27799,1,0,0:0:0:0:
421,215,28020,5,0,0:0:0:0:
355,357,28242,1,0,0:0:0:0:
355,357,28354,1,0,0:0:0:0:
355,357,28465,5,0,0:0:0:0:
324,202,28687,1,0,0:0:0:0:
440,309,28909,1,0,0:0:0:0:
282,293,29131,1,0,0:0:0:0:
421,215,29354,1,0,0:0:0:0:
359,360,29576,1,0,0:0:0:0:
227,183,29798,6,0,L|232:118,1,52.5000020027161,0|0,0:0|0:0,0:0:0:0:
478,72,30020,1,0,0:0:0:0:
440,140,30131,1,0,0:0:0:0:
365,162,30243,2,0,L|306:158,1,52.5000020027161,0|0,0:0|0:0,0:0:0:0:
158,62,30465,2,0,L|222:53,1,52.5000020027161,0|0,0:0|0:0,0:0:0:0:
499,223,30687,5,0,0:0:0:0:
133,363,30909,1,0,0:0:0:0:
133,363,31020,1,0,0:0:0:0:
133,363,31131,2,0,L|199:357,1,52.5000020027161,0|0,0:0|0:0,0:0:0:0:
412,352,31354,6,0,L|416:323,1,26.2500010013581,0|0,0:0|0:0,0:0:0:0:
377,281,31465,2,0,L|359:257,1,26.2500010013581,0|0,0:0|0:0,0:0:0:0:
302,255,31576,5,0,0:0:0:0:
456,285,31798,1,0,0:0:0:0:
314,350,32020,1,0,0:0:0:0:
390,215,32243,1,0,0:0:0:0:
409,370,32465,5,0,0:0:0:0:
225,312,32687,1,0,0:0:0:0:
225,312,32798,1,0,0:0:0:0:
225,312,32909,1,0,0:0:0:0:
483,192,33131,1,0,0:0:0:0:
376,294,33354,5,0,0:0:0:0:
315,118,33576,1,0,0:0:0:0:
315,118,33687,1,0,0:0:0:0:
315,118,33798,1,0,0:0:0:0:
282,228,34020,1,0,0:0:0:0:
430,116,34243,5,0,0:0:0:0:
194,178,34465,1,0,0:0:0:0:
380,297,34687,5,0,0:0:0:0:
169,173,34909,1,0,0:0:0:0:
439,216,35131,5,0,0:0:0:0:
285,266,35354,1,0,0:0:0:0:
285,266,35465,1,0,0:0:0:0:
285,266,35576,1,0,0:0:0:0:
319,121,35798,1,0,0:0:0:0:
455,330,36020,5,0,0:0:0:0:
455,330,36131,1,0,0:0:0:0:
455,330,36243,2,0,L|403:341,1,35,0|0,0:0|0:0,0:0:0:0:
184,315,36465,5,0,0:0:0:0:
347,202,36687,1,0,0:0:0:0:
286,384,36909,5,0,0:0:0:0:
149,186,37131,1,0,0:0:0:0:
358,266,37354,1,0,0:0:0:0:
111,384,37576,1,0,0:0:0:0:
68,104,37798,5,0,0:0:0:0:
199,307,38020,1,0,0:0:0:0:
239,53,38243,5,0,0:0:0:0:
188,290,38465,1,0,0:0:0:0:
303,121,38687,5,0,0:0:0:0:
205,211,38909,1,0,0:0:0:0:
337,196,39131,1,0,0:0:0:0:
222,132,39354,1,0,0:0:0:0:
276,250,39576,5,0,0:0:0:0:
385,130,39798,1,0,0:0:0:0:
385,130,39909,1,0,0:0:0:0:
385,130,40020,1,0,0:0:0:0:
133,152,40243,1,0,0:0:0:0:
355,273,40465,5,0,0:0:0:0:
269,183,40687,1,0,0:0:0:0:
261,301,40909,1,0,0:0:0:0:
369,165,41131,1,0,0:0:0:0:
161,232,41354,5,0,0:0:0:0:
450,304,41576,1,0,0:0:0:0:
276,35,41798,5,0,0:0:0:0:
429,290,42020,1,0,0:0:0:0:
191,117,42243,5,0,0:0:0:0:
381,91,42465,1,0,0:0:0:0:
381,91,42576,1,0,0:0:0:0:
381,91,42687,5,0,0:0:0:0:
243,227,42909,1,0,0:0:0:0:
276,35,43131,1,0,0:0:0:0:
361,209,43354,1,0,0:0:0:0:
71,133,43576,5,0,0:0:0:0:
467,9,43798,1,0,0:0:0:0:
224,345,44020,1,0,0:0:0:0:
224,345,44909,6,0,P|198:271|214:229,1,105,0|0,0:0|0:0,0:0:0:0:
263,200,45354,2,0,P|211:259|135:258,1,157.500006008148,0|0,0:0|0:0,0:0:0:0:
165,112,45798,6,0,L|177:194,1,52.5000020027161,0|0,0:0|0:0,0:0:0:0:
38,319,46020,1,0,0:0:0:0:
27,240,46131,1,0,0:0:0:0:
76,176,46243,2,0,L|63:254,1,52.5000020027161,0|0,0:0|0:0,0:0:0:0:
179,384,46465,2,0,L|171:324,1,52.5000020027161,0|0,0:0|0:0,0:0:0:0:
335,234,46687,5,0,0:0:0:0:
270,279,46798,1,0,0:0:0:0:
295,353,46909,1,0,0:0:0:0:
373,353,47020,1,0,0:0:0:0:
397,278,47131,2,0,L|392:346,1,52.5000020027161,0|0,0:0|0:0,0:0:0:0:
263,200,47354,2,0,L|272:131,1,52.5000020027161,0|0,0:0|0:0,0:0:0:0:
464,30,47576,5,0,0:0:0:0:
422,96,47687,1,0,0:0:0:0:
345,112,47798,1,0,0:0:0:0:
279,69,47909,1,0,0:0:0:0:
201,85,48020,5,0,0:0:0:0:
386,307,48243,1,0,0:0:0:0:
366,22,48465,1,0,0:0:0:0:
213,260,48687,1,0,0:0:0:0:
477,156,48909,1,0,0:0:0:0:
201,85,49131,1,0,0:0:0:0:
386,307,49354,6,0,L|446:304,1,52.5000020027161,0|0,0:0|0:0,0:0:0:0:
287,230,49576,1,0,0:0:0:0:
216,264,49687,1,0,0:0:0:0:
189,338,49798,2,0,L|196:283,1,52.5000020027161,0|0,0:0|0:0,0:0:0:0:
72,188,50020,2,0,L|85:268,1,52.5000020027161,0|0,0:0|0:0,0:0:0:0:
267,102,50243,5,0,0:0:0:0:
237,28,50354,1,0,0:0:0:0:
159,32,50465,1,0,0:0:0:0:
137,108,50576,1,0,0:0:0:0:
204,151,50687,2,0,L|125:147,1,52.5000020027161,0|0,0:0|0:0,0:0:0:0:
316,39,50909,2,0,L|392:56,1,52.5000020027161,0|0,0:0|0:0,0:0:0:0:
383,283,51131,6,0,L|360:196,1,52.5000020027161,0|0,0:0|0:0,0:0:0:0:
467,40,51354,1,0,0:0:0:0:
435,109,51465,1,0,0:0:0:0:
362,136,51576,2,0,L|428:136,1,52.5000020027161,0|0,0:0|0:0,0:0:0:0:
512,243,51798,2,0,L|431:227,1,52.5000020027161,0|0,0:0|0:0,0:0:0:0:
222,276,52020,5,0,0:0:0:0:
271,213,52131,1,0,0:0:0:0:
345,238,52242,1,0,0:0:0:0:
345,317,52353,1,0,0:0:0:0:
269,340,52465,2,0,L|356:343,1,52.5000020027161,0|0,0:0|0:0,0:0:0:0:
192,203,52687,2,0,L|131:208,1,52.5000020027161,0|0,0:0|0:0,0:0:0:0:
86,384,52909,6,0,L|131:314,1,52.5000020027161,0|0,0:0|0:0,0:0:0:0:
30,147,53131,1,0,0:0:0:0:
0,220,53243,1,0,0:0:0:0:
31,293,53354,2,0,L|24:226,1,52.5000020027161,0|0,0:0|0:0,0:0:0:0:
132,87,53576,2,0,L|122:155,1,52.5000020027161,0|0,0:0|0:0,0:0:0:0:
285,313,53798,6,0,L|268:241,1,52.5000020027161,0|0,0:0|0:0,0:0:0:0:
343,90,54020,1,0,0:0:0:0:
375,160,54131,1,0,0:0:0:0:
347,233,54243,2,0,L|353:175,1,52.5000020027161,0|0,0:0|0:0,0:0:0:0:
464,101,54465,2,0,L|476:168,1,52.5000020027161,0|0,0:0|0:0,0:0:0:0:
413,377,54687,5,0,0:0:0:0:
372,308,54798,1,0,0:0:0:0:
424,248,54909,1,0,0:0:0:0:
496,279,55020,1,0,0:0:0:0:
489,358,55131,2,0,L|416:353,1,52.5000020027161,0|0,0:0|0:0,0:0:0:0:
274,243,55354,2,0,L|349:235,1,52.5000020027161,0|0,0:0|0:0,0:0:0:0:
512,52,55576,6,0,L|438:36,1,52.5000020027161,0|0,0:0|0:0,0:0:0:0:
288,142,55798,1,0,0:0:0:0:
363,161,55909,1,0,0:0:0:0:
430,121,56020,2,0,L|359:129,1,52.5000020027161,0|0,0:0|0:0,0:0:0:0:
216,10,56243,2,0,L|297:25,1,52.5000020027161,0|0,0:0|0:0,0:0:0:0:
135,276,56465,5,0,0:0:0:0:
97,206,56576,1,0,0:0:0:0:
151,148,56687,1,0,0:0:0:0:
222,182,56798,1,0,0:0:0:0:
212,260,56909,5,0,0:0:0:0:
71,128,57131,1,0,0:0:0:0:
288,229,57354,1,0,0:0:0:0:
51,276,57576,1,0,0:0:0:0:
218,99,57798,1,0,0:0:0:0:
186,337,58020,1,0,0:0:0:0:
71,128,58243,5,0,0:0:0:0:
182,321,58465,1,0,0:0:0:0:
264,97,58687,5,0,0:0:0:0:
244,232,58909,1,0,0:0:0:0:
375,173,59131,5,0,0:0:0:0:
418,273,59354,1,0,0:0:0:0:
512,195,59576,5,0,0:0:0:0:
512,195,60020,5,0,0:0:0:0:
