osu file format v14

[General]
AudioFilename: audio.mp3
AudioLeadIn: 0
PreviewTime: 56013
Countdown: 0
SampleSet: Soft
StackLeniency: 0.5
Mode: 0
LetterboxInBreaks: 0
WidescreenStoryboard: 1

[Editor]
Bookmarks: 847,11513,22180,32847,43513,56847,67513,78180,88847
DistanceSpacing: 1
BeatDivisor: 4
GridSize: 16
TimelineZoom: 1.5

[Metadata]
Title:Faiou Fight! (TV Size)
TitleUnicode:ファイオー・ファイト!(TV Size)
Artist:SMILE PRINCESS
ArtistUnicode:SMILE PRINCESS
Creator:Doyak
Version:Normal
Source:プラオレ!~PRIDE OF ORANGE~
Tags:Atipir Doormat puraore! japanese anime op opening ice hockey faito! 増田里紅 Masuda Riku 本郷里実 Hongo Satomi 相良茉優 Sagara Mayu 北守さいか Kitamori Saika 汐入あすか Shioiri Asuka 森山由梨佳 Moriyama Yurika 青山吉能 Aoyama Yoshino 水沢 愛佳 Manaka Mizusawa 鷺沼 梨子 Riko Saginuwa 清瀬 優 Yu Kiyose 水沢 彩佳 Ayaka Mizusawa 高木 尚実 Naomi Takagi 柳田 薫子 Kaoruko Yanagida
BeatmapID:3876669
BeatmapSetID:1850244

[Difficulty]
HPDrainRate:3.5
CircleSize:3.5
OverallDifficulty:4.5
ApproachRate:5.5
SliderMultiplier:1.1
SliderTickRate:1

[Events]
//Background and Video events
0,0,"bg.jpg",0,0
//Break Periods
//Storyboard Layer 0 (Background)
//Storyboard Layer 1 (Fail)
//Storyboard Layer 2 (Pass)
//Storyboard Layer 3 (Foreground)
//Storyboard Layer 4 (Overlay)
//Storyboard Sound Samples

[TimingPoints]
-4486,333.333333333333,4,2,1,90,1,0
847,-100,4,2,1,70,0,0
8847,-100,4,2,1,60,0,0
10013,-100,4,2,1,90,0,0
10346,-100,4,2,1,70,0,0
11180,-100,4,2,2,70,0,0
11513,-100,4,2,1,80,0,0
11846,-100,4,2,1,60,0,0
12347,-100,4,2,1,80,0,0
13013,-100,4,2,1,60,0,0
13680,-100,4,2,1,80,0,0
14346,-100,4,2,1,60,0,0
15013,-100,4,2,1,80,0,0
17180,-100,4,2,1,60,0,0
17680,-100,4,2,1,80,0,0
18346,-100,4,2,1,60,0,0
19013,-100,4,2,1,80,0,0
19680,-100,4,2,1,60,0,0
20347,-100,4,2,1,80,0,0
21013,-100,4,2,1,90,0,0
21513,-100,4,2,1,100,0,0
21846,-100,4,2,1,80,0,0
22180,-111.111111111111,4,2,1,50,0,0
27513,-111.111111111111,4,2,1,60,0,0
30180,-111.111111111111,4,2,1,70,0,0
32513,-111.111111111111,4,2,1,80,0,0
32847,-111.111111111111,4,2,1,50,0,0
38180,-111.111111111111,4,2,1,60,0,0
40013,-111.111111111111,4,2,1,70,0,0
43513,-100,4,2,1,70,0,0
49013,-100,4,2,1,50,0,0
49680,-100,4,2,1,70,0,0
50347,-100,4,2,1,50,0,0
51013,-100,4,2,1,70,0,0
51513,-100,4,2,1,80,0,0
54180,-100,4,2,1,90,0,0
56180,-100,4,2,1,100,0,0
56513,-100,4,2,3,100,0,0
56847,-90.9090909090909,4,2,1,90,0,1
65347,-90.9090909090909,4,2,1,95,0,1
66013,-90.9090909090909,4,2,1,100,0,1
66513,-90.9090909090909,4,2,1,90,0,1
66847,-90.9090909090909,4,2,1,100,0,1
67180,-90.9090909090909,4,2,3,100,0,1
67513,-90.9090909090909,4,2,1,90,0,1
77847,-90.9090909090909,4,2,2,90,0,1
78180,-100,4,2,1,90,0,0
78513,-100,4,2,1,60,0,0
79013,-100,4,2,1,80,0,0
79680,-100,4,2,1,60,0,0
80347,-100,4,2,1,80,0,0
81013,-100,4,2,1,60,0,0
81680,-100,4,2,1,80,0,0
83846,-100,4,2,1,60,0,0
84347,-100,4,2,1,80,0,0
85013,-100,4,2,1,60,0,0
85680,-100,4,2,1,80,0,0
86346,-100,4,2,1,60,0,0
87013,-100,4,2,1,80,0,0
87680,-100,4,2,1,50,0,0

[Colours]
Combo1 : 127,171,103
Combo2 : 255,129,96
Combo3 : 255,223,149
Combo4 : 165,196,255
Combo5 : 183,159,227
Combo6 : 245,165,165
Combo7 : 227,150,214

[HitObjects]
256,213,513,5,4,2:3:0:0:
204,116,847,6,0,P|256:100|308:115,2,110,6|2|2,3:2|2:0|2:0,2:0:0:0:
99,149,1847,1,2,2:0:0:0:
99,149,2013,2,0,L|99:259,1,110,2|2,3:2|2:0,2:0:0:0:
99,314,2513,1,2,2:0:0:0:
204,283,2847,6,0,L|203:356,2,73.3333333333333,8|4|8,2:0|3:0|3:0,2:0:0:0:
204,203,3513,6,0,P|256:187|308:202,2,110,2|2|2,3:2|2:0|3:2,2:0:0:0:
256,300,4513,1,2,3:2:0:0:
256,300,4680,2,0,L|366:300,1,110,2|2,3:2|3:2,2:0:0:0:
421,300,5180,1,2,3:2:0:0:
421,300,5347,2,0,P|435:247|419:196,1,110,2|0,3:2|3:2,2:0:0:0:
366,183,5847,1,8,2:0:0:0:
255,183,6180,6,0,L|190:183,2,55,2|2|2,3:2|2:0|3:2,2:0:0:0:
281,76,6847,2,0,L|171:76,1,110,10|2,2:0|3:2,2:0:0:0:
137,119,7347,2,0,P|85:134|33:120,1,110,2|8,3:2|2:0,2:0:0:0:
0,76,7847,1,0,3:2:0:0:
86,7,8180,1,2,2:0:0:0:
171,76,8513,1,2,2:0:0:0:
256,9,8847,5,2,2:0:0:0:
256,9,9513,2,0,L|256:119,1,110,2|2,2:0|2:0,2:0:0:0:
256,174,10013,6,0,P|308:159|359:175,1,110,10|8,3:2|2:0,2:0:0:0:
407,203,10513,2,0,L|407:258,1,55,8|0,2:0|2:0,2:0:0:0:
359,285,10847,2,0,L|359:340,1,55,8|2,2:0|2:0,2:0:0:0:
407,366,11180,1,10,2:0:0:0:
503,312,11513,6,0,L|487:203,1,110,4|10,3:2|2:0,2:0:0:0:
386,158,12180,1,0,3:2:0:0:
386,158,12347,2,0,L|393:212,1,55,2|10,2:0|2:0,2:0:0:0:
402,267,12680,6,0,P|352:289|299:280,1,110,2|2,2:0|2:0,2:0:0:0:
255,246,13180,1,10,2:0:0:0:
180,327,13513,1,0,3:2:0:0:
180,327,13680,2,0,L|125:334,1,55,2|10,2:0|2:0,2:0:0:0:
71,343,14013,6,0,P|48:293|57:240,1,110,2|2,2:0|2:0,2:0:0:0:
92,196,14513,1,10,2:0:0:0:
50,94,14847,1,0,3:2:0:0:
50,94,15013,2,0,L|104:86,1,55,2|10,2:0|2:0,2:0:0:0:
98,31,15347,6,0,P|147:8|200:17,1,110,2|2,2:0|2:0,2:0:0:0:
245,52,15847,1,10,2:0:0:0:
245,52,16013,2,0,P|294:29|347:38,1,110,2|10,2:0|2:0,2:0:0:0:
392,73,16513,1,10,2:0:0:0:
503,72,16847,6,0,L|487:181,1,110,4|10,3:2|2:0,2:0:0:0:
386,226,17513,1,0,3:2:0:0:
386,226,17680,2,0,L|393:171,1,55,2|10,2:0|2:0,2:0:0:0:
402,117,18013,6,0,P|352:94|299:103,1,110,2|2,2:0|2:0,2:0:0:0:
255,138,18513,1,10,2:0:0:0:
180,57,18847,1,0,3:2:0:0:
180,57,19013,2,0,L|125:49,1,55,2|10,2:0|2:0,2:0:0:0:
71,41,19347,6,0,P|48:90|57:143,1,110,2|2,2:0|2:0,2:0:0:0:
92,188,19847,1,10,2:0:0:0:
50,290,20180,1,0,3:2:0:0:
50,290,20347,2,0,L|104:297,1,55,2|2,2:0|3:2,2:0:0:0:
158,304,20680,5,2,3:2:0:0:
267,319,21013,1,10,2:0:0:0:
267,319,21180,1,10,2:0:0:0:
376,334,21513,1,8,2:0:0:0:
376,334,21680,2,0,L|430:341,1,55,8|8,2:0|2:0,2:0:0:0:
466,238,22180,6,0,B|474:189|474:189|452:143,1,99.0000000000001,6|10,3:2|2:0,2:0:0:0:
355,158,22847,2,0,B|346:206|346:206|368:252,1,99.0000000000001,2|10,3:2|2:0,2:0:0:0:
388,302,23347,1,2,2:0:0:0:
293,331,23680,2,0,L|286:379,2,49.5,2|10|2,2:0|2:0|2:0,2:0:0:0:
271,286,24180,2,0,P|226:265|179:273,1,99.0000000000001,0|8,3:2|2:0,2:0:0:0:
86,307,24847,6,0,B|78:258|78:258|100:212,1,99.0000000000001,2|10,3:2|2:0,2:0:0:0:
121,169,25347,1,2,2:0:0:0:
188,96,25680,2,0,L|181:48,2,49.5,2|10|2,3:2|2:0|2:0,2:0:0:0:
286,96,26347,2,0,L|293:48,2,49.5,2|10|2,2:0|2:0|2:0,2:0:0:0:
308,141,26847,2,0,P|353:162|400:154,1,99.0000000000001,0|8,3:2|2:0,2:0:0:0:
459,233,27513,6,0,L|507:226,2,49.5,2|2|10,3:2|2:0|2:0,2:0:0:0:
423,325,28180,2,0,L|375:332,1,49.5,2|2,3:2|3:2,2:0:0:0:
325,339,28513,1,10,2:0:0:0:
325,339,28680,2,0,P|304:294|312:247,1,99.0000000000001,2|2,2:0|2:0,2:0:0:0:
339,205,29180,1,10,2:0:0:0:
339,205,29347,2,0,P|359:160|352:112,1,99.0000000000001,2|2,2:0|3:2,2:0:0:0:
332,66,29847,1,10,2:0:0:0:
245,17,30180,6,0,L|197:10,2,49.5,2|2|10,3:2|2:0|2:0,2:0:0:0:
245,115,30847,2,0,L|197:122,1,49.5,2|2,3:2|3:2,2:0:0:0:
147,129,31180,1,10,2:0:0:0:
147,129,31347,2,0,B|98:121|98:121|53:142,1,99.0000000000001,10|10,2:0|2:0,2:0:0:0:
4,149,31847,2,0,L|11:197,1,49.5,10|2,2:0|3:2,2:0:0:0:
18,245,32180,1,8,3:2:0:0:
32,342,32513,1,12,2:0:0:0:
110,282,32847,6,0,B|159:274|159:274|204:295,1,99.0000000000001,6|10,3:2|2:0,2:0:0:0:
283,354,33513,2,0,B|304:309|304:309|296:260,1,99.0000000000001,2|10,3:2|2:0,2:0:0:0:
288,211,34013,1,2,2:0:0:0:
377,169,34347,2,0,L|384:121,2,49.5,2|10|2,2:0|2:0|2:0,2:0:0:0:
399,214,34847,2,0,P|444:235|491:227,1,99.0000000000001,0|8,3:2|2:0,2:0:0:0:
505,129,35513,6,0,B|513:80|513:80|492:35,1,99.0000000000001,2|10,3:2|2:0,2:0:0:0:
449,10,36013,1,2,2:0:0:0:
373,74,36347,2,0,L|380:122,2,49.5,2|10|2,3:2|2:0|2:0,2:0:0:0:
275,74,37013,2,0,L|268:122,1,49.5,2|10,3:2|2:0,2:0:0:0:
261,172,37347,2,0,P|212:179|168:159,1,99.0000000000001,2|2,3:2|3:2,2:0:0:0:
175,110,37847,1,10,2:0:0:0:
90,57,38180,6,0,L|97:9,2,49.5,2|2|10,3:2|2:0|2:0,2:0:0:0:
6,109,38847,2,0,L|13:157,1,49.5,2|2,3:2|3:2,2:0:0:0:
52,188,39180,1,10,2:0:0:0:
52,187,39347,2,0,P|72:231|64:279,1,99.0000000000001,2|2,2:0|3:2,2:0:0:0:
24,369,40013,1,2,2:0:0:0:
25,370,40180,2,0,L|73:377,1,49.5,2|2,3:2|3:2,2:0:0:0:
120,360,40513,2,0,L|168:367,1,49.5,10|2,2:0|3:2,2:0:0:0:
216,374,40847,6,0,B|237:329|237:329|229:280,1,99.0000000000001,4|8,3:2|2:0,2:0:0:0:
264,245,41347,1,2,2:0:0:0:
264,245,41513,2,0,L|257:197,2,49.5,2|2|10,3:2|3:2|2:0,2:0:0:0:
309,265,42013,1,2,3:2:0:0:
407,252,42347,2,0,L|455:245,1,49.5,8|8,3:0|3:0,2:0:0:0:
439,134,42847,2,0,L|391:141,1,49.5,10|0,2:0|3:2,2:0:0:0:
341,150,43180,1,14,2:0:0:0:
274,237,43513,6,0,L|267:292,2,55,14|2|10,3:2|2:0|3:2,2:0:0:0:
232,136,44180,2,0,L|239:81,1,55,10|10,3:2|2:0,2:0:0:0:
246,26,44513,1,2,3:2:0:0:
246,26,44680,5,10,2:0:0:0:
137,11,45013,1,10,2:0:0:0:
122,120,45347,1,10,2:0:0:0:
232,136,45680,2,0,L|286:143,2,55,10|8|8,2:0|3:2|2:0,2:0:0:0:
224,190,46180,6,0,L|169:197,2,55,14|2|10,3:2|2:0|3:2,2:0:0:0:
239,299,46847,2,0,L|293:291,1,55,10|10,3:2|2:0,2:0:0:0:
347,283,47180,1,10,3:2:0:0:
347,283,47347,6,0,P|355:229|332:180,1,110,6|10,3:2|2:0,2:0:0:0:
297,137,47847,1,2,3:2:0:0:
297,137,48013,1,6,3:2:0:0:
312,28,48347,1,2,3:2:0:0:
312,28,48513,2,0,L|367:35,2,55,10|10|0,2:0|2:0|3:2,2:0:0:0:
272,65,49013,6,0,L|217:72,1,55,2|10,3:2|2:0,2:0:0:0:
162,77,49347,1,6,3:2:0:0:
162,188,49680,1,2,3:2:0:0:
162,188,49847,2,0,L|107:195,2,55,10|10|0,2:0|2:0|3:2,2:0:0:0:
202,225,50347,6,0,L|257:232,1,55,2|10,3:2|3:2,2:0:0:0:
312,237,50680,1,6,3:2:0:0:
312,348,51013,1,2,3:2:0:0:
312,348,51180,1,8,2:0:0:0:
200,348,51513,5,2,3:2:0:0:
202,237,51847,1,10,2:0:0:0:
203,126,52180,1,10,2:0:0:0:
204,15,52513,1,10,2:0:0:0:
310,15,52847,5,8,2:0:0:0:
311,126,53180,1,8,2:0:0:0:
312,237,53513,1,8,2:0:0:0:
313,348,53847,1,8,2:0:0:0:
201,348,54180,6,0,L|201:289,1,55,10|2,2:0|3:2,2:0:0:0:
202,237,54513,2,0,L|261:237,1,55,10|2,2:0|3:2,2:0:0:0:
312,237,54847,2,0,L|312:296,1,55,10|2,3:2|3:2,2:0:0:0:
313,348,55180,2,0,L|254:348,1,55,10|10,3:2|3:2,2:0:0:0:
147,348,55680,1,8,2:0:0:0:
147,348,55847,1,8,2:0:0:0:
120,241,56180,6,0,L|175:241,1,55,2|0,2:0|3:2,2:0:0:0:
230,241,56513,1,10,2:0:0:0:
216,120,56847,6,0,B|245:115|245:115|273:127,1,60.5,6|0,3:2|2:0,2:0:0:0:
305,180,57180,2,0,B|334:184|334:184|362:172,1,60.5,10|0,2:0|2:0,2:0:0:0:
418,147,57513,1,2,3:2:0:0:
488,49,57847,1,10,2:0:0:0:
488,49,58013,6,0,P|434:23|375:33,1,121,2|2,2:0|2:0,2:0:0:0:
326,69,58513,1,10,2:0:0:0:
326,69,58680,2,0,P|267:79|213:53,1,121,2|0,2:0|3:2,2:0:0:0:
170,10,59180,1,8,2:0:0:0:
69,77,59513,6,0,B|64:106|64:106|76:134,1,60.5,2|0,3:2|2:0,2:0:0:0:
129,166,59847,2,0,B|133:195|133:195|121:223,1,60.5,10|0,2:0|2:0,2:0:0:0:
96,279,60180,1,2,3:2:0:0:
171,373,60513,1,10,2:0:0:0:
171,373,60680,6,0,L|290:356,1,121,2|2,2:0|2:0,2:0:0:0:
331,311,61180,1,10,2:0:0:0:
331,311,61347,2,0,L|450:327,1,121,2|0,2:0|3:2,2:0:0:0:
509,335,61847,1,8,2:0:0:0:
509,213,62180,5,2,3:2:0:0:
509,213,62347,2,0,L|449:221,1,60.5,2|10,2:0|2:0,2:0:0:0:
389,229,62680,1,2,2:0:0:0:
276,273,63013,2,0,L|268:213,1,60.5,2|10,2:0|2:0,2:0:0:0:
305,164,63347,6,0,P|355:105|289:51,1,181.500005538941,2|10,0:2|2:0,2:0:0:0:
247,7,64013,1,2,3:2:0:0:
247,7,64180,2,0,L|187:15,1,60.5,2|2,3:2|2:0,2:0:0:0:
128,23,64513,1,10,2:0:0:0:
29,94,64847,6,0,L|20:153,1,60.5,6|2,3:2|2:0,2:0:0:0:
80,161,65180,1,10,2:0:0:0:
80,161,65347,2,0,L|71:220,1,60.5,6|2,3:2|2:0,2:0:0:0:
130,227,65680,2,0,L|121:286,1,60.5,2|10,3:2|2:0,2:0:0:0:
112,345,66013,2,0,B|162:377|162:377|221:360,1,121,6|8,3:2|2:0,2:0:0:0:
229,300,66513,1,8,2:0:0:0:
341,255,66847,6,0,L|349:314,1,60.5,2|0,3:2|2:0,2:0:0:0:
357,373,67180,1,10,2:0:0:0:
476,356,67513,6,0,B|481:327|481:327|469:299,1,60.5,6|0,3:2|2:0,2:0:0:0:
424,256,67847,2,0,B|420:227|420:227|432:199,1,60.5,10|0,2:0|2:0,2:0:0:0:
456,142,68180,1,2,3:2:0:0:
348,87,68513,1,10,2:0:0:0:
348,87,68680,6,0,P|294:113|235:103,1,121,2|2,2:0|2:0,2:0:0:0:
202,52,69180,1,10,2:0:0:0:
202,52,69347,2,0,P|148:26|88:36,1,121,2|0,2:0|3:2,2:0:0:0:
36,65,69847,1,8,2:0:0:0:
22,185,70180,6,0,L|81:177,1,60.5,2|2,3:2|2:0,2:0:0:0:
122,221,70513,2,0,L|181:213,1,60.5,10|2,2:0|2:0,2:0:0:0:
222,257,70847,2,0,P|280:266|334:240,1,121,2|10,3:2|2:0,2:0:0:0:
362,186,71347,6,0,L|345:67,1,121,2|2,2:0|2:0,2:0:0:0:
303,21,71847,1,10,2:0:0:0:
303,21,72013,2,0,P|244:11|190:37,1,121,2|0,2:0|3:2,2:0:0:0:
162,91,72513,1,8,2:0:0:0:
88,187,72847,6,0,L|80:246,2,60.5,2|2|10,3:2|2:0|2:0,2:0:0:0:
207,203,73513,2,0,L|326:220,1,121,2|10,3:2|2:0,2:0:0:0:
385,228,74013,6,0,P|395:287|369:341,1,121,2|0,2:0|2:0,2:0:0:0:
309,331,74513,1,8,2:0:0:0:
193,365,74847,2,0,L|133:357,1,60.5,2|2,3:2|2:0,2:0:0:0:
143,299,75180,2,0,L|83:291,1,60.5,10|2,2:0|2:0,2:0:0:0:
36,252,75513,6,0,P|26:193|52:139,1,121,2|8,3:2|2:0,2:0:0:0:
144,61,76180,2,0,L|151:120,1,60.5,10|2,2:0|3:2,2:0:0:0:
158,181,76513,1,10,2:0:0:0:
158,181,76680,6,0,B|208:149|208:149|267:166,1,121,2|8,3:2|2:0,2:0:0:0:
327,173,77180,2,0,L|319:232,1,60.5,8|0,2:0|2:0,2:0:0:0:
262,256,77513,2,0,L|269:315,1,60.5,8|0,2:0|2:0,2:0:0:0:
300,367,77847,1,10,2:0:0:0:
191,351,78180,6,0,L|82:335,1,110,4|10,3:2|2:0,2:0:0:0:
97,226,78847,1,0,3:2:0:0:
97,226,79013,2,0,L|151:234,1,55,2|10,2:0|2:0,2:0:0:0:
205,242,79347,6,0,L|314:258,1,110,2|2,2:0|2:0,2:0:0:0:
367,265,79847,1,10,2:0:0:0:
382,155,80180,1,0,3:2:0:0:
382,155,80347,2,0,L|327:147,1,55,2|10,2:0|2:0,2:0:0:0:
274,141,80680,6,0,L|164:126,1,110,2|2,2:0|2:0,2:0:0:0:
112,118,81180,1,10,2:0:0:0:
126,8,81513,1,0,3:2:0:0:
126,8,81680,2,0,L|181:16,1,55,2|10,2:0|2:0,2:0:0:0:
236,27,82013,6,0,P|244:80|223:130,1,110,2|2,2:0|2:0,2:0:0:0:
254,175,82513,1,10,2:0:0:0:
254,175,82680,2,0,P|262:228|241:278,1,110,2|10,2:0|2:0,2:0:0:0:
214,326,83180,1,10,2:0:0:0:
321,351,83513,6,0,L|430:335,1,110,4|10,3:2|2:0,2:0:0:0:
415,226,84180,1,0,3:2:0:0:
415,226,84347,2,0,L|361:234,1,55,2|10,2:0|2:0,2:0:0:0:
307,242,84680,6,0,L|198:258,1,110,2|2,2:0|2:0,2:0:0:0:
145,265,85180,1,10,2:0:0:0:
130,155,85513,1,0,3:2:0:0:
130,155,85680,2,0,L|185:147,1,55,2|10,2:0|2:0,2:0:0:0:
238,141,86013,6,0,L|348:126,1,110,2|2,2:0|2:0,2:0:0:0:
400,118,86513,1,10,2:0:0:0:
386,8,86847,1,8,2:0:0:0:
386,8,87013,2,0,L|331:16,1,55,2|2,3:2|3:2,2:0:0:0:
276,22,87347,1,14,3:2:0:0:
204,106,87680,6,0,L|149:98,1,55,2|2,2:0|2:0,2:0:0:0:
95,91,88013,1,2,2:0:0:0:
