osu file format v14

[General]
AudioFilename: audio.mp3
AudioLeadIn: 0
PreviewTime: 56013
Countdown: 0
SampleSet: None
StackLeniency: 0.5
Mode: 0
LetterboxInBreaks: 0
WidescreenStoryboard: 0

[Editor]
Bookmarks: 847,11513,22180,32847,43513,56847,67513,78180,88847
DistanceSpacing: 0.75
BeatDivisor: 4
GridSize: 16
TimelineZoom: 1.5

[Metadata]
Title:Faiou Fight! (TV Size)
TitleUnicode:ファイオー・ファイト!(TV Size)
Artist:SMILE PRINCESS
ArtistUnicode:SMILE PRINCESS
Creator:Doyak
Version:Hokkee!
Source:プラオレ!~PRIDE OF ORANGE~
Tags:Atipir Doormat puraore! japanese anime op opening ice hockey faito! 増田里紅 Masuda Riku 本郷里実 Hongo Satomi 相良茉優 Sagara Mayu 北守さいか Kitamori Saika 汐入あすか Shioiri Asuka 森山由梨佳 Moriyama Yurika 青山吉能 Aoyama Yoshino 水沢 愛佳 Manaka Mizusawa 鷺沼 梨子 Riko Saginuwa 清瀬 優 Yu Kiyose 水沢 彩佳 Ayaka Mizusawa 高木 尚実 Naomi Takagi 柳田 薫子 Kaoruko Yanagida
BeatmapID:4011637
BeatmapSetID:1850244

[Difficulty]
HPDrainRate:5.5
CircleSize:4
OverallDifficulty:9
ApproachRate:9.3
SliderMultiplier:2
SliderTickRate:1

[Events]
//Background and Video events
0,0,"bg.jpg",0,0
//Break Periods
//Storyboard Layer 0 (Background)
//Storyboard Layer 1 (Fail)
//Storyboard Layer 2 (Pass)
//Storyboard Layer 3 (Foreground)
//Storyboard Layer 4 (Overlay)
//Storyboard Sound Samples

[TimingPoints]
-4486,333.333333333333,4,2,1,90,1,0
513,-55.5555555555556,4,2,1,90,0,0
762,-55.5555555555556,4,2,1,5,0,0
847,-55.5555555555556,4,2,1,70,0,0
2013,-100,4,2,1,70,0,0
2262,-100,4,2,1,5,0,0
2347,-100,4,2,1,70,0,0
4930,-100,4,2,1,5,0,0
5013,-100,4,2,1,70,0,0
5597,-100,4,2,1,5,0,0
5680,-100,4,2,1,70,0,0
7097,-100,4,2,1,5,0,0
7180,-100,4,2,1,70,0,0
8847,-117.647058823529,4,2,1,60,0,0
10013,-100,4,2,1,90,0,0
10263,-100,4,2,1,5,0,0
10347,-100,4,2,1,70,0,0
11180,-100,4,2,2,70,0,0
11347,-100,4,2,1,70,0,0
11513,-100,4,2,1,80,0,0
11680,-100,4,2,1,60,0,0
12013,-133.333333333333,4,2,1,60,0,0
12347,-133.333333333333,4,2,1,80,0,0
12680,-90.9090909090909,4,2,1,80,0,0
13013,-90.9090909090909,4,2,1,60,0,0
13680,-90.9090909090909,4,2,1,80,0,0
14347,-90.9090909090909,4,2,1,60,0,0
14680,-133.333333333333,4,2,1,60,0,0
15013,-133.333333333333,4,2,1,80,0,0
15347,-90.9090909090909,4,2,1,80,0,0
17013,-90.9090909090909,4,2,1,60,0,0
17347,-133.333333333333,4,2,1,60,0,0
17680,-133.333333333333,4,2,1,80,0,0
18013,-90.9090909090909,4,2,1,80,0,0
18347,-90.9090909090909,4,2,1,60,0,0
19013,-90.9090909090909,4,2,1,80,0,0
19680,-90.9090909090909,4,2,1,60,0,0
20013,-133.333333333333,4,2,1,60,0,0
20347,-133.333333333333,4,2,1,80,0,0
21013,-133.333333333333,4,2,1,90,0,0
21513,-133.333333333333,4,2,1,100,0,0
21847,-133.333333333333,4,2,1,80,0,0
22180,-111.111111111111,4,2,1,50,0,0
27513,-111.111111111111,4,2,1,60,0,0
30180,-111.111111111111,4,2,1,70,0,0
32513,-83.3333333333333,4,2,1,80,0,0
32763,-83.3333333333333,4,2,1,5,0,0
32847,-111.111111111111,4,2,1,50,0,0
38180,-111.111111111111,4,2,1,60,0,0
40013,-111.111111111111,4,2,1,70,0,0
49013,-111.111111111111,4,2,1,50,0,0
49597,-111.111111111111,4,2,1,5,0,0
49680,-111.111111111111,4,2,1,70,0,0
50347,-111.111111111111,4,2,1,50,0,0
50930,-111.111111111111,4,2,1,5,0,0
51013,-111.111111111111,4,2,1,70,0,0
51513,-100,4,2,1,80,0,0
54180,-90.9090909090909,4,2,1,90,0,0
56180,-55.5555555555556,4,2,1,100,0,0
56513,-55.5555555555556,4,2,3,100,0,0
56763,-55.5555555555556,4,2,3,5,0,0
56847,-55.5555555555556,4,2,1,90,0,1
58013,-90.9090909090909,4,2,1,90,0,1
65347,-90.9090909090909,4,2,1,95,0,1
66013,-90.9090909090909,4,2,1,100,0,1
66513,-90.9090909090909,4,2,1,90,0,1
66847,-55.5555555555556,4,2,1,100,0,1
67180,-55.5555555555556,4,2,3,100,0,1
67430,-55.5555555555556,4,2,3,5,0,1
67513,-55.5555555555556,4,2,1,90,0,1
68680,-90.9090909090909,4,2,1,90,0,1
76930,-90.9090909090909,4,2,1,5,0,1
77013,-90.9090909090909,4,2,1,90,0,1
77847,-90.9090909090909,4,2,2,90,0,1
78180,-90.9090909090909,4,2,1,90,0,0
78347,-90.9090909090909,4,2,1,60,0,0
78680,-133.333333333333,4,2,1,60,0,0
79013,-133.333333333333,4,2,1,80,0,0
79347,-90.9090909090909,4,2,1,80,0,0
79680,-90.9090909090909,4,2,1,60,0,0
80347,-90.9090909090909,4,2,1,80,0,0
81013,-90.9090909090909,4,2,1,60,0,0
81347,-133.333333333333,4,2,1,60,0,0
81680,-133.333333333333,4,2,1,80,0,0
82013,-90.9090909090909,4,2,1,80,0,0
83680,-90.9090909090909,4,2,1,60,0,0
84013,-133.333333333333,4,2,1,60,0,0
84347,-133.333333333333,4,2,1,80,0,0
84680,-90.9090909090909,4,2,1,80,0,0
85013,-90.9090909090909,4,2,1,60,0,0
85680,-90.9090909090909,4,2,1,80,0,0
86347,-90.9090909090909,4,2,1,60,0,0
86680,-133.333333333333,4,2,1,60,0,0
87013,-133.333333333333,4,2,1,80,0,0
87680,-133.333333333333,4,2,1,50,0,0

[Colours]
Combo1 : 127,171,103
Combo2 : 255,129,96
Combo3 : 255,223,149
Combo4 : 165,196,255
Combo5 : 183,159,227
Combo6 : 245,165,165
Combo7 : 227,150,214

[HitObjects]
216,232,513,6,0,P|256:330|297:232,1,270,4|0,2:3|2:0,2:0:0:0:
256,83,847,5,6,3:2:0:0:
256,101,1180,1,2,2:0:0:0:
256,119,1513,1,2,2:0:0:0:
256,137,1847,1,2,2:0:0:0:
450,344,2013,6,0,L|469:195,1,150,2|0,3:2|2:0,2:0:0:0:
479,120,2347,1,2,2:0:0:0:
331,100,2513,1,2,2:0:0:0:
387,239,2680,1,2,3:2:0:0:
387,239,2763,1,0,3:2:0:0:
387,239,2847,5,8,2:0:0:0:
103,276,3069,5,4,3:0:0:0:
210,10,3291,5,8,3:0:0:0:
256,315,3513,5,2,3:2:0:0:
256,297,3847,1,2,2:0:0:0:
256,90,4180,1,2,3:2:0:0:
256,279,4513,1,2,3:2:0:0:
62,48,4680,6,0,L|42:196,1,150,2|0,3:2|2:0,2:0:0:0:
33,272,5013,1,2,3:2:0:0:
181,292,5180,1,2,3:2:0:0:
125,153,5347,6,0,L|105:301,1,150,2|0,3:2|2:0,2:0:0:0:
96,377,5680,1,0,3:2:0:0:
356,247,5847,1,8,2:0:0:0:
195,189,6013,1,2,2:0:0:0:
289,332,6180,5,2,3:2:0:0:
432,238,6347,1,2,2:0:0:0:
280,256,6513,1,2,3:2:0:0:
441,314,6680,1,2,2:0:0:0:
336,99,6847,6,0,L|356:247,1,150,10|0,2:0|2:0,2:0:0:0:
365,323,7180,1,2,3:2:0:0:
234,174,7347,5,2,3:2:0:0:
234,174,7430,1,8,2:0:0:0:
234,174,7513,1,0,3:2:0:0:
142,293,7680,1,8,2:0:0:0:
291,313,7847,1,0,3:2:0:0:
291,313,8180,6,0,L|304:213,1,100,2|2,2:0|2:0,2:0:0:0:
220,74,8513,2,0,L|233:173,1,100,2|2,2:0|2:0,2:0:0:0:
365,346,8847,6,0,P|412:279|383:202,1,170.000003242493,2|0,2:0|2:0,2:0:0:0:
243,256,9513,2,0,L|328:267,1,85.0000016212464,2|2,2:0|2:0,2:0:0:0:
412,278,9847,1,2,2:0:0:0:
305,80,10013,6,0,L|157:100,1,150,10|0,3:2|2:0,2:0:0:0:
81,109,10347,1,8,2:0:0:0:
198,364,10513,1,8,2:0:0:0:
256,192,10680,1,0,2:0:0:0:
125,375,10847,2,0,L|25:361,1,100,8|2,2:0|2:0,2:0:0:0:
256,160,11180,5,10,2:0:0:0:
387,375,11347,1,10,2:0:0:0:
387,375,11430,1,8,2:0:0:0:
387,375,11513,1,4,3:2:0:0:
409,213,11680,5,2,2:0:0:0:
279,237,11847,1,10,2:0:0:0:
398,294,12013,2,0,L|472:283,1,75.0000000000002,2|0,2:0|3:2,2:0:0:0:
239,80,12347,5,2,2:0:0:0:
209,294,12513,1,10,2:0:0:0:
409,213,12680,2,0,L|300:197,1,110,2|0,2:0|3:2,2:0:0:0:
158,69,13013,5,2,2:0:0:0:
182,199,13180,1,10,2:0:0:0:
239,80,13347,1,2,2:0:0:0:
106,250,13513,1,0,3:2:0:0:
106,250,13597,1,8,2:0:0:0:
106,250,13680,5,2,2:0:0:0:
320,280,13847,1,10,2:0:0:0:
239,80,14013,2,0,L|223:188,1,110,2|0,2:0|3:2,2:0:0:0:
95,331,14347,5,2,2:0:0:0:
225,307,14513,1,10,2:0:0:0:
106,250,14680,2,0,L|32:261,1,75.0000000000002,2|0,2:0|3:2,2:0:0:0:
306,318,15013,5,2,2:0:0:0:
336,104,15180,1,10,2:0:0:0:
136,185,15347,2,0,L|244:201,1,110,2|0,2:0|3:2,2:0:0:0:
439,148,15680,5,2,2:0:0:0:
225,118,15847,1,10,2:0:0:0:
306,318,16013,2,0,L|322:210,1,110,2|0,2:0|3:2,2:0:0:0:
348,14,16347,5,10,2:0:0:0:
86,50,16513,1,10,2:0:0:0:
124,313,16680,1,10,2:0:0:0:
124,313,16763,1,8,2:0:0:0:
124,313,16847,1,4,3:2:0:0:
102,151,17013,5,2,2:0:0:0:
232,175,17180,1,10,2:0:0:0:
113,232,17347,2,0,L|39:221,1,75.0000000000002,2|0,2:0|3:2,2:0:0:0:
272,18,17680,5,2,2:0:0:0:
302,232,17847,1,10,2:0:0:0:
102,151,18013,2,0,L|210:135,1,110,2|0,2:0|3:2,2:0:0:0:
429,38,18347,5,2,2:0:0:0:
405,168,18513,1,10,2:0:0:0:
348,49,18680,1,2,2:0:0:0:
481,219,18847,1,0,3:2:0:0:
481,219,18930,1,8,2:0:0:0:
481,219,19013,5,2,2:0:0:0:
267,249,19180,1,10,2:0:0:0:
348,49,19347,2,0,L|364:157,1,110,2|0,2:0|3:2,2:0:0:0:
406,369,19680,5,2,2:0:0:0:
276,345,19847,1,10,2:0:0:0:
395,288,20013,2,0,L|469:299,1,75.0000000000002,2|0,2:0|3:2,2:0:0:0:
208,308,20347,5,2,2:0:0:0:
178,93,20513,1,2,3:2:0:0:
380,174,20680,1,2,3:2:0:0:
405,171,21013,5,10,2:0:0:0:
199,331,21180,1,10,2:0:0:0:
163,73,21347,1,2,2:0:0:0:
312,351,21513,5,8,2:0:0:0:
348,53,21680,1,8,2:0:0:0:
188,250,21847,5,8,2:0:0:0:
160,246,21930,1,8,2:0:0:0:
132,242,22013,1,8,2:0:0:0:
104,238,22097,1,8,2:0:0:0:
76,234,22180,6,0,P|58:274|63:319,1,90.0000000000001,6|2,3:2|2:0,2:0:0:0:
110,150,22513,2,0,L|20:162,1,90.0000000000001,10|2,2:0|2:0,2:0:0:0:
184,181,22847,1,2,3:2:0:0:
184,181,23013,2,0,P|189:137|170:97,1,90.0000000000001,2|10,3:2|2:0,2:0:0:0:
150,265,23347,2,0,L|239:252,1,90.0000000000001,2|0,2:0|3:2,2:0:0:0:
376,231,23680,5,2,2:0:0:0:
249,331,23847,1,10,2:0:0:0:
227,171,24013,1,2,2:0:0:0:
365,312,24180,1,0,3:2:0:0:
365,312,24347,1,0,3:2:0:0:
387,150,24513,2,0,L|476:162,1,90.0000000000001,8|0,2:0|2:0,2:0:0:0:
363,35,24847,5,2,3:2:0:0:
303,184,25013,1,2,2:0:0:0:
203,57,25180,1,10,2:0:0:0:
387,150,25347,2,0,L|374:239,1,90.0000000000001,2|0,2:0|3:2,2:0:0:0:
352,377,25680,1,2,3:2:0:0:
292,228,25847,1,10,2:0:0:0:
193,355,26013,2,0,L|104:343,1,90.0000000000001,2|0,2:0|3:2,2:0:0:0:
0,221,26347,5,2,2:0:0:0:
59,274,26513,2,0,P|78:233|73:189,1,90.0000000000001,10|2,2:0|2:0,2:0:0:0:
45,154,26763,1,8,2:0:0:0:
45,154,26847,2,0,P|25:113|30:69,1,90.0000000000001,0|0,3:2|3:2,2:0:0:0:
191,49,27180,2,0,P|210:89|205:133,1,90.0000000000001,8|0,2:0|2:0,2:0:0:0:
151,263,27513,5,2,3:2:0:0:
311,241,27680,1,2,2:0:0:0:
129,103,27847,1,10,2:0:0:0:
289,81,28013,1,2,2:0:0:0:
140,183,28180,1,2,3:2:0:0:
300,161,28347,1,2,3:2:0:0:
201,34,28513,1,10,2:0:0:0:
231,252,28680,6,0,L|320:264,1,90.0000000000001,2|0,2:0|3:2,2:0:0:0:
500,182,29013,2,0,L|411:194,1,90.0000000000001,2|10,2:0|2:0,2:0:0:0:
316,98,29347,2,0,P|310:142|329:182,1,90.0000000000001,2|0,2:0|3:2,2:0:0:0:
386,359,29680,1,2,3:2:0:0:
386,359,29847,2,0,P|405:318|399:274,1,90.0000000000001,10|2,2:0|2:0,2:0:0:0:
363,32,30180,5,2,3:2:0:0:
209,153,30347,1,2,2:0:0:0:
433,121,30513,1,10,2:0:0:0:
251,48,30680,1,2,2:0:0:0:
391,227,30847,1,2,3:2:0:0:
363,32,31013,1,2,3:2:0:0:
278,242,31180,1,10,2:0:0:0:
71,42,31347,5,10,2:0:0:0:
71,42,31680,1,10,2:0:0:0:
106,287,31847,2,0,L|150:280,1,45,10|0,2:0|3:2,2:0:0:0:
300,134,32013,1,2,3:2:0:0:
321,137,32097,1,0,3:2:0:0:
344,140,32180,1,8,3:2:0:0:
502,159,32347,1,0,3:2:0:0:
473,79,32513,6,0,P|421:147|452:227,1,180,12|0,2:0|2:0,2:0:0:0:
482,309,32847,6,0,L|393:297,1,90.0000000000001,6|2,3:2|2:0,2:0:0:0:
236,263,33180,2,0,L|325:251,1,90.0000000000001,10|2,2:0|2:0,2:0:0:0:
174,316,33513,1,2,3:2:0:0:
174,316,33680,2,0,P|155:275|160:231,1,90.0000000000001,2|10,3:2|2:0,2:0:0:0:
327,85,34013,2,0,P|332:129|313:169,1,90.0000000000001,2|0,2:0|3:2,2:0:0:0:
250,343,34347,5,2,2:0:0:0:
101,283,34513,1,10,2:0:0:0:
228,183,34680,1,2,2:0:0:0:
112,363,34847,1,0,3:2:0:0:
112,363,35013,1,0,3:2:0:0:
90,203,35180,2,0,L|1:191,1,90.0000000000001,8|0,2:0|2:0,2:0:0:0:
192,352,35513,5,2,3:2:0:0:
319,252,35680,1,2,2:0:0:0:
170,192,35847,1,10,2:0:0:0:
288,327,36013,2,0,P|332:331|372:312,1,90.0000000000001,2|0,2:0|3:2,2:0:0:0:
499,212,36347,1,2,3:2:0:0:
350,152,36513,1,10,2:0:0:0:
448,352,36680,2,0,L|436:263,1,90.0000000000001,2|0,2:0|3:2,2:0:0:0:
405,31,37013,5,2,3:2:0:0:
361,232,37180,1,10,2:0:0:0:
325,20,37347,1,2,3:2:0:0:
325,20,37430,1,8,2:0:0:0:
325,20,37513,1,0,3:2:0:0:
113,56,37680,1,2,3:2:0:0:
246,112,37847,2,0,L|335:100,1,90.0000000000001,10|2,2:0|2:0,2:0:0:0:
446,306,38180,5,2,3:2:0:0:
346,179,38347,1,2,2:0:0:0:
219,279,38513,2,0,L|130:267,1,90.0000000000001,10|0,2:0|2:0,2:0:0:0:
82,143,38847,1,2,3:2:0:0:
118,346,39013,1,2,3:2:0:0:
162,132,39180,1,10,2:0:0:0:
198,357,39347,6,0,L|287:345,1,90.0000000000001,2|0,2:0|3:2,2:0:0:0:
460,236,39680,2,0,L|371:224,1,90.0000000000001,2|8,3:2|2:0,2:0:0:0:
213,72,40013,5,2,2:0:0:0:
429,102,40180,1,2,3:2:0:0:
237,205,40347,1,2,3:2:0:0:
332,8,40513,1,10,2:0:0:0:
370,223,40680,1,2,3:2:0:0:
373,245,40763,1,0,3:2:0:0:
376,268,40847,6,0,L|287:280,1,90.0000000000001,4|0,3:2|2:0,2:0:0:0:
153,298,41180,1,8,2:0:0:0:
310,147,41347,5,2,2:0:0:0:
94,177,41513,1,2,3:2:0:0:
286,280,41680,1,2,3:2:0:0:
191,83,41847,1,10,2:0:0:0:
153,298,42013,1,2,3:2:0:0:
153,298,42347,5,8,3:0:0:0:
17,144,42513,1,8,3:0:0:0:
14,166,42597,1,8,3:0:0:0:
11,189,42680,1,4,3:0:0:0:
150,125,42847,5,10,2:0:0:0:
67,18,43013,1,0,3:2:0:0:
17,144,43180,1,14,2:0:0:0:
17,144,43513,6,0,L|29:233,1,90.0000000000001,14|2,3:2|2:0,2:0:0:0:
98,325,43847,1,10,3:2:0:0:
119,164,44013,1,2,2:0:0:0:
119,164,44097,1,8,2:0:0:0:
119,164,44180,1,10,3:2:0:0:
188,256,44347,1,10,2:0:0:0:
29,233,44513,1,2,3:2:0:0:
248,310,44680,6,0,P|267:269|263:225,1,90.0000000000001,10|0,2:0|3:2,2:0:0:0:
263,26,45013,2,0,P|243:66|247:110,1,90.0000000000001,10|0,2:0|3:2,2:0:0:0:
397,175,45347,2,0,P|356:155|312:159,1,90.0000000000001,10|0,2:0|3:2,2:0:0:0:
113,159,45680,2,0,P|153:178|197:174,1,90.0000000000001,10|8,2:0|3:2,2:0:0:0:
324,81,46013,1,8,2:0:0:0:
324,81,46097,1,8,2:0:0:0:
324,81,46180,6,0,L|413:68,1,90.0000000000001,14|2,3:2|2:0,2:0:0:0:
504,136,46513,1,10,3:2:0:0:
343,159,46680,1,2,2:0:0:0:
343,159,46763,1,8,3:2:0:0:
343,159,46847,1,10,3:2:0:0:
434,225,47013,1,10,2:0:0:0:
492,57,47180,1,10,3:2:0:0:
248,24,47347,6,0,L|261:113,1,90.0000000000001,6|8,3:2|2:0,2:0:0:0:
208,303,47680,1,10,2:0:0:0:
385,163,47847,1,2,3:2:0:0:
177,80,48013,1,6,3:2:0:0:
177,80,48347,5,2,3:2:0:0:
0,219,48513,1,10,2:0:0:0:
208,303,48680,1,10,2:0:0:0:
208,303,48763,1,8,2:0:0:0:
208,303,48847,1,0,3:2:0:0:
300,211,49013,5,2,3:2:0:0:
170,235,49180,1,10,2:0:0:0:
289,292,49347,2,0,L|422:273,1,135,6|0,3:2|2:0,2:0:0:0:
503,262,49680,5,2,3:2:0:0:
472,39,49847,1,10,2:0:0:0:
295,178,50013,1,10,2:0:0:0:
295,178,50097,1,8,2:0:0:0:
295,178,50180,1,0,3:2:0:0:
203,86,50347,5,2,3:2:0:0:
333,110,50513,1,10,3:2:0:0:
214,167,50680,2,0,L|80:148,1,135,6|0,3:2|2:0,2:0:0:0:
0,137,51013,5,2,3:2:0:0:
101,272,51180,1,8,2:0:0:0:
135,272,51263,1,8,2:0:0:0:
166,261,51347,1,8,2:0:0:0:
192,239,51430,1,8,2:0:0:0:
209,211,51513,6,0,P|256:197|304:209,1,100,2|2,3:2|2:0,2:0:0:0:
385,345,51847,1,10,2:0:0:0:
125,345,52013,1,2,3:2:0:0:
256,118,52180,1,10,2:0:0:0:
256,326,52347,1,2,3:2:0:0:
256,345,52430,1,0,3:2:0:0:
256,365,52513,1,10,2:0:0:0:
125,121,52680,1,2,3:2:0:0:
385,121,52847,5,8,2:0:0:0:
144,229,53013,1,0,3:2:0:0:
125,229,53097,1,0,3:2:0:0:
105,229,53180,1,8,2:0:0:0:
368,229,53347,1,0,3:2:0:0:
387,229,53430,1,0,3:2:0:0:
407,229,53513,1,8,2:0:0:0:
256,45,53680,5,8,3:2:0:0:
256,324,53847,1,8,2:0:0:0:
256,23,54013,1,0,3:2:0:0:
99,171,54180,6,0,P|123:182|150:185,1,55,10|8,2:0|2:0,2:0:0:0:
413,171,54347,2,0,P|389:182|362:185,1,55,2|0,3:2|3:2,2:0:0:0:
137,294,54513,2,0,P|162:285|184:267,1,55,10|8,2:0|2:0,2:0:0:0:
375,294,54680,2,0,P|350:285|328:267,1,55,2|0,3:2|3:2,2:0:0:0:
147,98,54847,5,10,3:2:0:0:
167,57,54930,1,0,3:2:0:0:
208,32,55013,1,2,3:2:0:0:
256,23,55097,1,0,3:2:0:0:
299,34,55180,1,10,3:2:0:0:
336,62,55263,1,0,3:2:0:0:
359,98,55347,1,10,3:2:0:0:
255,367,55680,5,8,2:0:0:0:
205,163,55847,2,0,P|255:144|306:163,1,110,8|0,2:0|2:0,2:0:0:0:
483,272,56180,6,0,B|421:272|421:272|378:327|378:327|329:327,1,180,2|0,2:0|3:2,2:0:0:0:
255,367,56430,1,0,3:2:0:0:
255,367,56513,2,0,P|157:325|255:285,1,270,10|0,2:0|2:0,2:0:0:0:
329,239,56847,5,6,3:2:0:0:
296,24,57013,1,0,2:0:0:0:
409,227,57180,5,10,2:0:0:0:
376,12,57347,1,0,2:0:0:0:
489,215,57513,5,2,3:2:0:0:
456,0,57680,1,0,2:0:0:0:
287,137,57847,1,10,2:0:0:0:
355,376,58013,6,0,P|408:385|458:363,1,110,2|0,2:0|3:2,2:0:0:0:
367,125,58347,1,2,2:0:0:0:
289,327,58513,1,10,2:0:0:0:
504,294,58680,2,0,L|488:185,1,110,2|0,2:0|3:2,2:0:0:0:
485,163,58930,1,8,2:0:0:0:
482,140,59013,1,0,3:2:0:0:
356,47,59180,2,0,L|372:156,1,110,8|0,2:0|2:0,2:0:0:0:
183,239,59513,5,2,3:2:0:0:
216,24,59680,1,0,2:0:0:0:
103,227,59847,5,10,2:0:0:0:
136,12,60013,1,0,2:0:0:0:
23,215,60180,5,2,3:2:0:0:
56,0,60347,1,0,2:0:0:0:
225,137,60513,1,10,2:0:0:0:
159,347,60680,6,0,L|175:238,1,110,2|0,2:0|3:2,2:0:0:0:
208,24,61013,1,2,2:0:0:0:
6,102,61180,1,10,2:0:0:0:
174,238,61347,2,0,L|283:222,1,110,2|0,2:0|3:2,2:0:0:0:
305,219,61597,1,8,2:0:0:0:
328,216,61680,1,0,3:2:0:0:
495,190,61847,1,8,2:0:0:0:
389,59,62013,1,10,2:0:0:0:
389,59,62097,1,8,2:0:0:0:
389,59,62180,5,2,3:2:0:0:
415,231,62347,2,0,L|434:361,1,110,2|10,2:0|2:0,2:0:0:0:
211,339,62680,2,0,L|227:230,1,110,2|0,2:0|3:2,2:0:0:0:
253,59,63013,1,2,2:0:0:0:
142,243,63180,1,10,2:0:0:0:
109,36,63347,1,2,2:0:0:0:
239,144,63513,6,0,P|330:97|312:-4,1,220,2|10,3:2|2:0,2:0:0:0:
123,121,64013,1,2,3:2:0:0:
126,143,64097,1,8,2:0:0:0:
129,166,64180,1,2,3:2:0:0:
162,373,64347,1,2,2:0:0:0:
369,340,64513,1,10,2:0:0:0:
336,133,64680,1,2,2:0:0:0:
135,276,64847,5,6,3:2:0:0:
363,240,65013,1,2,2:0:0:0:
218,62,65180,1,10,2:0:0:0:
114,293,65347,5,6,3:2:0:0:
388,249,65513,1,2,2:0:0:0:
213,35,65680,1,2,3:2:0:0:
259,325,65847,1,10,2:0:0:0:
208,8,66013,6,0,B|371:-15|371:-15|363:39,1,220,6|8,3:2|2:0,2:0:0:0:
336,357,66513,5,8,2:0:0:0:
330,316,66597,1,8,2:0:0:0:
324,276,66680,1,8,2:0:0:0:
318,238,66763,1,0,3:2:0:0:
312,199,66847,6,0,P|391:231|459:178,1,180,2|0,3:2|2:0,2:0:0:0:
494,99,67097,1,0,2:0:0:0:
494,99,67180,2,0,B|417:75|379:143|379:143|322:88|256:132,1,270,10|0,2:0|2:0,2:0:0:0:
233,211,67513,5,6,3:2:0:0:
24,178,67680,1,0,2:0:0:0:
221,288,67847,5,10,2:0:0:0:
12,255,68013,1,0,2:0:0:0:
209,365,68180,5,2,3:2:0:0:
0,332,68347,1,0,2:0:0:0:
133,167,68513,1,10,2:0:0:0:
298,300,68680,6,0,P|351:308|401:286,1,110,2|0,2:0|3:2,2:0:0:0:
417,29,69013,1,2,2:0:0:0:
208,62,69180,1,10,2:0:0:0:
341,227,69347,2,0,L|325:118,1,110,2|0,2:0|3:2,2:0:0:0:
322,96,69597,1,8,2:0:0:0:
319,73,69680,1,0,3:2:0:0:
116,151,69847,2,0,L|132:260,1,110,8|0,2:0|2:0,2:0:0:0:
356,335,70180,5,2,3:2:0:0:
223,170,70347,1,2,2:0:0:0:
147,368,70513,1,10,2:0:0:0:
327,153,70680,5,2,2:0:0:0:
118,186,70847,1,2,3:2:0:0:
251,351,71013,1,2,2:0:0:0:
211,93,71180,1,10,2:0:0:0:
147,368,71347,6,0,L|38:352,1,110,2|0,2:0|3:2,2:0:0:0:
28,82,71680,1,2,2:0:0:0:
237,115,71847,1,10,2:0:0:0:
104,280,72013,2,0,L|120:171,1,110,2|0,2:0|3:2,2:0:0:0:
123,149,72263,1,8,2:0:0:0:
126,126,72347,1,0,3:2:0:0:
324,50,72513,1,8,2:0:0:0:
291,259,72680,2,0,L|283:204,1,55,2|0,3:2|3:2,2:0:0:0:
221,34,72847,5,2,3:2:0:0:
411,171,73013,1,2,2:0:0:0:
204,138,73180,1,10,2:0:0:0:
428,67,73347,1,2,2:0:0:0:
313,329,73513,6,0,L|297:220,1,110,2|0,3:2|2:0,2:0:0:0:
264,11,73847,1,10,2:0:0:0:
99,144,74013,2,0,L|208:128,1,110,2|0,2:0|3:2,2:0:0:0:
354,103,74347,5,0,2:0:0:0:
189,236,74513,1,8,2:0:0:0:
156,27,74680,1,0,3:2:0:0:
156,27,74763,1,8,2:0:0:0:
156,27,74847,5,2,3:2:0:0:
323,236,75013,1,2,2:0:0:0:
356,27,75180,1,10,2:0:0:0:
189,236,75347,1,2,2:0:0:0:
450,347,75513,6,0,P|513:262|475:164,1,220,2|8,3:2|2:0,2:0:0:0:
244,41,76013,1,0,3:2:0:0:
244,41,76097,1,0,3:2:0:0:
244,41,76180,1,10,2:0:0:0:
145,288,76347,1,2,3:2:0:0:
406,251,76513,1,10,2:0:0:0:
167,29,76680,6,0,L|144:192,1,165,2|0,3:2|2:0,2:0:0:0:
132,269,77013,1,8,2:0:0:0:
367,139,77180,2,0,L|258:123,1,110,8|0,2:0|2:0,2:0:0:0:
46,96,77513,1,8,2:0:0:0:
128,296,77680,1,0,2:0:0:0:
256,43,77847,5,10,2:0:0:0:
384,296,78013,1,2,2:0:0:0:
511,107,78180,1,4,3:2:0:0:
349,85,78347,5,2,2:0:0:0:
373,215,78513,1,10,2:0:0:0:
430,96,78680,2,0,L|419:22,1,75.0000000000002,2|0,2:0|3:2,2:0:0:0:
204,273,79013,5,2,2:0:0:0:
438,305,79180,1,10,2:0:0:0:
349,85,79347,2,0,L|333:194,1,110,2|0,2:0|3:2,2:0:0:0:
180,143,79680,5,2,2:0:0:0:
204,273,79847,1,10,2:0:0:0:
261,154,80013,1,2,2:0:0:0:
35,331,80180,1,0,3:2:0:0:
35,331,80263,1,8,2:0:0:0:
35,331,80347,5,2,2:0:0:0:
269,363,80513,1,10,2:0:0:0:
180,143,80680,2,0,L|164:252,1,110,2|0,2:0|3:2,2:0:0:0:
11,201,81013,5,2,2:0:0:0:
35,331,81180,1,10,2:0:0:0:
92,212,81347,2,0,L|81:138,1,75.0000000000002,2|0,2:0|3:2,2:0:0:0:
242,115,81680,5,2,2:0:0:0:
210,349,81847,1,10,2:0:0:0:
161,126,82013,2,0,L|177:17,1,110,2|0,2:0|3:2,2:0:0:0:
323,104,82347,5,2,2:0:0:0:
291,338,82513,1,10,2:0:0:0:
242,115,82680,2,0,L|258:6,1,110,2|0,2:0|3:2,2:0:0:0:
261,238,83013,5,10,2:0:0:0:
96,28,83180,1,10,2:0:0:0:
1,277,83347,1,10,2:0:0:0:
1,277,83430,1,8,2:0:0:0:
1,277,83513,1,4,3:2:0:0:
163,299,83680,5,2,2:0:0:0:
139,169,83847,1,10,2:0:0:0:
82,288,84013,2,0,L|93:362,1,75.0000000000002,2|0,2:0|3:2,2:0:0:0:
308,111,84347,5,2,2:0:0:0:
74,79,84513,1,10,2:0:0:0:
163,299,84680,2,0,L|179:190,1,110,2|0,2:0|3:2,2:0:0:0:
332,241,85013,5,2,2:0:0:0:
308,111,85180,1,10,2:0:0:0:
251,230,85347,1,2,2:0:0:0:
477,53,85513,1,0,3:2:0:0:
477,53,85597,1,8,2:0:0:0:
477,53,85680,5,2,2:0:0:0:
243,21,85847,1,10,2:0:0:0:
332,241,86013,2,0,L|348:132,1,110,2|0,2:0|3:2,2:0:0:0:
501,183,86347,5,2,2:0:0:0:
477,53,86513,1,10,2:0:0:0:
420,172,86680,2,0,L|431:246,1,75.0000000000002,2|8,3:2|2:0,2:0:0:0:
155,62,87013,5,2,3:2:0:0:
195,346,87180,1,2,3:2:0:0:
420,172,87347,1,14,3:2:0:0:
145,208,87680,5,2,2:0:0:0:
325,280,87847,1,2,2:0:0:0:
298,88,88013,1,2,2:0:0:0:
