osu file format v14

[General]
AudioFilename: audio.mp3
AudioLeadIn: 0
PreviewTime: 56013
Countdown: 0
SampleSet: Soft
StackLeniency: 0.5
Mode: 0
LetterboxInBreaks: 0
WidescreenStoryboard: 1

[Editor]
DistanceSpacing: 0.75
BeatDivisor: 4
GridSize: 4
TimelineZoom: 1.5

[Metadata]
Title:Faiou Fight! (TV Size)
TitleUnicode:ファイオー・ファイト!(TV Size)
Artist:SMILE PRINCESS
ArtistUnicode:SMILE PRINCESS
Creator:Doyak
Version:Doormat's Insane
Source:プラオレ!~PRIDE OF ORANGE~
Tags:Atipir Doormat puraore! japanese anime op opening ice hockey faito! 増田里紅 Masuda Riku 本郷里実 Hongo Satomi 相良茉優 Sagara Mayu 北守さいか Kitamori Saika 汐入あすか Shioiri Asuka 森山由梨佳 Moriyama Yurika 青山吉能 Aoyama Yoshino 水沢 愛佳 Manaka Mizusawa 鷺沼 梨子 Riko Saginuwa 清瀬 優 Yu Kiyose 水沢 彩佳 Ayaka Mizusawa 高木 尚実 Naomi Takagi 柳田 薫子 Kaoruko Yanagida
BeatmapID:3939519
BeatmapSetID:1850244

[Difficulty]
HPDrainRate:5
CircleSize:4
OverallDifficulty:8
ApproachRate:9
SliderMultiplier:1.7
SliderTickRate:1

[Events]
//Background and Video events
0,0,"bg.jpg",0,0
//Break Periods
//Storyboard Layer 0 (Background)
//Storyboard Layer 1 (Fail)
//Storyboard Layer 2 (Pass)
//Storyboard Layer 3 (Foreground)
//Storyboard Layer 4 (Overlay)
//Storyboard Sound Samples

[TimingPoints]
-4486,333.333333333333,4,2,1,90,1,0
513,-66.6666666666667,4,2,1,90,0,0
762,-66.6666666666667,4,2,1,5,0,0
847,-66.6666666666667,4,2,1,70,0,0
2013,-125,4,2,1,70,0,0
8847,-125,4,2,1,60,0,0
10013,-100,4,2,1,90,0,0
10347,-100,4,2,1,70,0,0
10763,-100,4,2,1,5,0,0
10847,-100,4,2,1,70,0,0
11180,-100,4,2,2,70,0,0
11347,-100,4,2,1,70,0,0
11513,-100,4,2,1,80,0,0
11680,-100,4,2,1,60,0,0
12346,-100,4,2,1,80,0,0
13013,-100,4,2,1,60,0,0
13680,-100,4,2,1,80,0,0
14347,-100,4,2,1,60,0,0
15013,-100,4,2,1,80,0,0
17013,-100,4,2,1,60,0,0
17680,-100,4,2,1,80,0,0
18346,-100,4,2,1,60,0,0
19013,-100,4,2,1,80,0,0
19680,-100,4,2,1,60,0,0
20346,-100,4,2,1,80,0,0
21013,-100,4,2,1,90,0,0
21513,-100,4,2,1,100,0,0
21847,-100,4,2,1,80,0,0
22180,-125,4,2,1,50,0,0
27513,-125,4,2,1,60,0,0
30180,-125,4,2,1,70,0,0
32513,-125,4,2,1,80,0,0
32763,-125,4,2,1,5,0,0
32847,-100,4,2,1,50,0,0
38180,-100,4,2,1,60,0,0
40013,-100,4,2,1,70,0,0
43513,-125,4,2,1,70,0,0
49013,-125,4,2,1,50,0,0
49680,-125,4,2,1,70,0,0
50347,-125,4,2,1,50,0,0
51013,-125,4,2,1,70,0,0
51513,-100,4,2,1,80,0,0
54180,-100,4,2,1,90,0,0
56347,-100,4,2,1,100,0,0
56513,-66.6666666666667,4,2,3,100,0,0
56763,-66.6666666666667,4,2,3,5,0,0
56847,-90.9090909090909,4,2,1,90,0,1
65347,-90.9090909090909,4,2,1,95,0,1
66013,-90.9090909090909,4,2,1,100,0,1
66513,-90.9090909090909,4,2,1,90,0,1
66847,-90.9090909090909,4,2,1,100,0,1
67180,-66.6666666666667,4,2,3,100,0,1
67430,-66.6666666666667,4,2,3,5,0,1
67513,-90.9090909090909,4,2,1,90,0,1
77430,-90.9090909090909,4,2,1,5,0,1
77513,-90.9090909090909,4,2,1,90,0,1
77847,-90.9090909090909,4,2,2,90,0,1
78180,-90.9090909090909,4,2,1,90,0,0
78347,-90.9090909090909,4,2,1,60,0,0
78680,-100,4,2,1,60,0,0
79013,-100,4,2,1,80,0,0
79680,-100,4,2,1,60,0,0
80347,-100,4,2,1,80,0,0
81013,-100,4,2,1,60,0,0
81680,-100,4,2,1,80,0,0
83680,-100,4,2,1,60,0,0
84346,-100,4,2,1,80,0,0
85013,-100,4,2,1,60,0,0
85680,-100,4,2,1,80,0,0
86347,-100,4,2,1,60,0,0
87013,-100,4,2,1,80,0,0
87680,-100,4,2,1,50,0,0

[Colours]
Combo1 : 127,171,103
Combo2 : 255,129,96
Combo3 : 255,223,149
Combo4 : 165,196,255
Combo5 : 183,159,227
Combo6 : 245,165,165
Combo7 : 227,150,214

[HitObjects]
256,88,513,6,0,B|236:152|236:152|264:200|264:200|242:265,1,191.25,4|0,2:3|2:0,2:0:0:0:
268,292,847,5,6,3:2:0:0:
344,264,1180,1,2,2:0:0:0:
420,236,1513,1,2,2:0:0:0:
496,208,1847,1,2,2:0:0:0:
376,164,2013,6,0,P|308:175|241:181,1,136,2|2,3:2|2:0,2:0:0:0:
259,88,2513,2,0,P|293:81|327:79,1,68,2|2,2:0|3:2,2:0:0:0:
492,52,2847,5,8,2:0:0:0:
420,119,3069,5,4,3:0:0:0:
398,22,3291,5,8,3:0:0:0:
326,89,3513,6,0,P|339:155|351:222,1,136,2|2,3:2|2:0,2:0:0:0:
172,252,4180,2,0,P|158:185|146:118,1,136,2|2,3:2|3:2,2:0:0:0:
186,38,4680,6,0,P|122:25|70:65,1,136,2|2,3:2|3:2,2:0:0:0:
146,118,5180,1,2,3:2:0:0:
326,89,5347,6,0,P|390:75|442:115,1,136,2|0,3:2|3:2,2:0:0:0:
442,115,5763,1,0,3:0:0:0:
442,115,5847,1,8,2:0:0:0:
484,12,6013,1,2,2:0:0:0:
364,184,6180,6,0,L|297:197,1,68,2|2,3:2|2:0,2:0:0:0:
444,288,6513,2,0,L|510:301,1,68,2|2,3:2|2:0,2:0:0:0:
355,379,6847,2,0,P|308:333|242:334,1,136,10|2,2:0|3:2,2:0:0:0:
188,172,7347,6,0,L|268:148,1,68,2|0,3:2|3:2,2:0:0:0:
241,334,7680,2,0,L|96:316,1,136,8|0,2:0|2:0,2:0:0:0:
28,168,8180,1,2,2:0:0:0:
116,140,8347,1,2,2:0:0:0:
144,228,8513,1,2,2:0:0:0:
56,256,8680,1,2,2:0:0:0:
208,296,8847,5,2,2:0:0:0:
224,316,10013,6,0,L|140:302,1,85,10|0,3:2|2:0,2:0:0:0:
216,112,10347,1,8,2:0:0:0:
296,212,10513,2,0,L|436:184,1,127.5,8|0,2:0|2:0,2:0:0:0:
440,208,10847,1,8,2:0:0:0:
280,32,11013,5,2,2:0:0:0:
216,112,11180,1,10,2:0:0:0:
178,16,11347,1,10,2:0:0:0:
178,16,11430,1,8,2:0:0:0:
178,16,11513,1,4,3:2:0:0:
84,200,11680,5,2,2:0:0:0:
132,120,11847,1,10,2:0:0:0:
180,200,12013,2,0,P|168:284|160:376,1,170,2|2,2:0|2:0,2:0:0:0:
268,384,12513,1,10,2:0:0:0:
324,288,12680,2,0,P|313:246|308:204,1,85,2|0,2:0|3:2,2:0:0:0:
512,120,13013,5,2,2:0:0:0:
464,200,13180,1,10,2:0:0:0:
400,132,13347,2,0,P|410:90|415:48,1,85,2|0,2:0|3:2,2:0:0:0:
415,48,13597,1,8,2:0:0:0:
415,48,13680,1,2,2:0:0:0:
316,4,13847,1,10,2:0:0:0:
256,96,14013,2,0,P|261:138|271:179,1,85,2|0,2:0|3:2,2:0:0:0:
144,328,14347,5,2,2:0:0:0:
232,296,14513,1,10,2:0:0:0:
168,228,14680,2,0,P|92:236|-4:256,1,170,2|2,2:0|2:0,2:0:0:0:
52,40,15180,1,10,2:0:0:0:
56,136,15347,2,0,L|72:44,1,85,2|0,2:0|3:2,2:0:0:0:
200,60,15680,5,2,2:0:0:0:
200,60,15847,1,10,2:0:0:0:
204,156,16013,2,0,L|220:64,1,85,2|0,2:0|3:2,2:0:0:0:
348,80,16347,5,10,2:0:0:0:
376,216,16513,2,0,L|468:200,1,85,10|10,2:0|2:0,2:0:0:0:
459,201,16763,1,8,2:0:0:0:
459,201,16847,1,4,3:2:0:0:
316,360,17013,5,2,2:0:0:0:
276,276,17180,1,10,2:0:0:0:
211,344,17347,2,0,P|132:359|76:300,1,170,2|2,2:0|2:0,2:0:0:0:
164,236,17847,1,10,2:0:0:0:
0,180,18013,5,2,2:0:0:0:
0,180,18097,1,0,2:0:0:0:
0,180,18180,2,0,L|82:158,1,85,0|2,3:2|2:0,2:0:0:0:
164,236,18513,1,10,2:0:0:0:
204,84,18680,2,0,L|372:106,1,170,2|2,2:0|2:0,2:0:0:0:
436,200,19180,1,10,2:0:0:0:
508,116,19347,2,0,L|492:20,1,85,2|0,2:0|3:2,2:0:0:0:
256,24,19680,5,2,2:0:0:0:
336,72,19847,1,10,2:0:0:0:
256,120,20013,2,0,P|220:160|272:252,1,170,2|2,2:0|2:0,2:0:0:0:
372,288,20513,1,2,3:2:0:0:
364,176,20680,1,2,3:2:0:0:
364,176,21013,5,10,2:0:0:0:
292,364,21180,1,10,2:0:0:0:
96,96,21513,5,8,2:0:0:0:
120,292,21680,1,8,2:0:0:0:
212,180,21847,5,8,2:0:0:0:
212,180,21930,1,8,2:0:0:0:
212,180,22013,1,8,2:0:0:0:
212,180,22097,1,8,2:0:0:0:
212,180,22180,2,0,L|279:190,1,68,6|2,3:2|2:0,2:0:0:0:
288,88,22513,2,0,L|355:77,1,68,10|2,2:0|2:0,2:0:0:0:
452,48,22847,2,0,P|495:96|481:160,1,136,2|10,3:2|2:0,2:0:0:0:
336,164,23347,6,0,P|292:212|306:276,1,136,2|2,2:0|2:0,2:0:0:0:
396,320,23847,1,10,2:0:0:0:
308,376,24013,2,0,L|224:356,1,68,2|0,2:0|3:2,2:0:0:0:
108,300,24347,1,0,3:2:0:0:
108,300,24513,2,0,L|192:284,1,68,8|0,2:0|2:0,2:0:0:0:
312,200,24847,5,2,3:2:0:0:
292,116,25013,1,2,2:0:0:0:
209,92,25180,1,10,2:0:0:0:
146,152,25347,2,0,P|160:208|176:296,1,136,2|2,2:0|3:2,2:0:0:0:
104,352,25847,1,10,2:0:0:0:
231,368,26013,6,0,P|262:353|295:343,1,68,2|0,2:0|3:2,2:0:0:0:
364,264,26347,1,2,2:0:0:0:
264,232,26513,2,0,P|231:222|200:207,1,68,10|2,2:0|2:0,2:0:0:0:
188,216,26763,1,8,2:0:0:0:
175,224,26847,2,0,L|166:291,1,68,0|0,3:2|3:2,2:0:0:0:
60,304,27180,2,0,L|69:371,1,68,8|0,2:0|2:0,2:0:0:0:
244,372,27513,5,2,3:2:0:0:
256,280,27680,1,2,2:0:0:0:
328,336,27847,2,0,L|393:316,1,68,10|2,2:0|2:0,2:0:0:0:
440,232,28180,1,2,3:2:0:0:
440,232,28347,2,0,L|506:252,1,68,2|10,3:2|2:0,2:0:0:0:
416,108,28680,6,0,P|375:159|309:164,1,136,2|2,2:0|2:0,2:0:0:0:
228,104,29180,1,10,2:0:0:0:
208,204,29347,2,0,L|219:270,1,68,2|0,2:0|3:2,2:0:0:0:
120,292,29680,1,2,3:2:0:0:
120,292,29847,2,0,L|108:225,1,68,10|2,2:0|2:0,2:0:0:0:
28,80,30180,5,2,3:2:0:0:
120,40,30347,1,2,2:0:0:0:
56,156,30513,1,10,2:0:0:0:
148,116,30680,1,2,2:0:0:0:
84,232,30847,1,2,3:2:0:0:
176,192,31013,2,0,L|256:208,1,68,2|10,3:2|2:0,2:0:0:0:
120,40,31347,1,10,2:0:0:0:
120,40,31680,5,10,2:0:0:0:
312,92,31847,1,10,2:0:0:0:
184,144,32013,5,2,3:2:0:0:
184,144,32097,1,0,3:2:0:0:
184,144,32180,2,0,L|196:228,1,68,8|0,3:2|3:2,2:0:0:0:
344,324,32513,2,0,L|360:200,1,102,12|0,2:0|2:0,2:0:0:0:
375,199,32847,6,0,P|412:220|455:224,1,85,6|2,3:2|2:0,2:0:0:0:
296,112,33180,2,0,P|259:132|216:136,1,85,10|2,2:0|2:0,2:0:0:0:
88,20,33513,1,2,3:2:0:0:
52,132,33680,1,2,3:2:0:0:
196,48,33847,1,10,2:0:0:0:
172,164,34013,6,0,P|191:246|202:330,1,170,2|2,2:0|2:0,2:0:0:0:
288,224,34513,1,10,2:0:0:0:
344,384,34680,1,2,2:0:0:0:
392,276,34847,1,0,3:2:0:0:
392,276,35013,1,0,3:2:0:0:
228,336,35180,2,0,L|132:324,1,85,8|0,2:0|2:0,2:0:0:0:
20,136,35513,6,0,P|101:145|154:83,1,170,2|10,3:2|2:0,2:0:0:0:
268,156,36013,2,0,L|252:248,1,85,2|0,2:0|3:2,2:0:0:0:
376,360,36347,1,2,3:2:0:0:
400,240,36513,1,10,2:0:0:0:
256,372,36680,6,0,P|168:356|60:328,1,170,2|2,2:0|3:2,2:0:0:0:
212,168,37180,1,10,2:0:0:0:
288,248,37347,2,0,P|336:236|388:212,1,85,2|0,3:2|3:2,2:0:0:0:
506,150,37680,1,2,3:2:0:0:
353,126,37847,1,10,2:0:0:0:
439,82,38013,1,2,2:0:0:0:
462,236,38180,5,2,3:2:0:0:
368,222,38347,1,2,2:0:0:0:
272,208,38513,2,0,P|189:225|105:234,1,170,10|2,2:0|3:2,2:0:0:0:
42,139,39013,1,2,3:2:0:0:
42,139,39180,1,10,2:0:0:0:
11,325,39347,6,0,L|0:240,1,85,2|0,2:0|3:2,2:0:0:0:
169,269,39680,2,0,L|158:354,1,85,2|8,3:2|2:0,2:0:0:0:
320,300,40013,2,0,P|275:232|313:160,1,170,2|2,2:0|3:2,2:0:0:0:
420,188,40513,1,10,2:0:0:0:
332,48,40680,5,2,3:2:0:0:
332,48,40763,1,0,3:2:0:0:
332,48,40847,2,0,L|140:80,1,170,4|8,3:2|2:0,2:0:0:0:
20,168,41347,1,2,2:0:0:0:
48,72,41513,1,2,3:2:0:0:
132,200,41680,1,2,3:2:0:0:
160,104,41847,1,10,2:0:0:0:
216,268,42013,6,0,P|272:252|392:228,1,170,2|8,3:2|3:0,2:0:0:0:
315,57,42513,1,8,3:0:0:0:
315,57,42597,1,8,3:0:0:0:
315,57,42680,1,4,3:0:0:0:
247,151,42847,2,0,P|205:144|164:131,1,85,10|0,2:0|3:2,2:0:0:0:
381,229,43180,1,14,2:0:0:0:
381,230,43513,6,0,L|369:297,2,68,14|2|10,3:2|2:0|3:2,2:0:0:0:
280,188,44013,1,2,2:0:0:0:
280,188,44097,1,8,2:0:0:0:
280,188,44180,2,0,L|268:120,1,68,10|10,3:2|2:0,2:0:0:0:
192,48,44513,1,2,3:2:0:0:
344,56,44680,6,0,L|409:38,1,68,10|0,2:0|3:2,2:0:0:0:
444,152,45013,2,0,L|461:217,1,68,10|0,2:0|3:2,2:0:0:0:
348,252,45347,2,0,L|282:269,1,68,10|0,2:0|3:2,2:0:0:0:
248,156,45680,2,0,L|230:90,1,68,10|8,2:0|3:2,2:0:0:0:
104,52,46013,5,8,2:0:0:0:
104,52,46097,1,8,2:0:0:0:
104,52,46180,2,0,L|86:117,1,68,14|2,3:2|2:0,2:0:0:0:
152,204,46513,2,0,L|134:269,1,68,10|2,3:2|2:0,2:0:0:0:
148,284,46763,1,8,3:2:0:0:
161,298,46847,2,0,P|205:282|241:278,1,68,10|10,3:2|2:0,2:0:0:0:
320,324,47180,1,10,3:2:0:0:
280,184,47347,6,0,P|296:116|308:24,1,136,6|10,3:2|2:0,2:0:0:0:
196,72,47847,1,2,3:2:0:0:
388,172,48013,1,6,3:2:0:0:
388,172,48347,5,2,3:2:0:0:
312,108,48513,1,10,2:0:0:0:
294,205,48680,2,0,L|304:248,2,34,10|8|0,2:0|2:0|3:2,2:0:0:0:
236,44,49013,5,2,3:2:0:0:
218,141,49180,1,10,2:0:0:0:
200,238,49347,2,0,P|166:237|132:241,1,68,6|0,3:2|2:0,2:0:0:0:
56,32,49680,5,2,3:2:0:0:
144,76,49847,1,10,2:0:0:0:
62,130,50013,2,0,L|16:124,2,34,10|8|0,2:0|2:0|3:2,2:0:0:0:
232,120,50347,5,2,3:2:0:0:
150,174,50513,1,0,2:0:0:0:
68,228,50680,2,0,P|77:260|96:380,1,136,6|2,3:2|3:2,2:0:0:0:
240,376,51180,5,8,2:0:0:0:
241,359,51263,1,8,2:0:0:0:
243,342,51347,1,8,2:0:0:0:
245,325,51430,1,8,2:0:0:0:
246,308,51513,2,0,L|329:321,1,85,2|2,3:2|2:0,2:0:0:0:
220,192,51847,2,0,L|136:205,1,85,10|2,2:0|3:2,2:0:0:0:
246,76,52180,2,0,L|330:89,1,85,10|2,2:0|3:2,2:0:0:0:
330,89,52430,1,0,3:2:0:0:
330,89,52513,1,10,2:0:0:0:
452,280,52680,6,0,P|400:264|324:344,1,170,2|0,3:2|3:2,2:0:0:0:
176,296,53180,2,0,L|188:204,1,85,8|0,2:0|3:2,2:0:0:0:
172,200,53430,1,0,3:2:0:0:
157,187,53513,2,0,P|116:201|74:207,1,85,8|8,2:0|3:2,2:0:0:0:
152,40,53847,2,0,P|192:53|234:59,1,85,8|0,2:0|3:2,2:0:0:0:
472,132,54180,5,10,2:0:0:0:
436,36,54347,1,2,3:2:0:0:
304,200,54513,1,10,2:0:0:0:
284,100,54680,1,2,3:2:0:0:
424,228,54847,5,10,3:2:0:0:
416,259,54930,1,0,3:2:0:0:
410,290,55013,1,2,3:2:0:0:
406,321,55097,1,0,3:2:0:0:
404,353,55180,1,10,3:2:0:0:
208,376,55347,6,0,P|204:304|176:200,1,170,10|8,3:2|2:0,2:0:0:0:
328,268,55847,1,8,2:0:0:0:
328,268,56347,5,0,3:2:0:0:
328,268,56430,1,0,3:2:0:0:
328,268,56513,2,0,B|264:248|264:248|216:276|216:276|151:254,1,191.25,10|0,2:0|2:0,2:0:0:0:
124,268,56847,6,0,L|136:360,1,93.5,6|0,3:2|2:0,2:0:0:0:
0,180,57180,2,0,L|12:272,1,93.5,10|0,2:0|2:0,2:0:0:0:
104,68,57513,2,0,L|116:160,1,93.5,2|0,3:2|2:0,2:0:0:0:
224,232,57847,1,10,2:0:0:0:
324,120,58013,6,0,L|228:112,1,93.5,2|0,2:0|3:2,2:0:0:0:
60,148,58347,1,2,2:0:0:0:
116,36,58513,1,10,2:0:0:0:
192,220,58680,2,0,P|180:284|176:324,1,93.5,2|0,2:0|3:2,2:0:0:0:
176,312,58930,1,8,2:0:0:0:
176,312,59013,1,0,3:2:0:0:
344,384,59180,2,0,P|356:320|360:280,1,93.5,8|0,2:0|2:0,2:0:0:0:
212,116,59513,6,0,P|169:135|123:136,1,93.5,2|0,3:2|2:0,2:0:0:0:
332,67,59847,2,0,P|293:40|270:0,1,93.5,10|0,2:0|2:0,2:0:0:0:
433,146,60180,2,0,P|437:99|459:59,1,93.5,2|0,3:2|2:0,2:0:0:0:
328,192,60513,1,10,2:0:0:0:
270,0,60680,6,0,L|64:28,1,187,2|2,2:0|2:0,2:0:0:0:
0,124,61180,1,10,2:0:0:0:
128,256,61347,2,0,L|140:152,1,93.5,2|0,2:0|3:2,2:0:0:0:
138,163,61597,1,8,2:0:0:0:
138,163,61680,1,0,3:2:0:0:
8,272,61847,1,8,2:0:0:0:
168,372,62013,5,10,2:0:0:0:
168,372,62097,1,8,2:0:0:0:
167,372,62180,2,0,P|213:360|259:356,1,93.5,2|2,3:2|2:0,2:0:0:0:
392,172,62513,2,0,P|346:183|300:187,1,93.5,10|2,2:0|2:0,2:0:0:0:
104,106,62847,1,0,3:2:0:0:
93,236,63013,1,2,2:0:0:0:
232,76,63180,1,10,2:0:0:0:
213,286,63347,6,0,P|277:348|363:324,1,187,2|0,2:0|2:0,2:0:0:0:
356,176,63847,1,8,2:0:0:0:
492,284,64013,1,2,3:2:0:0:
492,284,64097,1,8,2:0:0:0:
492,283,64180,2,0,P|482:328|479:375,1,93.5,2|2,3:2|2:0,2:0:0:0:
332,196,64513,2,0,P|341:150|344:103,1,93.5,10|2,2:0|2:0,2:0:0:0:
92,72,64847,5,6,3:2:0:0:
200,132,65013,1,2,2:0:0:0:
94,195,65180,1,10,2:0:0:0:
198,9,65347,5,6,3:2:0:0:
200,132,65513,1,2,2:0:0:0:
356,8,65680,1,2,3:2:0:0:
354,131,65847,1,10,2:0:0:0:
92,72,66013,6,0,P|61:155|119:223,1,187,6|8,3:2|2:0,2:0:0:0:
296,52,66513,1,8,2:0:0:0:
302,80,66597,1,0,3:0:0:0:
308,108,66680,1,0,3:0:0:0:
313,135,66763,1,0,3:0:0:0:
319,163,66847,1,2,3:2:0:0:
319,163,67180,6,0,B|383:143|383:143|431:171|431:171|496:149,1,191.25,10|0,2:0|2:0,2:0:0:0:
512,172,67513,6,0,P|501:217|501:264,1,93.5,6|0,3:2|2:0,2:0:0:0:
384,72,67847,2,0,P|428:58|469:35,1,93.5,10|0,2:0|2:0,2:0:0:0:
361,232,68180,2,0,P|327:200|286:176,1,93.5,2|0,3:2|2:0,2:0:0:0:
168,232,68513,1,10,2:0:0:0:
199,41,68680,6,0,P|291:58|384:72,1,187,2|2,2:0|2:0,2:0:0:0:
312,268,69180,1,10,2:0:0:0:
256,164,69347,2,0,P|209:165|163:173,1,93.5,2|0,2:0|3:2,2:0:0:0:
163,173,69597,1,8,2:0:0:0:
163,173,69680,1,0,3:2:0:0:
199,41,69847,1,8,2:0:0:0:
199,41,70013,1,0,2:0:0:0:
336,252,70180,5,2,3:2:0:0:
368,120,70347,1,2,2:0:0:0:
195,263,70513,2,0,P|210:308|218:354,1,93.5,10|2,2:0|2:0,2:0:0:0:
432,320,70847,1,2,3:2:0:0:
432,320,71013,2,0,P|417:275|409:229,1,93.5,2|10,2:0|2:0,2:0:0:0:
444,60,71347,6,0,P|392:40|288:116,1,187,2|2,2:0|2:0,2:0:0:0:
320,224,71847,1,10,2:0:0:0:
132,148,72013,2,0,L|152:40,1,93.5,2|0,2:0|3:2,2:0:0:0:
149,56,72263,1,8,2:0:0:0:
149,56,72347,1,0,3:2:0:0:
288,240,72513,1,8,2:0:0:0:
308,108,72680,1,2,3:2:0:0:
157,262,72847,5,2,3:2:0:0:
96,144,73013,1,2,2:0:0:0:
288,239,73180,2,0,P|278:285|275:332,1,93.5,10|2,2:0|2:0,2:0:0:0:
40,336,73513,2,0,P|60:260|68:152,1,187,2|10,3:2|2:0,2:0:0:0:
312,100,74013,6,0,P|258:29|173:51,1,187,2|0,2:0|2:0,2:0:0:0:
232,252,74513,2,0,L|344:232,1,93.5,8|0,2:0|3:2,2:0:0:0:
324,235,74763,1,8,2:0:0:0:
324,235,74847,1,2,3:2:0:0:
304,356,75013,1,2,2:0:0:0:
464,244,75180,1,10,2:0:0:0:
468,368,75347,1,2,2:0:0:0:
208,276,75513,6,0,P|163:199|224:122,1,187,2|8,3:2|2:0,2:0:0:0:
340,172,76013,1,0,3:2:0:0:
340,172,76097,1,0,3:2:0:0:
340,172,76180,1,10,2:0:0:0:
168,52,76347,1,2,3:2:0:0:
316,32,76513,1,10,2:0:0:0:
183,200,76680,6,0,P|92:181|0:168,1,187,2|8,3:2|2:0,2:0:0:0:
304,56,77180,2,0,P|379:45|453:30,1,140.25,8|0,2:0|2:0,2:0:0:0:
464,52,77513,1,8,2:0:0:0:
284,260,77680,5,0,2:0:0:0:
360,192,77847,1,10,2:0:0:0:
263,160,78013,1,2,2:0:0:0:
381,292,78180,1,4,3:2:0:0:
136,320,78347,5,2,2:0:0:0:
204,256,78513,1,10,2:0:0:0:
124,208,78680,2,0,P|88:135|140:73,1,170,2|2,2:0|2:0,2:0:0:0:
240,28,79180,1,10,2:0:0:0:
272,132,79347,2,0,L|368:112,1,85,2|0,2:0|3:2,2:0:0:0:
484,280,79680,5,2,2:0:0:0:
400,240,79847,1,10,2:0:0:0:
392,330,80013,2,0,P|350:339|307:340,1,85,2|0,2:0|3:2,2:0:0:0:
307,340,80263,1,8,2:0:0:0:
307,340,80347,1,2,2:0:0:0:
240,252,80513,1,10,2:0:0:0:
288,152,80680,2,0,P|329:143|372:142,1,85,2|0,2:0|3:2,2:0:0:0:
208,12,81013,5,2,2:0:0:0:
188,104,81180,1,10,2:0:0:0:
108,56,81347,2,0,P|64:76|80:192,1,170,2|2,2:0|2:0,2:0:0:0:
216,288,81847,1,10,2:0:0:0:
212,192,82013,2,0,L|196:284,1,85,2|0,2:0|3:2,2:0:0:0:
380,304,82347,5,2,2:0:0:0:
380,304,82513,1,10,2:0:0:0:
376,208,82680,2,0,L|360:300,1,85,2|0,2:0|3:2,2:0:0:0:
256,168,83013,5,10,2:0:0:0:
472,124,83180,1,10,2:0:0:0:
328,44,83347,1,10,2:0:0:0:
328,44,83430,1,8,2:0:0:0:
328,44,83513,1,4,3:2:0:0:
388,280,83680,5,2,2:0:0:0:
308,232,83847,1,10,2:0:0:0:
296,324,84013,2,0,P|233:376|155:352,1,170,2|2,2:0|2:0,2:0:0:0:
84,272,84513,1,10,2:0:0:0:
148,184,84680,2,0,L|252:200,1,85,2|0,2:0|3:2,2:0:0:0:
428,48,85013,5,2,2:0:0:0:
396,136,85180,1,10,2:0:0:0:
332,68,85347,2,0,L|228:84,1,85,2|0,2:0|3:2,2:0:0:0:
247,80,85597,1,8,2:0:0:0:
247,80,85680,1,2,2:0:0:0:
160,16,85847,1,10,2:0:0:0:
100,108,86013,2,0,P|124:168|132:204,1,85,2|0,2:0|3:2,2:0:0:0:
260,332,86347,5,2,2:0:0:0:
272,240,86513,1,10,2:0:0:0:
352,288,86680,2,0,P|432:300|480:220,1,170,2|2,3:2|3:2,2:0:0:0:
416,144,87180,1,2,3:2:0:0:
504,80,87347,1,14,3:2:0:0:
504,80,87680,5,2,2:0:0:0:
416,144,87847,1,2,2:0:0:0:
328,208,88013,1,2,2:0:0:0:
