osu file format v14

[General]
AudioFilename: audio.mp3
AudioLeadIn: 0
PreviewTime: 56013
Countdown: 0
SampleSet: Soft
StackLeniency: 0.5
Mode: 0
LetterboxInBreaks: 0
WidescreenStoryboard: 1

[Editor]
Bookmarks: 847,11513,22180,32847,43513,56847,67513,78180,88847
DistanceSpacing: 1.2
BeatDivisor: 4
GridSize: 16
TimelineZoom: 1.5

[Metadata]
Title:Faiou Fight! (TV Size)
TitleUnicode:ファイオー・ファイト!(TV Size)
Artist:SMILE PRINCESS
ArtistUnicode:SMILE PRINCESS
Creator:Doyak
Version:Atipir's Hard
Source:プラオレ!~PRIDE OF ORANGE~
Tags:Atipir Doormat puraore! japanese anime op opening ice hockey faito! 増田里紅 Masuda Riku 本郷里実 Hongo Satomi 相良茉優 Sagara Mayu 北守さいか Kitamori Saika 汐入あすか Shioiri Asuka 森山由梨佳 Moriyama Yurika 青山吉能 Aoyama Yoshino 水沢 愛佳 Manaka Mizusawa 鷺沼 梨子 Riko Saginuwa 清瀬 優 Yu Kiyose 水沢 彩佳 Ayaka Mizusawa 高木 尚実 Naomi Takagi 柳田 薫子 Kaoruko Yanagida
BeatmapID:3910022
BeatmapSetID:1850244

[Difficulty]
HPDrainRate:4
CircleSize:4
OverallDifficulty:6.5
ApproachRate:8
SliderMultiplier:1.6
SliderTickRate:1

[Events]
//Background and Video events
0,0,"bg.jpg",0,0
//Break Periods
//Storyboard Layer 0 (Background)
//Storyboard Layer 1 (Fail)
//Storyboard Layer 2 (Pass)
//Storyboard Layer 3 (Foreground)
//Storyboard Layer 4 (Overlay)
//Storyboard Sound Samples

[TimingPoints]
-4486,333.333333333333,4,2,1,90,1,0
847,-100,4,2,1,70,0,0
8847,-100,4,2,1,60,0,0
10013,-100,4,2,1,90,0,0
10346,-100,4,2,1,70,0,0
11180,-100,4,2,2,70,0,0
11347,-100,4,2,1,70,0,0
11513,-100,4,2,1,80,0,0
11679,-100,4,2,1,60,0,0
12346,-100,4,2,1,80,0,0
13013,-100,4,2,1,60,0,0
13680,-100,4,2,1,80,0,0
14346,-100,4,2,1,60,0,0
15013,-100,4,2,1,80,0,0
17013,-100,4,2,1,60,0,0
17680,-100,4,2,1,80,0,0
18346,-100,4,2,1,60,0,0
19013,-100,4,2,1,80,0,0
19679,-100,4,2,1,60,0,0
20347,-100,4,2,1,80,0,0
21013,-100,4,2,1,90,0,0
21513,-100,4,2,1,100,0,0
21847,-100,4,2,1,80,0,0
22180,-100,4,2,1,50,0,0
27513,-100,4,2,1,60,0,0
30180,-100,4,2,1,70,0,0
32513,-100,4,2,1,80,0,0
32847,-100,4,2,1,50,0,0
38180,-100,4,2,1,60,0,0
40013,-100,4,2,1,70,0,0
49013,-100,4,2,1,50,0,0
49680,-100,4,2,1,70,0,0
50347,-100,4,2,1,50,0,0
51013,-100,4,2,1,70,0,0
51513,-100,4,2,1,80,0,0
54180,-100,4,2,1,90,0,0
56347,-100,4,2,1,100,0,0
56513,-100,4,2,3,100,0,0
56763,-100,4,2,3,5,0,0
56847,-100,4,2,1,90,0,0
65347,-100,4,2,1,95,0,0
66013,-100,4,2,1,100,0,0
66513,-100,4,2,1,90,0,0
66847,-100,4,2,1,100,0,0
67180,-100,4,2,3,100,0,0
67513,-100,4,2,1,90,0,0
77847,-100,4,2,2,90,0,0
78180,-100,4,2,1,90,0,0
78346,-100,4,2,1,60,0,0
79013,-100,4,2,1,80,0,0
79679,-100,4,2,1,60,0,0
80347,-100,4,2,1,80,0,0
81013,-100,4,2,1,60,0,0
81680,-100,4,2,1,80,0,0
83679,-100,4,2,1,60,0,0
84346,-100,4,2,1,80,0,0
85013,-100,4,2,1,60,0,0
85680,-100,4,2,1,80,0,0
86346,-100,4,2,1,60,0,0
87013,-100,4,2,1,80,0,0

[Colours]
Combo1 : 127,171,103
Combo2 : 255,129,96
Combo3 : 255,223,149
Combo4 : 165,196,255
Combo5 : 183,159,227
Combo6 : 245,165,165
Combo7 : 227,150,214

[HitObjects]
14,30,513,5,4,2:3:0:0:
162,132,847,6,0,P|96:175|93:266,2,160,6|2|2,3:2|2:0|2:0,2:0:0:0:
401,256,1847,5,2,2:0:0:0:
401,256,2013,2,0,P|319:252|239:282,1,160,2|2,3:2|2:0,2:0:0:0:
231,192,2513,1,2,2:0:0:0:
311,146,2680,1,2,3:2:0:0:
311,146,2763,1,0,3:2:0:0:
311,146,2847,2,0,P|310:94|251:47,2,106.666666666667,8|4|8,2:0|3:0|3:0,2:0:0:0:
365,42,3513,6,0,P|281:84|185:104,2,160,2|2|2,3:2|2:0|3:2,2:0:0:0:
509,154,4513,5,2,3:2:0:0:
509,154,4680,2,0,P|437:201|416:291,1,160,2|2,3:2|3:2,2:0:0:0:
416,364,5180,1,2,3:2:0:0:
328,332,5347,2,0,P|263:280|173:299,1,160,2|0,3:2|3:2,2:0:0:0:
111,341,5847,1,8,2:0:0:0:
191,195,6180,6,0,P|196:148|214:102,1,80,2|2,3:2|2:0,2:0:0:0:
127,61,6513,2,0,P|122:105|105:146,1,80,2|2,3:2|2:0,2:0:0:0:
54,217,6847,2,0,P|72:282|175:303,1,160,10|2,2:0|3:2,2:0:0:0:
238,265,7347,6,0,P|281:279|329:284,1,80,2|2,3:2|2:0,2:0:0:0:
401,337,7680,1,8,2:0:0:0:
401,337,7847,1,0,3:2:0:0:
435,151,8180,6,0,P|422:111|416:62,1,80,2|2,2:0|2:0,2:0:0:0:
325,49,8513,2,0,P|338:89|346:139,1,80,2|2,2:0|2:0,2:0:0:0:
281,199,8847,1,2,2:0:0:0:
76,118,9513,6,0,P|47:84|10:76,2,80,2|2|2,2:0|2:0|2:0,2:0:0:0:
135,42,10013,2,0,P|215:21|281:92,1,160,10|8,3:2|2:0,2:0:0:0:
335,136,10513,2,0,P|311:180|306:224,1,80,8|0,2:0|2:0,2:0:0:0:
245,284,10847,1,8,2:0:0:0:
74,344,11180,5,10,2:0:0:0:
25,268,11347,1,10,2:0:0:0:
25,268,11430,1,8,2:0:0:0:
25,268,11513,2,0,P|37:218|41:179,1,80,4|2,3:2|2:0,2:0:0:0:
124,143,11847,1,10,2:0:0:0:
124,143,12013,2,0,P|193:142|216:44,1,160,2|2,2:0|2:0,2:0:0:0:
301,7,12513,1,10,2:0:0:0:
383,52,12680,1,2,2:0:0:0:
383,52,12847,6,0,P|390:98|403:138,1,80,0|2,3:2|2:0,2:0:0:0:
463,206,13180,2,0,P|422:221|405:264,1,80,10|2,2:0|2:0,2:0:0:0:
329,227,13513,1,0,3:2:0:0:
329,227,13597,1,8,2:0:0:0:
329,227,13680,2,0,P|294:181|255:179,1,80,2|10,2:0|2:0,2:0:0:0:
192,229,14013,1,2,2:0:0:0:
225,312,14180,6,0,P|215:258|205:222,1,80,0|2,3:2|2:0,2:0:0:0:
121,189,14513,1,10,2:0:0:0:
121,189,14680,2,0,P|162:105|239:103,1,160,2|2,2:0|2:0,2:0:0:0:
303,48,15180,1,10,2:0:0:0:
215,8,15347,6,0,P|249:55|284:168,1,160,2|2,2:0|2:0,2:0:0:0:
349,219,15847,1,10,2:0:0:0:
442,199,16013,2,0,P|395:208|374:250,1,80,2|0,2:0|3:2,2:0:0:0:
317,308,16347,1,10,2:0:0:0:
224,284,16513,1,10,2:0:0:0:
139,262,16680,5,10,2:0:0:0:
139,262,16763,1,8,2:0:0:0:
139,262,16847,2,0,P|130:210|126:171,1,80,4|2,3:2|2:0,2:0:0:0:
176,101,17180,1,10,2:0:0:0:
176,101,17347,2,0,P|82:88|-2:63,1,160,2|2,2:0|2:0,2:0:0:0:
68,1,17847,2,0,P|98:31|99:77,1,80,10|2,2:0|2:0,2:0:0:0:
50,158,18180,6,0,P|43:207|28:248,1,80,0|2,3:2|2:0,2:0:0:0:
73,323,18513,2,0,P|107:361|157:361,1,80,10|2,2:0|2:0,2:0:0:0:
205,300,18847,1,0,3:2:0:0:
205,300,18930,1,8,2:0:0:0:
205,300,19013,2,0,P|250:288|297:286,1,80,2|10,2:0|2:0,2:0:0:0:
361,228,19347,1,2,2:0:0:0:
318,148,19513,6,0,P|331:105|340:66,1,80,0|2,3:2|2:0,2:0:0:0:
424,26,19847,1,10,2:0:0:0:
482,101,20013,2,0,P|467:56|423:37,1,80,2|0,2:0|3:2,2:0:0:0:
348,9,20347,6,0,P|305:23|256:30,2,80,2|2|2,2:0|3:2|3:2,2:0:0:0:
252,165,21013,2,0,P|208:146|170:142,2,80,10|10|2,2:0|2:0|2:0,2:0:0:0:
323,236,21513,5,8,2:0:0:0:
323,236,21680,1,8,2:0:0:0:
256,305,21847,2,0,P|263:330|267:352,3,40,8|8|8|8,2:0|2:0|2:0|2:0,2:0:0:0:
292,357,22180,6,0,P|379:328|473:322,2,160,6|10|2,3:2|2:0|3:2,2:0:0:0:
210,320,23013,1,2,3:2:0:0:
210,320,23180,2,0,P|203:273|181:250,1,80,10|2,2:0|2:0,2:0:0:0:
90,281,23513,6,0,P|79:191|35:111,1,160,0|10,3:2|2:0,2:0:0:0:
98,48,24013,1,2,2:0:0:0:
98,48,24180,2,0,P|141:46|169:74,2,80,0|0|8,3:2|3:2|2:0,2:0:0:0:
26,205,24847,6,0,P|33:167|51:124,2,80,2|2|10,3:2|2:0|2:0,2:0:0:0:
85,280,25347,2,0,P|166:248|256:240,1,160,2|2,2:0|3:2,2:0:0:0:
330,264,25847,1,10,2:0:0:0:
373,181,26013,6,0,P|336:146|342:104,1,80,2|0,2:0|3:2,2:0:0:0:
422,76,26347,1,2,2:0:0:0:
422,76,26513,2,0,P|459:111|456:151,1,80,10|2,2:0|2:0,2:0:0:0:
454,237,26847,1,0,3:2:0:0:
454,237,27013,1,0,3:2:0:0:
377,294,27180,2,0,P|314:267|237:263,1,120,8|0,2:0|2:0,2:0:0:0:
251,252,27513,6,0,P|238:207|235:167,1,80,2|2,3:2|2:0,2:0:0:0:
158,117,27847,2,0,P|177:75|186:27,1,80,10|2,2:0|2:0,2:0:0:0:
274,16,28180,1,2,3:2:0:0:
274,16,28347,2,0,P|323:38|365:47,1,80,2|10,3:2|2:0,2:0:0:0:
437,89,28680,6,0,P|405:114|408:167,1,80,2|0,2:0|3:2,2:0:0:0:
456,229,29013,2,0,P|382:175|289:159,1,160,2|2,2:0|2:0,2:0:0:0:
235,208,29513,1,0,3:2:0:0:
235,208,29680,2,0,P|235:247|206:284,2,80,2|10|2,3:2|2:0|2:0,2:0:0:0:
165,141,30180,6,0,P|170:71|266:34,2,160,2|10|2,3:2|2:0|3:2,2:0:0:0:
102,209,31013,2,0,P|124:252|130:295,1,80,2|10,3:2|2:0,2:0:0:0:
205,343,31347,1,10,2:0:0:0:
402,257,31680,6,0,P|450:266|472:298,2,80,10|10|2,2:0|2:0|3:2,2:0:0:0:
335,326,32180,1,8,3:2:0:0:
242,157,32513,5,12,2:0:0:0:
335,326,32847,6,0,P|371:244|383:155,2,160,6|10|2,3:2|2:0|3:2,2:0:0:0:
258,363,33680,1,2,3:2:0:0:
258,363,33847,2,0,P|219:343|215:294,1,80,10|2,2:0|2:0,2:0:0:0:
136,248,34180,6,0,P|206:201|215:113,1,160,0|10,3:2|2:0,2:0:0:0:
256,44,34680,1,2,2:0:0:0:
256,44,34847,2,0,P|301:43|329:71,2,80,0|0|8,3:2|3:2|2:0,2:0:0:0:
87,96,35513,6,0,P|116:162|137:272,1,160,2|10,3:2|2:0,2:0:0:0:
193,323,36013,2,0,P|238:321|264:286,1,80,2|0,2:0|3:2,2:0:0:0:
309,215,36347,1,2,3:2:0:0:
309,215,36513,2,0,P|299:168|267:151,1,80,10|2,2:0|2:0,2:0:0:0:
181,180,36847,5,0,3:2:0:0:
127,109,37013,1,2,3:2:0:0:
127,109,37180,2,0,P|145:67|154:27,1,80,10|2,2:0|3:2,2:0:0:0:
243,79,37513,1,0,3:2:0:0:
243,79,37680,2,0,P|261:36|301:26,2,80,2|10|2,3:2|2:0|2:0,2:0:0:0:
316,141,38180,6,0,P|378:111|492:99,2,160,2|10|2,3:2|2:0|3:2,2:0:0:0:
244,205,39013,1,2,3:2:0:0:
170,161,39180,1,10,2:0:0:0:
170,161,39347,2,0,P|188:205|199:252,1,80,2|0,2:0|3:2,2:0:0:0:
162,326,39680,2,0,P|116:329|89:300,1,80,2|8,3:2|2:0,2:0:0:0:
47,222,40013,6,0,P|77:134|91:48,1,160,2|2,2:0|3:2,2:0:0:0:
170,14,40513,1,10,2:0:0:0:
170,14,40680,1,2,3:2:0:0:
245,73,40847,6,0,P|278:103|326:100,1,80,4|0,3:2|2:0,2:0:0:0:
387,46,41180,1,8,2:0:0:0:
432,136,41347,1,2,2:0:0:0:
432,136,41513,2,0,P|406:170|409:221,2,80,2|2|10,3:2|3:2|2:0,2:0:0:0:
482,217,42013,2,0,P|388:222|307:253,1,160,2|8,3:2|3:0,2:0:0:0:
247,294,42513,1,8,3:0:0:0:
247,294,42597,1,8,3:0:0:0:
247,294,42680,1,4,3:0:0:0:
203,208,42847,1,10,2:0:0:0:
303,44,43180,5,14,2:0:0:0:
203,208,43513,6,0,P|161:220|135:260,1,80,14|2,3:2|2:0,2:0:0:0:
75,320,43847,2,0,P|88:366|140:375,1,80,10|2,3:2|2:0,2:0:0:0:
212,348,44180,1,10,3:2:0:0:
212,348,44347,2,0,P|255:329|300:325,1,80,10|2,2:0|3:2,2:0:0:0:
364,267,44680,6,0,P|371:198|395:96,2,160,10|10|10,2:0|2:0|2:0,2:0:0:0:
271,112,45680,2,0,P|231:127|179:130,1,80,10|8,2:0|3:2,2:0:0:0:
113,187,46013,5,8,2:0:0:0:
113,187,46097,1,8,2:0:0:0:
113,187,46180,2,0,P|151:215|152:259,1,80,14|2,3:2|2:0,2:0:0:0:
231,300,46513,2,0,P|207:348|163:356,1,80,10|2,3:2|2:0,2:0:0:0:
84,381,46847,1,10,3:2:0:0:
84,381,47013,2,0,P|79:329|60:279,1,80,10|10,2:0|3:2,2:0:0:0:
27,216,47347,6,0,P|48:135|133:104,1,160,6|10,3:2|2:0,2:0:0:0:
202,134,47847,1,2,3:2:0:0:
281,80,48013,2,0,P|368:109|456:119,1,160,6|2,3:2|3:2,2:0:0:0:
495,193,48513,1,10,2:0:0:0:
466,289,48680,1,10,2:0:0:0:
466,289,48763,1,8,2:0:0:0:
466,289,48847,1,0,3:2:0:0:
384,238,49013,6,0,P|337:250|297:273,1,80,2|10,3:2|2:0,2:0:0:0:
230,321,49347,2,0,P|146:286|61:279,1,160,6|2,3:2|3:2,2:0:0:0:
12,208,49847,1,10,2:0:0:0:
46,123,50013,1,10,2:0:0:0:
46,123,50097,1,8,2:0:0:0:
46,123,50180,1,0,3:2:0:0:
135,159,50347,6,0,P|131:111|116:60,1,80,2|10,3:2|3:2,2:0:0:0:
60,7,50680,2,0,P|91:63|203:56,1,160,6|2,3:2|3:2,2:0:0:0:
273,93,51180,2,0,P|277:69|284:44,3,40,8|8|8|8,2:0|2:0|2:0|2:0,2:0:0:0:
314,26,51513,6,0,P|357:39|402:48,1,80,2|2,3:2|2:0,2:0:0:0:
463,113,51847,2,0,P|471:164|486:215,1,80,10|2,2:0|3:2,2:0:0:0:
438,278,52180,1,10,2:0:0:0:
362,227,52347,1,2,3:2:0:0:
362,227,52513,1,10,2:0:0:0:
284,284,52680,6,0,P|274:330|259:368,1,80,2|8,3:2|2:0,2:0:0:0:
166,371,53013,2,0,P|166:327|133:299,1,80,0|8,3:2|2:0,2:0:0:0:
88,234,53347,1,0,3:2:0:0:
88,234,53430,1,0,3:2:0:0:
88,234,53513,1,8,2:0:0:0:
161,172,53680,2,0,P|210:166|255:154,1,80,8|8,3:2|2:0,2:0:0:0:
406,63,54180,6,0,P|348:106|369:204,1,160,10|10,2:0|2:0,2:0:0:0:
431,243,54680,1,2,3:2:0:0:
384,327,54847,2,0,P|345:313|297:300,1,80,10|2,3:2|3:2,2:0:0:0:
216,332,55180,1,10,3:2:0:0:
187,240,55347,1,10,3:2:0:0:
311,116,55680,5,8,2:0:0:0:
311,116,55847,1,8,2:0:0:0:
69,55,56347,5,0,3:2:0:0:
69,55,56430,1,0,3:2:0:0:
69,55,56513,2,0,P|90:113|100:180,1,120,10|0,2:0|2:0,2:0:0:0:
102,185,56847,6,0,P|92:232|68:274,1,80,6|0,3:2|2:0,2:0:0:0:
131,340,57180,2,0,P|175:325|227:321,1,80,10|0,2:0|2:0,2:0:0:0:
252,238,57513,2,0,P|219:205|187:163,1,80,2|0,3:2|2:0,2:0:0:0:
103,185,57847,1,10,2:0:0:0:
130,93,58013,6,0,P|217:83|291:55,1,160,2|2,2:0|2:0,2:0:0:0:
379,44,58513,2,0,P|389:90|360:120,1,80,10|2,2:0|2:0,2:0:0:0:
302,182,58847,1,0,3:2:0:0:
302,182,58930,1,8,2:0:0:0:
302,182,59013,1,0,3:2:0:0:
216,137,59180,2,0,P|248:175|259:227,1,80,8|0,2:0|2:0,2:0:0:0:
327,268,59513,6,0,P|368:281|413:303,1,80,2|0,3:2|2:0,2:0:0:0:
489,254,59847,2,0,P|476:213|473:162,1,80,10|0,2:0|2:0,2:0:0:0:
391,123,60180,2,0,P|361:151|318:173,1,80,2|0,3:2|2:0,2:0:0:0:
327,268,60513,1,10,2:0:0:0:
244,218,60680,6,0,P|157:208|83:180,1,160,2|2,2:0|2:0,2:0:0:0:
41,101,61180,2,0,P|68:67|103:65,1,80,10|2,2:0|2:0,2:0:0:0:
182,130,61513,1,0,3:2:0:0:
182,130,61597,1,8,2:0:0:0:
182,130,61680,1,0,3:2:0:0:
257,70,61847,1,8,2:0:0:0:
343,111,62013,1,10,2:0:0:0:
356,15,62180,6,0,P|346:59|330:92,1,80,2|2,3:2|2:0,2:0:0:0:
388,169,62513,2,0,P|400:228|411:261,1,80,10|2,2:0|2:0,2:0:0:0:
349,325,62847,1,0,3:2:0:0:
267,274,63013,2,0,P|222:267|180:250,1,80,2|10,2:0|2:0,2:0:0:0:
114,194,63347,6,0,P|145:138|66:63,1,160,2|0,2:0|2:0,2:0:0:0:
145,0,63847,1,10,2:0:0:0:
222,44,64013,1,2,3:2:0:0:
222,44,64180,2,0,P|267:60|313:65,1,80,2|2,3:2|2:0,2:0:0:0:
285,153,64513,2,0,P|240:137|195:132,1,80,10|2,2:0|2:0,2:0:0:0:
121,178,64847,6,0,P|119:226|154:250,1,80,6|2,3:2|2:0,2:0:0:0:
222,304,65180,1,10,2:0:0:0:
176,381,65347,2,0,P|190:333|226:316,1,80,6|2,3:2|2:0,2:0:0:0:
305,277,65680,1,2,3:2:0:0:
255,200,65847,1,10,2:0:0:0:
255,200,66013,6,0,P|248:131|208:27,1,160,6|8,3:2|2:0,2:0:0:0:
126,15,66513,2,0,P|109:39|101:63,3,40,8|8|8|0,2:0|2:0|2:0|3:2,2:0:0:0:
108,85,66847,5,2,3:2:0:0:
283,126,67180,5,10,2:0:0:0:
108,85,67513,6,0,P|92:129|87:178,1,80,6|0,3:2|2:0,2:0:0:0:
5,216,67847,2,0,P|35:251|73:283,1,80,10|0,2:0|2:0,2:0:0:0:
66,369,68180,2,0,P|112:360|162:343,1,80,2|0,3:2|2:0,2:0:0:0:
231,304,68513,1,10,2:0:0:0:
162,245,68680,6,0,P|179:189|291:151,1,160,2|2,2:0|2:0,2:0:0:0:
336,81,69180,2,0,P|377:106|381:146,1,80,10|2,2:0|2:0,2:0:0:0:
433,228,69513,1,0,3:2:0:0:
433,228,69597,1,8,2:0:0:0:
433,228,69680,1,0,3:2:0:0:
366,297,69847,1,8,2:0:0:0:
286,244,70013,1,0,2:0:0:0:
284,340,70180,6,0,P|278:290|270:256,1,80,2|2,3:2|2:0,2:0:0:0:
211,185,70513,2,0,P|225:135|236:78,1,80,10|2,2:0|2:0,2:0:0:0:
295,35,70847,2,0,P|337:47|351:91,2,80,2|2|10,3:2|2:0|2:0,2:0:0:0:
202,9,71347,6,0,P|136:42|36:65,1,160,2|2,2:0|2:0,2:0:0:0:
110,140,71847,2,0,P|127:184|157:192,1,80,10|2,2:0|2:0,2:0:0:0:
195,289,72180,1,0,3:2:0:0:
195,289,72263,1,8,2:0:0:0:
195,289,72347,1,0,3:2:0:0:
99,296,72513,2,0,P|143:276|195:272,1,80,8|2,2:0|3:2,2:0:0:0:
270,325,72847,5,2,3:2:0:0:
308,242,73013,1,2,2:0:0:0:
308,242,73180,2,0,P|311:191|322:145,1,80,10|2,2:0|2:0,2:0:0:0:
290,67,73513,2,0,P|327:140|421:142,1,160,2|10,3:2|2:0,2:0:0:0:
495,193,74013,1,2,2:0:0:0:
462,277,74180,2,0,P|434:241|387:236,1,80,0|0,3:2|2:0,2:0:0:0:
351,312,74513,1,8,2:0:0:0:
207,203,74847,6,0,P|223:150|228:113,1,80,2|2,3:2|2:0,2:0:0:0:
165,51,75180,1,10,2:0:0:0:
102,124,75347,1,2,2:0:0:0:
63,36,75513,2,0,P|78:83|83:127,1,80,2|0,3:2|2:0,2:0:0:0:
24,190,75847,5,8,2:0:0:0:
84,265,76013,1,0,3:2:0:0:
84,265,76097,1,0,3:2:0:0:
84,265,76180,2,0,P|113:297|157:291,1,80,10|2,2:0|3:2,2:0:0:0:
223,259,76513,1,10,2:0:0:0:
214,354,76680,6,0,P|184:274|174:172,1,160,2|8,3:2|2:0,2:0:0:0:
224,120,77180,1,8,2:0:0:0:
224,120,77347,1,0,2:0:0:0:
142,69,77513,1,8,2:0:0:0:
376,100,77847,5,10,2:0:0:0:
433,169,78013,1,2,2:0:0:0:
433,169,78097,1,0,2:0:0:0:
433,169,78180,2,0,P|418:214|415:252,1,80,4|2,3:2|2:0,2:0:0:0:
333,205,78513,1,10,2:0:0:0:
333,205,78680,2,0,P|268:219|233:322,1,160,2|2,2:0|2:0,2:0:0:0:
164,369,79180,1,10,2:0:0:0:
112,293,79347,1,2,2:0:0:0:
112,293,79513,6,0,P|103:246|75:195,1,80,0|2,3:2|2:0,2:0:0:0:
21,148,79847,2,0,P|46:105|87:100,1,80,10|2,2:0|2:0,2:0:0:0:
166,147,80180,1,0,3:2:0:0:
166,147,80263,1,8,2:0:0:0:
166,147,80347,2,0,P|205:131|254:126,1,80,2|10,2:0|2:0,2:0:0:0:
322,68,80680,1,2,2:0:0:0:
356,150,80847,6,0,P|324:182|323:226,1,80,0|2,3:2|2:0,2:0:0:0:
388,285,81180,1,10,2:0:0:0:
388,285,81347,2,0,P|299:251|211:241,1,160,2|2,2:0|2:0,2:0:0:0:
141,261,81847,1,10,2:0:0:0:
210,327,82013,6,0,P|204:266|112:204,1,160,2|2,2:0|2:0,2:0:0:0:
64,137,82513,1,10,2:0:0:0:
4,212,82680,2,0,P|18:166|27:123,1,80,2|0,2:0|3:2,2:0:0:0:
93,66,83013,1,10,2:0:0:0:
187,45,83180,1,10,2:0:0:0:
287,29,83347,5,10,2:0:0:0:
287,29,83430,1,8,2:0:0:0:
287,29,83513,2,0,P|277:80|273:130,1,80,4|2,3:2|2:0,2:0:0:0:
218,187,83847,1,10,2:0:0:0:
218,187,84013,2,0,P|246:263|344:277,1,160,2|2,2:0|2:0,2:0:0:0:
403,238,84513,1,10,2:0:0:0:
451,321,84680,1,2,2:0:0:0:
403,238,84847,6,0,P|417:187|422:142,1,80,0|2,3:2|2:0,2:0:0:0:
482,86,85180,2,0,P|464:43|422:31,1,80,10|2,2:0|2:0,2:0:0:0:
345,60,85513,1,0,3:2:0:0:
345,60,85597,1,8,2:0:0:0:
345,60,85680,2,0,P|297:76|255:79,1,80,2|10,2:0|2:0,2:0:0:0:
183,33,86013,1,2,2:0:0:0:
146,122,86180,6,0,P|176:162|185:202,1,80,0|2,3:2|2:0,2:0:0:0:
253,259,86513,2,0,P|267:210|294:159,1,80,10|2,2:0|3:2,2:0:0:0:
367,292,86847,2,0,P|322:312|291:338,1,80,8|2,2:0|3:2,2:0:0:0:
207,364,87180,1,2,3:2:0:0:
144,291,87347,1,14,3:2:0:0:
