osu file format v14

[General]
AudioFilename: audio.ogg
AudioLeadIn: 0
PreviewTime: 15049
Countdown: 0
SampleSet: Soft
StackLeniency: 0.7
Mode: 3
LetterboxInBreaks: 0
EpilepsyWarning: 1
SpecialStyle: 0
WidescreenStoryboard: 1

[Editor]
Bookmarks: 15049,44587,59356,81510,98126
DistanceSpacing: 2
BeatDivisor: 8
GridSize: 16
TimelineZoom: 1.5

[Metadata]
Title:M.E.D. PHONK
TitleUnicode:M.E.D. PHONK
Artist:SMESHARIKI
ArtistUnicode:СМЕШАРИКИ
Creator:keksikosu
Version:Normal
Source:Смешарики
Tags:фонк Electronic minijacks mj chordjacks cj РИКИ.ФАН Riki_fun RIKI.FAN мед мёд MED Honey remix русский russian копатыч kopatych Mikhail Chernyak Михаил Черняк meme novelty kikoriki riki group рики
BeatmapID:4022066
BeatmapSetID:1940374

[Difficulty]
HPDrainRate:7
CircleSize:4
OverallDifficulty:7
ApproachRate:5
SliderMultiplier:1.4
SliderTickRate:1

[Events]
//Background and Video events
Video,215,"med.mp4"
0,0,"med.jpg",0,0
//Break Periods
//Storyboard Layer 0 (Background)
//Storyboard Layer 1 (Fail)
//Storyboard Layer 2 (Pass)
//Storyboard Layer 3 (Foreground)
//Storyboard Layer 4 (Overlay)
//Storyboard Sound Samples

[TimingPoints]
280,461.538461538462,4,2,1,30,1,0
2126,-100,4,2,1,35,0,0
3972,-100,4,2,1,40,0,0
5818,-100,4,2,1,45,0,0
7664,-100,4,2,1,50,0,0
15049,-100,4,2,1,55,0,0
44587,-100,4,2,1,60,0,1
55664,-100,4,2,1,55,0,0
57510,-100,4,2,1,50,0,0
59356,-100,4,2,1,45,0,0
70433,-100,4,2,1,50,0,0
81510,-100,4,2,1,55,0,0
98126,-100,4,2,1,60,0,1
107356,-100,4,2,1,55,0,0
109203,-100,4,2,1,50,0,0

[HitObjects]
448,192,280,5,0,0:0:0:0:
448,192,626,1,0,0:0:0:0:
448,192,972,1,0,0:0:0:0:
448,192,1318,1,0,0:0:0:0:
320,192,1664,1,0,0:0:0:0:
192,192,2126,1,0,0:0:0:0:
192,192,2472,1,0,0:0:0:0:
192,192,2818,1,0,0:0:0:0:
192,192,3164,1,0,0:0:0:0:
320,192,3510,1,0,0:0:0:0:
64,192,3741,1,0,0:0:0:0:
448,192,3972,1,0,0:0:0:0:
448,192,4318,1,0,0:0:0:0:
448,192,4664,1,0,0:0:0:0:
448,192,5010,1,0,0:0:0:0:
320,192,5356,1,0,0:0:0:0:
192,192,5818,1,0,0:0:0:0:
192,192,6164,1,0,0:0:0:0:
192,192,6510,1,0,0:0:0:0:
192,192,6856,1,0,0:0:0:0:
320,192,6972,1,0,0:0:0:0:
448,192,7087,1,0,0:0:0:0:
192,192,7318,1,0,0:0:0:0:
64,192,7433,1,0,0:0:0:0:
320,192,7664,1,0,0:0:0:0:
64,192,8010,1,0,0:0:0:0:
320,192,8126,1,0,0:0:0:0:
448,192,8126,1,0,0:0:0:0:
64,192,8356,1,0,0:0:0:0:
320,192,8587,1,0,0:0:0:0:
64,192,8703,1,0,0:0:0:0:
192,192,9049,1,0,0:0:0:0:
448,192,9049,128,0,9280:0:0:0:0:
64,192,9510,1,0,0:0:0:0:
448,192,9856,1,0,0:0:0:0:
192,192,9972,1,0,0:0:0:0:
64,192,9972,1,0,0:0:0:0:
448,192,10203,1,0,0:0:0:0:
192,192,10433,1,0,0:0:0:0:
448,192,10549,1,0,0:0:0:0:
320,192,10895,1,0,0:0:0:0:
192,192,10895,1,0,0:0:0:0:
64,192,11126,1,0,0:0:0:0:
448,192,11356,1,0,0:0:0:0:
192,192,11703,1,0,0:0:0:0:
448,192,11818,1,0,0:0:0:0:
320,192,11818,1,0,0:0:0:0:
192,192,12049,1,0,0:0:0:0:
448,192,12280,1,0,0:0:0:0:
192,192,12395,1,0,0:0:0:0:
320,192,12741,1,0,0:0:0:0:
64,192,12741,128,0,12972:0:0:0:0:
448,192,13203,1,0,0:0:0:0:
64,192,13664,1,0,0:0:0:0:
320,192,14126,1,0,0:0:0:0:
64,192,14587,128,0,14818:0:0:0:0:
448,192,14587,128,0,14818:0:0:0:0:
320,192,15049,1,0,0:0:0:0:
64,192,15049,1,0,0:0:0:0:
64,192,15395,1,0,0:0:0:0:
320,192,15395,1,0,0:0:0:0:
448,192,15510,1,0,0:0:0:0:
192,192,15510,1,0,0:0:0:0:
64,192,15741,1,0,0:0:0:0:
320,192,15741,1,0,0:0:0:0:
448,192,15972,1,0,0:0:0:0:
192,192,15972,1,0,0:0:0:0:
64,192,16087,1,0,0:0:0:0:
320,192,16087,1,0,0:0:0:0:
448,192,16203,1,0,0:0:0:0:
192,192,16433,1,0,0:0:0:0:
320,192,16433,1,0,0:0:0:0:
64,192,16895,1,0,0:0:0:0:
448,192,16895,1,0,0:0:0:0:
192,192,17241,1,0,0:0:0:0:
320,192,17241,1,0,0:0:0:0:
64,192,17356,1,0,0:0:0:0:
448,192,17356,1,0,0:0:0:0:
192,192,17587,1,0,0:0:0:0:
320,192,17587,1,0,0:0:0:0:
448,192,17818,1,0,0:0:0:0:
64,192,17818,1,0,0:0:0:0:
192,192,17933,1,0,0:0:0:0:
320,192,17933,1,0,0:0:0:0:
64,192,18049,1,0,0:0:0:0:
192,192,18280,1,0,0:0:0:0:
448,192,18280,1,0,0:0:0:0:
320,192,18510,1,0,0:0:0:0:
64,192,18741,1,0,0:0:0:0:
192,192,18741,1,0,0:0:0:0:
64,192,19087,1,0,0:0:0:0:
192,192,19087,1,0,0:0:0:0:
320,192,19203,1,0,0:0:0:0:
448,192,19203,1,0,0:0:0:0:
64,192,19433,1,0,0:0:0:0:
192,192,19433,1,0,0:0:0:0:
448,192,19664,1,0,0:0:0:0:
320,192,19664,1,0,0:0:0:0:
192,192,19780,1,0,0:0:0:0:
64,192,19780,1,0,0:0:0:0:
320,192,19895,1,0,0:0:0:0:
448,192,20126,1,0,0:0:0:0:
64,192,20126,1,0,0:0:0:0:
192,192,20587,1,0,0:0:0:0:
320,192,20587,1,0,0:0:0:0:
192,192,20933,1,0,0:0:0:0:
320,192,20933,1,0,0:0:0:0:
64,192,21049,1,0,0:0:0:0:
448,192,21049,1,0,0:0:0:0:
192,192,21280,1,0,0:0:0:0:
320,192,21280,1,0,0:0:0:0:
320,192,21510,1,0,0:0:0:0:
448,192,21510,1,0,0:0:0:0:
192,192,21626,1,0,0:0:0:0:
64,192,21741,1,0,0:0:0:0:
320,192,21856,1,0,0:0:0:0:
192,192,21972,1,0,0:0:0:0:
448,192,22087,1,0,0:0:0:0:
64,192,22203,1,0,0:0:0:0:
192,192,22433,1,0,0:0:0:0:
448,192,22433,1,0,0:0:0:0:
192,192,22780,1,0,0:0:0:0:
448,192,22780,1,0,0:0:0:0:
64,192,22895,1,0,0:0:0:0:
320,192,22895,1,0,0:0:0:0:
192,192,23126,1,0,0:0:0:0:
448,192,23126,1,0,0:0:0:0:
320,192,23356,1,0,0:0:0:0:
64,192,23356,1,0,0:0:0:0:
448,192,23472,1,0,0:0:0:0:
192,192,23472,1,0,0:0:0:0:
64,192,23587,1,0,0:0:0:0:
448,192,23818,1,0,0:0:0:0:
320,192,23818,1,0,0:0:0:0:
64,192,24280,1,0,0:0:0:0:
448,192,24280,1,0,0:0:0:0:
320,192,24626,1,0,0:0:0:0:
192,192,24626,1,0,0:0:0:0:
448,192,24741,1,0,0:0:0:0:
64,192,24741,1,0,0:0:0:0:
192,192,24972,1,0,0:0:0:0:
320,192,24972,1,0,0:0:0:0:
64,192,25203,1,0,0:0:0:0:
448,192,25203,1,0,0:0:0:0:
192,192,25318,1,0,0:0:0:0:
320,192,25318,1,0,0:0:0:0:
448,192,25433,1,0,0:0:0:0:
320,192,25664,1,0,0:0:0:0:
64,192,25664,1,0,0:0:0:0:
192,192,25895,1,0,0:0:0:0:
320,192,26126,1,0,0:0:0:0:
448,192,26126,1,0,0:0:0:0:
448,192,26472,1,0,0:0:0:0:
320,192,26472,1,0,0:0:0:0:
192,192,26587,1,0,0:0:0:0:
64,192,26587,1,0,0:0:0:0:
320,192,26818,1,0,0:0:0:0:
448,192,26818,1,0,0:0:0:0:
192,192,27049,1,0,0:0:0:0:
64,192,27049,1,0,0:0:0:0:
448,192,27164,1,0,0:0:0:0:
320,192,27164,1,0,0:0:0:0:
64,192,27280,1,0,0:0:0:0:
192,192,27510,1,0,0:0:0:0:
448,192,27510,1,0,0:0:0:0:
64,192,27972,1,0,0:0:0:0:
320,192,28318,1,0,0:0:0:0:
448,192,28433,1,0,0:0:0:0:
192,192,28433,1,0,0:0:0:0:
320,192,28664,1,0,0:0:0:0:
64,192,28895,1,0,0:0:0:0:
192,192,29010,1,0,0:0:0:0:
448,192,29126,1,0,0:0:0:0:
320,192,29241,1,0,0:0:0:0:
192,192,29356,1,0,0:0:0:0:
64,192,29356,1,0,0:0:0:0:
320,192,29818,1,0,0:0:0:0:
64,192,29818,1,0,0:0:0:0:
64,192,30164,1,0,0:0:0:0:
320,192,30164,1,0,0:0:0:0:
192,192,30280,1,0,0:0:0:0:
448,192,30280,1,0,0:0:0:0:
64,192,30510,1,0,0:0:0:0:
320,192,30510,1,0,0:0:0:0:
192,192,30741,1,0,0:0:0:0:
448,192,30741,1,0,0:0:0:0:
64,192,30856,1,0,0:0:0:0:
320,192,30856,1,0,0:0:0:0:
192,192,30972,1,0,0:0:0:0:
448,192,31203,1,0,0:0:0:0:
320,192,31203,1,0,0:0:0:0:
192,192,31664,1,0,0:0:0:0:
320,192,31664,1,0,0:0:0:0:
320,192,32010,1,0,0:0:0:0:
192,192,32010,1,0,0:0:0:0:
64,192,32126,1,0,0:0:0:0:
448,192,32126,1,0,0:0:0:0:
192,192,32356,1,0,0:0:0:0:
320,192,32356,1,0,0:0:0:0:
448,192,32587,1,0,0:0:0:0:
64,192,32587,1,0,0:0:0:0:
320,192,32703,1,0,0:0:0:0:
192,192,32703,1,0,0:0:0:0:
448,192,32818,1,0,0:0:0:0:
64,192,33049,1,0,0:0:0:0:
192,192,33049,1,0,0:0:0:0:
320,192,33280,1,0,0:0:0:0:
448,192,33510,1,0,0:0:0:0:
192,192,33510,1,0,0:0:0:0:
448,192,33856,1,0,0:0:0:0:
192,192,33856,1,0,0:0:0:0:
64,192,33972,1,0,0:0:0:0:
320,192,33972,1,0,0:0:0:0:
448,192,34203,1,0,0:0:0:0:
192,192,34203,1,0,0:0:0:0:
320,192,34433,1,0,0:0:0:0:
64,192,34433,1,0,0:0:0:0:
448,192,34549,1,0,0:0:0:0:
192,192,34549,1,0,0:0:0:0:
320,192,34664,1,0,0:0:0:0:
192,192,34895,1,0,0:0:0:0:
64,192,34895,1,0,0:0:0:0:
64,192,35356,1,0,0:0:0:0:
448,192,35356,1,0,0:0:0:0:
448,192,35703,1,0,0:0:0:0:
64,192,35703,1,0,0:0:0:0:
320,192,35818,1,0,0:0:0:0:
192,192,35818,1,0,0:0:0:0:
64,192,36049,1,0,0:0:0:0:
448,192,36049,1,0,0:0:0:0:
192,192,36280,1,0,0:0:0:0:
64,192,36280,1,0,0:0:0:0:
320,192,36395,1,0,0:0:0:0:
448,192,36510,1,0,0:0:0:0:
192,192,36626,1,0,0:0:0:0:
320,192,36741,1,0,0:0:0:0:
64,192,36856,1,0,0:0:0:0:
448,192,36972,1,0,0:0:0:0:
64,192,37203,1,0,0:0:0:0:
192,192,37203,1,0,0:0:0:0:
192,192,37549,1,0,0:0:0:0:
64,192,37549,1,0,0:0:0:0:
320,192,37664,1,0,0:0:0:0:
448,192,37664,1,0,0:0:0:0:
64,192,37895,1,0,0:0:0:0:
192,192,37895,1,0,0:0:0:0:
448,192,38126,1,0,0:0:0:0:
320,192,38126,1,0,0:0:0:0:
64,192,38241,1,0,0:0:0:0:
192,192,38241,1,0,0:0:0:0:
448,192,38356,1,0,0:0:0:0:
64,192,38587,1,0,0:0:0:0:
320,192,38587,1,0,0:0:0:0:
320,192,39049,1,0,0:0:0:0:
192,192,39049,1,0,0:0:0:0:
320,192,39395,1,0,0:0:0:0:
192,192,39395,1,0,0:0:0:0:
64,192,39510,1,0,0:0:0:0:
448,192,39510,1,0,0:0:0:0:
192,192,39741,1,0,0:0:0:0:
320,192,39741,1,0,0:0:0:0:
448,192,39972,1,0,0:0:0:0:
64,192,39972,1,0,0:0:0:0:
320,192,40087,1,0,0:0:0:0:
192,192,40087,1,0,0:0:0:0:
64,192,40203,1,0,0:0:0:0:
448,192,40433,1,0,0:0:0:0:
192,192,40433,1,0,0:0:0:0:
64,192,40664,1,0,0:0:0:0:
448,192,40895,1,0,0:0:0:0:
320,192,40895,1,0,0:0:0:0:
448,192,41241,1,0,0:0:0:0:
320,192,41241,1,0,0:0:0:0:
64,192,41356,1,0,0:0:0:0:
192,192,41356,1,0,0:0:0:0:
320,192,41587,1,0,0:0:0:0:
448,192,41587,1,0,0:0:0:0:
192,192,41818,1,0,0:0:0:0:
64,192,41818,1,0,0:0:0:0:
448,192,41933,1,0,0:0:0:0:
320,192,41933,1,0,0:0:0:0:
192,192,42049,1,0,0:0:0:0:
64,192,42280,1,0,0:0:0:0:
320,192,42280,1,0,0:0:0:0:
448,192,42741,1,0,0:0:0:0:
448,192,42972,1,0,0:0:0:0:
192,192,43203,1,0,0:0:0:0:
192,192,43433,1,0,0:0:0:0:
320,192,43549,1,0,0:0:0:0:
192,192,43780,1,0,0:0:0:0:
320,192,43895,1,0,0:0:0:0:
64,192,44126,1,0,0:0:0:0:
192,192,44356,1,0,0:0:0:0:
64,192,44587,5,0,0:0:0:0:
448,192,44587,1,0,0:0:0:0:
320,192,44818,1,0,0:0:0:0:
64,192,44933,1,0,0:0:0:0:
448,192,44933,1,0,0:0:0:0:
320,192,45049,1,0,0:0:0:0:
192,192,45049,1,0,0:0:0:0:
448,192,45280,1,0,0:0:0:0:
64,192,45280,1,0,0:0:0:0:
192,192,45510,1,0,0:0:0:0:
320,192,45510,1,0,0:0:0:0:
64,192,45626,1,0,0:0:0:0:
448,192,45626,1,0,0:0:0:0:
192,192,45741,1,0,0:0:0:0:
320,192,45972,1,0,0:0:0:0:
64,192,45972,1,0,0:0:0:0:
448,192,46433,1,0,0:0:0:0:
192,192,46433,1,0,0:0:0:0:
64,192,46664,1,0,0:0:0:0:
192,192,46780,1,0,0:0:0:0:
448,192,46780,1,0,0:0:0:0:
320,192,46895,1,0,0:0:0:0:
64,192,46895,1,0,0:0:0:0:
192,192,47126,1,0,0:0:0:0:
448,192,47126,1,0,0:0:0:0:
64,192,47356,1,0,0:0:0:0:
320,192,47356,1,0,0:0:0:0:
192,192,47472,1,0,0:0:0:0:
448,192,47472,1,0,0:0:0:0:
320,192,47587,1,0,0:0:0:0:
448,192,47818,1,0,0:0:0:0:
64,192,47818,1,0,0:0:0:0:
448,192,48049,1,0,0:0:0:0:
192,192,48049,1,0,0:0:0:0:
64,192,48280,1,0,0:0:0:0:
192,192,48280,1,0,0:0:0:0:
448,192,48510,1,0,0:0:0:0:
192,192,48626,1,0,0:0:0:0:
64,192,48626,1,0,0:0:0:0:
448,192,48741,1,0,0:0:0:0:
320,192,48741,1,0,0:0:0:0:
64,192,48972,1,0,0:0:0:0:
192,192,48972,1,0,0:0:0:0:
320,192,49203,1,0,0:0:0:0:
448,192,49203,1,0,0:0:0:0:
64,192,49318,1,0,0:0:0:0:
192,192,49318,1,0,0:0:0:0:
320,192,49433,1,0,0:0:0:0:
192,192,49664,1,0,0:0:0:0:
64,192,49664,1,0,0:0:0:0:
320,192,50126,1,0,0:0:0:0:
192,192,50126,1,0,0:0:0:0:
448,192,50356,1,0,0:0:0:0:
320,192,50472,1,0,0:0:0:0:
192,192,50472,1,0,0:0:0:0:
448,192,50587,1,0,0:0:0:0:
64,192,50587,1,0,0:0:0:0:
320,192,50818,1,0,0:0:0:0:
192,192,50818,1,0,0:0:0:0:
448,192,51049,1,0,0:0:0:0:
64,192,51049,1,0,0:0:0:0:
192,192,51164,1,0,0:0:0:0:
320,192,51280,1,0,0:0:0:0:
448,192,51395,1,0,0:0:0:0:
64,192,51510,1,0,0:0:0:0:
320,192,51626,1,0,0:0:0:0:
192,192,51741,1,0,0:0:0:0:
320,192,51972,1,0,0:0:0:0:
64,192,51972,1,0,0:0:0:0:
448,192,52203,1,0,0:0:0:0:
64,192,52318,1,0,0:0:0:0:
320,192,52318,1,0,0:0:0:0:
192,192,52433,1,0,0:0:0:0:
448,192,52433,1,0,0:0:0:0:
64,192,52664,1,0,0:0:0:0:
320,192,52664,1,0,0:0:0:0:
192,192,52895,1,0,0:0:0:0:
448,192,52895,1,0,0:0:0:0:
320,192,53010,1,0,0:0:0:0:
64,192,53010,1,0,0:0:0:0:
192,192,53126,1,0,0:0:0:0:
64,192,53356,1,0,0:0:0:0:
448,192,53356,1,0,0:0:0:0:
320,192,53818,1,0,0:0:0:0:
448,192,53818,1,0,0:0:0:0:
192,192,54049,1,0,0:0:0:0:
320,192,54164,1,0,0:0:0:0:
448,192,54164,1,0,0:0:0:0:
64,192,54280,1,0,0:0:0:0:
192,192,54280,1,0,0:0:0:0:
320,192,54510,1,0,0:0:0:0:
448,192,54510,1,0,0:0:0:0:
192,192,54741,1,0,0:0:0:0:
64,192,54741,1,0,0:0:0:0:
320,192,54856,1,0,0:0:0:0:
448,192,54856,1,0,0:0:0:0:
64,192,54972,1,0,0:0:0:0:
192,192,55203,1,0,0:0:0:0:
448,192,55203,1,0,0:0:0:0:
320,192,55433,1,0,0:0:0:0:
192,192,55433,1,0,0:0:0:0:
64,192,55664,1,0,0:0:0:0:
192,192,55895,1,0,0:0:0:0:
448,192,56010,1,0,0:0:0:0:
64,192,56126,1,0,0:0:0:0:
192,192,56126,1,0,0:0:0:0:
448,192,56356,1,0,0:0:0:0:
64,192,56587,1,0,0:0:0:0:
448,192,56703,1,0,0:0:0:0:
320,192,57049,1,0,0:0:0:0:
192,192,57049,1,0,0:0:0:0:
448,192,57510,1,0,0:0:0:0:
320,192,57741,1,0,0:0:0:0:
64,192,57856,1,0,0:0:0:0:
320,192,57972,1,0,0:0:0:0:
448,192,57972,1,0,0:0:0:0:
64,192,58203,1,0,0:0:0:0:
448,192,58549,1,0,0:0:0:0:
320,192,58664,1,0,0:0:0:0:
192,192,58780,1,0,0:0:0:0:
448,192,58895,1,0,0:0:0:0:
320,192,58895,1,0,0:0:0:0:
64,192,59356,1,0,0:0:0:0:
192,192,59356,1,0,0:0:0:0:
320,192,59703,1,0,0:0:0:0:
192,192,59818,1,0,0:0:0:0:
448,192,59818,1,0,0:0:0:0:
320,192,60049,1,0,0:0:0:0:
64,192,60280,1,0,0:0:0:0:
320,192,60395,1,0,0:0:0:0:
320,192,60568,1,0,0:0:0:0:
192,192,60741,1,0,0:0:0:0:
448,192,60741,128,0,60972:0:0:0:0:
320,192,61203,1,0,0:0:0:0:
192,192,61549,1,0,0:0:0:0:
64,192,61664,1,0,0:0:0:0:
448,192,61664,1,0,0:0:0:0:
192,192,61895,1,0,0:0:0:0:
320,192,62126,1,0,0:0:0:0:
192,192,62241,1,0,0:0:0:0:
64,192,62587,1,0,0:0:0:0:
448,192,62587,1,0,0:0:0:0:
64,192,62818,1,0,0:0:0:0:
448,192,63049,1,0,0:0:0:0:
320,192,63395,1,0,0:0:0:0:
192,192,63510,1,0,0:0:0:0:
64,192,63510,1,0,0:0:0:0:
320,192,63741,1,0,0:0:0:0:
448,192,63972,1,0,0:0:0:0:
320,192,64087,1,0,0:0:0:0:
192,192,64433,1,0,0:0:0:0:
64,192,64433,128,0,64664:0:0:0:0:
448,192,64895,1,0,0:0:0:0:
64,192,65241,1,0,0:0:0:0:
448,192,65356,1,0,0:0:0:0:
320,192,65356,1,0,0:0:0:0:
64,192,65587,1,0,0:0:0:0:
448,192,65818,1,0,0:0:0:0:
192,192,65933,1,0,0:0:0:0:
320,192,66049,1,0,0:0:0:0:
64,192,66164,1,0,0:0:0:0:
320,192,66280,1,0,0:0:0:0:
448,192,66280,1,0,0:0:0:0:
448,192,66510,1,0,0:0:0:0:
192,192,66741,1,0,0:0:0:0:
320,192,67087,1,0,0:0:0:0:
64,192,67203,1,0,0:0:0:0:
448,192,67203,1,0,0:0:0:0:
320,192,67433,1,0,0:0:0:0:
192,192,67664,1,0,0:0:0:0:
320,192,67780,1,0,0:0:0:0:
64,192,68126,1,0,0:0:0:0:
448,192,68126,128,0,68356:0:0:0:0:
448,192,68587,1,0,0:0:0:0:
192,192,68933,1,0,0:0:0:0:
320,192,69049,1,0,0:0:0:0:
64,192,69049,1,0,0:0:0:0:
192,192,69280,1,0,0:0:0:0:
448,192,69510,1,0,0:0:0:0:
192,192,69626,1,0,0:0:0:0:
320,192,69972,1,0,0:0:0:0:
64,192,69972,1,0,0:0:0:0:
320,192,70203,1,0,0:0:0:0:
448,192,70433,1,0,0:0:0:0:
64,192,70780,1,0,0:0:0:0:
320,192,70895,1,0,0:0:0:0:
448,192,70895,1,0,0:0:0:0:
64,192,71126,1,0,0:0:0:0:
448,192,71356,1,0,0:0:0:0:
64,192,71472,1,0,0:0:0:0:
448,192,71818,1,0,0:0:0:0:
320,192,71818,128,0,72049:0:0:0:0:
64,192,72280,1,0,0:0:0:0:
448,192,72626,1,0,0:0:0:0:
64,192,72741,1,0,0:0:0:0:
192,192,72741,1,0,0:0:0:0:
448,192,72972,1,0,0:0:0:0:
64,192,73203,1,0,0:0:0:0:
320,192,73318,1,0,0:0:0:0:
192,192,73433,1,0,0:0:0:0:
448,192,73549,1,0,0:0:0:0:
192,192,73664,1,0,0:0:0:0:
64,192,73664,1,0,0:0:0:0:
64,192,73895,1,0,0:0:0:0:
192,192,74126,1,0,0:0:0:0:
192,192,74472,1,0,0:0:0:0:
320,192,74587,1,0,0:0:0:0:
448,192,74587,1,0,0:0:0:0:
192,192,74818,1,0,0:0:0:0:
192,192,75164,1,0,0:0:0:0:
320,192,75510,1,0,0:0:0:0:
64,192,75510,1,0,0:0:0:0:
448,192,75972,1,0,0:0:0:0:
448,192,76318,1,0,0:0:0:0:
192,192,76433,1,0,0:0:0:0:
64,192,76433,1,0,0:0:0:0:
448,192,76664,1,0,0:0:0:0:
448,192,77010,1,0,0:0:0:0:
64,192,77356,1,0,0:0:0:0:
192,192,77356,1,0,0:0:0:0:
320,192,77587,1,0,0:0:0:0:
64,192,77818,1,0,0:0:0:0:
64,192,78164,1,0,0:0:0:0:
448,192,78280,1,0,0:0:0:0:
320,192,78280,1,0,0:0:0:0:
64,192,78510,1,0,0:0:0:0:
64,192,78856,1,0,0:0:0:0:
448,192,79203,1,0,0:0:0:0:
192,192,79203,1,0,0:0:0:0:
320,192,79664,1,0,0:0:0:0:
64,192,80126,1,0,0:0:0:0:
448,192,80587,1,0,0:0:0:0:
64,192,81049,128,0,81280:0:0:0:0:
448,192,81049,128,0,81280:0:0:0:0:
192,192,81510,1,0,0:0:0:0:
448,192,81510,1,0,0:0:0:0:
448,192,81856,1,0,0:0:0:0:
192,192,81856,1,0,0:0:0:0:
64,192,81972,1,0,0:0:0:0:
320,192,81972,1,0,0:0:0:0:
448,192,82203,1,0,0:0:0:0:
192,192,82203,1,0,0:0:0:0:
64,192,82433,1,0,0:0:0:0:
320,192,82433,1,0,0:0:0:0:
448,192,82549,1,0,0:0:0:0:
192,192,82549,1,0,0:0:0:0:
64,192,82664,1,0,0:0:0:0:
320,192,82895,1,0,0:0:0:0:
192,192,82895,1,0,0:0:0:0:
448,192,83356,1,0,0:0:0:0:
64,192,83356,1,0,0:0:0:0:
320,192,83703,1,0,0:0:0:0:
192,192,83703,1,0,0:0:0:0:
448,192,83818,1,0,0:0:0:0:
64,192,83818,1,0,0:0:0:0:
320,192,84049,1,0,0:0:0:0:
192,192,84049,1,0,0:0:0:0:
64,192,84280,1,0,0:0:0:0:
448,192,84280,1,0,0:0:0:0:
320,192,84395,1,0,0:0:0:0:
192,192,84395,1,0,0:0:0:0:
448,192,84510,1,0,0:0:0:0:
320,192,84741,1,0,0:0:0:0:
64,192,84741,1,0,0:0:0:0:
192,192,84972,1,0,0:0:0:0:
448,192,85203,1,0,0:0:0:0:
320,192,85203,1,0,0:0:0:0:
448,192,85549,1,0,0:0:0:0:
320,192,85549,1,0,0:0:0:0:
192,192,85664,1,0,0:0:0:0:
64,192,85664,1,0,0:0:0:0:
448,192,85895,1,0,0:0:0:0:
320,192,85895,1,0,0:0:0:0:
64,192,86126,1,0,0:0:0:0:
192,192,86126,1,0,0:0:0:0:
320,192,86241,1,0,0:0:0:0:
448,192,86241,1,0,0:0:0:0:
192,192,86356,1,0,0:0:0:0:
64,192,86587,1,0,0:0:0:0:
448,192,86587,1,0,0:0:0:0:
320,192,87049,1,0,0:0:0:0:
192,192,87049,1,0,0:0:0:0:
320,192,87395,1,0,0:0:0:0:
192,192,87395,1,0,0:0:0:0:
448,192,87510,1,0,0:0:0:0:
64,192,87510,1,0,0:0:0:0:
320,192,87741,1,0,0:0:0:0:
192,192,87741,1,0,0:0:0:0:
192,192,87972,1,0,0:0:0:0:
64,192,87972,1,0,0:0:0:0:
320,192,88087,1,0,0:0:0:0:
448,192,88203,1,0,0:0:0:0:
192,192,88318,1,0,0:0:0:0:
320,192,88433,1,0,0:0:0:0:
64,192,88549,1,0,0:0:0:0:
448,192,88664,1,0,0:0:0:0:
320,192,88895,1,0,0:0:0:0:
64,192,88895,1,0,0:0:0:0:
320,192,89241,1,0,0:0:0:0:
64,192,89241,1,0,0:0:0:0:
448,192,89356,1,0,0:0:0:0:
192,192,89356,1,0,0:0:0:0:
320,192,89587,1,0,0:0:0:0:
64,192,89587,1,0,0:0:0:0:
192,192,89818,1,0,0:0:0:0:
448,192,89818,1,0,0:0:0:0:
64,192,89933,1,0,0:0:0:0:
320,192,89933,1,0,0:0:0:0:
448,192,90049,1,0,0:0:0:0:
64,192,90280,1,0,0:0:0:0:
192,192,90280,1,0,0:0:0:0:
448,192,90741,1,0,0:0:0:0:
64,192,90741,1,0,0:0:0:0:
192,192,91087,1,0,0:0:0:0:
320,192,91087,1,0,0:0:0:0:
64,192,91203,1,0,0:0:0:0:
448,192,91203,1,0,0:0:0:0:
320,192,91433,1,0,0:0:0:0:
192,192,91433,1,0,0:0:0:0:
448,192,91664,1,0,0:0:0:0:
64,192,91664,1,0,0:0:0:0:
320,192,91780,1,0,0:0:0:0:
192,192,91780,1,0,0:0:0:0:
64,192,91895,1,0,0:0:0:0:
192,192,92126,1,0,0:0:0:0:
448,192,92126,1,0,0:0:0:0:
320,192,92356,1,0,0:0:0:0:
192,192,92587,1,0,0:0:0:0:
64,192,92587,1,0,0:0:0:0:
64,192,92933,1,0,0:0:0:0:
192,192,92933,1,0,0:0:0:0:
320,192,93049,1,0,0:0:0:0:
448,192,93049,1,0,0:0:0:0:
192,192,93280,1,0,0:0:0:0:
64,192,93280,1,0,0:0:0:0:
320,192,93510,1,0,0:0:0:0:
448,192,93510,1,0,0:0:0:0:
64,192,93626,1,0,0:0:0:0:
192,192,93626,1,0,0:0:0:0:
448,192,93741,1,0,0:0:0:0:
320,192,93972,1,0,0:0:0:0:
192,192,93972,1,0,0:0:0:0:
320,192,94433,1,0,0:0:0:0:
320,192,94780,1,0,0:0:0:0:
320,192,95126,1,0,0:0:0:0:
320,192,95472,1,0,0:0:0:0:
192,192,95587,1,0,0:0:0:0:
64,192,95703,1,0,0:0:0:0:
320,192,95933,1,0,0:0:0:0:
448,192,96049,1,0,0:0:0:0:
192,192,96280,1,0,0:0:0:0:
64,192,96280,1,0,0:0:0:0:
192,192,96626,1,0,0:0:0:0:
448,192,96741,1,0,0:0:0:0:
320,192,96741,1,0,0:0:0:0:
192,192,96972,1,0,0:0:0:0:
64,192,97203,1,0,0:0:0:0:
320,192,97203,1,0,0:0:0:0:
192,192,97318,1,0,0:0:0:0:
448,192,97664,1,0,0:0:0:0:
64,192,97664,1,0,0:0:0:0:
64,192,98126,1,0,0:0:0:0:
320,192,98126,1,0,0:0:0:0:
448,192,98356,1,0,0:0:0:0:
320,192,98472,1,0,0:0:0:0:
64,192,98472,1,0,0:0:0:0:
192,192,98587,1,0,0:0:0:0:
448,192,98587,1,0,0:0:0:0:
320,192,98818,1,0,0:0:0:0:
64,192,98818,1,0,0:0:0:0:
448,192,99049,1,0,0:0:0:0:
192,192,99049,1,0,0:0:0:0:
320,192,99164,1,0,0:0:0:0:
64,192,99164,1,0,0:0:0:0:
192,192,99280,1,0,0:0:0:0:
64,192,99510,1,0,0:0:0:0:
448,192,99510,1,0,0:0:0:0:
64,192,99741,1,0,0:0:0:0:
320,192,99741,1,0,0:0:0:0:
448,192,99972,1,0,0:0:0:0:
320,192,99972,1,0,0:0:0:0:
64,192,100203,1,0,0:0:0:0:
320,192,100318,1,0,0:0:0:0:
448,192,100318,1,0,0:0:0:0:
64,192,100433,1,0,0:0:0:0:
192,192,100433,1,0,0:0:0:0:
448,192,100664,1,0,0:0:0:0:
320,192,100664,1,0,0:0:0:0:
192,192,100895,1,0,0:0:0:0:
64,192,100895,1,0,0:0:0:0:
448,192,101010,1,0,0:0:0:0:
320,192,101010,1,0,0:0:0:0:
192,192,101126,1,0,0:0:0:0:
320,192,101356,1,0,0:0:0:0:
448,192,101356,1,0,0:0:0:0:
192,192,101818,1,0,0:0:0:0:
320,192,101818,1,0,0:0:0:0:
64,192,102049,1,0,0:0:0:0:
192,192,102164,1,0,0:0:0:0:
320,192,102164,1,0,0:0:0:0:
64,192,102280,1,0,0:0:0:0:
448,192,102280,1,0,0:0:0:0:
192,192,102510,1,0,0:0:0:0:
320,192,102510,1,0,0:0:0:0:
64,192,102741,1,0,0:0:0:0:
448,192,102741,1,0,0:0:0:0:
320,192,102856,1,0,0:0:0:0:
192,192,102972,1,0,0:0:0:0:
64,192,103087,1,0,0:0:0:0:
448,192,103203,1,0,0:0:0:0:
192,192,103318,1,0,0:0:0:0:
320,192,103433,1,0,0:0:0:0:
192,192,103664,1,0,0:0:0:0:
448,192,103664,1,0,0:0:0:0:
64,192,103895,1,0,0:0:0:0:
448,192,104010,1,0,0:0:0:0:
192,192,104010,1,0,0:0:0:0:
320,192,104126,1,0,0:0:0:0:
64,192,104126,1,0,0:0:0:0:
448,192,104356,1,0,0:0:0:0:
192,192,104356,1,0,0:0:0:0:
320,192,104587,1,0,0:0:0:0:
64,192,104587,1,0,0:0:0:0:
192,192,104703,1,0,0:0:0:0:
448,192,104703,1,0,0:0:0:0:
320,192,104818,1,0,0:0:0:0:
448,192,105049,1,0,0:0:0:0:
64,192,105049,1,0,0:0:0:0:
192,192,105510,1,0,0:0:0:0:
64,192,105510,1,0,0:0:0:0:
320,192,105741,1,0,0:0:0:0:
192,192,105856,1,0,0:0:0:0:
64,192,105856,1,0,0:0:0:0:
448,192,105972,1,0,0:0:0:0:
320,192,105972,1,0,0:0:0:0:
192,192,106203,1,0,0:0:0:0:
64,192,106203,1,0,0:0:0:0:
320,192,106433,1,0,0:0:0:0:
448,192,106433,1,0,0:0:0:0:
192,192,106549,1,0,0:0:0:0:
64,192,106549,1,0,0:0:0:0:
448,192,106664,1,0,0:0:0:0:
320,192,106895,1,0,0:0:0:0:
64,192,106895,1,0,0:0:0:0:
192,192,107126,1,0,0:0:0:0:
320,192,107126,1,0,0:0:0:0:
448,192,107356,1,0,0:0:0:0:
64,192,107703,1,0,0:0:0:0:
448,192,107818,1,0,0:0:0:0:
64,192,108049,1,0,0:0:0:0:
448,192,108280,1,0,0:0:0:0:
64,192,108395,1,0,0:0:0:0:
320,192,108741,1,0,0:0:0:0:
192,192,109203,1,0,0:0:0:0:
192,192,109549,1,0,0:0:0:0:
192,192,109895,1,0,0:0:0:0:
192,192,110241,1,0,0:0:0:0:
320,192,110356,1,0,0:0:0:0:
448,192,110472,1,0,0:0:0:0:
192,192,110703,1,0,0:0:0:0:
64,192,110818,1,0,0:0:0:0:
320,192,111049,128,0,112433:0:0:0:0:
448,192,111049,128,0,112433:0:0:0:0:
