osu file format v14

[General]
AudioFilename: audio.ogg
AudioLeadIn: 0
PreviewTime: 87086
Countdown: 0
SampleSet: Soft
StackLeniency: 0.7
Mode: 3
LetterboxInBreaks: 0
SpecialStyle: 0
WidescreenStoryboard: 0

[Editor]
DistanceSpacing: 0.4
BeatDivisor: 8
GridSize: 4
TimelineZoom: 2.4

[Metadata]
Title:Desire for a Change
TitleUnicode:Desire for a Change
Artist:SM-MEGAtive
ArtistUnicode:SM-MEGAtive
Creator:Ihram-San
Version:Aerial
Source:
Tags:Luminoz Ep 1 genesis
BeatmapID:4576680
BeatmapSetID:2168896

[Difficulty]
HPDrainRate:8
CircleSize:4
OverallDifficulty:8
ApproachRate:5
SliderMultiplier:1.4
SliderTickRate:1

[Events]
//Background and Video events
0,0,"wp8136802-cybercity-wallpapers.jpg",0,0
//Break Periods
//Storyboard Layer 0 (Background)
//Storyboard Layer 1 (Fail)
//Storyboard Layer 2 (Pass)
//Storyboard Layer 3 (Foreground)
//Storyboard Layer 4 (Overlay)
//Storyboard Sound Samples

[TimingPoints]
1530,382.165605095541,4,2,1,70,1,0
38982,382.165605095541,4,2,1,70,1,0
50446,382.165605095541,4,2,1,70,1,0

[HitObjects]
64,192,1530,5,0,0:0:0:0:
320,192,1530,1,0,0:0:0:0:
448,192,1530,1,0,0:0:0:0:
192,192,1721,1,0,0:0:0:0:
448,192,1816,1,0,0:0:0:0:
192,192,2007,1,0,0:0:0:0:
448,192,2103,1,0,0:0:0:0:
320,192,2198,1,0,0:0:0:0:
192,192,2294,1,0,0:0:0:0:
64,192,2389,1,0,0:0:0:0:
448,192,2485,1,0,0:0:0:0:
320,192,2580,1,0,0:0:0:0:
64,192,2676,1,0,0:0:0:0:
192,192,2772,1,0,0:0:0:0:
320,192,2867,1,0,0:0:0:0:
448,192,2963,1,0,0:0:0:0:
64,192,3058,1,0,0:0:0:0:
192,192,3058,1,0,0:0:0:0:
320,192,3249,1,0,0:0:0:0:
64,192,3345,1,0,0:0:0:0:
320,192,3536,1,0,0:0:0:0:
64,192,3631,1,0,0:0:0:0:
192,192,3727,1,0,0:0:0:0:
320,192,3822,1,0,0:0:0:0:
448,192,3918,1,0,0:0:0:0:
64,192,4014,1,0,0:0:0:0:
192,192,4061,1,0,0:0:0:0:
448,192,4109,1,0,0:0:0:0:
320,192,4157,1,0,0:0:0:0:
192,192,4205,1,0,0:0:0:0:
64,192,4300,1,0,0:0:0:0:
448,192,4396,1,0,0:0:0:0:
320,192,4491,1,0,0:0:0:0:
192,192,4587,1,0,0:0:0:0:
64,192,4587,1,0,0:0:0:0:
448,192,4778,1,0,0:0:0:0:
192,192,4873,1,0,0:0:0:0:
448,192,5065,1,0,0:0:0:0:
192,192,5160,1,0,0:0:0:0:
320,192,5256,1,0,0:0:0:0:
448,192,5351,1,0,0:0:0:0:
64,192,5542,1,0,0:0:0:0:
320,192,5638,1,0,0:0:0:0:
192,192,5733,1,0,0:0:0:0:
448,192,5829,1,0,0:0:0:0:
64,192,5924,1,0,0:0:0:0:
320,192,6115,1,0,0:0:0:0:
448,192,6115,128,0,6880:0:0:0:0:
64,192,6307,1,0,0:0:0:0:
320,192,6402,1,0,0:0:0:0:
64,192,6593,1,0,0:0:0:0:
192,192,6689,1,0,0:0:0:0:
320,192,6784,1,0,0:0:0:0:
192,192,6880,1,0,0:0:0:0:
64,192,6880,128,0,7071:0:0:0:0:
448,192,7071,1,0,0:0:0:0:
320,192,7119,1,0,0:0:0:0:
192,192,7166,1,0,0:0:0:0:
64,192,7214,1,0,0:0:0:0:
448,192,7262,1,0,0:0:0:0:
192,192,7358,1,0,0:0:0:0:
320,192,7453,1,0,0:0:0:0:
64,192,7453,1,0,0:0:0:0:
448,192,7644,1,0,0:0:0:0:
192,192,7644,1,0,0:0:0:0:
64,192,7835,1,0,0:0:0:0:
320,192,7931,1,0,0:0:0:0:
64,192,8122,1,0,0:0:0:0:
192,192,8217,1,0,0:0:0:0:
448,192,8217,1,0,0:0:0:0:
320,192,8313,1,0,0:0:0:0:
192,192,8408,1,0,0:0:0:0:
64,192,8504,1,0,0:0:0:0:
448,192,8600,1,0,0:0:0:0:
192,192,8791,1,0,0:0:0:0:
64,192,8791,1,0,0:0:0:0:
320,192,8886,1,0,0:0:0:0:
192,192,9077,1,0,0:0:0:0:
320,192,9173,1,0,0:0:0:0:
448,192,9173,1,0,0:0:0:0:
64,192,9364,1,0,0:0:0:0:
448,192,9459,1,0,0:0:0:0:
64,192,9651,1,0,0:0:0:0:
448,192,9746,1,0,0:0:0:0:
320,192,9746,1,0,0:0:0:0:
192,192,9842,1,0,0:0:0:0:
448,192,9937,1,0,0:0:0:0:
320,192,9985,1,0,0:0:0:0:
192,192,10033,1,0,0:0:0:0:
64,192,10080,1,0,0:0:0:0:
448,192,10128,1,0,0:0:0:0:
192,192,10224,1,0,0:0:0:0:
64,192,10319,1,0,0:0:0:0:
320,192,10319,1,0,0:0:0:0:
64,192,10510,1,0,0:0:0:0:
192,192,10558,1,0,0:0:0:0:
320,192,10606,1,0,0:0:0:0:
448,192,10654,1,0,0:0:0:0:
192,192,10701,1,0,0:0:0:0:
64,192,10701,1,0,0:0:0:0:
448,192,10893,1,0,0:0:0:0:
192,192,10988,1,0,0:0:0:0:
448,192,11179,1,0,0:0:0:0:
192,192,11275,1,0,0:0:0:0:
64,192,11275,1,0,0:0:0:0:
320,192,11370,1,0,0:0:0:0:
448,192,11466,1,0,0:0:0:0:
64,192,11561,1,0,0:0:0:0:
192,192,11657,1,0,0:0:0:0:
320,192,11752,1,0,0:0:0:0:
448,192,11848,1,0,0:0:0:0:
64,192,11848,1,0,0:0:0:0:
192,192,11944,1,0,0:0:0:0:
448,192,12039,1,0,0:0:0:0:
320,192,12135,1,0,0:0:0:0:
192,192,12230,1,0,0:0:0:0:
448,192,12230,1,0,0:0:0:0:
64,192,12421,1,0,0:0:0:0:
448,192,12517,1,0,0:0:0:0:
64,192,12708,1,0,0:0:0:0:
192,192,12803,1,0,0:0:0:0:
448,192,12803,1,0,0:0:0:0:
320,192,12994,1,0,0:0:0:0:
64,192,12994,1,0,0:0:0:0:
192,192,13186,1,0,0:0:0:0:
448,192,13186,1,0,0:0:0:0:
320,192,13233,1,0,0:0:0:0:
192,192,13281,1,0,0:0:0:0:
64,192,13329,1,0,0:0:0:0:
448,192,13377,1,0,0:0:0:0:
320,192,13377,1,0,0:0:0:0:
64,192,13504,1,0,0:0:0:0:
192,192,13504,1,0,0:0:0:0:
320,192,13568,1,0,0:0:0:0:
448,192,13568,1,0,0:0:0:0:
192,192,13631,1,0,0:0:0:0:
64,192,13631,1,0,0:0:0:0:
320,192,13695,1,0,0:0:0:0:
192,192,13759,1,0,0:0:0:0:
64,192,13759,1,0,0:0:0:0:
448,192,13759,128,0,13950:0:0:0:0:
320,192,13950,1,0,0:0:0:0:
192,192,14045,128,0,14237:0:0:0:0:
64,192,14141,1,0,0:0:0:0:
448,192,14141,1,0,0:0:0:0:
192,192,14332,128,0,14428:0:0:0:0:
448,192,14428,1,0,0:0:0:0:
320,192,14523,128,0,14714:0:0:0:0:
64,192,14523,1,0,0:0:0:0:
448,192,14714,1,0,0:0:0:0:
192,192,14810,128,0,15001:0:0:0:0:
320,192,14905,1,0,0:0:0:0:
64,192,14905,1,0,0:0:0:0:
192,192,15096,128,0,15192:0:0:0:0:
320,192,15192,1,0,0:0:0:0:
64,192,15287,128,0,15479:0:0:0:0:
448,192,15287,1,0,0:0:0:0:
192,192,15479,1,0,0:0:0:0:
448,192,15574,128,0,15765:0:0:0:0:
320,192,15670,1,0,0:0:0:0:
64,192,15670,1,0,0:0:0:0:
448,192,15861,128,0,15956:0:0:0:0:
320,192,15956,1,0,0:0:0:0:
192,192,16052,128,0,16243:0:0:0:0:
64,192,16052,1,0,0:0:0:0:
320,192,16243,1,0,0:0:0:0:
448,192,16338,128,0,16529:0:0:0:0:
64,192,16434,1,0,0:0:0:0:
192,192,16434,1,0,0:0:0:0:
448,192,16625,128,0,16721:0:0:0:0:
192,192,16721,1,0,0:0:0:0:
320,192,16816,128,0,17007:0:0:0:0:
192,192,17007,1,0,0:0:0:0:
64,192,17103,128,0,17294:0:0:0:0:
320,192,17198,1,0,0:0:0:0:
448,192,17198,1,0,0:0:0:0:
64,192,17389,128,0,17485:0:0:0:0:
320,192,17485,1,0,0:0:0:0:
448,192,17580,128,0,17772:0:0:0:0:
320,192,17772,1,0,0:0:0:0:
64,192,17867,128,0,18058:0:0:0:0:
192,192,17963,1,0,0:0:0:0:
448,192,17963,1,0,0:0:0:0:
64,192,18154,128,0,18249:0:0:0:0:
320,192,18249,1,0,0:0:0:0:
192,192,18345,128,0,18536:0:0:0:0:
64,192,18536,1,0,0:0:0:0:
320,192,18631,128,0,18822:0:0:0:0:
448,192,18727,1,0,0:0:0:0:
192,192,18727,1,0,0:0:0:0:
320,192,18918,128,0,19014:0:0:0:0:
192,192,19014,1,0,0:0:0:0:
64,192,19109,128,0,19300:0:0:0:0:
192,192,19300,1,0,0:0:0:0:
320,192,19396,128,0,19587:0:0:0:0:
448,192,19491,1,0,0:0:0:0:
64,192,19491,1,0,0:0:0:0:
320,192,19682,128,0,19778:0:0:0:0:
192,192,19778,1,0,0:0:0:0:
64,192,19873,1,0,0:0:0:0:
320,192,19873,1,0,0:0:0:0:
448,192,19873,1,0,0:0:0:0:
64,192,20065,1,0,0:0:0:0:
192,192,20160,128,0,20351:0:0:0:0:
320,192,20160,128,0,20351:0:0:0:0:
448,192,20351,1,0,0:0:0:0:
192,192,20447,128,0,20542:0:0:0:0:
320,192,20447,128,0,20542:0:0:0:0:
64,192,20638,1,0,0:0:0:0:
448,192,20638,1,0,0:0:0:0:
320,192,20829,1,0,0:0:0:0:
192,192,20924,128,0,21115:0:0:0:0:
64,192,20924,128,0,21115:0:0:0:0:
448,192,21115,1,0,0:0:0:0:
192,192,21211,128,0,21307:0:0:0:0:
64,192,21211,128,0,21307:0:0:0:0:
320,192,21402,1,0,0:0:0:0:
448,192,21402,1,0,0:0:0:0:
64,192,21593,1,0,0:0:0:0:
320,192,21689,128,0,21880:0:0:0:0:
448,192,21689,128,0,21880:0:0:0:0:
192,192,21880,1,0,0:0:0:0:
320,192,21975,128,0,22071:0:0:0:0:
448,192,21975,128,0,22071:0:0:0:0:
64,192,22166,1,0,0:0:0:0:
192,192,22166,1,0,0:0:0:0:
320,192,22358,1,0,0:0:0:0:
64,192,22453,128,0,22644:0:0:0:0:
448,192,22453,128,0,22644:0:0:0:0:
192,192,22644,1,0,0:0:0:0:
64,192,22740,128,0,22835:0:0:0:0:
448,192,22740,128,0,22835:0:0:0:0:
192,192,22931,1,0,0:0:0:0:
320,192,22931,1,0,0:0:0:0:
448,192,23122,1,0,0:0:0:0:
320,192,23122,1,0,0:0:0:0:
192,192,23313,1,0,0:0:0:0:
64,192,23313,1,0,0:0:0:0:
448,192,23504,1,0,0:0:0:0:
64,192,23504,1,0,0:0:0:0:
448,192,23695,1,0,0:0:0:0:
320,192,23695,1,0,0:0:0:0:
192,192,23822,1,0,0:0:0:0:
64,192,23822,1,0,0:0:0:0:
448,192,23950,1,0,0:0:0:0:
320,192,23950,1,0,0:0:0:0:
192,192,24077,1,0,0:0:0:0:
64,192,24077,1,0,0:0:0:0:
448,192,24205,1,0,0:0:0:0:
320,192,24205,1,0,0:0:0:0:
192,192,24332,1,0,0:0:0:0:
64,192,24332,1,0,0:0:0:0:
320,192,24459,1,0,0:0:0:0:
448,192,24459,1,0,0:0:0:0:
192,192,24651,1,0,0:0:0:0:
64,192,24842,1,0,0:0:0:0:
320,192,24842,1,0,0:0:0:0:
448,192,24842,1,0,0:0:0:0:
192,192,25033,1,0,0:0:0:0:
320,192,25128,1,0,0:0:0:0:
192,192,25224,1,0,0:0:0:0:
320,192,25319,128,0,25606:0:0:0:0:
64,192,25606,128,0,25988:0:0:0:0:
448,192,25606,1,0,0:0:0:0:
192,192,25606,1,0,0:0:0:0:
192,192,25988,128,0,26179:0:0:0:0:
320,192,25988,128,0,26275:0:0:0:0:
448,192,25988,128,0,26370:0:0:0:0:
192,192,26370,1,0,0:0:0:0:
64,192,26370,1,0,0:0:0:0:
320,192,26561,1,0,0:0:0:0:
192,192,26561,1,0,0:0:0:0:
448,192,26752,1,0,0:0:0:0:
320,192,26752,1,0,0:0:0:0:
64,192,26752,1,0,0:0:0:0:
192,192,26944,1,0,0:0:0:0:
448,192,27039,1,0,0:0:0:0:
192,192,27230,1,0,0:0:0:0:
448,192,27326,1,0,0:0:0:0:
320,192,27421,1,0,0:0:0:0:
192,192,27517,1,0,0:0:0:0:
64,192,27517,1,0,0:0:0:0:
64,192,27708,1,0,0:0:0:0:
448,192,27708,1,0,0:0:0:0:
320,192,27708,1,0,0:0:0:0:
192,192,27803,1,0,0:0:0:0:
320,192,27899,1,0,0:0:0:0:
448,192,27994,1,0,0:0:0:0:
64,192,28090,1,0,0:0:0:0:
192,192,28186,1,0,0:0:0:0:
448,192,28281,1,0,0:0:0:0:
320,192,28281,1,0,0:0:0:0:
64,192,28472,1,0,0:0:0:0:
192,192,28472,1,0,0:0:0:0:
448,192,28472,1,0,0:0:0:0:
320,192,28663,1,0,0:0:0:0:
64,192,28663,1,0,0:0:0:0:
192,192,28759,1,0,0:0:0:0:
320,192,28854,1,0,0:0:0:0:
448,192,28950,1,0,0:0:0:0:
64,192,29045,128,0,29428:0:0:0:0:
192,192,29045,128,0,29237:0:0:0:0:
320,192,29237,128,0,29428:0:0:0:0:
448,192,29428,1,0,0:0:0:0:
192,192,29523,1,0,0:0:0:0:
448,192,29714,1,0,0:0:0:0:
320,192,29810,1,0,0:0:0:0:
192,192,29810,1,0,0:0:0:0:
64,192,29810,1,0,0:0:0:0:
64,192,30001,1,0,0:0:0:0:
320,192,30096,1,0,0:0:0:0:
64,192,30287,1,0,0:0:0:0:
320,192,30383,1,0,0:0:0:0:
192,192,30479,1,0,0:0:0:0:
448,192,30574,1,0,0:0:0:0:
64,192,30574,1,0,0:0:0:0:
448,192,30765,1,0,0:0:0:0:
320,192,30765,1,0,0:0:0:0:
192,192,30765,1,0,0:0:0:0:
64,192,30956,1,0,0:0:0:0:
320,192,30956,1,0,0:0:0:0:
192,192,31147,1,0,0:0:0:0:
64,192,31147,1,0,0:0:0:0:
448,192,31338,1,0,0:0:0:0:
320,192,31338,1,0,0:0:0:0:
192,192,31338,1,0,0:0:0:0:
448,192,31529,1,0,0:0:0:0:
320,192,31529,1,0,0:0:0:0:
192,192,31721,1,0,0:0:0:0:
64,192,31721,1,0,0:0:0:0:
192,192,31912,1,0,0:0:0:0:
64,192,31912,1,0,0:0:0:0:
192,192,32103,128,0,32294:0:0:0:0:
320,192,32103,128,0,32389:0:0:0:0:
448,192,32103,128,0,32485:0:0:0:0:
64,192,32485,1,0,0:0:0:0:
192,192,32485,1,0,0:0:0:0:
320,192,32676,1,0,0:0:0:0:
192,192,32676,1,0,0:0:0:0:
448,192,32867,1,0,0:0:0:0:
320,192,32963,1,0,0:0:0:0:
192,192,33058,1,0,0:0:0:0:
64,192,33058,1,0,0:0:0:0:
448,192,33058,1,0,0:0:0:0:
320,192,33249,1,0,0:0:0:0:
64,192,33345,1,0,0:0:0:0:
192,192,33440,1,0,0:0:0:0:
448,192,33440,1,0,0:0:0:0:
320,192,33536,1,0,0:0:0:0:
192,192,33631,1,0,0:0:0:0:
64,192,33631,1,0,0:0:0:0:
448,192,33631,1,0,0:0:0:0:
64,192,33822,1,0,0:0:0:0:
448,192,33918,1,0,0:0:0:0:
320,192,34014,1,0,0:0:0:0:
192,192,34014,1,0,0:0:0:0:
64,192,34109,1,0,0:0:0:0:
192,192,34205,1,0,0:0:0:0:
320,192,34205,1,0,0:0:0:0:
448,192,34205,1,0,0:0:0:0:
448,192,34396,1,0,0:0:0:0:
64,192,34491,1,0,0:0:0:0:
192,192,34587,1,0,0:0:0:0:
320,192,34587,1,0,0:0:0:0:
448,192,34682,1,0,0:0:0:0:
320,192,34778,1,0,0:0:0:0:
192,192,34778,1,0,0:0:0:0:
64,192,34778,1,0,0:0:0:0:
448,192,34873,1,0,0:0:0:0:
320,192,34969,1,0,0:0:0:0:
192,192,35065,1,0,0:0:0:0:
64,192,35160,128,0,35542:0:0:0:0:
320,192,35160,128,0,35447:0:0:0:0:
448,192,35160,128,0,35351:0:0:0:0:
192,192,35542,1,0,0:0:0:0:
448,192,35638,1,0,0:0:0:0:
64,192,35733,1,0,0:0:0:0:
320,192,35924,1,0,0:0:0:0:
192,192,36020,1,0,0:0:0:0:
448,192,36211,1,0,0:0:0:0:
64,192,36307,1,0,0:0:0:0:
192,192,36402,1,0,0:0:0:0:
320,192,36498,1,0,0:0:0:0:
448,192,36593,1,0,0:0:0:0:
64,192,36689,128,0,36880:0:0:0:0:
192,192,36689,1,0,0:0:0:0:
192,192,36880,128,0,36975:0:0:0:0:
320,192,36880,128,0,37071:0:0:0:0:
448,192,36880,128,0,37166:0:0:0:0:
64,192,37166,1,0,0:0:0:0:
192,192,37262,1,0,0:0:0:0:
320,192,37358,1,0,0:0:0:0:
448,192,37453,1,0,0:0:0:0:
64,192,37453,1,0,0:0:0:0:
320,192,37644,1,0,0:0:0:0:
192,192,37644,1,0,0:0:0:0:
448,192,37835,1,0,0:0:0:0:
320,192,37835,1,0,0:0:0:0:
192,192,38026,1,0,0:0:0:0:
64,192,38026,1,0,0:0:0:0:
64,192,38217,128,0,38408:0:0:0:0:
320,192,38217,128,0,38504:0:0:0:0:
448,192,38217,128,0,38600:0:0:0:0:
192,192,38600,1,0,0:0:0:0:
64,192,38600,1,0,0:0:0:0:
448,192,38791,1,0,0:0:0:0:
320,192,38886,1,0,0:0:0:0:
192,192,38982,1,0,0:0:0:0:
64,192,38982,1,0,0:0:0:0:
448,192,38982,1,0,0:0:0:0:
320,192,39173,1,0,0:0:0:0:
192,192,39268,1,0,0:0:0:0:
64,192,39364,1,0,0:0:0:0:
320,192,39555,1,0,0:0:0:0:
448,192,39746,1,0,0:0:0:0:
64,192,39746,1,0,0:0:0:0:
448,192,39937,1,0,0:0:0:0:
192,192,40032,1,0,0:0:0:0:
448,192,40224,1,0,0:0:0:0:
192,192,40319,1,0,0:0:0:0:
64,192,40510,1,0,0:0:0:0:
320,192,40510,1,0,0:0:0:0:
320,192,40701,1,0,0:0:0:0:
192,192,40701,1,0,0:0:0:0:
448,192,40892,1,0,0:0:0:0:
192,192,40892,1,0,0:0:0:0:
448,192,41083,1,0,0:0:0:0:
64,192,41083,1,0,0:0:0:0:
192,192,41274,1,0,0:0:0:0:
64,192,41274,1,0,0:0:0:0:
320,192,41466,1,0,0:0:0:0:
448,192,41466,1,0,0:0:0:0:
448,192,41657,1,0,0:0:0:0:
64,192,41784,1,0,0:0:0:0:
192,192,41848,1,0,0:0:0:0:
320,192,41911,1,0,0:0:0:0:
448,192,41975,1,0,0:0:0:0:
64,192,42039,1,0,0:0:0:0:
192,192,42039,1,0,0:0:0:0:
320,192,42039,1,0,0:0:0:0:
64,192,42230,1,0,0:0:0:0:
192,192,42325,1,0,0:0:0:0:
320,192,42421,1,0,0:0:0:0:
448,192,42421,1,0,0:0:0:0:
64,192,42421,1,0,0:0:0:0:
448,192,42612,1,0,0:0:0:0:
320,192,42708,1,0,0:0:0:0:
64,192,42803,1,0,0:0:0:0:
192,192,42803,1,0,0:0:0:0:
448,192,42803,1,0,0:0:0:0:
192,192,42994,1,0,0:0:0:0:
64,192,43090,1,0,0:0:0:0:
192,192,43185,1,0,0:0:0:0:
320,192,43185,1,0,0:0:0:0:
448,192,43185,1,0,0:0:0:0:
320,192,43376,1,0,0:0:0:0:
448,192,43472,1,0,0:0:0:0:
192,192,43567,1,0,0:0:0:0:
64,192,43567,1,0,0:0:0:0:
320,192,43759,1,0,0:0:0:0:
192,192,43759,1,0,0:0:0:0:
320,192,43950,1,0,0:0:0:0:
448,192,43950,1,0,0:0:0:0:
192,192,44077,1,0,0:0:0:0:
64,192,44077,1,0,0:0:0:0:
320,192,44204,1,0,0:0:0:0:
448,192,44204,1,0,0:0:0:0:
448,192,44332,128,0,44587:0:0:0:0:
192,192,44332,128,0,44714:0:0:0:0:
64,192,44332,128,0,44841:0:0:0:0:
448,192,44841,1,0,0:0:0:0:
320,192,44841,1,0,0:0:0:0:
192,192,44969,1,0,0:0:0:0:
64,192,44969,1,0,0:0:0:0:
64,192,45096,128,0,45192:0:0:0:0:
320,192,45096,128,0,45287:0:0:0:0:
448,192,45096,128,0,45383:0:0:0:0:
64,192,45383,1,0,0:0:0:0:
320,192,45478,1,0,0:0:0:0:
448,192,45669,1,0,0:0:0:0:
64,192,45669,1,0,0:0:0:0:
320,192,45765,1,0,0:0:0:0:
192,192,45860,1,0,0:0:0:0:
64,192,45860,1,0,0:0:0:0:
448,192,45860,1,0,0:0:0:0:
448,192,46147,1,0,0:0:0:0:
64,192,46243,1,0,0:0:0:0:
448,192,46434,1,0,0:0:0:0:
192,192,46434,1,0,0:0:0:0:
320,192,46529,1,0,0:0:0:0:
64,192,46625,1,0,0:0:0:0:
192,192,46625,1,0,0:0:0:0:
448,192,46625,1,0,0:0:0:0:
320,192,46880,1,0,0:0:0:0:
192,192,46880,1,0,0:0:0:0:
64,192,47134,1,0,0:0:0:0:
192,192,47134,1,0,0:0:0:0:
448,192,47389,1,0,0:0:0:0:
320,192,47389,1,0,0:0:0:0:
64,192,47389,1,0,0:0:0:0:
448,192,47580,1,0,0:0:0:0:
192,192,47771,1,0,0:0:0:0:
320,192,47962,1,0,0:0:0:0:
448,192,48058,1,0,0:0:0:0:
192,192,48153,1,0,0:0:0:0:
64,192,48153,1,0,0:0:0:0:
320,192,48440,1,0,0:0:0:0:
64,192,48727,1,0,0:0:0:0:
192,192,48918,1,0,0:0:0:0:
320,192,48918,1,0,0:0:0:0:
448,192,48918,1,0,0:0:0:0:
64,192,49109,1,0,0:0:0:0:
192,192,49204,1,0,0:0:0:0:
320,192,49300,1,0,0:0:0:0:
448,192,49300,1,0,0:0:0:0:
320,192,49587,1,0,0:0:0:0:
192,192,49587,1,0,0:0:0:0:
192,192,49873,1,0,0:0:0:0:
64,192,49873,1,0,0:0:0:0:
448,192,50160,1,0,0:0:0:0:
320,192,50255,1,0,0:0:0:0:
192,192,50351,1,0,0:0:0:0:
64,192,50446,128,0,50637:0:0:0:0:
320,192,50446,128,0,50732:0:0:0:0:
448,192,50446,128,0,50828:0:0:0:0:
192,192,50828,1,0,0:0:0:0:
64,192,50828,1,0,0:0:0:0:
448,192,51019,128,0,51210:0:0:0:0:
320,192,51019,128,0,51305:0:0:0:0:
64,192,51019,128,0,51401:0:0:0:0:
192,192,51401,1,0,0:0:0:0:
448,192,51401,1,0,0:0:0:0:
64,192,51592,128,0,51783:0:0:0:0:
192,192,51592,128,0,51879:0:0:0:0:
320,192,51592,128,0,51974:0:0:0:0:
64,192,51974,1,0,0:0:0:0:
448,192,51974,1,0,0:0:0:0:
192,192,52165,128,0,52356:0:0:0:0:
320,192,52165,128,0,52452:0:0:0:0:
448,192,52165,128,0,52547:0:0:0:0:
192,192,52547,1,0,0:0:0:0:
64,192,52547,1,0,0:0:0:0:
64,192,52738,128,0,52930:0:0:0:0:
448,192,52738,128,0,52834:0:0:0:0:
320,192,52738,128,0,52834:0:0:0:0:
192,192,52930,1,0,0:0:0:0:
320,192,53025,1,0,0:0:0:0:
448,192,53121,1,0,0:0:0:0:
64,192,53121,1,0,0:0:0:0:
320,192,53312,1,0,0:0:0:0:
192,192,53312,1,0,0:0:0:0:
64,192,53503,1,0,0:0:0:0:
448,192,53503,1,0,0:0:0:0:
192,192,53503,1,0,0:0:0:0:
320,192,53694,1,0,0:0:0:0:
192,192,53885,1,0,0:0:0:0:
448,192,53885,1,0,0:0:0:0:
64,192,54076,128,0,54458:0:0:0:0:
320,192,54076,128,0,54267:0:0:0:0:
192,192,54076,128,0,54363:0:0:0:0:
320,192,54458,1,0,0:0:0:0:
448,192,54458,1,0,0:0:0:0:
64,192,54649,128,0,54840:0:0:0:0:
192,192,54649,128,0,54936:0:0:0:0:
448,192,54649,128,0,55031:0:0:0:0:
320,192,55031,1,0,0:0:0:0:
64,192,55031,1,0,0:0:0:0:
192,192,55223,128,0,55414:0:0:0:0:
320,192,55223,128,0,55509:0:0:0:0:
448,192,55223,128,0,55605:0:0:0:0:
192,192,55605,1,0,0:0:0:0:
64,192,55605,1,0,0:0:0:0:
320,192,55796,1,0,0:0:0:0:
448,192,55796,1,0,0:0:0:0:
64,192,55796,1,0,0:0:0:0:
192,192,55987,1,0,0:0:0:0:
320,192,56082,1,0,0:0:0:0:
448,192,56178,1,0,0:0:0:0:
64,192,56178,1,0,0:0:0:0:
320,192,56369,1,0,0:0:0:0:
192,192,56369,1,0,0:0:0:0:
64,192,56560,128,0,56847:0:0:0:0:
192,192,56560,1,0,0:0:0:0:
320,192,56847,1,0,0:0:0:0:
448,192,56847,128,0,57133:0:0:0:0:
320,192,57133,1,0,0:0:0:0:
192,192,57133,1,0,0:0:0:0:
64,192,57133,1,0,0:0:0:0:
448,192,57324,1,0,0:0:0:0:
320,192,57324,128,0,57611:0:0:0:0:
64,192,57611,1,0,0:0:0:0:
192,192,57611,128,0,57898:0:0:0:0:
64,192,57898,1,0,0:0:0:0:
320,192,57898,1,0,0:0:0:0:
448,192,57898,1,0,0:0:0:0:
192,192,58089,1,0,0:0:0:0:
64,192,58089,128,0,58375:0:0:0:0:
320,192,58375,1,0,0:0:0:0:
448,192,58375,128,0,58662:0:0:0:0:
64,192,58662,1,0,0:0:0:0:
192,192,58662,1,0,0:0:0:0:
320,192,58662,1,0,0:0:0:0:
448,192,58853,1,0,0:0:0:0:
320,192,58853,128,0,59140:0:0:0:0:
192,192,59140,128,0,59426:0:0:0:0:
64,192,59140,1,0,0:0:0:0:
320,192,59426,1,0,0:0:0:0:
448,192,59426,1,0,0:0:0:0:
64,192,59426,1,0,0:0:0:0:
192,192,59617,1,0,0:0:0:0:
64,192,59617,1,0,0:0:0:0:
192,192,59809,1,0,0:0:0:0:
64,192,59809,1,0,0:0:0:0:
320,192,60000,1,0,0:0:0:0:
448,192,60000,1,0,0:0:0:0:
448,192,60191,1,0,0:0:0:0:
320,192,60191,1,0,0:0:0:0:
192,192,60382,1,0,0:0:0:0:
64,192,60382,1,0,0:0:0:0:
320,192,60509,1,0,0:0:0:0:
448,192,60509,1,0,0:0:0:0:
192,192,60637,1,0,0:0:0:0:
64,192,60637,1,0,0:0:0:0:
320,192,60764,1,0,0:0:0:0:
448,192,60764,1,0,0:0:0:0:
192,192,60891,1,0,0:0:0:0:
64,192,60891,1,0,0:0:0:0:
320,192,61019,1,0,0:0:0:0:
448,192,61019,1,0,0:0:0:0:
192,192,61146,1,0,0:0:0:0:
64,192,61146,1,0,0:0:0:0:
320,192,61337,1,0,0:0:0:0:
64,192,61528,1,0,0:0:0:0:
448,192,61528,1,0,0:0:0:0:
192,192,61719,1,0,0:0:0:0:
320,192,61815,1,0,0:0:0:0:
448,192,61910,1,0,0:0:0:0:
64,192,62006,1,0,0:0:0:0:
192,192,62102,1,0,0:0:0:0:
320,192,62197,1,0,0:0:0:0:
448,192,62293,1,0,0:0:0:0:
192,192,62293,1,0,0:0:0:0:
64,192,62293,128,0,62675:0:0:0:0:
192,192,62675,1,0,0:0:0:0:
320,192,62675,1,0,0:0:0:0:
448,192,62675,128,0,67261:0:0:0:0:
64,192,63248,1,0,0:0:0:0:
320,192,63439,1,0,0:0:0:0:
192,192,63630,1,0,0:0:0:0:
64,192,63821,1,0,0:0:0:0:
320,192,64012,1,0,0:0:0:0:
64,192,64203,1,0,0:0:0:0:
192,192,64395,1,0,0:0:0:0:
320,192,64586,1,0,0:0:0:0:
64,192,64777,1,0,0:0:0:0:
192,192,64968,1,0,0:0:0:0:
64,192,65350,1,0,0:0:0:0:
320,192,65541,1,0,0:0:0:0:
192,192,65732,1,0,0:0:0:0:
64,192,65923,1,0,0:0:0:0:
320,192,66114,1,0,0:0:0:0:
64,192,66305,1,0,0:0:0:0:
192,192,66496,1,0,0:0:0:0:
320,192,66688,1,0,0:0:0:0:
64,192,66879,1,0,0:0:0:0:
320,192,67070,1,0,0:0:0:0:
64,192,67261,128,0,68025:0:0:0:0:
192,192,67261,1,0,0:0:0:0:
320,192,67452,1,0,0:0:0:0:
448,192,67834,1,0,0:0:0:0:
192,192,68025,128,0,68789:0:0:0:0:
320,192,68025,1,0,0:0:0:0:
64,192,68407,1,0,0:0:0:0:
448,192,68598,1,0,0:0:0:0:
320,192,68789,128,0,73375:0:0:0:0:
64,192,68789,1,0,0:0:0:0:
192,192,68981,1,0,0:0:0:0:
448,192,69172,1,0,0:0:0:0:
64,192,69363,1,0,0:0:0:0:
448,192,69554,1,0,0:0:0:0:
192,192,69745,1,0,0:0:0:0:
64,192,69936,1,0,0:0:0:0:
448,192,70127,1,0,0:0:0:0:
64,192,70318,1,0,0:0:0:0:
192,192,70509,1,0,0:0:0:0:
64,192,70891,1,0,0:0:0:0:
448,192,71082,1,0,0:0:0:0:
192,192,71274,1,0,0:0:0:0:
64,192,71465,1,0,0:0:0:0:
448,192,71656,1,0,0:0:0:0:
64,192,71847,1,0,0:0:0:0:
192,192,72038,1,0,0:0:0:0:
448,192,72229,1,0,0:0:0:0:
64,192,72420,1,0,0:0:0:0:
192,192,72611,1,0,0:0:0:0:
448,192,72802,1,0,0:0:0:0:
192,192,72993,1,0,0:0:0:0:
64,192,73184,1,0,0:0:0:0:
192,192,73375,1,0,0:0:0:0:
448,192,73375,1,0,0:0:0:0:
64,192,73567,1,0,0:0:0:0:
320,192,73662,1,0,0:0:0:0:
64,192,73853,1,0,0:0:0:0:
320,192,73949,1,0,0:0:0:0:
192,192,74044,1,0,0:0:0:0:
448,192,74140,1,0,0:0:0:0:
192,192,74331,1,0,0:0:0:0:
448,192,74522,1,0,0:0:0:0:
192,192,74713,1,0,0:0:0:0:
320,192,74904,1,0,0:0:0:0:
448,192,74904,1,0,0:0:0:0:
64,192,74904,128,0,76433:0:0:0:0:
320,192,75477,1,0,0:0:0:0:
448,192,75477,1,0,0:0:0:0:
320,192,76051,1,0,0:0:0:0:
448,192,76051,1,0,0:0:0:0:
448,192,76624,128,0,77961:0:0:0:0:
192,192,76624,1,0,0:0:0:0:
64,192,76624,1,0,0:0:0:0:
192,192,77197,1,0,0:0:0:0:
64,192,77197,1,0,0:0:0:0:
192,192,77579,1,0,0:0:0:0:
64,192,77579,1,0,0:0:0:0:
192,192,77961,128,0,79490:0:0:0:0:
320,192,77961,1,0,0:0:0:0:
64,192,77961,1,0,0:0:0:0:
64,192,78535,1,0,0:0:0:0:
320,192,78535,1,0,0:0:0:0:
320,192,79203,1,0,0:0:0:0:
64,192,79203,1,0,0:0:0:0:
320,192,79681,128,0,81019:0:0:0:0:
448,192,79681,1,0,0:0:0:0:
192,192,79681,1,0,0:0:0:0:
448,192,80254,1,0,0:0:0:0:
192,192,80254,1,0,0:0:0:0:
448,192,80637,1,0,0:0:0:0:
192,192,80637,1,0,0:0:0:0:
64,192,81019,128,0,82547:0:0:0:0:
192,192,81019,1,0,0:0:0:0:
448,192,81019,1,0,0:0:0:0:
192,192,81401,1,0,0:0:0:0:
448,192,81401,1,0,0:0:0:0:
320,192,81592,1,0,0:0:0:0:
448,192,81783,1,0,0:0:0:0:
192,192,81783,1,0,0:0:0:0:
192,192,82165,1,0,0:0:0:0:
448,192,82165,1,0,0:0:0:0:
320,192,82547,1,0,0:0:0:0:
448,192,82547,1,0,0:0:0:0:
448,192,82738,1,0,0:0:0:0:
320,192,82738,1,0,0:0:0:0:
192,192,82930,1,0,0:0:0:0:
64,192,82930,1,0,0:0:0:0:
192,192,83121,1,0,0:0:0:0:
64,192,83121,1,0,0:0:0:0:
320,192,83312,1,0,0:0:0:0:
448,192,83312,1,0,0:0:0:0:
320,192,83503,1,0,0:0:0:0:
448,192,83503,1,0,0:0:0:0:
192,192,83694,1,0,0:0:0:0:
64,192,83694,1,0,0:0:0:0:
192,192,83885,1,0,0:0:0:0:
64,192,83885,1,0,0:0:0:0:
320,192,84076,1,0,0:0:0:0:
448,192,84076,1,0,0:0:0:0:
192,192,84203,1,0,0:0:0:0:
64,192,84203,1,0,0:0:0:0:
320,192,84331,1,0,0:0:0:0:
448,192,84331,1,0,0:0:0:0:
192,192,84458,1,0,0:0:0:0:
64,192,84458,1,0,0:0:0:0:
320,192,84586,1,0,0:0:0:0:
448,192,84586,1,0,0:0:0:0:
192,192,84713,1,0,0:0:0:0:
64,192,84713,1,0,0:0:0:0:
320,192,84840,1,0,0:0:0:0:
448,192,84840,1,0,0:0:0:0:
192,192,84968,1,0,0:0:0:0:
64,192,84968,1,0,0:0:0:0:
320,192,85095,1,0,0:0:0:0:
448,192,85095,1,0,0:0:0:0:
192,192,85223,1,0,0:0:0:0:
64,192,85223,1,0,0:0:0:0:
320,192,85350,1,0,0:0:0:0:
448,192,85350,1,0,0:0:0:0:
192,192,85477,1,0,0:0:0:0:
64,192,85477,1,0,0:0:0:0:
320,192,85605,1,0,0:0:0:0:
448,192,85605,128,0,85796:0:0:0:0:
192,192,85796,128,0,85987:0:0:0:0:
64,192,85987,128,0,86178:0:0:0:0:
320,192,86178,1,0,0:0:0:0:
448,192,86369,128,0,86751:0:0:0:0:
64,192,86751,128,0,87133:0:0:0:0:
192,192,86751,1,0,0:0:0:0:
448,192,87133,1,0,0:0:0:0:
320,192,87133,1,0,0:0:0:0:
192,192,87133,1,0,0:0:0:0:
64,192,87324,1,0,0:0:0:0:
192,192,87420,1,0,0:0:0:0:
320,192,87516,1,0,0:0:0:0:
448,192,87516,1,0,0:0:0:0:
192,192,87707,1,0,0:0:0:0:
448,192,87898,1,0,0:0:0:0:
64,192,87898,1,0,0:0:0:0:
320,192,88089,1,0,0:0:0:0:
192,192,88280,1,0,0:0:0:0:
64,192,88280,1,0,0:0:0:0:
448,192,88280,1,0,0:0:0:0:
320,192,88375,1,0,0:0:0:0:
192,192,88471,1,0,0:0:0:0:
64,192,88567,1,0,0:0:0:0:
320,192,88662,1,0,0:0:0:0:
448,192,88662,1,0,0:0:0:0:
192,192,88853,1,0,0:0:0:0:
64,192,88949,1,0,0:0:0:0:
448,192,89044,1,0,0:0:0:0:
192,192,89044,1,0,0:0:0:0:
320,192,89044,1,0,0:0:0:0:
64,192,89140,1,0,0:0:0:0:
320,192,89235,1,0,0:0:0:0:
192,192,89426,1,0,0:0:0:0:
448,192,89426,1,0,0:0:0:0:
64,192,89617,1,0,0:0:0:0:
192,192,89809,1,0,0:0:0:0:
320,192,89809,1,0,0:0:0:0:
448,192,89809,1,0,0:0:0:0:
64,192,90000,1,0,0:0:0:0:
192,192,90095,1,0,0:0:0:0:
320,192,90191,1,0,0:0:0:0:
448,192,90191,1,0,0:0:0:0:
448,192,90382,1,0,0:0:0:0:
320,192,90477,1,0,0:0:0:0:
192,192,90573,1,0,0:0:0:0:
64,192,90573,1,0,0:0:0:0:
448,192,90573,1,0,0:0:0:0:
320,192,90764,1,0,0:0:0:0:
192,192,90955,1,0,0:0:0:0:
64,192,90955,1,0,0:0:0:0:
448,192,91146,1,0,0:0:0:0:
320,192,91337,1,0,0:0:0:0:
192,192,91337,1,0,0:0:0:0:
64,192,91337,1,0,0:0:0:0:
448,192,91433,1,0,0:0:0:0:
320,192,91528,1,0,0:0:0:0:
192,192,91624,1,0,0:0:0:0:
64,192,91719,1,0,0:0:0:0:
448,192,91719,1,0,0:0:0:0:
320,192,91910,1,0,0:0:0:0:
192,192,92006,1,0,0:0:0:0:
320,192,92102,1,0,0:0:0:0:
448,192,92102,1,0,0:0:0:0:
64,192,92102,1,0,0:0:0:0:
64,192,92293,1,0,0:0:0:0:
192,192,92484,1,0,0:0:0:0:
448,192,92484,1,0,0:0:0:0:
320,192,92675,1,0,0:0:0:0:
448,192,92866,1,0,0:0:0:0:
192,192,92866,1,0,0:0:0:0:
64,192,92866,1,0,0:0:0:0:
64,192,93057,1,0,0:0:0:0:
192,192,93153,1,0,0:0:0:0:
320,192,93248,1,0,0:0:0:0:
448,192,93248,1,0,0:0:0:0:
448,192,93439,1,0,0:0:0:0:
320,192,93535,1,0,0:0:0:0:
192,192,93630,1,0,0:0:0:0:
64,192,93630,1,0,0:0:0:0:
448,192,93630,1,0,0:0:0:0:
320,192,93726,1,0,0:0:0:0:
192,192,93821,1,0,0:0:0:0:
64,192,93917,1,0,0:0:0:0:
448,192,94012,1,0,0:0:0:0:
320,192,94012,1,0,0:0:0:0:
64,192,94203,1,0,0:0:0:0:
192,192,94299,1,0,0:0:0:0:
320,192,94395,1,0,0:0:0:0:
448,192,94395,1,0,0:0:0:0:
64,192,94395,1,0,0:0:0:0:
192,192,94490,1,0,0:0:0:0:
320,192,94586,1,0,0:0:0:0:
448,192,94681,1,0,0:0:0:0:
64,192,94777,1,0,0:0:0:0:
192,192,94777,1,0,0:0:0:0:
320,192,94777,1,0,0:0:0:0:
448,192,94968,1,0,0:0:0:0:
320,192,95063,1,0,0:0:0:0:
448,192,95159,1,0,0:0:0:0:
192,192,95159,1,0,0:0:0:0:
64,192,95159,1,0,0:0:0:0:
320,192,95254,1,0,0:0:0:0:
192,192,95350,1,0,0:0:0:0:
64,192,95445,1,0,0:0:0:0:
448,192,95541,1,0,0:0:0:0:
320,192,95541,1,0,0:0:0:0:
192,192,95732,1,0,0:0:0:0:
320,192,95923,1,0,0:0:0:0:
448,192,95923,1,0,0:0:0:0:
64,192,95923,1,0,0:0:0:0:
320,192,96114,1,0,0:0:0:0:
192,192,96305,1,0,0:0:0:0:
64,192,96305,1,0,0:0:0:0:
192,192,96496,1,0,0:0:0:0:
320,192,96592,1,0,0:0:0:0:
448,192,96688,1,0,0:0:0:0:
192,192,96688,1,0,0:0:0:0:
64,192,96688,1,0,0:0:0:0:
320,192,96783,1,0,0:0:0:0:
192,192,96879,1,0,0:0:0:0:
64,192,96974,1,0,0:0:0:0:
448,192,97070,1,0,0:0:0:0:
320,192,97070,1,0,0:0:0:0:
320,192,97261,1,0,0:0:0:0:
192,192,97356,1,0,0:0:0:0:
64,192,97452,1,0,0:0:0:0:
320,192,97452,1,0,0:0:0:0:
448,192,97452,1,0,0:0:0:0:
192,192,97547,1,0,0:0:0:0:
320,192,97643,1,0,0:0:0:0:
448,192,97738,1,0,0:0:0:0:
192,192,97834,1,0,0:0:0:0:
64,192,97834,1,0,0:0:0:0:
64,192,98025,1,0,0:0:0:0:
192,192,98121,1,0,0:0:0:0:
320,192,98216,1,0,0:0:0:0:
448,192,98216,1,0,0:0:0:0:
64,192,98216,1,0,0:0:0:0:
192,192,98312,1,0,0:0:0:0:
320,192,98407,1,0,0:0:0:0:
448,192,98503,1,0,0:0:0:0:
64,192,98598,1,0,0:0:0:0:
192,192,98598,1,0,0:0:0:0:
448,192,98789,1,0,0:0:0:0:
320,192,98789,1,0,0:0:0:0:
64,192,98981,1,0,0:0:0:0:
192,192,98981,1,0,0:0:0:0:
448,192,98981,1,0,0:0:0:0:
320,192,99172,1,0,0:0:0:0:
64,192,99172,1,0,0:0:0:0:
64,192,99363,1,0,0:0:0:0:
192,192,99363,1,0,0:0:0:0:
448,192,99363,1,0,0:0:0:0:
448,192,99554,1,0,0:0:0:0:
320,192,99649,1,0,0:0:0:0:
192,192,99745,1,0,0:0:0:0:
64,192,99745,1,0,0:0:0:0:
320,192,99936,1,0,0:0:0:0:
64,192,100127,1,0,0:0:0:0:
448,192,100127,1,0,0:0:0:0:
192,192,100318,1,0,0:0:0:0:
320,192,100509,1,0,0:0:0:0:
448,192,100509,1,0,0:0:0:0:
64,192,100509,1,0,0:0:0:0:
192,192,100605,1,0,0:0:0:0:
320,192,100700,1,0,0:0:0:0:
448,192,100796,1,0,0:0:0:0:
192,192,100891,1,0,0:0:0:0:
64,192,100891,1,0,0:0:0:0:
320,192,101082,1,0,0:0:0:0:
448,192,101178,1,0,0:0:0:0:
64,192,101274,1,0,0:0:0:0:
320,192,101274,1,0,0:0:0:0:
192,192,101274,1,0,0:0:0:0:
448,192,101369,1,0,0:0:0:0:
192,192,101465,1,0,0:0:0:0:
320,192,101656,1,0,0:0:0:0:
64,192,101656,1,0,0:0:0:0:
448,192,101847,1,0,0:0:0:0:
320,192,102038,1,0,0:0:0:0:
192,192,102038,1,0,0:0:0:0:
64,192,102038,1,0,0:0:0:0:
448,192,102229,1,0,0:0:0:0:
320,192,102324,1,0,0:0:0:0:
192,192,102420,1,0,0:0:0:0:
64,192,102420,1,0,0:0:0:0:
64,192,102611,1,0,0:0:0:0:
192,192,102707,1,0,0:0:0:0:
320,192,102802,1,0,0:0:0:0:
448,192,102802,1,0,0:0:0:0:
64,192,102802,1,0,0:0:0:0:
192,192,102993,1,0,0:0:0:0:
320,192,103184,1,0,0:0:0:0:
448,192,103184,1,0,0:0:0:0:
64,192,103375,1,0,0:0:0:0:
192,192,103567,1,0,0:0:0:0:
320,192,103567,1,0,0:0:0:0:
448,192,103567,1,0,0:0:0:0:
64,192,103662,1,0,0:0:0:0:
192,192,103758,1,0,0:0:0:0:
320,192,103853,1,0,0:0:0:0:
448,192,103949,1,0,0:0:0:0:
64,192,103949,1,0,0:0:0:0:
192,192,104140,1,0,0:0:0:0:
320,192,104235,1,0,0:0:0:0:
192,192,104331,1,0,0:0:0:0:
64,192,104331,1,0,0:0:0:0:
448,192,104331,1,0,0:0:0:0:
320,192,104426,1,0,0:0:0:0:
448,192,104522,1,0,0:0:0:0:
320,192,104713,1,0,0:0:0:0:
64,192,104713,1,0,0:0:0:0:
192,192,104904,1,0,0:0:0:0:
64,192,105095,1,0,0:0:0:0:
320,192,105095,1,0,0:0:0:0:
448,192,105095,1,0,0:0:0:0:
448,192,105286,1,0,0:0:0:0:
320,192,105382,1,0,0:0:0:0:
192,192,105477,1,0,0:0:0:0:
64,192,105477,1,0,0:0:0:0:
448,192,105477,1,0,0:0:0:0:
192,192,105764,1,0,0:0:0:0:
64,192,105764,1,0,0:0:0:0:
192,192,106051,1,0,0:0:0:0:
64,192,106051,1,0,0:0:0:0:
64,192,106242,1,0,0:0:0:0:
320,192,106242,1,0,0:0:0:0:
448,192,106242,1,0,0:0:0:0:
320,192,106528,1,0,0:0:0:0:
448,192,106528,1,0,0:0:0:0:
448,192,106815,1,0,0:0:0:0:
320,192,106815,1,0,0:0:0:0:
192,192,107006,1,0,0:0:0:0:
64,192,107006,1,0,0:0:0:0:
448,192,107006,1,0,0:0:0:0:
192,192,107293,1,0,0:0:0:0:
64,192,107293,1,0,0:0:0:0:
192,192,107579,1,0,0:0:0:0:
64,192,107579,1,0,0:0:0:0:
320,192,107770,1,0,0:0:0:0:
448,192,107770,1,0,0:0:0:0:
64,192,107770,1,0,0:0:0:0:
320,192,108057,1,0,0:0:0:0:
448,192,108057,1,0,0:0:0:0:
448,192,108344,1,0,0:0:0:0:
320,192,108344,1,0,0:0:0:0:
192,192,108535,1,0,0:0:0:0:
64,192,108535,1,0,0:0:0:0:
448,192,108535,1,0,0:0:0:0:
192,192,108726,1,0,0:0:0:0:
64,192,108726,1,0,0:0:0:0:
320,192,108917,1,0,0:0:0:0:
448,192,108917,1,0,0:0:0:0:
448,192,109108,1,0,0:0:0:0:
320,192,109108,1,0,0:0:0:0:
64,192,109299,1,0,0:0:0:0:
448,192,109299,1,0,0:0:0:0:
192,192,109299,1,0,0:0:0:0:
320,192,109395,1,0,0:0:0:0:
192,192,109490,1,0,0:0:0:0:
64,192,109586,1,0,0:0:0:0:
448,192,109681,1,0,0:0:0:0:
320,192,109777,1,0,0:0:0:0:
192,192,109872,1,0,0:0:0:0:
64,192,109968,1,0,0:0:0:0:
448,192,110063,1,0,0:0:0:0:
64,192,110254,1,0,0:0:0:0:
320,192,110350,1,0,0:0:0:0:
448,192,110541,1,0,0:0:0:0:
192,192,110637,1,0,0:0:0:0:
64,192,110828,1,0,0:0:0:0:
192,192,111019,1,0,0:0:0:0:
320,192,111210,1,0,0:0:0:0:
448,192,111210,1,0,0:0:0:0:
64,192,111210,1,0,0:0:0:0:
448,192,111401,1,0,0:0:0:0:
320,192,111592,128,0,111783:0:0:0:0:
192,192,111592,128,0,111879:0:0:0:0:
64,192,111592,128,0,111974:0:0:0:0:
320,192,111974,1,0,0:0:0:0:
448,192,111974,1,0,0:0:0:0:
448,192,112165,1,0,0:0:0:0:
320,192,112165,1,0,0:0:0:0:
64,192,112356,1,0,0:0:0:0:
192,192,112356,1,0,0:0:0:0:
448,192,112356,1,0,0:0:0:0:
320,192,112547,1,0,0:0:0:0:
64,192,112643,1,0,0:0:0:0:
320,192,112834,1,0,0:0:0:0:
64,192,112930,1,0,0:0:0:0:
192,192,113025,1,0,0:0:0:0:
320,192,113121,1,0,0:0:0:0:
448,192,113121,1,0,0:0:0:0:
64,192,113312,1,0,0:0:0:0:
448,192,113312,1,0,0:0:0:0:
192,192,113312,1,0,0:0:0:0:
320,192,113407,1,0,0:0:0:0:
64,192,113503,1,0,0:0:0:0:
320,192,113694,1,0,0:0:0:0:
64,192,113789,1,0,0:0:0:0:
448,192,113885,1,0,0:0:0:0:
192,192,113885,1,0,0:0:0:0:
448,192,114076,1,0,0:0:0:0:
192,192,114076,1,0,0:0:0:0:
64,192,114076,1,0,0:0:0:0:
64,192,114267,1,0,0:0:0:0:
320,192,114267,1,0,0:0:0:0:
192,192,114458,1,0,0:0:0:0:
448,192,114458,1,0,0:0:0:0:
64,192,114649,128,0,114840:0:0:0:0:
320,192,114649,128,0,114936:0:0:0:0:
448,192,114649,128,0,115031:0:0:0:0:
64,192,115031,1,0,0:0:0:0:
320,192,115127,1,0,0:0:0:0:
64,192,115318,1,0,0:0:0:0:
192,192,115414,1,0,0:0:0:0:
320,192,115414,1,0,0:0:0:0:
448,192,115414,1,0,0:0:0:0:
448,192,115605,1,0,0:0:0:0:
192,192,115700,1,0,0:0:0:0:
448,192,115891,1,0,0:0:0:0:
192,192,115987,1,0,0:0:0:0:
320,192,116082,1,0,0:0:0:0:
64,192,116178,1,0,0:0:0:0:
448,192,116178,1,0,0:0:0:0:
320,192,116369,1,0,0:0:0:0:
192,192,116369,1,0,0:0:0:0:
64,192,116369,1,0,0:0:0:0:
320,192,116560,1,0,0:0:0:0:
448,192,116560,1,0,0:0:0:0:
64,192,116751,1,0,0:0:0:0:
192,192,116751,1,0,0:0:0:0:
448,192,116942,1,0,0:0:0:0:
320,192,116942,1,0,0:0:0:0:
64,192,116942,1,0,0:0:0:0:
192,192,117133,1,0,0:0:0:0:
64,192,117133,1,0,0:0:0:0:
192,192,117324,1,0,0:0:0:0:
64,192,117324,1,0,0:0:0:0:
320,192,117516,1,0,0:0:0:0:
448,192,117516,1,0,0:0:0:0:
192,192,117707,128,0,117898:0:0:0:0:
320,192,117707,128,0,117993:0:0:0:0:
448,192,117707,128,0,118089:0:0:0:0:
192,192,118089,1,0,0:0:0:0:
64,192,118089,1,0,0:0:0:0:
192,192,118280,1,0,0:0:0:0:
64,192,118280,1,0,0:0:0:0:
448,192,118471,1,0,0:0:0:0:
320,192,118519,1,0,0:0:0:0:
192,192,118567,1,0,0:0:0:0:
64,192,118614,1,0,0:0:0:0:
320,192,118662,1,0,0:0:0:0:
448,192,118662,1,0,0:0:0:0:
64,192,118853,1,0,0:0:0:0:
448,192,118949,1,0,0:0:0:0:
320,192,119044,1,0,0:0:0:0:
192,192,119044,1,0,0:0:0:0:
64,192,119140,1,0,0:0:0:0:
192,192,119235,1,0,0:0:0:0:
320,192,119235,1,0,0:0:0:0:
448,192,119235,1,0,0:0:0:0:
448,192,119426,1,0,0:0:0:0:
192,192,119522,1,0,0:0:0:0:
320,192,119617,1,0,0:0:0:0:
64,192,119617,1,0,0:0:0:0:
448,192,119713,1,0,0:0:0:0:
320,192,119809,1,0,0:0:0:0:
192,192,119809,1,0,0:0:0:0:
64,192,119809,1,0,0:0:0:0:
448,192,120000,1,0,0:0:0:0:
320,192,120095,1,0,0:0:0:0:
192,192,120191,1,0,0:0:0:0:
64,192,120191,1,0,0:0:0:0:
448,192,120382,1,0,0:0:0:0:
320,192,120382,1,0,0:0:0:0:
64,192,120382,1,0,0:0:0:0:
192,192,120573,128,0,120764:0:0:0:0:
64,192,120764,128,0,121146:0:0:0:0:
320,192,120764,128,0,121051:0:0:0:0:
448,192,120764,128,0,120955:0:0:0:0:
448,192,121146,1,0,0:0:0:0:
192,192,121242,1,0,0:0:0:0:
448,192,121433,1,0,0:0:0:0:
192,192,121528,1,0,0:0:0:0:
448,192,121719,1,0,0:0:0:0:
192,192,121815,1,0,0:0:0:0:
64,192,122006,1,0,0:0:0:0:
320,192,122102,1,0,0:0:0:0:
64,192,122197,1,0,0:0:0:0:
320,192,122293,1,0,0:0:0:0:
448,192,122293,1,0,0:0:0:0:
448,192,122484,128,0,122675:0:0:0:0:
192,192,122484,128,0,122770:0:0:0:0:
64,192,122484,128,0,122866:0:0:0:0:
448,192,122866,1,0,0:0:0:0:
320,192,122961,1,0,0:0:0:0:
192,192,123057,1,0,0:0:0:0:
64,192,123153,1,0,0:0:0:0:
448,192,123153,1,0,0:0:0:0:
192,192,123312,1,0,0:0:0:0:
320,192,123312,1,0,0:0:0:0:
448,192,123503,1,0,0:0:0:0:
320,192,123503,1,0,0:0:0:0:
64,192,123694,1,0,0:0:0:0:
192,192,123694,1,0,0:0:0:0:
64,192,123821,128,0,124012:0:0:0:0:
448,192,123821,128,0,124203:0:0:0:0:
320,192,123821,128,0,124108:0:0:0:0:
192,192,124203,1,0,0:0:0:0:
64,192,124203,1,0,0:0:0:0:
448,192,124395,1,0,0:0:0:0:
320,192,124490,1,0,0:0:0:0:
192,192,124586,1,0,0:0:0:0:
64,192,124586,1,0,0:0:0:0:
448,192,124586,1,0,0:0:0:0:
192,192,124872,1,0,0:0:0:0:
64,192,124872,1,0,0:0:0:0:
192,192,125159,1,0,0:0:0:0:
64,192,125159,1,0,0:0:0:0:
64,192,125350,1,0,0:0:0:0:
320,192,125350,1,0,0:0:0:0:
448,192,125350,1,0,0:0:0:0:
320,192,125637,1,0,0:0:0:0:
448,192,125637,1,0,0:0:0:0:
320,192,125923,1,0,0:0:0:0:
448,192,125923,1,0,0:0:0:0:
192,192,126114,1,0,0:0:0:0:
64,192,126114,1,0,0:0:0:0:
448,192,126114,1,0,0:0:0:0:
192,192,126305,1,0,0:0:0:0:
64,192,126305,1,0,0:0:0:0:
192,192,126496,1,0,0:0:0:0:
64,192,126496,1,0,0:0:0:0:
192,192,126688,1,0,0:0:0:0:
64,192,126688,1,0,0:0:0:0:
320,192,126879,128,0,127070:0:0:0:0:
448,192,126879,128,0,127165:0:0:0:0:
192,192,126879,128,0,126974:0:0:0:0:
192,192,127165,1,0,0:0:0:0:
64,192,127165,1,0,0:0:0:0:
448,192,127404,1,0,0:0:0:0:
320,192,127452,1,0,0:0:0:0:
192,192,127500,1,0,0:0:0:0:
64,192,127547,1,0,0:0:0:0:
448,192,127595,1,0,0:0:0:0:
320,192,127643,1,0,0:0:0:0:
192,192,127643,1,0,0:0:0:0:
320,192,127834,1,0,0:0:0:0:
192,192,128025,1,0,0:0:0:0:
448,192,128025,1,0,0:0:0:0:
64,192,128025,1,0,0:0:0:0:
64,192,128216,1,0,0:0:0:0:
192,192,128407,1,0,0:0:0:0:
320,192,128407,1,0,0:0:0:0:
448,192,128407,1,0,0:0:0:0:
448,192,128598,1,0,0:0:0:0:
320,192,128789,1,0,0:0:0:0:
192,192,128789,1,0,0:0:0:0:
64,192,128789,1,0,0:0:0:0:
192,192,128981,1,0,0:0:0:0:
320,192,129076,1,0,0:0:0:0:
64,192,129172,1,0,0:0:0:0:
448,192,129172,1,0,0:0:0:0:
320,192,129363,1,0,0:0:0:0:
192,192,129363,1,0,0:0:0:0:
64,192,129554,1,0,0:0:0:0:
192,192,129649,1,0,0:0:0:0:
320,192,129745,1,0,0:0:0:0:
448,192,129840,1,0,0:0:0:0:
320,192,129936,128,0,130127:0:0:0:0:
192,192,129936,128,0,130223:0:0:0:0:
64,192,129936,128,0,130318:0:0:0:0:
448,192,130318,1,0,0:0:0:0:
320,192,130414,1,0,0:0:0:0:
192,192,130509,1,0,0:0:0:0:
64,192,130605,1,0,0:0:0:0:
192,192,130700,1,0,0:0:0:0:
320,192,130700,1,0,0:0:0:0:
448,192,130700,1,0,0:0:0:0:
64,192,130987,1,0,0:0:0:0:
192,192,130987,1,0,0:0:0:0:
448,192,131274,1,0,0:0:0:0:
320,192,131274,1,0,0:0:0:0:
64,192,131465,1,0,0:0:0:0:
192,192,131465,1,0,0:0:0:0:
448,192,131465,1,0,0:0:0:0:
192,192,131751,1,0,0:0:0:0:
320,192,131751,1,0,0:0:0:0:
64,192,132038,1,0,0:0:0:0:
448,192,132038,1,0,0:0:0:0:
320,192,132229,1,0,0:0:0:0:
448,192,132229,1,0,0:0:0:0:
192,192,132229,1,0,0:0:0:0:
192,192,132516,1,0,0:0:0:0:
64,192,132516,1,0,0:0:0:0:
448,192,132802,1,0,0:0:0:0:
320,192,132802,1,0,0:0:0:0:
320,192,132993,1,0,0:0:0:0:
192,192,132993,1,0,0:0:0:0:
64,192,132993,128,0,134522:0:0:0:0:
448,192,133375,1,0,0:0:0:0:
320,192,133567,1,0,0:0:0:0:
192,192,133758,1,0,0:0:0:0:
448,192,134044,1,0,0:0:0:0:
320,192,134331,1,0,0:0:0:0:
192,192,134522,1,0,0:0:0:0:
448,192,134522,1,0,0:0:0:0:
320,192,134617,1,0,0:0:0:0:
192,192,134713,1,0,0:0:0:0:
64,192,134809,1,0,0:0:0:0:
448,192,134904,1,0,0:0:0:0:
192,192,135191,1,0,0:0:0:0:
64,192,135191,1,0,0:0:0:0:
320,192,135477,1,0,0:0:0:0:
448,192,135477,1,0,0:0:0:0:
64,192,135764,1,0,0:0:0:0:
192,192,135860,1,0,0:0:0:0:
320,192,135955,1,0,0:0:0:0:
448,192,136051,1,0,0:0:0:0:
192,192,136051,1,0,0:0:0:0:
64,192,136051,1,0,0:0:0:0:
320,192,136242,1,0,0:0:0:0:
64,192,136337,1,0,0:0:0:0:
320,192,136528,1,0,0:0:0:0:
64,192,136624,1,0,0:0:0:0:
192,192,136719,1,0,0:0:0:0:
448,192,136815,1,0,0:0:0:0:
192,192,137006,1,0,0:0:0:0:
320,192,137293,1,0,0:0:0:0:
64,192,137579,1,0,0:0:0:0:
448,192,137770,1,0,0:0:0:0:
192,192,137866,1,0,0:0:0:0:
448,192,138057,1,0,0:0:0:0:
320,192,138153,1,0,0:0:0:0:
192,192,138248,1,0,0:0:0:0:
64,192,138344,1,0,0:0:0:0:
448,192,138535,1,0,0:0:0:0:
320,192,138582,1,0,0:0:0:0:
192,192,138630,1,0,0:0:0:0:
64,192,138678,1,0,0:0:0:0:
448,192,138726,1,0,0:0:0:0:
64,192,138917,1,0,0:0:0:0:
192,192,138965,1,0,0:0:0:0:
320,192,139012,1,0,0:0:0:0:
448,192,139060,1,0,0:0:0:0:
64,192,139108,1,0,0:0:0:0:
192,192,139299,1,0,0:0:0:0:
448,192,139395,1,0,0:0:0:0:
192,192,139586,1,0,0:0:0:0:
448,192,139681,1,0,0:0:0:0:
64,192,139777,1,0,0:0:0:0:
320,192,139872,1,0,0:0:0:0:
192,192,140063,1,0,0:0:0:0:
448,192,140254,1,0,0:0:0:0:
64,192,140350,1,0,0:0:0:0:
192,192,140541,1,0,0:0:0:0:
320,192,140637,1,0,0:0:0:0:
448,192,140637,128,0,141401:0:0:0:0:
64,192,140828,1,0,0:0:0:0:
192,192,140923,1,0,0:0:0:0:
320,192,141210,1,0,0:0:0:0:
192,192,141305,1,0,0:0:0:0:
64,192,141401,128,0,141592:0:0:0:0:
448,192,141592,1,0,0:0:0:0:
320,192,141640,1,0,0:0:0:0:
192,192,141688,1,0,0:0:0:0:
64,192,141735,1,0,0:0:0:0:
448,192,141783,1,0,0:0:0:0:
192,192,141974,1,0,0:0:0:0:
64,192,142165,1,0,0:0:0:0:
448,192,142165,128,0,148280:0:0:0:0:
320,192,142165,128,0,148280:0:0:0:0:
