osu file format v14

[General]
AudioFilename: Bi Bi Bi (Mi Mi Mi BITCH Version) _ SLOTH.mp3
AudioLeadIn: 0
PreviewTime: -1
Countdown: 1
SampleSet: Normal
StackLeniency: 0.7
Mode: 0
LetterboxInBreaks: 0
WidescreenStoryboard: 1

[Editor]
DistanceSpacing: 1
BeatDivisor: 4
GridSize: 4
TimelineZoom: 1

[Metadata]
Title:Bi Bi Bi (Mi Mi Mi Uwasa no BITCH Version)
TitleUnicode:Bi Bi Bi (Mi Mi Mi 噂のBITCH Version)
Artist:SLOTH
ArtistUnicode:SLOTH
Creator:nurunuru
Version:nama ga suki
Source:ビッチの考え方
Tags:生が好き 中に出して
BeatmapID:814770
BeatmapSetID:371974

[Difficulty]
HPDrainRate:7
CircleSize:5
OverallDifficulty:7
ApproachRate:9.3
SliderMultiplier:2
SliderTickRate:1

[Events]
//Background and Video events
0,0,"maxresdefault.jpg",0,0
//Break Periods
2,53782,60409
//Storyboard Layer 0 (Background)
//Storyboard Layer 1 (Fail)
//Storyboard Layer 2 (Pass)
//Storyboard Layer 3 (Foreground)
//Storyboard Sound Samples

[TimingPoints]
11,476.190476190476,4,1,0,100,1,0
21677,-76.9230769230769,4,1,0,100,0,0
40963,-100,4,1,0,100,0,0
60963,-76.9230769230769,4,1,0,100,0,0

[HitObjects]
212,120,4534,5,0,0:0:0:0:
188,268,4772,1,0,0:0:0:0:
296,164,5010,1,0,0:0:0:0:
148,180,5249,1,0,0:0:0:0:
280,252,5487,1,0,0:0:0:0:
212,120,5725,2,0,P|234:76|279:56,2,100
312,232,6439,2,0,L|364:212,1,50
420,168,6677,2,0,B|388:116|316:112,2,100
324,240,7391,1,0,0:0:0:0:
204,240,7630,2,0,P|176:200|172:144,2,100
344,316,8344,2,0,L|400:296,1,50
440,212,8582,2,0,L|400:164,1,50
312,208,8820,2,0,L|276:264,1,50
352,324,9058,2,0,L|404:296,1,50
440,212,9296,2,0,L|404:168,1,50
340,104,9534,2,0,B|276:108|296:76|232:80,1,100
176,152,9891,2,0,B|160:200|160:200|100:200,1,100
84,104,10249,2,0,L|124:72,1,50
224,76,10487,2,0,L|272:120,1,50
356,144,10725,2,0,L|404:100,1,50
392,110,10963,1,0,0:0:0:0:
404,308,11201,1,0,0:0:0:0:
164,248,11439,2,0,P|124:204|120:152,2,100
248,220,12153,6,0,L|248:164,1,50
316,96,12391,2,0,L|316:156,1,50
316,248,12630,2,0,L|372:248,1,50
440,180,12868,2,0,L|384:180,1,50
316,248,13106,2,0,L|380:248,1,50
444,80,13344,2,0,P|396:64|336:72,1,100
200,140,13701,2,0,P|248:156|308:148,1,100
392,116,14058,1,0,0:0:0:0:
344,312,14296,1,0,0:0:0:0:
216,212,14534,1,0,0:0:0:0:
100,104,14772,2,0,P|76:148|80:200,1,100
208,292,15249,2,0,B|256:304|256:304|280:260,1,100
292,180,15606,2,0,P|340:208|360:264,1,100
336,324,15963,1,0,0:0:0:0:
392,164,16201,1,0,0:0:0:0:
436,264,16439,1,0,0:0:0:0:
320,128,16677,1,0,0:0:0:0:
452,60,16915,1,0,0:0:0:0:
304,44,17153,2,0,P|256:56|224:96,1,100
128,112,17510,2,0,P|139:159|177:191,1,100
252,172,17868,1,0,0:0:0:0:
400,144,18106,2,0,B|408:172|408:172|400:200,1,50
356,252,18344,1,0,0:0:0:0:
228,96,18582,1,0,0:0:0:0:
356,252,18820,1,0,0:0:0:0:
176,344,19058,2,0,B|108:312|108:312|144:288|144:288|68:240,1,200
248,144,19772,1,0,0:0:0:0:
256,144,20010,1,0,0:0:0:0:
252,152,20249,1,0,0:0:0:0:
244,144,20487,1,0,0:0:0:0:
252,148,20725,2,0,B|204:220|304:220|256:340,1,200
84,104,21439,1,0,0:0:0:0:
256,272,21677,6,0,L|336:248,1,64.9999970245363
384,208,21915,1,0,0:0:0:0:
308,72,22153,2,0,P|228:56|156:80,1,129.999994049073
120,116,22510,1,0,0:0:0:0:
100,196,22630,2,0,L|68:288,1,64.9999970245363
128,320,22868,2,0,L|248:348,1,64.9999970245363
268,336,23106,1,0,0:0:0:0:
232,268,23225,1,0,0:0:0:0:
196,200,23344,2,0,P|164:216|112:212,1,64.9999970245363
148,140,23582,1,0,0:0:0:0:
160,276,23701,1,0,0:0:0:0:
116,340,23820,2,0,P|36:272|48:220,1,129.999994049073
132,100,24296,6,0,L|288:56,1,129.999994049073
320,208,24772,2,0,L|300:120,1,64.9999970245363
228,236,25010,2,0,L|168:304,1,64.9999970245363
132,224,25249,1,0,0:0:0:0:
164,152,25368,1,0,0:0:0:0:
216,96,25487,1,0,0:0:0:0:
292,76,25606,1,0,0:0:0:0:
368,96,25725,2,0,L|484:244,1,129.999994049073
368,332,26201,2,0,L|252:196,1,129.999994049073
152,48,26677,1,0,0:0:0:0:
152,48,26915,6,0,L|240:52,1,64.9999970245363
224,128,27153,2,0,L|100:128,1,64.9999970245363
156,204,27391,1,0,0:0:0:0:
240,328,27510,1,0,0:0:0:0:
236,248,27630,1,0,0:0:0:0:
232,172,27749,1,0,0:0:0:0:
308,196,27868,2,0,L|388:236,1,64.9999970245363
440,248,28106,1,0,0:0:0:0:
472,176,28225,1,0,0:0:0:0:
436,80,28344,1,0,0:0:0:0:
330,165,28463,1,0,0:0:0:0:
380,124,28582,2,0,L|305:186,1,64.9999970245363
236,248,28820,2,0,L|292:204,1,64.9999970245363
252,136,29058,1,0,0:0:0:0:
176,156,29177,1,0,0:0:0:0:
192,80,29296,1,0,0:0:0:0:
332,48,29534,1,0,0:0:0:0:
452,148,29772,2,0,L|428:256,1,64.9999970245363
320,132,30010,1,0,0:0:0:0:
392,280,30249,1,0,0:0:0:0:
236,272,30487,1,0,0:0:0:0:
184,216,30606,1,0,0:0:0:0:
132,276,30725,1,0,0:0:0:0:
184,332,30844,1,0,0:0:0:0:
236,272,30963,2,0,P|290:219|286:184,1,64.9999970245363
256,144,31201,1,0,0:0:0:0:
184,112,31320,1,0,0:0:0:0:
104,172,31439,2,0,L|216:252,1,129.999994049073
304,208,31796,1,0,0:0:0:0:
388,244,31915,2,0,P|396:120|356:80,1,129.999994049073
320,112,32272,1,0,0:0:0:0:
256,160,32391,2,0,L|192:232,1,64.9999970245363
136,204,32630,1,0,0:0:0:0:
64,168,32749,1,0,0:0:0:0:
124,80,32868,2,0,L|120:236,1,129.999994049073
116,288,33225,1,0,0:0:0:0:
124,80,33344,6,0,P|164:104|236:68,1,129.999994049073
280,124,33701,2,0,P|336:84|332:36,1,64.9999970245363
392,44,33939,2,0,P|456:32|488:80,1,129.999994049073
456,152,34296,2,0,L|396:252,1,64.9999970245363
296,348,34534,2,0,L|188:232,1,129.999994049073
168,148,34891,1,0,0:0:0:0:
240,120,35010,1,0,0:0:0:0:
176,76,35130,1,0,0:0:0:0:
168,148,35249,2,0,L|236:212,1,64.9999970245363
328,176,35487,5,0,0:0:0:0:
280,236,35606,1,0,0:0:0:0:
392,216,35725,2,0,L|432:132,1,64.9999970245363
368,100,35963,1,0,0:0:0:0:
216,76,36201,1,0,0:0:0:0:
152,120,36320,1,0,0:0:0:0:
116,188,36439,2,0,L|60:284,1,64.9999970245363
152,120,36677,1,0,0:0:0:0:
256,192,36915,1,0,0:0:0:0:
448,156,37153,5,0,0:0:0:0:
412,100,37272,1,0,0:0:0:0:
372,152,37391,1,0,0:0:0:0:
340,96,37510,1,0,0:0:0:0:
308,40,37630,1,0,0:0:0:0:
268,92,37749,1,0,0:0:0:0:
228,40,37868,1,0,0:0:0:0:
184,88,37987,1,0,0:0:0:0:
144,140,38106,2,0,L|56:264,1,129.999994049073
180,312,38582,1,0,0:0:0:0:
272,224,38820,1,0,0:0:0:0:
172,168,39058,5,0,0:0:0:0:
220,232,39296,1,0,0:0:0:0:
300,96,39534,1,0,0:0:0:0:
220,232,39772,1,0,0:0:0:0:
300,96,40010,2,0,P|360:156|376:204,1,129.999994049073
316,264,40368,1,0,0:0:0:0:
236,228,40486,2,0,P|164:192|132:124,1,150
180,80,40963,1,0,0:0:0:0:
248,84,41082,1,0,0:0:0:0:
180,80,41201,1,0,0:0:0:0:
248,84,41320,2,0,L|308:84,1,50
452,212,41677,2,0,L|416:264,1,50
302,188,41915,2,0,L|332:148,1,50
296,76,42153,1,0,0:0:0:0:
244,140,42272,1,0,0:0:0:0:
176,100,42391,2,0,L|120:100,2,50
244,140,42749,1,0,0:0:0:0:
296,76,42868,1,0,0:0:0:0:
324,152,42987,1,0,0:0:0:0:
244,144,43106,1,0,0:0:0:0:
296,76,43225,1,0,0:0:0:0:
324,152,43344,2,0,L|348:204,1,50
396,312,43582,2,0,L|376:260,1,50
304,300,43820,1,0,0:0:0:0:
264,232,43939,1,0,0:0:0:0:
196,272,44058,2,0,L|176:220,1,50
104,256,44296,1,0,0:0:0:0:
128,180,44415,1,0,0:0:0:0:
176,116,44534,2,0,B|196:100|196:100|224:112,2,50
116,112,44891,1,0,0:0:0:0:
196,172,45010,1,0,0:0:0:0:
175,48,45130,1,0,0:0:0:0:
281,123,45249,2,0,P|329:103|357:59,1,100
384,264,45725,2,0,L|336:236,1,50
276,204,45963,1,0,0:0:0:0:
272,280,46082,1,0,0:0:0:0:
212,324,46201,2,0,L|180:272,1,50
92,164,46439,2,0,L|124:216,1,50
212,324,46677,2,0,L|180:272,1,50
92,164,46915,2,0,L|124:216,1,50
216,224,47153,1,0,0:0:0:0:
156,144,47272,1,0,0:0:0:0:
268,188,47391,1,0,0:0:0:0:
204,112,47510,1,0,0:0:0:0:
304,132,47630,2,0,P|352:148|392:188,1,100
384,260,47987,1,0,0:0:0:0:
348,332,48106,1,0,0:0:0:0:
304,264,48225,1,0,0:0:0:0:
264,332,48344,2,0,L|212:324,1,50
212,244,48582,2,0,L|156:272,1,50
124,332,48820,2,0,L|88:280,1,50
124,216,49058,1,0,0:0:0:0:
184,164,49177,1,0,0:0:0:0:
260,188,49296,2,0,L|292:232,1,50
248,320,49534,2,0,L|304:288,1,50
388,324,49772,2,0,L|356:280,1,50
404,196,50010,2,0,L|360:220,1,50
280,208,50249,1,0,0:0:0:0:
212,252,50368,1,0,0:0:0:0:
208,172,50487,2,0,P|164:136|164:136,1,50
169,140,50725,1,0,0:0:0:0:
92,156,50844,1,0,0:0:0:0:
92,156,50963,2,0,B|88:220|88:216,1,50
56,280,51201,2,0,L|91:315,1,50
172,328,51439,1,0,0:0:0:0:
244,296,51558,1,0,0:0:0:0:
304,244,51677,1,0,0:0:0:0:
352,180,51796,1,0,0:0:0:0:
372,104,51915,2,0,L|320:72,1,50
252,88,52153,1,0,0:0:0:0:
126,192,52391,1,0,0:0:0:0:
250,293,52630,1,0,0:0:0:0:
374,192,52868,1,0,0:0:0:0:
252,88,53106,1,0,0:0:0:0:
252,88,53344,2,0,B|272:144|232:144|264:208,1,100
344,328,60963,6,0,P|432:272|428:216,1,129.999994049073
344,328,61439,1,0,0:0:0:0:
84,248,61677,2,0,P|176:272|256:232,1,129.999994049073
424,156,62153,1,0,0:0:0:0:
424,156,62391,2,0,P|372:72|292:64,1,129.999994049073
124,200,62868,1,0,0:0:0:0:
124,200,63106,2,0,P|160:232|200:236,1,64.9999970245363
216,176,63344,2,0,P|264:184|336:272,1,129.999994049073
