osu file format v14

[General]
AudioFilename: Bi Bi Bi (Mi Mi Mi BITCH Version) _ SLOTH.mp3
AudioLeadIn: 0
PreviewTime: -1
Countdown: 1
SampleSet: Normal
StackLeniency: 0.7
Mode: 0
LetterboxInBreaks: 0
WidescreenStoryboard: 1

[Editor]
Bookmarks: 20963,38106,53344,68582,83820,99058,114296,129534
DistanceSpacing: 0.5
BeatDivisor: 4
GridSize: 4
TimelineZoom: 2

[Metadata]
Title:Bi Bi Bi (Mi Mi Mi Uwasa no BITCH Version)
TitleUnicode:Bi Bi Bi (Mi Mi Mi 噂のBITCH Version)
Artist:SLOTH
ArtistUnicode:SLOTH
Creator:nurunuru
Version:bibibi
Source:ビッチの考え方
Tags:生が好き 中に出して
BeatmapID:814837
BeatmapSetID:371974

[Difficulty]
HPDrainRate:6.5
CircleSize:4.2
OverallDifficulty:8
ApproachRate:9.2
SliderMultiplier:2
SliderTickRate:1

[Events]
//Background and Video events
0,0,"bitchi.jpg",0,0
//Break Periods
//Storyboard Layer 0 (Background)
//Storyboard Layer 1 (Fail)
//Storyboard Layer 2 (Pass)
//Storyboard Layer 3 (Foreground)
//Storyboard Sound Samples

[TimingPoints]
11,476.190476190476,4,1,0,100,1,0
11,-71.4285714285714,4,1,0,100,0,0
4534,-100,4,1,0,100,0,0
20963,-71.4285714285714,4,1,0,100,0,0
53344,-100,4,1,0,100,0,0
66915,-71.4285714285714,4,1,0,100,0,0
72391,-57.1428571428571,4,1,0,100,0,0
72630,-71.4285714285714,4,1,0,100,0,0

[HitObjects]
331,90,4534,5,0,0:0:0:0:
339,93,4772,1,0,0:0:0:0:
350,97,5010,1,0,0:0:0:0:
153,239,5249,2,0,P|136:195|148:130,1,100
267,177,5725,6,0,B|325:187|325:187|393:175,1,100
457,253,6082,2,0,P|380:253|335:327,1,150
209,328,6677,2,0,L|97:317,1,100
48,203,7153,1,0,0:0:0:0:
143,13,7391,1,0,0:0:0:0:
194,132,7630,2,0,L|316:130,1,100
337,105,7987,1,0,0:0:0:0:
342,94,8344,5,0,0:0:0:0:
296,321,8582,1,0,0:0:0:0:
229,246,8820,1,0,0:0:0:0:
474,210,9058,1,0,0:0:0:0:
439,113,9296,1,0,0:0:0:0:
385,256,9534,6,0,L|379:362,1,100
307,246,9891,2,0,P|346:185|418:185,1,150
476,41,10487,2,0,L|486:144,1,100
364,107,10963,1,0,0:0:0:0:
268,334,11201,1,0,0:0:0:0:
167,288,11439,2,0,L|158:182,1,100
157,177,12153,5,0,0:0:0:0:
341,138,12391,1,0,0:0:0:0:
86,81,12630,1,0,0:0:0:0:
322,136,12868,1,0,0:0:0:0:
173,174,13106,1,0,0:0:0:0:
239,44,13344,6,0,B|293:30|293:30|350:44,1,100
410,229,13701,2,0,B|356:243|356:243|256:221,1,150
350,144,14296,1,0,0:0:0:0:
404,339,14534,1,0,0:0:0:0:
101,257,14772,1,0,0:0:0:0:
173,174,15010,1,0,0:0:0:0:
203,280,15249,2,0,L|207:379,1,100
453,224,15725,2,0,L|382:233,1,50
354,238,15963,5,0,0:0:0:0:
309,80,16201,1,0,0:0:0:0:
352,224,16439,1,0,0:0:0:0:
400,12,16677,1,0,0:0:0:0:
414,122,16915,1,0,0:0:0:0:
210,162,17153,6,0,L|106:149,1,100
223,265,17510,2,0,P|287:230|308:160,1,150
400,199,18106,1,0,0:0:0:0:
129,242,18344,1,0,0:0:0:0:
169,50,18582,2,0,L|287:55,2,100
78,93,19296,1,0,0:0:0:0:
262,180,19772,5,0,0:0:0:0:
266,195,20010,1,0,0:0:0:0:
270,209,20249,1,0,0:0:0:0:
274,224,20487,1,0,0:0:0:0:
278,239,20725,2,0,P|352:279|433:195,1,200
64,172,21677,6,0,P|104:112|176:96,1,139.999995727539
64,172,22153,2,0,P|104:112|176:96,1,139.999995727539
392,232,22630,1,0,0:0:0:0:
196,344,22868,6,0,P|216:308|224:272,1,69.9999978637696
344,136,23106,2,0,P|324:172|316:208,1,69.9999978637696
196,180,23344,2,0,P|140:212|64:200,2,139.999995727539
200,84,23939,1,0,0:0:0:0:
288,112,24058,2,0,P|316:86|348:80,1,69.9999978637696
508,140,24296,2,0,P|440:140|376:184,1,139.999995727539
436,308,24653,1,0,0:0:0:0:
414,326,24772,6,0,L|336:334,1,69.9999978637696
268,312,25010,1,0,0:0:0:0:
212,260,25130,1,0,0:0:0:0:
140,280,25249,2,0,P|140:312|132:348,1,69.9999978637696
57,156,25487,1,0,0:0:0:0:
79,139,25606,1,0,0:0:0:0:
100,121,25725,2,0,P|132:109|168:113,1,69.9999978637696
212,260,25963,2,0,P|188:232|160:208,1,69.9999978637696
204,40,26201,2,0,P|212:104|236:184,1,139.999995727539
340,300,26558,1,0,0:0:0:0:
340,300,26677,6,0,P|332:236|392:160,1,139.999995727539
356,148,27034,1,0,0:0:0:0:
340,124,27153,1,0,0:0:0:0:
19,127,27391,1,0,0:0:0:0:
71,182,27510,1,0,0:0:0:0:
145,202,27630,2,0,P|229:202|293:158,1,139.999995727539
325,84,27987,1,0,0:0:0:0:
388,127,28106,2,0,P|420:135|456:135,1,69.9999978637696
408,232,28344,2,0,P|416:264|416:300,1,69.9999978637696
248,364,28582,5,0,0:0:0:0:
316,324,28701,1,0,0:0:0:0:
316,244,28820,2,0,B|272:192|272:192|204:168,1,139.999995727539
132,224,29177,1,0,0:0:0:0:
96,155,29296,2,0,P|120:127|136:91,1,69.9999978637696
47,50,29534,2,0,L|186:43,1,139.999995727539
425,172,30010,6,0,P|361:188|309:300,2,139.999995727539
407,96,30606,1,0,0:0:0:0:
332,112,30725,2,0,P|316:80|280:40,2,69.9999978637696
248,123,31082,1,0,0:0:0:0:
268,204,31201,2,0,P|248:228|212:240,1,69.9999978637696
296,332,31439,2,0,P|228:352|156:352,1,139.999995727539
20,192,31915,2,0,L|172:144,1,139.999995727539
188,64,32272,1,0,0:0:0:0:
272,108,32391,6,0,P|292:136|320:160,1,69.9999978637696
393,171,32630,1,0,0:0:0:0:
472,164,32749,1,0,0:0:0:0:
356,240,32868,2,0,P|334:267|320:299,1,69.9999978637696
192,348,33106,2,0,P|213:320|227:288,1,69.9999978637696
264,180,33344,2,0,P|300:116|368:80,1,139.999995727539
472,164,33701,1,0,0:0:0:0:
472,164,33820,2,0,B|460:256|460:256|424:288,1,139.999995727539
192,348,34296,6,0,L|212:280,1,69.9999978637696
236,128,34534,2,0,P|252:192|296:260,1,139.999995727539
356,292,34891,1,0,0:0:0:0:
432,300,35010,1,0,0:0:0:0:
480,204,35130,1,0,0:0:0:0:
456,192,35249,2,0,P|432:172|408:128,1,69.9999978637696
364,16,35487,2,0,L|332:156,1,139.999995727539
314,173,35844,1,0,0:0:0:0:
296,194,35963,1,0,0:0:0:0:
52,144,36201,6,0,P|88:124|116:120,1,69.9999978637696
208,136,36439,1,0,0:0:0:0:
264,64,36558,1,0,0:0:0:0:
172,56,36677,2,0,L|192:232,1,139.999995727539
148,256,37034,1,0,0:0:0:0:
92,316,37153,6,0,P|88:284|76:244,1,69.9999978637696
168,88,37391,2,0,L|160:236,1,139.999995727539
264,64,37749,2,0,L|240:144,1,69.9999978637696
456,240,38106,6,0,P|393:214|330:241,1,139.999995727539
365,338,38463,1,0,0:0:0:0:
384,332,38582,2,0,L|464:344,1,69.9999978637696
248,268,38820,1,0,0:0:0:0:
232,276,38939,2,0,L|220:348,2,69.9999978637696
144,196,39296,2,0,P|104:184|48:192,1,69.9999978637696
92,260,39534,1,0,0:0:0:0:
323,144,39772,1,0,0:0:0:0:
323,144,40010,6,0,B|340:71|340:71|318:9,1,139.999995727539
162,36,40368,1,0,0:0:0:0:
147,49,40487,2,0,L|144:128,1,69.9999978637696
240,257,40725,2,0,L|237:187,1,69.9999978637696
343,232,40963,1,0,0:0:0:0:
415,251,41082,1,0,0:0:0:0:
479,213,41201,1,0,0:0:0:0:
497,140,41320,1,0,0:0:0:0:
457,77,41439,2,0,L|370:66,1,69.9999978637696
200,142,41677,2,0,L|269:133,1,69.9999978637696
246,355,41915,6,0,P|164:322|145:254,1,139.999995727539
53,182,42272,1,0,0:0:0:0:
58,202,42391,2,0,L|50:291,1,69.9999978637696
240,257,42630,1,0,0:0:0:0:
250,241,42749,1,0,0:0:0:0:
259,226,42868,2,0,L|265:148,1,69.9999978637696
470,142,43106,2,0,L|375:125,1,69.9999978637696
157,54,43344,2,0,L|252:37,1,69.9999978637696
368,223,43582,2,0,L|373:292,1,69.9999978637696
97,299,43820,6,0,P|173:276|234:344,1,139.999995727539
189,169,44177,1,0,0:0:0:0:
181,188,44296,2,0,L|178:264,1,69.9999978637696
341,135,44534,1,0,0:0:0:0:
344,111,44653,1,0,0:0:0:0:
348,87,44772,2,0,P|312:61|274:45,1,69.9999978637696
41,31,45010,1,0,0:0:0:0:
44,50,45130,1,0,0:0:0:0:
47,69,45249,1,0,0:0:0:0:
206,22,45487,1,0,0:0:0:0:
286,272,45725,6,0,B|294:288|297:305|297:305|328:320|283:245|316:197,1,139.999995727539
393,90,46082,1,0,0:0:0:0:
375,81,46201,2,0,B|315:72|315:72|233:89,1,139.999995727539
205,184,46558,2,0,L|273:171,1,69.9999978637696
206,22,46915,1,0,0:0:0:0:
219,324,47153,1,0,0:0:0:0:
142,332,47272,1,0,0:0:0:0:
66,319,47391,2,0,L|47:234,1,69.9999978637696
289,163,47630,6,0,P|249:108|182:97,1,139.999995727539
86,76,47987,1,0,0:0:0:0:
82,96,48106,2,0,L|101:177,1,69.9999978637696
205,184,48344,1,0,0:0:0:0:
466,90,48582,1,0,0:0:0:0:
244,37,48820,1,0,0:0:0:0:
258,33,49058,2,0,L|347:26,1,69.9999978637696
375,139,49296,1,0,0:0:0:0:
391,214,49415,1,0,0:0:0:0:
375,289,49534,6,0,P|311:313|242:307,1,139.999995727539
100,268,49891,1,0,0:0:0:0:
107,245,50010,2,0,P|131:206|173:186,1,93.3333304850261
255,118,50249,2,0,L|185:111,1,69.9999978637696
64,82,50487,2,0,B|55:119|55:119|57:150,1,69.9999978637696
230,26,50725,1,0,0:0:0:0:
252,25,50844,2,0,L|337:20,1,69.9999978637696
391,146,51082,2,0,L|461:150,2,69.9999978637696
245,340,51439,6,0,P|285:317|308:283,1,69.9999978637696
251,173,51677,2,0,L|159:167,1,69.9999978637696
347,67,51915,2,0,P|376:102|390:146,1,93.3333304850261
373,230,52153,2,0,B|444:248|444:248|508:229,2,139.999995727539
158,68,52868,2,0,P|108:147|112:207,1,139.999995727539
96,276,53344,6,0,P|168:300|192:296,1,100
368,152,53701,2,0,P|308:180|260:252,1,150
288,344,54296,1,0,0:0:0:0:
212,160,54534,1,0,0:0:0:0:
356,272,54772,1,0,0:0:0:0:
148,232,55010,1,0,0:0:0:0:
288,344,55249,2,0,P|248:320|196:312,1,100
128,344,55606,1,0,0:0:0:0:
448,76,55963,6,0,L|420:200,1,100
288,272,56439,1,0,0:0:0:0:
452,264,56677,2,0,P|404:260|360:232,1,100
260,36,57153,6,0,P|272:84|268:136,1,100
208,196,57510,1,0,0:0:0:0:
88,48,57868,2,0,L|76:96,1,50
140,248,58106,2,0,L|128:132,1,100
68,296,58582,1,0,0:0:0:0:
208,196,58820,1,0,0:0:0:0:
376,328,59058,2,0,B|340:292|340:292|320:240,1,100
336,56,59772,5,0,0:0:0:0:
288,248,60010,1,0,0:0:0:0:
144,80,60249,1,0,0:0:0:0:
144,80,60487,2,0,P|136:132|120:176,1,100
48,332,60963,6,0,L|188:304,1,100
308,232,61320,2,0,P|286:302|228:348,1,150
160,304,61796,1,0,0:0:0:0:
128,228,61915,2,0,B|124:176|124:176|152:132,1,100
324,72,62391,1,0,0:0:0:0:
292,164,62630,1,0,0:0:0:0:
68,149,62868,2,0,P|108:189|128:229,1,100
200,252,63225,1,0,0:0:0:0:
448,160,63582,5,0,0:0:0:0:
284,276,63820,1,0,0:0:0:0:
444,324,64058,1,0,0:0:0:0:
336,156,64296,1,0,0:0:0:0:
444,240,64534,1,0,0:0:0:0:
252,192,64772,6,0,L|188:308,1,100
64,272,65130,2,0,P|24:208|28:120,1,150
184,116,65725,1,0,0:0:0:0:
64,272,65963,1,0,0:0:0:0:
204,308,66201,1,0,0:0:0:0:
68,156,66439,1,0,0:0:0:0:
264,216,66677,1,0,0:0:0:0:
304,80,67391,6,0,P|372:96|416:148,1,139.999995727539
304,80,67868,2,0,P|372:96|416:148,1,139.999995727539
304,328,68344,5,0,0:0:0:0:
340,224,68582,6,0,L|256:212,1,69.9999978637696
216,160,68820,1,0,0:0:0:0:
404,160,68939,1,0,0:0:0:0:
420,172,69058,2,0,B|432:218|432:218|419:326,1,139.999995727539
312,316,69415,1,0,0:0:0:0:
236,316,69534,2,0,L|132:336,1,69.9999978637696
24,192,69772,2,0,L|92:205,1,69.9999978637696
288,16,70010,2,0,P|296:68|288:112,1,69.9999978637696
55,64,70249,2,0,P|85:46|120:39,1,69.9999978637696
196,52,70487,5,0,0:0:0:0:
432,272,70725,1,0,0:0:0:0:
416,279,70844,2,0,B|355:302|355:302|249:285,1,139.999995727539
159,176,71201,1,0,0:0:0:0:
234,161,71320,1,0,0:0:0:0:
209,234,71439,2,0,L|201:323,1,69.9999978637696
328,126,71677,2,0,L|321:195,1,69.9999978637696
177,35,71915,2,0,L|183:105,1,69.9999978637696
32,101,72153,2,0,L|50:183,1,69.9999978637696
57,294,72391,6,0,B|54:317|54:317|21:278|21:278|135:264,1,175.00000166893
270,305,72749,1,0,0:0:0:0:
281,290,72868,2,0,L|287:215,1,69.9999978637696
210,55,73106,1,0,0:0:0:0:
135,72,73225,1,0,0:0:0:0:
188,128,73344,2,0,L|301:129,1,69.9999978637696
438,23,73582,2,0,P|397:25|364:43,1,69.9999978637696
412,270,73820,2,0,L|420:179,1,69.9999978637696
189,241,74058,2,0,B|152:246|152:246|111:237,1,69.9999978637696
316,165,74296,6,0,P|347:227|331:295,1,139.999995727539
98,342,74653,1,0,0:0:0:0:
110,325,74772,2,0,B|188:311|188:311|274:325,1,139.999995727539
266,242,75130,1,0,0:0:0:0:
223,170,75249,2,0,L|204:82,1,69.9999978637696
380,99,75487,2,0,L|388:13,1,69.9999978637696
69,114,75725,2,0,L|51:25,1,69.9999978637696
429,282,75963,2,0,L|437:196,1,69.9999978637696
276,286,76201,5,0,0:0:0:0:
214,332,76320,1,0,0:0:0:0:
138,314,76439,2,0,L|45:322,1,69.9999978637696
32,216,76677,2,0,P|100:224|152:180,1,139.999995727539
265,76,77034,1,0,0:0:0:0:
277,91,77153,2,0,L|287:170,1,69.9999978637696
123,89,77391,2,0,P|85:87|37:98,1,69.9999978637696
398,107,77630,2,0,L|405:20,1,69.9999978637696
230,244,77868,2,0,P|219:293|224:338,1,69.9999978637696
401,361,78106,5,0,0:0:0:0:
417,285,78225,1,0,0:0:0:0:
402,209,78344,2,0,L|315:187,1,69.9999978637696
194,62,78582,2,0,P|193:97|201:132,1,69.9999978637696
217,274,78820,1,0,0:0:0:0:
141,261,78939,1,0,0:0:0:0:
81,211,79058,2,0,L|56:119,1,69.9999978637696
316,20,79296,2,0,L|298:121,1,69.9999978637696
98,339,79534,2,0,L|167:333,1,69.9999978637696
483,285,79772,2,0,B|449:275|449:275|414:276,1,69.9999978637696
338,286,80010,5,0,0:0:0:0:
111,95,80249,1,0,0:0:0:0:
139,75,80368,2,0,L|292:93,1,139.999995727539
364,202,80725,1,0,0:0:0:0:
329,209,80844,1,0,0:0:0:0:
294,205,80963,2,0,P|259:198|229:180,1,69.9999978637696
381,84,81201,2,0,L|470:73,1,69.9999978637696
414,276,81439,2,0,L|409:345,2,69.9999978637696
171,177,81915,6,0,P|112:183|59:215,1,69.9999978637696
13,336,82153,1,0,0:0:0:0:
87,355,82272,1,0,0:0:0:0:
159,328,82391,2,0,L|299:321,1,139.999995727539
318,75,82868,1,0,0:0:0:0:
243,57,82987,2,0,L|147:56,1,69.9999978637696
255,277,83225,1,0,0:0:0:0:
273,202,83344,2,0,L|265:120,1,69.9999978637696
105,201,83582,1,0,0:0:0:0:
72,128,83820,6,0,P|108:100|200:108,1,139.999995727539
224,236,84177,2,0,P|232:204|252:172,2,69.9999978637696
256,308,84534,1,0,0:0:0:0:
332,316,84653,1,0,0:0:0:0:
152,336,84772,2,0,P|116:332|84:316,1,69.9999978637696
30,184,85010,2,0,L|74:124,1,69.9999978637696
336,56,85368,1,0,0:0:0:0:
308,64,85487,1,0,0:0:0:0:
280,72,85606,1,0,0:0:0:0:
252,80,85725,6,0,L|368:136,1,69.9999978637696
164,128,85963,2,0,L|280:184,1,69.9999978637696
296,188,86201,1,0,0:0:0:0:
232,232,86320,1,0,0:0:0:0:
304,260,86439,1,0,0:0:0:0:
240,304,86558,1,0,0:0:0:0:
308,340,86677,2,0,P|276:356|240:360,1,69.9999978637696
68,320,86915,2,0,P|100:304|136:300,2,69.9999978637696
36,216,87272,2,0,L|40:144,1,69.9999978637696
116,48,87510,1,0,0:0:0:0:
144,56,87630,6,0,P|164:88|168:120,1,69.9999978637696
116,204,87868,2,0,P|192:208|252:236,1,139.999995727539
324,224,88225,1,0,0:0:0:0:
376,168,88344,1,0,0:0:0:0:
360,92,88463,1,0,0:0:0:0:
408,152,88582,2,0,P|432:180|464:196,1,69.9999978637696
224,152,88820,2,0,L|240:220,1,69.9999978637696
228,312,89058,2,0,P|296:276|324:220,1,139.999995727539
320,96,89415,6,0,P|300:128|272:144,1,69.9999978637696
196,160,89653,1,0,0:0:0:0:
120,140,89772,1,0,0:0:0:0:
76,76,89891,1,0,0:0:0:0:
236,88,90010,5,0,0:0:0:0:
196,160,90130,1,0,0:0:0:0:
144,216,90249,1,0,0:0:0:0:
72,244,90368,1,0,0:0:0:0:
116,308,90487,2,0,P|148:316|180:336,1,69.9999978637696
336,220,90725,2,0,P|304:212|272:192,1,69.9999978637696
420,300,90963,2,0,P|352:320|284:308,1,139.999995727539
244,244,91320,1,0,0:0:0:0:
224,168,91439,5,0,0:0:0:0:
460,228,91677,2,0,P|428:288|360:316,1,139.999995727539
224,296,92034,1,0,0:0:0:0:
152,320,92153,1,0,0:0:0:0:
172,240,92272,2,0,P|188:204|192:172,1,69.9999978637696
152,108,92510,1,0,0:0:0:0:
204,48,92630,1,0,0:0:0:0:
240,116,92749,2,0,L|176:252,1,139.999995727539
300,344,93106,2,0,L|280:272,1,69.9999978637696
384,80,93344,6,0,P|364:140|376:220,1,139.999995727539
300,344,93701,1,0,0:0:0:0:
300,344,93820,2,0,P|312:280|292:208,1,139.999995727539
224,172,94177,1,0,0:0:0:0:
156,140,94296,2,0,L|44:148,1,69.9999978637696
108,352,94534,2,0,B|100:252|100:252|136:224,1,139.999995727539
392,68,95010,2,0,L|460:128,1,69.9999978637696
448,192,95249,5,0,0:0:0:0:
232,328,95487,2,0,P|308:324|360:268,1,139.999995727539
352,204,95844,1,0,0:0:0:0:
320,132,95963,1,0,0:0:0:0:
64,68,96201,5,0,0:0:0:0:
52,144,96320,1,0,0:0:0:0:
124,176,96439,1,0,0:0:0:0:
64,228,96558,1,0,0:0:0:0:
116,288,96677,5,0,0:0:0:0:
124,364,96796,1,0,0:0:0:0:
188,324,96915,1,0,0:0:0:0:
264,308,97034,1,0,0:0:0:0:
320,256,97153,6,0,L|304:96,1,139.999995727539
232,96,97510,1,0,0:0:0:0:
160,68,97630,1,0,0:0:0:0:
88,124,97868,1,0,0:0:0:0:
72,148,97987,1,0,0:0:0:0:
56,172,98106,2,0,P|81:199|92:232,1,69.9999978637696
376,36,98344,2,0,P|348:61|316:72,1,69.9999978637696
384,288,98582,2,0,P|376:252|384:216,1,69.9999978637696
112,344,98820,2,0,P|144:328|180:324,1,69.9999978637696
