osu file format v14

[General]
AudioFilename: audio.mp3
AudioLeadIn: 0
PreviewTime: 124743
Countdown: 0
SampleSet: Normal
StackLeniency: 0.7
Mode: 0
LetterboxInBreaks: 0
WidescreenStoryboard: 1

[Editor]
Bookmarks: 440,27455,39286,40553,53652,74779,77314,78159,81539,89990,91680,98441,108582,151680,152525
DistanceSpacing: 1
BeatDivisor: 4
GridSize: 32
TimelineZoom: 1

[Metadata]
Title:Krugi na vode
TitleUnicode:Krugi na vode
Artist:SLOT
ArtistUnicode:SLOT
Creator:AncientMario
Version:Hard
Source:
Tags:
BeatmapID:1362009
BeatmapSetID:642453

[Difficulty]
HPDrainRate:8
CircleSize:4
OverallDifficulty:7
ApproachRate:8.2
SliderMultiplier:1.1
SliderTickRate:1

[Events]
//Background and Video events
0,0,"Konachan.com - 239826 black_hair chitanda_eru cici hyouka kneehighs long_hair rain seifuku skirt water.jpg",0,0
//Break Periods
//Storyboard Layer 0 (Background)
//Storyboard Layer 1 (Fail)
//Storyboard Layer 2 (Pass)
//Storyboard Layer 3 (Foreground)
//Storyboard Sound Samples

[TimingPoints]
413,422.535211267606,4,1,0,100,1,0
68018,-100,4,1,0,100,0,1
95060,-100,4,1,0,100,0,0
128863,-66.6666666666667,4,1,0,100,0,1
152103,-100,4,1,0,100,0,0
152525,-66.6666666666667,4,1,0,100,0,1
172807,-100,4,1,0,100,0,0

[Colours]
Combo1 : 192,192,192
Combo2 : 0,64,128
Combo3 : 0,128,192
Combo4 : 0,128,128
Combo5 : 255,128,0
Combo6 : 255,0,0
Combo7 : 128,128,128

[HitObjects]
78,70,413,86,0,P|67:139|67:192,2,110
171,12,1680,1,0,0:0:0:0:
194,119,2103,2,0,L|311:144,1,110
215,211,2948,2,0,L|332:236,1,110
400,311,3793,6,0,P|419:220|420:190,1,110
484,114,4638,2,0,P|393:95|363:94,1,110
158,61,5483,2,0,P|249:42|279:41,1,110
220,141,6328,2,0,P|225:195|239:248,1,110
192,347,7173,86,0,P|266:351|319:345,2,110
96,293,8441,1,0,0:0:0:0:
43,79,8863,2,0,P|70:175|80:199,1,110
178,219,9708,2,0,P|165:165|147:113,1,110
73,31,10553,6,0,P|151:23|185:28,1,110
290,6,11398,2,0,P|282:84|287:118,1,110
397,305,12243,2,0,P|401:250|393:196,1,110
351,93,13089,1,0,0:0:0:0:
323,199,13511,1,0,0:0:0:0:
227,144,13934,86,0,P|136:134|95:125,2,110
329,104,15201,1,0,0:0:0:0:
434,135,15624,2,0,P|431:230|433:250,1,110
341,307,16469,2,0,P|344:212|342:192,1,110
278,107,17314,6,0,P|345:100|402:108,2,110
187,169,18582,1,0,0:0:0:0:
100,371,19004,2,0,P|122:298|129:244,1,110
70,170,19849,2,0,P|52:222|42:276,1,110
136,219,20694,86,0,P|161:127|161:93,2,110
48,285,21962,1,0,0:0:0:0:
147,330,22384,2,0,P|218:322|259:323,1,110
474,350,23229,1,0,0:0:0:0:
397,270,23652,1,0,0:0:0:0:
433,166,24074,6,0,P|458:84|462:44,2,110
323,181,25342,1,0,0:0:0:0:
219,219,25765,2,0,P|200:270|191:324,2,110
323,181,27032,1,0,0:0:0:0:
406,109,27455,86,0,P|350:84|278:72,1,110
226,153,28300,1,0,0:0:0:0:
198,46,28722,1,0,0:0:0:0:
123,126,29145,2,0,P|57:218|51:234,1,110
86,320,29990,2,0,P|123:279|150:231,1,110
196,131,30835,6,0,P|218:40|216:4,2,110
149,231,32103,1,0,0:0:0:0:
364,207,32525,2,0,P|312:224|258:230,1,110
302,130,33370,2,0,P|354:112|408:106,1,110
501,47,34215,86,0,P|512:127|510:171,1,110
465,256,35060,1,0,0:0:0:0:
405,163,35483,1,0,0:0:0:0:
337,249,35905,2,0,P|329:306|332:369,1,110
251,281,36751,2,0,P|252:226|244:171,1,110
162,98,37596,6,0,P|87:91|40:96,2,110
244,171,38863,1,0,0:0:0:0:
158,240,39286,2,0,P|103:246|48:244,2,110
244,171,40553,1,0,0:0:0:0:
328,100,40976,6,0,P|333:194|345:228,2,110
222,69,42243,2,0,P|223:139|225:157,1,55
169,140,42666,2,0,P|168:210|166:228,1,55
219,218,43089,1,0,0:0:0:0:
170,316,43511,1,0,0:0:0:0:
278,298,43934,1,0,0:0:0:0:
278,298,44145,1,0,0:0:0:0:
278,298,44356,6,0,P|365:275|414:273,2,110
217,206,45624,2,0,P|213:171|217:135,1,55
160,142,46046,2,0,P|163:112|160:74,1,55
207,55,46469,1,0,0:0:0:0:
99,33,46891,1,0,0:0:0:0:
26,115,47314,1,0,0:0:0:0:
26,115,47525,1,0,0:0:0:0:
26,115,47736,6,0,P|5:182|4:209,2,73.3333333333333
93,85,48582,2,0,P|160:106|187:107,2,73.3333333333333
85,158,49638,1,0,0:0:0:0:
85,158,49849,1,0,0:0:0:0:
137,254,50272,1,0,0:0:0:0:
235,206,50694,1,0,0:0:0:0:
235,206,50905,1,0,0:0:0:0:
235,206,51117,70,0,P|302:185|329:184,2,73.3333333333333
211,275,51963,2,0,P|232:342|233:369,2,73.3333333333333
336,299,53018,1,0,0:0:0:0:
336,299,53229,1,0,0:0:0:0:
439,260,53652,1,0,0:0:0:0:
341,210,54074,1,0,0:0:0:0:
341,210,54286,1,0,0:0:0:0:
341,210,54497,6,0,P|345:150|337:104,2,73.3333333333333
276,174,55342,1,0,0:0:0:0:
203,256,55765,2,0,P|166:253|131:260,1,55
130,203,56187,2,0,P|95:208|53:206,1,55
58,260,56610,1,0,0:0:0:0:
79,96,57032,1,0,0:0:0:0:
183,130,57455,1,0,0:0:0:0:
183,130,57666,1,0,0:0:0:0:
183,130,57877,6,0,P|248:124|306:110,1,110
378,47,58722,1,0,0:0:0:0:
361,155,59145,2,0,L|366:222,1,55
418,220,59567,2,0,L|422:284,1,55
376,307,59990,1,0,0:0:0:0:
483,181,60413,1,0,0:0:0:0:
430,84,60835,1,0,0:0:0:0:
430,84,61046,1,0,0:0:0:0:
430,84,61258,70,0,P|351:71|325:60,2,73.3333333333333
474,142,62103,2,0,P|461:221|450:247,2,73.3333333333333
350,177,63159,1,0,0:0:0:0:
350,177,63370,1,0,0:0:0:0:
248,134,63793,1,0,0:0:0:0:
150,82,64215,1,0,0:0:0:0:
150,82,64427,1,0,0:0:0:0:
150,82,64638,6,0,P|131:155|104:189,1,110
110,182,65483,2,0,P|183:201|217:228,1,110
210,221,66328,2,0,P|229:148|256:114,1,110
98,53,68018,38,0,P|79:94|69:124,1,55
116,205,68441,70,0,P|135:164|145:134,1,55
98,53,68863,1,0,0:0:0:0:
318,45,69286,2,0,L|344:112,1,55
285,193,69708,2,0,L|265:141,1,55
367,183,70131,2,0,L|386:234,1,55
285,277,70553,1,0,0:0:0:0:
190,220,70765,1,0,0:0:0:0:
295,189,70976,1,0,0:0:0:0:
201,132,71187,1,0,0:0:0:0:
251,110,71293,1,0,0:0:0:0:
299,83,71398,70,0,L|351:56,1,55
396,32,71821,1,0,0:0:0:0:
404,141,72032,1,0,0:0:0:0:
234,281,72455,1,0,0:0:0:0:
453,293,72877,1,0,0:0:0:0:
284,151,73300,1,0,0:0:0:0:
339,246,73511,1,0,0:0:0:0:
236,206,73722,1,0,0:0:0:0:
337,248,73934,1,0,0:0:0:0:
287,272,74145,5,0,0:0:0:0:
261,282,74250,1,0,0:0:0:0:
234,285,74356,1,0,0:0:0:0:
207,279,74461,1,0,0:0:0:0:
183,265,74567,1,0,0:0:0:0:
165,245,74673,1,0,0:0:0:0:
147,223,74779,38,0,L|117:160,1,55
267,6,75413,69,0,0:0:0:0:
341,86,75624,2,0,P|356:105|370:133,1,55
261,116,76046,1,0,0:0:0:0:
261,116,76680,1,0,0:0:0:0:
157,78,76891,2,0,P|156:113|167:151,1,55
216,227,77314,69,0,0:0:0:0:
261,257,77525,1,0,0:0:0:0:
312,276,77736,1,0,0:0:0:0:
367,279,77948,1,0,0:0:0:0:
419,261,78159,54,0,P|456:232|473:207,1,55
457,115,78793,53,0,0:0:0:0:
377,191,79004,1,0,0:0:0:0:
242,16,79427,1,0,0:0:0:0:
334,74,79638,1,0,0:0:0:0:
168,218,80060,1,0,0:0:0:0:
227,125,80272,1,0,0:0:0:0:
267,226,80694,5,0,0:0:0:0:
260,252,80799,1,0,0:0:0:0:
247,276,80905,1,0,0:0:0:0:
227,295,81010,1,0,0:0:0:0:
203,308,81116,1,0,0:0:0:0:
176,314,81222,1,0,0:0:0:0:
149,313,81327,1,0,0:0:0:0:
123,303,81433,1,0,0:0:0:0:
100,286,81539,22,0,P|64:244|60:222,1,55
72,135,81962,38,0,P|114:99|136:95,1,55
152,201,82384,1,0,0:0:0:0:
152,201,82807,2,0,L|186:271,1,55
217,148,83229,2,0,L|246:210,1,55
280,94,83652,1,0,0:0:0:0:
348,302,84074,53,0,0:0:0:0:
391,161,84356,1,0,0:0:0:0:
252,209,84638,1,0,0:0:0:0:
252,209,84779,1,0,0:0:0:0:
252,209,84920,2,0,L|179:234,1,55
108,166,85342,38,0,L|185:140,1,55
368,78,85976,1,0,0:0:0:0:
199,226,86398,1,0,0:0:0:0:
418,244,86821,1,0,0:0:0:0:
308,237,87032,1,0,0:0:0:0:
418,244,87243,1,0,0:0:0:0:
341,323,87455,1,0,0:0:0:0:
235,293,87666,5,0,0:0:0:0:
222,268,87771,1,0,0:0:0:0:
218,241,87877,1,0,0:0:0:0:
221,214,87982,1,0,0:0:0:0:
231,189,88088,1,0,0:0:0:0:
249,167,88194,1,0,0:0:0:0:
269,149,88300,38,0,P|310:124|339:119,1,55
414,172,88722,70,0,P|373:197|344:202,1,55
383,89,89145,2,0,P|424:64|453:59,1,55
488,155,89567,1,0,0:0:0:0:
458,261,89990,2,0,L|435:319,2,36.6666666666667
384,265,90413,2,0,L|361:323,2,36.6666666666667
310,260,90835,2,0,L|287:318,2,36.6666666666667
236,255,91258,2,0,L|213:313,2,36.6666666666667
163,246,91680,21,0,0:0:0:0:
72,183,91891,37,0,0:0:0:0:
273,93,92314,1,0,0:0:0:0:
171,135,92525,1,0,0:0:0:0:
265,334,92948,1,0,0:0:0:0:
270,224,93159,1,0,0:0:0:0:
54,176,93582,1,0,0:0:0:0:
121,263,93793,1,0,0:0:0:0:
152,45,94215,1,0,0:0:0:0:
206,51,94427,1,0,0:0:0:0:
251,81,94638,1,0,0:0:0:0:
282,125,94849,1,0,0:0:0:0:
256,192,95060,12,0,98018,0:0:0:0:
96,115,98441,6,0,P|96:161|115:237,2,110
167,31,99708,1,0,0:0:0:0:
268,74,100131,2,0,L|338:63,1,55
341,116,100553,2,0,L|416:103,1,55
417,56,100976,1,0,0:0:0:0:
430,165,101398,1,0,0:0:0:0:
379,263,101821,6,0,P|447:265|501:249,2,110
294,191,103089,1,0,0:0:0:0:
212,117,103511,2,0,L|151:117,1,55
134,167,103934,2,0,L|66:167,1,55
46,122,104356,1,0,0:0:0:0:
41,232,104779,1,0,0:0:0:0:
41,232,104990,1,0,0:0:0:0:
41,232,105201,70,0,P|35:305|26:337,2,73.3333333333333
66,206,105905,1,0,0:0:0:0:
92,179,106046,2,0,P|128:184|164:184,1,73.3333333333333
159,258,106610,2,0,P|195:263|231:263,1,73.3333333333333
267,159,107314,1,0,0:0:0:0:
455,45,108159,1,0,0:0:0:0:
456,99,108370,1,0,0:0:0:0:
446,153,108582,6,0,P|435:190|388:255,1,110
357,208,109215,1,0,0:0:0:0:
313,174,109427,2,0,P|280:217|262:269,1,110
309,296,110060,1,0,0:0:0:0:
389,314,110272,1,0,0:0:0:0:
196,208,110694,1,0,0:0:0:0:
115,132,111117,1,0,0:0:0:0:
163,105,111328,1,0,0:0:0:0:
217,105,111539,1,0,0:0:0:0:
265,130,111750,1,0,0:0:0:0:
295,176,111962,6,0,P|317:243|315:281,2,110
219,95,113229,1,0,0:0:0:0:
115,57,113652,2,0,L|89:115,1,55
122,153,114074,2,0,L|96:212,1,55
45,213,114497,1,0,0:0:0:0:
19,105,114920,1,0,0:0:0:0:
107,39,115342,70,0,L|182:26,1,55
213,48,115765,1,0,0:0:0:0:
249,89,115976,1,0,0:0:0:0:
262,142,116187,2,0,P|259:197|238:260,1,110
163,173,116821,2,0,P|136:245|138:294,2,110
163,173,117877,1,0,0:0:0:0:
270,148,118300,1,0,0:0:0:0:
270,148,118511,1,0,0:0:0:0:
270,148,118722,6,0,L|239:230,2,73.3333333333333
330,105,119567,2,0,L|421:99,2,73.3333333333333
261,77,120413,2,0,L|203:8,2,73.3333333333333
310,131,121258,1,0,0:0:0:0:
370,222,121680,1,0,0:0:0:0:
370,222,121891,1,0,0:0:0:0:
370,222,122103,6,0,L|292:245,1,73.3333333333333
166,181,122666,1,0,0:0:0:0:
166,181,122948,2,0,L|243:157,1,73.3333333333333
256,192,123370,12,0,124638,0:0:0:0:
147,84,128018,5,0,0:0:0:0:
135,220,128229,1,0,0:0:0:0:
214,332,128441,1,0,0:0:0:0:
203,195,128652,1,0,0:0:0:0:
226,59,128863,5,0,0:0:0:0:
450,164,129286,1,0,0:0:0:0:
338,110,129497,1,0,0:0:0:0:
308,272,129920,1,0,0:0:0:0:
472,265,130342,1,0,0:0:0:0:
356,147,130765,1,0,0:0:0:0:
432,176,130976,1,0,0:0:0:0:
432,177,131187,1,0,0:0:0:0:
432,177,131398,1,0,0:0:0:0:
432,177,131610,85,0,0:0:0:0:
434,136,131715,1,0,0:0:0:0:
417,99,131821,1,0,0:0:0:0:
384,75,131926,1,0,0:0:0:0:
343,69,132032,1,0,0:0:0:0:
305,84,132138,1,0,0:0:0:0:
232,153,132243,6,0,P|231:222|224:266,2,110.000004196167
319,220,133089,86,0,P|311:165|311:110,1,110.000004196167
399,176,133652,6,0,P|398:230|390:285,1,110.000004196167
390,285,134356,1,0,0:0:0:0:
225,270,134779,1,0,0:0:0:0:
190,247,134990,1,0,0:0:0:0:
166,213,135201,1,0,0:0:0:0:
159,172,135413,1,0,0:0:0:0:
195,98,135624,2,0,P|214:25|206:-9,2,110.000004196167
89,65,136469,2,0,P|82:119|100:170,2,110.000004196167
188,111,137314,1,0,0:0:0:0:
270,116,137525,86,0,L|301:169,3,41.2500015735627
321,123,137948,2,0,L|352:176,3,41.2500015735627
368,126,138370,1,0,0:0:0:0:
379,143,138475,1,0,0:0:0:0:
390,160,138581,1,0,0:0:0:0:
401,178,138686,1,0,0:0:0:0:
412,195,138792,1,0,0:0:0:0:
423,213,138898,1,0,0:0:0:0:
445,247,139004,6,0,P|452:320|473:352,2,110.000004196167
380,186,139849,1,0,0:0:0:0:
289,324,140272,2,0,L|285:231,1,82.5000031471254
224,186,140694,2,0,L|220:93,1,82.5000031471254
278,44,141117,1,0,0:0:0:0:
379,173,141539,1,0,0:0:0:0:
213,169,141962,2,0,L|121:148,1,82.5000031471254
154,71,142384,86,2,L|245:91,1,82.5000031471254
397,113,143018,1,0,0:0:0:0:
335,168,143229,2,0,L|316:268,1,82.5000031471254
251,295,143652,1,0,0:0:0:0:
251,295,144286,2,0,L|150:261,1,82.5000031471254
113,325,144708,2,0,L|12:291,1,82.5000031471254
36,215,145131,1,0,0:0:0:0:
37,174,145342,1,0,0:0:0:0:
46,133,145553,1,0,0:0:0:0:
93,64,145765,6,0,P|135:27|195:6,2,110.000004196167
190,115,146610,2,0,P|149:151|98:171,2,110.000004196167
279,50,147455,2,0,L|310:109,2,55.0000020980836
268,103,147877,2,0,L|299:162,2,55.0000020980836
256,157,148300,2,0,L|287:216,2,55.0000020980836
245,211,148722,2,0,L|276:270,2,55.0000020980836
