osu file format v14

[General]
AudioFilename: audio.mp3
AudioLeadIn: 0
PreviewTime: 127900
Countdown: 0
SampleSet: Soft
StackLeniency: 0.2
Mode: 0
LetterboxInBreaks: 0
WidescreenStoryboard: 0

[Editor]
Bookmarks: 11000,11133,11266,11400,11533,11666,11800,11933,25600,51200,76800,102400,128000,153600,166400,179200,192000,217600,243200
DistanceSpacing: 1
BeatDivisor: 4
GridSize: 4
TimelineZoom: 2

[Metadata]
Title:Pullopantti
TitleUnicode:Pullopantti
Artist:SLIM MILL ft. Various Artists
ArtistUnicode:SLIM MILL ft. Various Artists
Creator:isopaharuntikka
Version:Tragic Bottle Extra
Source:
Tags:suomirap rap suomi finnish finland bottle returning return cute loli extremely hard map LännenLiinein Kielijuhani Alis MVD J€¥$0N A$APVergi VaahteraNege various artists
BeatmapID:1259115
BeatmapSetID:595423

[Difficulty]
HPDrainRate:3
CircleSize:4
OverallDifficulty:8
ApproachRate:9
SliderMultiplier:1.4
SliderTickRate:1

[Events]
//Background and Video events
0,0,"yeahboi.png",0,0
//Break Periods
//Storyboard Layer 0 (Background)
//Storyboard Layer 1 (Fail)
//Storyboard Layer 2 (Pass)
//Storyboard Layer 3 (Foreground)
//Storyboard Sound Samples

[TimingPoints]
0,400,4,2,0,50,1,0
11000,-1,4,2,0,50,0,0
12000,-83.3333333333333,4,2,0,50,0,0
88800,-125,4,2,0,50,0,0
89200,-200,4,2,0,50,0,0
89600,-83.3333333333333,4,2,0,50,0,0
152800,-125,4,2,0,50,0,0
153200,-200,4,2,0,50,0,0
153600,-83.3333333333333,4,2,0,50,0,0
191600,-200,4,2,0,50,0,0
192000,-100,4,2,0,50,0,0

[HitObjects]
140,166,0,6,0,P|179:184|213:181,1,70
299,170,400,1,0,0:0:0:0:
331,167,500,1,0,0:0:0:0:
365,179,600,1,0,0:0:0:0:
473,266,800,2,0,P|434:248|400:251,1,70
318,264,1200,1,0,0:0:0:0:
348,65,1400,1,0,0:0:0:0:
248,91,1600,6,0,P|213:90|182:73,1,70
154,165,2000,2,0,P|188:165|219:182,1,70
292,201,2400,6,0,P|323:218|358:219,1,70
329,310,2799,2,0,P|298:293|264:293,1,70
190,331,3200,5,0,0:0:0:0:
403,278,3400,1,0,0:0:0:0:
322,53,4000,5,0,0:0:0:0:
109,106,4200,1,0,0:0:0:0:
190,331,4800,5,0,0:0:0:0:
403,278,5000,1,0,0:0:0:0:
322,53,5200,5,0,0:0:0:0:
109,106,5400,1,0,0:0:0:0:
190,331,5600,5,0,0:0:0:0:
109,106,5800,1,0,0:0:0:0:
403,278,6000,5,0,0:0:0:0:
322,53,6200,1,0,0:0:0:0:
155,237,6400,6,0,L|98:296,1,70
357,147,7200,2,0,L|414:88,1,70
368,237,8000,5,0,0:0:0:0:
298,218,8200,1,0,0:0:0:0:
243,166,8400,1,0,0:0:0:0:
219,95,8600,1,0,0:0:0:0:
155,167,8800,1,0,0:0:0:0:
225,186,9000,1,0,0:0:0:0:
280,238,9200,1,0,0:0:0:0:
304,309,9400,1,0,0:0:0:0:
154,309,9600,6,0,L|219:251,1,70
358,75,10400,2,0,L|293:133,1,70
16,148,11000,6,0,B|84:188|148:152|148:152|156:140|112:80|32:84|32:84|32:52|84:16|184:24,1,437.5
212,168,11150,6,0,B|276:48|276:48|352:196,1,262.5
372,164,11275,6,0,B|436:44|436:44|512:192,1,262.5
112,232,11400,6,0,B|-24:232|-24:232|-48:232|40:232|40:232|36:356|36:356|40:296,1,350
128,352,11550,6,0,B|192:232|192:232|240:380,1,262.5
288,352,11675,6,0,B|288:208|288:208|372:352|372:352|396:184|396:184,1,437.5
412,344,11825,6,0,B|476:224|476:224|520:368,1,262.5
488,184,12000,6,0,P|440:176|392:204,1,83.9999974365235
348,264,12400,2,0,P|300:272|252:244,1,83.9999974365235
308,184,12800,5,0,0:0:0:0:
468,260,13000,1,0,0:0:0:0:
426,142,13600,5,0,0:0:0:0:
350,302,13800,1,0,0:0:0:0:
224,272,14400,5,0,0:0:0:0:
376,304,14600,1,0,0:0:0:0:
320,156,14800,2,0,P|280:148|236:168,1,83.9999974365235
84,248,15200,1,0,0:0:0:0:
112,92,15400,1,0,0:0:0:0:
232,176,15600,2,0,P|240:120|264:100,1,70
304,56,16000,5,0,0:0:0:0:
192,240,16200,1,0,0:0:0:0:
408,232,16400,1,0,0:0:0:0:
424,240,16500,1,0,0:0:0:0:
436,252,16600,1,0,0:0:0:0:
276,348,16800,2,0,P|284:296|268:264,1,70
96,172,17200,2,0,L|172:200,1,70
376,216,17600,5,0,0:0:0:0:
368,188,17700,1,0,0:0:0:0:
352,164,17800,2,0,L|324:128,1,35
252,24,18000,1,0,0:0:0:0:
444,96,18200,1,0,0:0:0:0:
268,196,18400,1,0,0:0:0:0:
76,124,18600,1,0,0:0:0:0:
108,296,18800,1,0,0:0:0:0:
288,372,19000,1,0,0:0:0:0:
440,272,19200,6,0,P|456:228|456:184,1,70
464,112,19600,1,0,0:0:0:0:
456,96,19700,1,0,0:0:0:0:
448,84,19800,1,0,0:0:0:0:
368,88,20000,2,0,P|372:122|385:154,1,70
296,144,20400,1,0,0:0:0:0:
332,220,20600,1,0,0:0:0:0:
248,212,20800,6,0,P|224:180|216:144,1,70
264,56,21200,2,0,L|180:76,1,70
108,104,21600,2,0,P|132:136|140:172,1,70
92,260,22000,2,0,L|176:240,1,70
324,192,22400,5,0,0:0:0:0:
16,280,22600,1,0,0:0:0:0:
188,232,22800,1,0,0:0:0:0:
200,220,22900,1,0,0:0:0:0:
208,204,23000,1,0,0:0:0:0:
240,52,23200,2,0,L|276:116,1,70
365,262,23600,1,0,0:0:0:0:
392,252,24800,5,0,0:0:0:0:
328,192,25000,5,0,0:0:0:0:
308,180,25066,5,0,0:0:0:0:
288,176,25133,5,0,0:0:0:0:
268,180,25200,6,0,L|232:188,5,23.3333333333333
212,192,25600,6,0,L|208:104,1,83.9999974365235
284,8,26000,2,0,L|288:96,1,83.9999974365235
140,80,26400,1,0,0:0:0:0:
352,128,26600,1,0,0:0:0:0:
140,164,26800,1,0,0:0:0:0:
356,48,27000,1,0,0:0:0:0:
384,260,27200,6,0,P|352:304|312:312,1,83.9999974365235
152,188,27600,1,0,0:0:0:0:
332,64,27800,1,0,0:0:0:0:
312,284,28000,1,0,0:0:0:0:
124,176,28200,1,0,0:0:0:0:
312,100,28400,2,0,L|412:68,1,83.9999974365235
460,52,28800,5,0,0:0:0:0:
240,128,29000,1,0,0:0:0:0:
404,244,29200,1,0,0:0:0:0:
432,260,29300,1,0,0:0:0:0:
456,280,29400,1,0,0:0:0:0:
256,320,29600,2,0,L|324:248,1,83.9999974365235
384,64,30000,2,0,L|316:136,1,83.9999974365235
212,180,30400,5,0,0:0:0:0:
436,208,30600,1,0,0:0:0:0:
304,332,30800,2,0,P|248:328|216:308,1,83.9999974365235
56,248,31200,2,0,P|112:244|144:224,1,83.9999974365235
280,148,31600,1,0,0:0:0:0:
132,324,31800,1,0,0:0:0:0:
412,324,32000,6,0,P|400:268|380:232,1,83.9999974365235
308,80,32400,2,0,P|339:128|350:167,1,83.9999974365235
328,340,32800,2,0,P|316:284|296:248,1,83.9999974365235
248,180,33200,1,0,0:0:0:0:
248,180,33400,1,0,0:0:0:0:
200,264,33600,6,0,P|184:303|160:337,1,83.9999974365235
108,264,34000,1,0,0:0:0:0:
152,192,34200,1,0,0:0:0:0:
68,188,34400,2,0,P|88:140|140:108,1,83.9999974365235
188,116,34800,1,0,0:0:0:0:
188,264,35000,1,0,0:0:0:0:
92,100,35200,5,0,0:0:0:0:
276,260,35400,1,0,0:0:0:0:
300,28,35600,5,0,0:0:0:0:
116,188,35800,1,0,0:0:0:0:
396,188,36000,5,0,0:0:0:0:
212,28,36200,1,0,0:0:0:0:
256,336,36400,5,0,0:0:0:0:
256,124,36600,1,0,0:0:0:0:
400,312,36800,5,0,0:0:0:0:
420,324,36900,1,0,0:0:0:0:
440,328,37000,1,0,0:0:0:0:
472,212,37200,2,0,L|384:132,1,83.9999974365235
284,44,37600,1,0,0:0:0:0:
248,192,37800,5,0,0:0:0:0:
232,220,37866,5,0,0:0:0:0:
208,244,37933,5,0,0:0:0:0:
188,260,38000,6,0,L|152:268,7,20.9999993591309
132,264,38400,6,0,L|144:148,1,83.9999974365235
76,36,38800,2,0,L|64:152,1,83.9999974365235
256,260,39200,2,0,L|244:144,1,83.9999974365235
312,32,39600,1,0,0:0:0:0:
312,60,40400,6,0,L|208:68,1,83.9999974365235
80,148,40800,2,0,L|184:140,1,83.9999974365235
328,208,41200,2,0,L|224:216,1,83.9999974365235
172,220,41600,5,0,0:0:0:0:
404,204,41800,1,0,0:0:0:0:
216,288,42000,2,0,L|242:255,1,41.9999987182618
356,272,42201,2,0,L|329:239,1,41.9999987182618
276,188,42400,2,0,P|268:128|248:92,1,83.9999974365235
212,48,42800,1,0,0:0:0:0:
356,132,43000,1,0,0:0:0:0:
184,148,43200,6,0,L|232:120,1,41.9999987182618
360,40,43400,2,0,L|312:68,1,41.9999987182618
352,168,43600,1,0,0:0:0:0:
336,192,43700,1,0,0:0:0:0:
316,208,43800,1,0,0:0:0:0:
288,216,43900,1,0,0:0:0:0:
264,212,44000,2,0,P|208:204|160:212,1,83.9999974365235
80,204,44400,6,0,L|92:204,8,10.4999996795654
432,204,44800,6,0,L|420:204,8,10.4999996795654
136,264,45200,5,0,0:0:0:0:
368,152,45400,1,0,0:0:0:0:
376,264,45600,5,0,0:0:0:0:
144,152,45800,1,0,0:0:0:0:
368,72,46000,5,0,0:0:0:0:
136,344,46200,1,0,0:0:0:0:
144,72,46400,5,0,0:0:0:0:
376,344,46600,1,0,0:0:0:0:
440,112,46800,2,0,P|456:72|432:88,1,83.9999974365235
424,56,47200,2,0,L|392:144,1,83.9999974365235
280,256,47600,2,0,L|312:168,1,83.9999974365235
316,84,48000,5,0,0:0:0:0:
388,224,48200,1,0,0:0:0:0:
432,44,48400,5,0,0:0:0:0:
280,200,48600,1,0,0:0:0:0:
504,260,48800,5,0,0:0:0:0:
248,28,49000,1,0,0:0:0:0:
248,356,49200,5,0,0:0:0:0:
504,124,49400,1,0,0:0:0:0:
224,128,49600,2,0,L|120:132,1,83.9999974365235
288,256,50000,2,0,L|371:252,1,83.9999974365235
68,136,50400,1,0,0:0:0:0:
444,248,50600,1,0,0:0:0:0:
212,256,50800,2,0,P|232:208|268:184,1,83.9999974365235
388,84,51200,5,0,0:0:0:0:
256,328,51600,1,0,0:0:0:0:
124,84,52000,1,0,0:0:0:0:
192,44,52800,6,0,P|196:112|168:144,1,83.9999974365235
84,200,53200,1,0,0:0:0:0:
208,264,53400,1,0,0:0:0:0:
316,108,53600,2,0,P|366:153|369:195,1,83.9999974365235
349,293,54000,2,0,L|444:276,1,83.9999974365235
504,260,54400,5,0,0:0:0:0:
268,312,54600,1,0,0:0:0:0:
344,100,54800,1,0,0:0:0:0:
404,328,55000,2,0,L|388:272,1,41.9999987182618
268,184,55200,2,0,P|220:168|168:176,1,83.9999974365235
40,248,55600,2,0,P|88:264|140:256,1,83.9999974365235
208,88,56000,5,0,0:0:0:0:
188,288,56200,1,0,0:0:0:0:
284,92,56400,5,0,0:0:0:0:
299,292,56600,1,0,0:0:0:0:
360,92,56800,5,0,0:0:0:0:
409,286,57000,1,0,0:0:0:0:
440,88,57200,2,0,P|412:32|364:24,1,83.9999974365235
116,24,57600,6,0,P|83:48|72:88,1,83.9999974365235
116,268,58000,1,0,0:0:0:0:
76,120,58200,1,0,0:0:0:0:
216,152,58400,2,0,P|264:168|308:156,1,83.9999974365235
432,240,58800,2,0,P|384:224|340:236,1,83.9999974365235
280,280,59200,5,0,0:0:0:0:
268,288,59300,1,0,0:0:0:0:
256,296,59400,1,0,0:0:0:0:
140,280,59600,2,0,P|116:236|112:184,1,83.9999974365235
152,48,60000,2,0,P|166:96|200:135,1,83.9999974365235
360,48,60400,2,0,P|345:96|311:135,1,83.9999974365235
192,204,60800,5,0,0:0:0:0:
320,200,61000,1,0,0:0:0:0:
224,292,61200,5,0,0:0:0:0:
240,76,61400,1,0,0:0:0:0:
336,304,61600,5,0,0:0:0:0:
152,136,61800,1,0,0:0:0:0:
100,336,62000,5,0,0:0:0:0:
364,136,62200,1,0,0:0:0:0:
224,56,62400,5,0,0:0:0:0:
424,320,62600,1,0,0:0:0:0:
56,184,62800,5,0,0:0:0:0:
472,208,63000,1,0,0:0:0:0:
252,200,63200,6,0,P|264:160|268:192,1,83.9999974365235
276,168,63600,2,0,P|298:196|264:208,1,83.9999974365235
340,108,64000,6,0,P|292:84|244:92,1,83.9999974365235
112,192,64400,2,0,P|160:168|208:176,1,83.9999974365235
176,256,64800,1,0,0:0:0:0:
264,216,65000,1,0,0:0:0:0:
252,312,65200,1,0,0:0:0:0:
340,272,65400,1,0,0:0:0:0:
328,360,65600,5,0,0:0:0:0:
192,168,65800,1,0,0:0:0:0:
368,112,66000,5,0,0:0:0:0:
176,248,66200,1,0,0:0:0:0:
416,304,66400,2,0,P|452:316|508:272,1,83.9999974365235
424,152,66800,2,0,L|412:52,1,83.9999974365235
328,48,67200,5,0,0:0:0:0:
160,72,67400,1,0,0:0:0:0:
268,188,67600,1,0,0:0:0:0:
100,212,67800,1,0,0:0:0:0:
200,320,68000,2,0,P|248:336|316:320,1,83.9999974365235
456,240,68400,2,0,P|408:256|340:240,1,83.9999974365235
244,172,68800,5,0,0:0:0:0:
220,160,68900,1,0,0:0:0:0:
192,152,69000,1,0,0:0:0:0:
56,320,69200,2,0,L|152:280,1,83.9999974365235
276,152,69600,1,0,0:0:0:0:
80,136,69800,1,0,0:0:0:0:
152,304,70000,1,0,0:0:0:0:
192,40,70200,1,0,0:0:0:0:
296,176,70400,6,0,P|340:216|396:224,1,83.9999974365235
460,172,70800,1,0,0:0:0:0:
473,211,70900,1,0,0:0:0:0:
467,252,71000,1,0,0:0:0:0:
444,287,71100,1,0,0:0:0:0:
408,308,71200,2,0,P|348:324|296:312,1,83.9999974365235
164,224,71600,2,0,P|224:239|276:227,1,83.9999974365235
384,68,72000,6,0,P|336:52|271:64,1,83.9999974365235
188,76,72400,1,0,0:0:0:0:
150,96,72500,1,0,0:0:0:0:
127,130,72600,1,0,0:0:0:0:
121,172,72700,1,0,0:0:0:0:
134,211,72800,2,0,P|168:262|214:288,1,83.9999974365235
364,328,73200,2,0,P|329:276|283:250,1,83.9999974365235
224,156,73600,6,0,L|328:132,1,83.9999974365235
472,100,74000,1,0,0:0:0:0:
40,284,74400,1,0,0:0:0:0:
180,40,74800,1,0,0:0:0:0:
332,344,75200,1,0,0:0:0:0:
272,196,75400,1,0,0:0:0:0:
144,316,75600,2,0,P|112:272|112:212,1,83.9999974365235
68,72,76000,2,0,B|100:116|101:198|100:200|100:200|96:198|96:208|96:208|92:212|92:212|96:206|100:208|100:216|100:216|96:216|96:216|92:220|92:220|88:228|88:228|88:232|88:232|86:222|86:222|80:236|80:236|84:236|84:236|88:240|88:240|75:238|75:238|72:248|72:248|80:244|80:244|80:248|80:248|88:240|72:272,1,251.999992309571
48,48,76800,6,0,P|100:44|152:72,1,83.9999974365235
184,148,77200,2,0,P|236:152|288:124,1,83.9999974365235
312,40,77600,2,0,P|364:36|416:64,1,83.9999974365235,2|0,0:0|0:0,0:0:0:0:
464,140,78000,2,0,P|468:191|440:244,1,83.9999974365235,2|0,0:0|0:0,0:0:0:0:
372,256,78400,5,0,0:0:0:0:
460,48,78600,1,0,0:0:0:0:
256,48,78800,2,0,P|200:56|160:88,1,83.9999974365235
112,164,79200,2,0,P|120:220|152:260,1,83.9999974365235
208,288,79600,1,0,0:0:0:0:
84,84,79800,1,0,0:0:0:0:
312,52,80000,6,0,P|368:60|408:92,1,83.9999974365235
464,256,80400,1,0,0:0:0:0:
440,156,80600,1,0,0:0:0:0:
468,348,80800,2,0,P|412:340|372:308,1,83.9999974365235
316,144,81200,1,0,0:0:0:0:
340,244,81400,1,0,0:0:0:0:
296,48,81600,6,0,P|244:64|208:88,1,83.9999974365235
96,160,82000,2,0,P|148:176|184:200,1,83.9999974365235
184,320,82400,1,0,0:0:0:0:
112,68,82600,1,0,0:0:0:0:
328,320,82800,1,0,0:0:0:0:
400,68,83000,1,0,0:0:0:0:
344,292,83200,6,0,P|304:264|280:216,1,83.9999974365235
240,44,83600,1,0,0:0:0:0:
84,200,83800,1,0,0:0:0:0:
271,112,84000,1,0,0:0:0:0:
52,131,84200,1,0,0:0:0:0:
252,185,84400,1,0,0:3:0:0:
71,58,84600,1,0,0:3:0:0:
176,236,84800,6,0,P|224:276|276:280,1,83.9999974365235
352,272,85200,1,0,0:0:0:0:
376,260,85300,1,0,0:0:0:0:
400,244,85400,1,0,0:0:0:0:
448,148,85600,1,0,0:0:0:0:
439,107,85700,1,0,0:0:0:0:
413,74,85800,1,0,0:0:0:0:
376,55,85900,1,0,0:0:0:0:
335,54,86000,2,0,P|280:56|232:88,1,83.9999974365235
184,112,86400,5,0,0:0:0:0:
492,232,86600,1,0,0:0:0:0:
184,272,86800,5,0,0:0:0:0:
492,152,87000,1,0,0:0:0:0:
168,88,87200,2,0,P|88:124|72:220,1,167.999994873047
64,336,87800,1,0,0:0:0:0:
180,288,88000,6,0,L|272:252,1,83.9999974365235
328,312,88400,2,0,L|420:276,1,83.9999974365235
480,228,88800,6,0,L|448:156,1,56
420,96,89200,6,0,L|372:112,1,35
360,132,89600,6,0,P|308:144|248:136,1,83.9999974365235
176,96,90000,1,0,0:0:0:0:
152,80,90100,1,0,0:0:0:0:
132,56,90200,1,0,0:0:0:0:
52,96,90400,2,0,L|24:208,1,83.9999974365235
12,260,90800,1,0,0:0:0:0:
152,204,91000,1,0,0:0:0:0:
132,324,91200,5,0,0:0:0:0:
272,268,91400,1,0,0:0:0:0:
300,112,91600,2,0,P|360:124|384:164,1,83.9999974365235
328,304,92000,2,0,P|268:292|244:252,1,83.9999974365235
308,80,92400,2,0,P|368:92|392:132,1,83.9999974365235
436,224,92800,2,0,P|376:268|192:228,1,251.999992309571
64,184,93600,2,0,L|160:152,1,83.9999974365235
256,24,94000,2,0,L|160:56,1,83.9999974365235
248,184,94400,6,0,P|312:208|344:196,1,83.9999974365235
416,168,94800,1,0,0:0:0:0:
440,148,94900,1,0,0:0:0:0:
448,120,95000,1,0,0:0:0:0:
456,248,95200,2,0,P|420:296|376:308,1,83.9999974365235
264,268,95600,2,0,P|300:220|344:208,1,83.9999974365235
328,116,96000,6,0,P|276:96|212:104,1,83.9999974365235
136,104,96400,1,0,0:0:0:0:
104,108,96500,1,0,0:0:0:0:
80,124,96600,1,0,0:0:0:0:
48,224,96800,2,0,L|136:256,1,83.9999974365235
220,320,97200,2,0,L|308:288,1,83.9999974365235
456,220,97600,5,0,0:0:0:0:
256,176,97800,1,0,0:0:0:0:
380,16,98000,1,0,0:0:0:0:
412,20,98400,2,0,L|384:120,1,83.9999974365235
272,216,98800,2,0,L|300:116,1,83.9999974365235
248,48,99200,6,0,P|196:40|152:56,1,83.9999974365235
88,116,99600,2,0,P|80:168|96:212,1,83.9999974365235
172,332,100000,1,0,0:0:0:0:
236,192,100200,1,0,0:0:0:0:
312,320,100400,2,0,P|368:288|388:256,1,83.9999974365235
461,61,100800,5,0,0:0:0:0:
383,250,101000,1,0,0:0:0:0:
247,100,101200,1,0,0:0:0:0:
116,176,101600,2,0,L|172:264,1,83.9999974365235
140,268,102000,2,0,L|84:180,1,83.9999974365235
56,112,102400,5,0,0:0:0:0:
40,276,102600,1,0,0:0:0:0:
137,86,102800,5,0,0:0:0:0:
134,301,103000,1,0,0:0:0:0:
209,58,103200,5,0,0:0:0:0:
230,321,103400,1,0,0:0:0:0:
285,27,103600,5,0,0:0:0:0:
338,352,103800,1,0,0:0:0:0:
468,152,104000,6,0,P|416:176|372:160,1,83.9999974365235
146,70,104400,5,0,0:0:0:0:
361,73,104600,1,0,0:0:0:0:
126,166,104800,5,0,0:0:0:0:
392,148,105000,1,0,0:0:0:0:
92,252,105200,5,0,0:0:0:0:
420,240,105400,1,0,0:0:0:0:
157,322,105600,6,0,P|185:266|181:218,1,83.9999974365235
108,76,106000,5,0,0:0:0:0:
336,88,106200,1,0,0:0:0:0:
264,272,106400,5,0,0:0:0:0:
172,24,106600,1,0,0:0:0:0:
64,252,106800,2,0,P|104:284|144:288,1,83.9999974365235
376,260,107200,5,0,0:0:0:0:
256,100,107400,1,0,0:0:0:0:
172,288,107600,1,0,0:0:0:0:
440,84,108000,5,0,0:0:0:0:
88,156,108200,1,0,0:0:0:0:
276,320,108400,6,0,P|272:264|244:220,1,83.9999974365235
308,316,109200,6,0,P|304:260|276:216,1,83.9999974365235
204,316,110000,6,0,P|208:260|236:216,1,83.9999974365235
336,104,110400,1,0,0:0:0:0:
396,248,110600,1,0,0:0:0:0:
256,156,110800,2,0,P|212:148|152:192,1,83.9999974365235
56,280,111200,1,0,0:0:0:0:
216,320,111400,1,0,0:0:0:0:
108,196,111600,2,0,P|104:144|136:96,1,83.9999974365235
296,28,112000,5,0,0:0:0:0:
312,232,112200,1,0,0:0:0:0:
440,96,112400,5,0,0:0:0:0:
456,300,112600,1,0,0:0:0:0:
252,288,112800,6,0,L|144:272,1,83.9999974365235
252,316,113200,2,0,L|144:300,1,83.9999974365235
216,28,113600,5,0,0:0:0:0:
200,232,113800,1,0,0:0:0:0:
72,96,114000,5,0,0:0:0:0:
56,300,114200,1,0,0:0:0:0:
260,288,114400,6,0,L|368:272,1,83.9999974365235
260,316,114800,2,0,L|368:300,1,83.9999974365235
424,288,115200,5,0,0:0:0:0:
180,340,115400,1,0,0:0:0:0:
268,136,115600,1,0,0:0:0:0:
332,360,116000,2,0,L|240:284,1,83.9999974365235
88,96,116800,5,0,0:0:0:0:
332,44,117000,1,0,0:0:0:0:
244,248,117200,1,0,0:0:0:0:
192,16,117400,1,0,0:0:0:0:
400,228,117600,2,0,L|308:152,1,83.9999974365235
120,184,118000,2,0,L|55:237,1,83.9999974365235
128,336,118400,5,0,0:0:0:0:
192,148,118600,1,0,0:0:0:0:
284,316,118800,2,0,P|332:288|344:256,1,83.9999974365235
400,112,119200,2,0,L|472:184,1,83.9999974365235
452,284,119600,1,0,0:0:0:0:
276,140,119800,1,0,0:0:0:0:
208,284,120000,5,0,0:0:0:0:
264,332,120200,1,0,0:0:0:0:
308,272,120400,1,0,0:0:0:0:
252,224,120600,1,0,0:0:0:0:
192,184,120800,5,0,0:0:0:0:
136,136,121000,1,0,0:0:0:0:
176,72,121200,2,0,L|200:44,4,20.9999993591309
56,232,121600,6,0,L|32:260,4,20.9999993591309
224,236,122000,2,0,P|292:220|316:192,1,83.9999974365235
400,80,122400,1,0,0:0:0:0:
400,248,122600,1,0,0:0:0:0:
300,112,122800,1,0,0:0:0:0:
464,176,123000,1,0,0:0:0:0:
252,248,123200,6,0,L|164:304,1,83.9999974365235
56,276,123600,2,0,L|144:220,1,83.9999974365235
264,144,124000,2,0,L|176:200,1,83.9999974365235
68,172,124400,2,0,L|156:116,1,83.9999974365235
373,257,124800,6,0,L|444:212,1,83.9999974365235
318,194,125200,2,0,L|248:240,1,83.9999974365235
385,153,125600,1,0,0:0:0:0:
420,136,126400,5,0,0:0:0:0:
184,280,126600,1,0,0:0:0:0:
436,240,126800,5,0,0:0:0:0:
167,175,127000,1,0,0:0:0:0:
373,326,127200,5,0,0:0:0:0:
230,89,127400,1,0,0:0:0:0:
269,342,127600,5,0,0:0:0:0:
334,73,127800,1,0,0:0:0:0:
44,40,128000,6,0,L|140:88,1,83.9999974365235
468,40,128400,2,0,L|372:88,1,83.9999974365235
468,344,128800,2,0,L|372:296,1,83.9999974365235
44,344,129200,2,0,L|140:296,1,83.9999974365235
336,124,129600,5,0,0:0:0:0:
176,260,129800,1,0,0:0:0:0:
360,200,130000,5,0,0:0:0:0:
151,183,130200,1,0,0:0:0:0:
323,272,130400,5,0,0:0:0:0:
188,112,130600,1,0,0:0:0:0:
247,296,130800,5,0,0:0:0:0:
264,87,131000,1,0,0:0:0:0:
388,248,131200,6,0,L|456:320,1,83.9999974365235
124,248,131600,2,0,L|56:320,1,83.9999974365235
124,132,132000,2,0,L|56:60,1,83.9999974365235
388,132,132400,2,0,L|456:60,1,83.9999974365235
268,35,132800,5,0,0:0:0:0:
243,348,133000,1,0,0:0:0:0:
153,72,133200,5,0,0:0:0:0:
357,312,133400,1,0,0:0:0:0:
99,179,133600,5,0,0:0:0:0:
412,204,133800,1,0,0:0:0:0:
135,294,134000,5,0,0:0:0:0:
376,89,134200,1,0,0:0:0:0:
468,344,134400,6,0,L|372:296,1,83.9999974365235
44,344,134800,2,0,L|140:296,1,83.9999974365235
44,40,135200,2,0,L|140:88,1,83.9999974365235
468,40,135600,2,0,L|372:88,1,83.9999974365235
176,260,136000,5,0,0:0:0:0:
336,124,136200,1,0,0:0:0:0:
152,184,136400,5,0,0:0:0:0:
361,201,136600,1,0,0:0:0:0:
189,112,136800,5,0,0:0:0:0:
324,272,137000,1,0,0:0:0:0:
265,88,137200,5,0,0:0:0:0:
248,297,137400,1,0,0:0:0:0:
124,136,137600,6,0,L|56:64,1,83.9999974365235
388,136,138000,2,0,L|456:64,1,83.9999974365235
388,252,138400,2,0,L|456:324,1,83.9999974365235
124,252,138800,2,0,L|56:324,1,83.9999974365235
244,349,139200,5,0,0:0:0:0:
269,36,139400,1,0,0:0:0:0:
359,312,139600,5,0,0:0:0:0:
155,72,139800,1,0,0:0:0:0:
413,205,140000,5,0,0:0:0:0:
100,180,140200,1,0,0:0:0:0:
377,90,140400,5,0,0:0:0:0:
136,295,140600,1,0,0:0:0:0:
428,352,140800,5,0,0:0:0:0:
288,76,141000,1,0,0:0:0:0:
101,230,141200,5,0,0:0:0:0:
377,90,141400,1,0,0:0:0:0:
154,71,141600,5,0,0:0:0:0:
294,347,141800,1,0,0:0:0:0:
268,20,142000,5,0,0:0:0:0:
128,296,142200,1,0,0:0:0:0:
440,112,142400,2,0,L|340:136,1,83.9999974365235
72,232,142800,2,0,L|172:208,1,83.9999974365235
312,336,143200,2,0,L|288:236,1,83.9999974365235
196,32,143600,2,0,L|220:132,1,83.9999974365235
244,344,144000,5,0,0:0:0:0:
384,120,144200,1,0,0:0:0:0:
448,280,144400,5,0,0:0:0:0:
224,140,144600,1,0,0:0:0:0:
56,320,144800,5,0,0:0:0:0:
316,196,145000,1,0,0:0:0:0:
44,204,145200,5,0,0:0:0:0:
304,328,145400,1,0,0:0:0:0:
132,160,145600,2,0,P|96:128|36:116,1,83.9999974365235
232,288,146000,2,0,P|268:256|328:244,1,83.9999974365235
456,264,146400,1,0,0:0:0:0:
396,128,146600,1,0,0:0:0:0:
56,264,146800,1,0,0:0:0:0:
116,128,147000,1,0,0:0:0:0:
0,160,147200,5,0,0:0:0:0:
224,308,147400,1,0,0:0:0:0:
411,154,147600,5,0,0:0:0:0:
135,294,147800,1,0,0:0:0:0:
358,313,148000,5,0,0:0:0:0:
218,37,148200,1,0,0:0:0:0:
244,364,148400,5,0,0:0:0:0:
384,88,148600,1,0,0:0:0:0:
72,272,148800,2,0,L|172:248,1,83.9999974365235
440,152,149200,2,0,L|340:176,1,83.9999974365235
200,48,149600,2,0,L|224:148,1,83.9999974365235
316,352,150000,2,0,L|292:252,1,83.9999974365235
312,56,150400,5,0,0:0:0:0:
116,264,150600,1,0,0:0:0:0:
64,104,150800,5,0,0:0:0:0:
288,244,151000,1,0,0:0:0:0:
456,64,151200,5,0,0:0:0:0:
196,188,151400,1,0,0:0:0:0:
468,180,151600,5,0,0:0:0:0:
208,56,151800,1,0,0:0:0:0:
380,224,152000,2,0,P|416:256|476:268,1,83.9999974365235
280,96,152400,2,0,P|244:128|184:140,1,83.9999974365235
48,140,152800,6,0,L|64:220,1,56
76,268,153200,6,0,L|88:316,1,35
96,332,153600,6,0,L|196:268,1,83.9999974365235
328,188,154000,2,0,L|228:124,1,83.9999974365235
172,96,154400,1,0,0:0:0:0:
412,240,154600,1,0,0:0:0:0:
176,344,154800,1,0,0:0:0:0:
336,104,155000,1,0,0:0:0:0:
452,308,155200,6,0,P|400:316|364:296,1,83.9999974365235
224,240,155600,2,0,P|276:248|312:228,1,83.9999974365235
416,140,156000,1,0,0:0:0:0:
304,60,156200,2,0,P|220:32|132:80,1,167.999994873047
52,156,156800,6,0,L|100:244,1,83.9999974365235
160,192,157200,2,0,L|208:280,1,83.9999974365235
264,232,157600,2,0,L|312:320,1,83.9999974365235
384,304,158000,1,0,0:0:0:0:
384,152,158200,1,0,0:0:0:0:
248,200,158400,5,0,0:0:0:0:
212,221,158500,1,0,0:0:0:0:
171,228,158600,1,0,0:0:0:0:
130,217,158700,1,0,0:0:0:0:
98,191,158800,1,0,0:0:0:0:
60,52,159000,1,0,0:0:0:0:
200,60,159200,2,0,L|304:72,1,83.9999974365235
360,164,159600,2,0,L|256:152,1,83.9999974365235
200,140,160000,5,0,0:0:0:0:
436,180,160200,1,0,0:0:0:0:
292,332,160400,2,0,P|240:328|200:288,1,83.9999974365235
196,224,160800,2,0,P|248:228|288:268,1,83.9999974365235
348,268,161200,2,0,L|444:252,1,83.9999974365235
464,104,161600,6,0,L|368:120,1,83.9999974365235
248,136,162000,1,0,0:0:0:0:
332,236,162200,1,0,0:0:0:0:
208,252,162400,2,0,P|160:224|144:172,1,83.9999974365235
288,28,162800,2,0,P|336:56|352:108,1,83.9999974365235
332,288,163200,5,0,0:0:0:0:
488,160,163400,1,0,0:0:0:0:
488,328,163600,5,0,0:0:0:0:
352,108,163800,1,0,0:0:0:0:
244,308,164000,5,0,0:0:0:0:
472,36,164200,1,0,0:0:0:0:
360,372,164400,5,0,0:0:0:0:
212,32,164600,1,0,0:0:0:0:
156,152,164800,5,0,0:0:0:0:
196,163,164900,1,0,0:0:0:0:
237,163,165000,1,0,0:0:0:0:
277,149,165100,1,0,0:0:0:0:
311,124,165200,1,0,0:0:0:0:
412,28,165400,1,0,0:0:0:0:
456,172,165600,2,0,P|464:224|448:272,1,83.9999974365235
376,340,166000,2,0,P|324:348|276:332,1,83.9999974365235
256,192,166400,5,0,0:0:0:0:
436,232,166600,1,0,0:0:0:0:
256,192,166800,5,0,0:0:0:0:
411,93,167000,1,0,0:0:0:0:
256,192,167200,5,0,0:0:0:0:
296,12,167400,1,0,0:0:0:0:
256,192,167600,5,0,0:0:0:0:
157,36,167800,1,0,0:0:0:0:
256,192,168000,5,0,0:0:0:0:
76,152,168200,1,0,0:0:0:0:
256,192,168400,5,0,0:0:0:0:
100,290,168600,1,0,0:0:0:0:
256,192,168800,5,0,0:0:0:0:
215,372,169000,1,0,0:0:0:0:
256,192,169200,5,0,0:0:0:0:
354,347,169400,2,0,L|340:328,5,13.9999995727539
360,360,169600,6,0,P|408:336|428:280,1,83.9999974365235
444,156,170000,1,0,0:0:0:0:
288,224,170200,1,0,0:0:0:0:
332,112,170400,1,0,0:0:0:0:
400,268,170600,1,0,0:0:0:0:
248,284,170800,2,0,P|216:244|228:184,1,83.9999974365235
268,76,171200,6,0,P|308:44|368:56,1,83.9999974365235
476,96,171600,2,0,P|508:136|496:196,1,83.9999974365235,0|0,2:0|2:0,2:0:0:0:
452,352,172000,1,0,0:0:0:0:
368,188,172200,1,0,0:0:0:0:
284,344,172400,2,0,P|240:308|224:264,1,83.9999974365235
188,72,172800,5,0,0:0:0:0:
227,57,172900,1,0,0:0:0:0:
268,61,173000,1,0,0:0:0:0:
304,82,173100,1,0,0:0:0:0:
328,116,173200,2,0,L|384:212,1,83.9999974365235
324,312,173600,5,0,0:0:0:0:
284,326,173700,1,0,0:0:0:0:
243,322,173800,1,0,0:0:0:0:
207,301,173900,1,0,0:0:0:0:
183,267,174000,2,0,L|128:172,1,83.9999974365235
292,59,174400,5,0,0:0:0:0:
330,76,174500,1,0,0:0:0:0:
357,108,174600,1,0,0:0:0:0:
367,148,174700,1,0,0:0:0:0:
360,189,174800,2,0,L|332:296,1,83.9999974365235
219,324,175200,5,0,0:0:0:0:
181,307,175300,1,0,0:0:0:0:
154,275,175400,1,0,0:0:0:0:
144,235,175500,1,0,0:0:0:0:
151,194,175600,2,0,L|179:87,1,83.9999974365235
280,48,176000,6,0,L|258:129,1,83.9999974365235
352,68,176400,2,0,L|330:149,1,83.9999974365235
284,320,176800,1,0,0:0:0:0:
448,264,177000,1,0,0:0:0:0:
232,264,177200,2,0,P|211:300|209:341,1,83.9999974365235
476,240,177600,5,0,0:0:0:0:
454,204,177700,1,0,0:0:0:0:
419,182,177800,1,0,0:0:0:0:
377,180,177900,1,0,0:0:0:0:
336,192,178000,1,0,0:0:0:0:
294,189,178100,1,0,0:0:0:0:
258,168,178200,1,0,0:0:0:0:
237,132,178300,1,0,0:0:0:0:
224,92,178400,1,0,0:0:0:0:
188,113,178500,1,0,0:0:0:0:
166,148,178600,1,0,0:0:0:0:
164,190,178700,1,0,0:0:0:0:
184,228,178800,2,0,L|200:248,9,13.9999995727539
216,264,179200,6,0,P|256:288|316:280,1,83.9999974365235
400,176,179600,2,0,P|360:152|300:160,1,83.9999974365235
136,204,180000,1,0,0:0:0:0:
224,68,180200,1,0,0:0:0:0:
284,216,180400,1,0,0:0:0:0:
220,264,180800,6,0,L|312:244,1,83.9999974365235
416,304,181200,2,0,L|324:324,1,83.9999974365235
260,340,181600,1,0,0:0:0:0:
492,284,181800,1,0,0:0:0:0:
260,204,182000,1,0,0:0:0:0:
424,56,182400,6,0,P|380:40|320:56,1,83.9999974365235
244,164,182800,1,0,0:0:0:0:
168,48,183000,1,0,0:0:0:0:
92,184,183200,2,0,L|40:276,1,83.9999974365235
88,328,183600,1,0,0:0:0:0:
192,348,184000,5,0,0:0:0:0:
252,208,184200,1,0,0:0:0:0:
352,324,184400,2,0,P|396:280|400:228,1,83.9999974365235
444,64,184800,1,0,0:0:0:0:
416,228,185000,1,0,0:0:0:0:
280,152,185200,1,0,0:0:0:0:
444,248,185600,6,0,P|384:272|336:264,1,83.9999974365235
272,196,186000,2,0,P|230:199|193:219,1,83.9999974365235
96,308,186400,1,0,0:0:0:0:
180,120,186600,1,0,0:0:0:0:
264,300,186800,2,0,P|308:272|332:212,1,83.9999974365235
328,48,187200,5,0,0:0:0:0:
428,260,187400,1,0,0:0:0:0:
472,44,187600,5,0,0:0:0:0:
304,216,187800,1,0,0:0:0:0:
156,64,188000,2,0,P|96:68|56:108,1,83.9999974365235
112,288,188400,2,0,P|172:284|212:244,1,83.9999974365235
332,124,188800,5,0,0:0:0:0:
192,244,189000,1,0,0:0:0:0:
360,120,189200,1,0,0:0:0:0:
176,72,189400,1,0,0:0:0:0:
312,240,189600,2,0,P|368:248|416:232,1,83.9999974365235
464,104,190000,2,0,P|408:96|360:112,1,83.9999974365235
220,240,190400,5,0,0:0:0:0:
360,120,190600,1,0,0:0:0:0:
208,248,190800,1,0,0:0:0:0:
416,232,191000,1,0,0:0:0:0:
284,344,191200,2,0,L|240:240,1,83.9999974365235
220,196,191600,6,0,L|204:160,1,35
168,96,192000,5,0,0:0:0:0:
440,248,192200,1,0,0:0:0:0:
208,320,192400,5,0,0:0:0:0:
480,168,192600,1,0,0:0:0:0:
200,80,192800,5,0,2:0:0:0:
352,352,193000,1,0,2:0:0:0:
312,40,193200,5,0,2:0:0:0:
227,339,193400,1,0,2:0:0:0:
112,160,193600,5,0,2:0:0:0:
411,245,193800,1,0,2:0:0:0:
223,48,194000,5,0,2:0:0:0:
309,347,194200,1,0,2:0:0:0:
96,192,194400,5,0,2:0:0:0:
394,106,194600,1,0,2:0:0:0:
104,220,194800,6,0,L|180:200,1,70
240,180,195200,2,0,L|316:160,1,70
336,152,195600,5,0,0:0:0:0:
76,232,195800,1,0,0:0:0:0:
152,132,196000,6,0,L|172:208,1,70
192,268,196400,2,0,L|212:344,1,70
288,328,196800,5,0,0:0:0:0:
328,260,197000,1,0,0:0:0:0:
364,332,197200,1,0,0:0:0:0:
252,260,197400,5,0,0:0:0:0:
404,264,197600,1,0,0:0:0:0:
336,124,197800,1,0,0:0:0:0:
224,240,198000,2,0,L|200:148,1,70
52,188,198400,5,0,0:0:0:0:
324,340,198600,1,0,0:0:0:0:
316,136,198800,5,0,0:0:0:0:
44,288,199000,1,0,0:0:0:0:
200,384,199200,5,0,0:0:0:0:
48,112,199400,1,0,0:0:0:0:
360,212,199600,5,0,0:0:0:0:
88,364,199800,1,0,0:0:0:0:
168,36,200000,5,0,0:0:0:0:
440,188,200200,1,0,0:0:0:0:
83,143,200400,5,0,0:0:0:0:
383,59,200600,1,0,0:0:0:0:
212,16,200800,5,0,0:0:0:0:
296,315,201000,1,0,0:0:0:0:
184,36,201200,6,0,L|222:104,1,70
257,157,201600,2,0,L|295:225,1,70
309,242,202000,5,0,0:0:0:0:
165,12,202200,1,0,0:0:0:0:
281,59,202400,6,0,L|212:97,1,70
160,133,202800,2,0,L|91:171,1,70
116,24,203200,5,0,0:0:0:0:
76,92,203400,1,0,0:0:0:0:
40,20,203600,1,0,0:0:0:0:
152,92,203800,5,0,0:0:0:0:
0,88,204000,1,0,0:0:0:0:
68,228,204200,1,0,0:0:0:0:
180,112,204400,2,0,L|204:204,1,70
264,48,204800,5,0,0:0:0:0:
120,348,205000,1,0,0:0:0:0:
356,260,205200,5,0,0:0:0:0:
56,116,205400,1,0,0:0:0:0:
420,24,205600,5,0,0:0:0:0:
276,324,205800,1,0,0:0:0:0:
68,316,206000,5,0,0:0:0:0:
368,172,206200,1,0,0:0:0:0:
436,312,206400,5,0,0:0:0:0:
136,168,206600,1,0,0:0:0:0:
240,348,206800,5,0,0:0:0:0:
383,48,207000,1,0,0:0:0:0:
184,64,207200,5,0,0:0:0:0:
484,207,207400,1,0,0:0:0:0:
168,96,207600,6,0,L|235:135,1,70
292,163,208000,2,0,L|359:202,1,70
380,211,208400,5,0,0:0:0:0:
139,84,208600,1,0,0:0:0:0:
264,67,208800,6,0,L|224:134,1,70
196,192,209200,2,0,L|156:259,1,70
221,302,209600,5,0,0:0:0:0:
298,282,209800,1,0,0:0:0:0:
272,359,210000,1,0,0:0:0:0:
244,228,210200,5,0,0:0:0:0:
349,339,210400,1,0,0:0:0:0:
399,192,210600,1,0,0:0:0:0:
238,194,210800,2,0,L|286:111,1,70
328,24,211200,5,0,0:0:0:0:
412,272,211400,1,0,0:0:0:0:
410,5,211600,5,0,0:0:0:0:
328,289,211800,1,0,0:0:0:0:
490,50,212000,5,0,0:0:0:0:
244,256,212200,1,0,0:0:0:0:
506,139,212400,5,0,0:0:0:0:
172,196,212600,1,0,0:0:0:0:
456,364,212800,5,0,0:0:0:0:
417,25,213000,1,0,0:0:0:0:
320,364,213200,5,0,0:0:0:0:
340,23,213400,1,0,0:0:0:0:
240,352,213600,5,0,0:0:0:0:
248,28,213800,1,0,0:0:0:0:
80,260,214000,6,0,L|160:208,1,70
208,100,214400,2,0,L|128:152,1,70
60,164,214800,1,0,0:0:0:0:
136,152,215000,1,0,0:0:0:0:
204,176,215200,1,0,0:0:0:0:
248,232,215400,1,0,0:0:0:0:
232,156,215600,2,0,L|292:232,1,70
348,324,216000,5,0,0:0:0:0:
396,268,216200,1,0,0:0:0:0:
420,336,216400,1,0,0:0:0:0:
368,316,216600,5,0,0:0:0:0:
392,288,216800,1,0,0:0:0:0:
404,322,217000,1,0,0:0:0:0:
388,312,217200,2,0,L|364:216,1,70
