osu file format v14

[General]
AudioFilename: audio.mp3
AudioLeadIn: 0
PreviewTime: 1431
Countdown: 0
SampleSet: Soft
StackLeniency: 1
Mode: 0
LetterboxInBreaks: 0
WidescreenStoryboard: 1

[Editor]
Bookmarks: 14303,17471,64971,83981,88708
DistanceSpacing: 1.2
BeatDivisor: 4
GridSize: 16
TimelineZoom: 1.4

[Metadata]
Title:Po Glazam
TitleUnicode:По Глазам
Artist:SLAVA MARLOW
ArtistUnicode:SLAVA MARLOW
Creator:Gordon123
Version:riffy's Advanced
Source:
Tags:АРТЁМ By the eyes Артемович Готлиб Russian pop 2020 Kos Sound Team & Creamy (Cream&Nal Records) kelinimo -Space- riffy Daycore Bakari [_Space_] Zhara Music русский Hip-hop rap рэп реп хип-хоп поп Слава Мерлоу Марлоу
BeatmapID:2687368
BeatmapSetID:1285341

[Difficulty]
HPDrainRate:4
CircleSize:3.3
OverallDifficulty:5
ApproachRate:6
SliderMultiplier:1.5
SliderTickRate:1

[Events]
//Background and Video events
0,0,"slava.jpg",0,0
//Break Periods
2,14303,16421
2,38067,39649
2,52314,54433
2,64971,82930
//Storyboard Layer 0 (Background)
//Storyboard Layer 1 (Fail)
//Storyboard Layer 2 (Pass)
//Storyboard Layer 3 (Foreground)
//Storyboard Layer 4 (Overlay)
//Storyboard Sound Samples

[TimingPoints]
1630,396.039603960396,4,2,1,50,1,0
1630,-100,4,2,1,70,0,0
2026,-100,4,2,1,10,0,0
2818,-100,4,2,1,30,0,0
4798,-100,4,2,1,70,0,0
14303,-100,4,2,2,30,0,0
14699,-100,4,2,2,10,0,0
15491,-100,4,2,2,30,0,0
17471,-100,4,2,1,70,0,0
25392,-100,4,2,2,15,0,0
26184,-100,4,2,1,55,0,0
26976,-100,4,2,1,80,0,1
37867,-100,4,2,1,60,0,1
38065,-100,4,2,2,50,0,0
39649,-100,4,2,2,30,0,0
40045,-100,4,2,2,10,0,0
40837,-100,4,2,2,30,0,0
42810,396.039603960396,4,2,1,70,1,0
42810,-100,4,2,1,70,0,0
52314,-100,4,2,2,30,0,0
52710,-100,4,2,2,10,0,0
53503,-100,4,2,2,30,0,0
55483,-100,4,2,1,70,0,0
58675,408.163265306122,4,2,2,50,1,0
58675,-111.111111111111,4,2,2,40,0,0
59491,378.548895899054,4,2,2,50,1,0
59491,-111.111111111111,4,2,2,40,0,0
60259,400,4,2,2,50,1,0
60259,-111.111111111111,4,2,2,40,0,0
61059,385.852090032154,4,2,2,50,1,0
61059,-111.111111111111,4,2,2,40,0,0
61843,396.039603960396,4,2,2,50,1,0
61843,-111.111111111111,4,2,2,40,0,0
62239,-111.111111111111,4,2,1,30,0,0
62635,-111.111111111111,4,2,1,20,0,0
63031,-111.111111111111,4,2,1,10,0,0
63427,392.156862745098,4,2,1,20,1,0
63427,-111.111111111111,4,2,1,10,0,0
64211,394.736842105263,4,2,1,20,1,0
64971,396.039603960396,4,2,1,20,1,0
83980,-100,4,2,1,40,0,0
88720,396.039603960396,4,2,1,60,1,0
88720,-100,4,2,2,50,0,0
89512,-100,4,2,1,55,0,0
90304,-95.2380952380952,4,2,1,80,0,1
101393,-100,4,2,1,70,0,0
102977,-90.9090909090909,4,2,1,80,0,1
115650,-100,4,2,1,80,0,0
116046,-100,4,2,1,5,0,0
116145,-100,4,2,1,80,0,0
116442,-100,4,2,1,5,0,0
116541,-100,4,2,1,80,0,0
116640,-100,4,2,1,5,0,0
116739,-100,4,2,1,80,0,0
116838,-100,4,2,1,5,0,0
116937,-100,4,2,1,80,0,0
117036,-100,4,2,1,5,0,0
117135,-100,4,2,1,80,0,0
117234,-100,4,2,1,5,0,0
117284,-100,4,2,1,70,0,0
117333,-100,4,2,1,5,0,0
117383,-100,4,2,1,70,0,0
117432,-100,4,2,1,5,0,0
117482,-100,4,2,1,70,0,0
117531,-100,4,2,1,70,0,0
117581,-100,4,2,1,5,0,0
117630,-100,4,2,1,70,0,0
117680,-100,4,2,1,5,0,0
117729,-100,4,2,1,70,0,0
117779,-100,4,2,1,5,0,0
117828,-100,4,2,1,70,0,0
117878,-100,4,2,1,5,0,0
117927,-100,4,2,1,70,0,0
117977,-100,4,2,1,5,0,0
118026,-100,4,2,1,60,0,0
118076,-100,4,2,1,5,0,0
118125,-100,4,2,1,60,0,0
118175,-100,4,2,1,5,0,0
118224,-100,4,2,1,60,0,0
118274,-100,4,2,1,5,0,0
118323,-100,4,2,1,60,0,0
118373,-100,4,2,1,5,0,0
118422,-100,4,2,1,50,0,0
118472,-100,4,2,1,5,0,0
118521,-100,4,2,1,50,0,0
118571,-100,4,2,1,5,0,0
118620,-100,4,2,1,50,0,0
118670,-100,4,2,1,5,0,0
118720,-100,4,2,1,50,0,0
118769,-100,4,2,1,5,0,0
118819,-100,4,2,1,40,0,0
118868,-100,4,2,1,5,0,0
118918,-100,4,2,1,40,0,0
118967,-100,4,2,1,5,0,0
119017,-100,4,2,1,40,0,0
119066,-100,4,2,1,5,0,0
119116,-100,4,2,1,40,0,0
119165,-100,4,2,1,5,0,0
119215,-100,4,2,1,30,0,0
119264,-100,4,2,1,5,0,0
119314,-100,4,2,1,30,0,0
119363,-100,4,2,1,5,0,0
119413,-100,4,2,1,30,0,0
119462,-100,4,2,1,5,0,0
119512,-100,4,2,1,30,0,0
119561,-100,4,2,1,5,0,0
119611,-100,4,2,1,20,0,0
119660,-100,4,2,1,5,0,0
119710,-100,4,2,1,20,0,0
119759,-100,4,2,1,5,0,0
119809,-100,4,2,1,20,0,0
119858,-100,4,2,1,5,0,0
119908,-100,4,2,1,10,0,0

[Colours]
Combo1 : 145,181,255
Combo2 : 177,173,214
Combo3 : 143,162,194

[HitObjects]
32,247,4798,6,0,P|84:265|107:362,1,150,6|0,3:2|0:0,0:0:0:0:
196,321,5392,1,0,3:2:0:0:
272,367,5590,1,8,0:1:0:0:
276,359,5986,2,0,L|376:352,1,75,0|0,3:2|0:0,0:0:0:0:
438,375,6382,1,0,0:0:0:0:
442,370,6778,1,0,3:2:0:0:
445,364,7174,2,0,P|472:330|500:309,1,75,8|0,0:1|0:0,0:0:0:0:
440,240,7570,2,0,P|439:186|442:151,1,75
351,176,7966,6,0,P|315:119|282:16,2,150,2|0|8,3:2|0:0|0:1,0:0:0:0:
255,328,9154,2,0,P|285:313|330:297,1,75,0|0,3:2|0:0,0:0:0:0:
408,329,9550,1,0,0:0:0:0:
411,334,9946,1,0,3:2:0:0:
413,339,10342,2,0,P|456:350|501:347,1,75,8|2,0:1|3:2,0:0:0:0:
500,260,10738,2,0,P|457:249|412:252,1,75,2|2,0:0|0:0,0:0:0:0:
343,283,11134,5,0,3:2:0:0:
336,284,11530,2,0,L|250:274,1,75,0|0,0:0|3:2,0:0:0:0:
201,342,11927,2,0,P|159:300|73:277,2,150,8|0|0,0:1|3:2|0:0,0:0:0:0:
375,299,13115,1,2,3:2:0:0:
226,196,13511,1,8,0:1:0:0:
250,18,13907,1,2,0:0:0:0:
185,338,17471,5,6,3:2:0:0:
183,332,17867,1,0,0:0:0:0:
177,327,18263,2,0,P|137:315|95:317,1,75,8|0,0:1|0:0,0:0:0:0:
31,368,18659,1,0,3:2:0:0:
23,365,19055,2,0,L|27:286,1,75
9,201,19451,1,0,3:2:0:0:
173,274,19847,2,0,L|177:195,1,75,8|0,0:1|3:2,0:0:0:0:
159,110,20243,1,0,0:0:0:0:
164,119,20639,6,0,L|238:123,1,75,2|0,3:2|0:0,0:0:0:0:
328,105,21035,1,0,0:0:0:0:
207,239,21431,2,0,L|281:243,1,75,8|0,0:1|0:0,0:0:0:0:
371,225,21828,1,0,3:2:0:0:
254,363,22224,2,0,L|328:367,1,75,0|0,2:0|2:0,0:0:0:0:
418,349,22620,1,0,3:2:0:0:
424,354,23016,2,0,P|383:305|355:288,1,75,8|0,0:1|0:0,0:0:0:0:
321,226,23412,1,0,0:0:0:0:
400,184,23610,1,0,0:0:0:0:
482,219,23808,5,2,3:2:0:0:
482,219,24204,1,0,0:0:0:0:
360,86,24600,1,8,0:1:0:0:
360,86,24996,2,0,L|351:252,1,150,0|2,3:2|0:0,0:0:0:0:
73,124,26976,6,0,P|108:155|121:266,1,150,4|0,3:2|0:0,0:0:0:0:
70,323,27570,1,0,3:2:0:0:
149,365,27768,2,0,L|236:352,1,75,8|0,0:0|0:0,0:0:0:0:
311,372,28164,2,0,P|324:326|414:295,1,150,0|0,3:2|0:3,0:0:0:0:
417,302,28956,1,0,3:2:0:0:
374,127,29352,1,8,0:0:0:0:
432,195,29550,1,0,3:2:0:0:
345,221,29748,2,0,P|313:203|286:163,1,75
289,82,30144,6,0,P|345:35|430:49,1,150,0|0,3:2|0:0,0:0:0:0:
374,127,30738,1,0,3:2:0:0:
432,195,30936,1,8,0:0:0:0:
434,189,31332,2,0,L|424:273,1,75,0|8,3:2|0:3,0:0:0:0:
464,345,31729,1,0,0:3:0:0:
299,271,32125,1,0,3:2:0:0:
299,271,32521,1,8,0:0:0:0:
211,251,32719,1,0,3:2:0:0:
190,340,32917,1,0,0:0:0:0:
283,366,33115,1,8,0:3:0:0:
299,271,33313,6,0,P|299:232|275:97,1,150,0|0,3:2|0:0,0:0:0:0:
109,74,34105,1,8,0:0:0:0:
99,163,34303,1,0,0:0:0:0:
109,74,34501,1,0,3:2:0:0:
99,163,34699,1,8,0:3:0:0:
55,242,34897,2,0,P|101:270|178:352,1,150,2|0,0:1|3:2,0:0:0:0:
290,206,35689,1,8,0:0:0:0:
379,215,35887,1,0,3:2:0:0:
289,207,36085,1,0,0:0:0:0:
378,216,36283,1,0,0:0:0:0:
466,229,36481,6,0,P|425:239|331:310,1,150,2|0,3:1|0:0,0:0:0:0:
252,274,37075,1,0,3:2:0:0:
166,301,37273,2,0,P|169:263|176:226,1,75,8|0,0:0|0:0,0:0:0:0:
152,140,37669,2,0,L|140:47,1,75,0|8,3:2|0:3,0:0:0:0:
479,132,42810,6,0,P|436:171|454:274,1,150,6|0,3:2|0:0,0:0:0:0:
351,270,43404,1,0,3:2:0:0:
297,346,43602,1,8,0:1:0:0:
292,340,43998,2,0,L|190:312,1,75,0|0,3:2|0:0,0:0:0:0:
142,359,44394,1,0,0:0:0:0:
136,356,44790,1,0,3:2:0:0:
131,351,45186,2,0,P|85:333|39:334,1,75,8|0,0:1|3:2,0:0:0:0:
111,257,45582,2,0,P|80:226|50:205,1,75
130,158,45978,6,0,P|158:100|135:11,2,150,2|0|8,3:2|0:0|0:1,0:0:0:0:
14,296,47166,2,0,P|2:248|1:214,1,75,0|0,3:2|0:0,0:0:0:0:
90,232,47562,1,0,0:0:0:0:
88,239,47958,1,0,3:2:0:0:
87,247,48354,1,8,0:1:0:0:
174,225,48552,1,2,3:2:0:0:
261,244,48750,1,2,0:0:0:0:
325,307,48948,1,2,0:0:0:0:
395,251,49146,6,0,P|382:200|367:80,2,150,0|0|8,3:2|0:0|0:1,0:0:0:0:
220,293,50334,2,0,P|214:325|208:373,1,75,0|0,3:2|0:0,0:0:0:0:
296,350,50730,1,0,0:0:0:0:
453,263,51126,1,2,3:2:0:0:
274,238,51522,1,8,0:1:0:0:
96,209,51918,1,2,0:0:0:0:
181,112,55483,6,0,P|163:165|140:271,1,150,6|0,3:2|0:0,0:0:0:0:
303,336,56275,2,0,P|298:288|285:237,1,75,8|2,0:1|0:1,0:0:0:0:
345,189,56671,2,0,P|340:140|346:23,2,150,0|0|0,3:2|0:0|3:2,0:0:0:0:
424,232,57661,1,0,0:0:0:0:
347,277,57859,2,0,P|302:281|234:372,1,150,8|0,0:1|0:0,0:0:0:0:
155,315,58453,1,0,0:0:0:0:
69,332,58675,6,0,P|60:264|17:207,2,134.999995880127,2|0|2,0:0|0:0|0:0,0:0:0:0:
185,220,59869,2,0,P|224:210|261:214,1,67.4999979400635
296,278,60259,1,2,0:0:0:0:
292,287,60659,1,2,0:0:0:0:
289,295,61059,1,2,0:0:0:0:
404,365,61444,2,0,P|450:364|486:347,1,67.4999979400635,2|0,0:0|0:0,0:0:0:0:
512,286,61843,6,0,L|497:139,2,134.999995880127
350,301,63031,2,0,P|329:332|315:363,1,67.4999979400635
240,328,63427,1,2,0:0:0:0:
240,328,63819,2,0,L|228:253,1,67.4999979400635
128,320,83980,6,0,P|257:48|384:320,1,750,2|0,0:0|0:0,0:0:0:0:
208,288,86357,2,0,P|255:180|302:289,1,300,2|0,0:0|0:0,0:0:0:0:
384,160,87545,2,0,P|256:93|128:160,1,300,2|0,0:0|0:0,0:0:0:0:
88,167,90304,6,0,L|256:199,1,157.499995193482,4|0,3:2|0:0,0:0:0:0:
217,105,90898,1,0,3:2:0:0:
158,179,91096,2,0,L|172:268,1,78.7499975967408,8|0,0:0|0:0,0:0:0:0:
143,347,91492,1,0,3:2:0:0:
143,336,91888,2,0,L|227:349,1,78.7499975967408,0|0,0:3|0:0,0:0:0:0:
283,282,92284,1,0,3:2:0:0:
283,282,92680,1,8,0:0:0:0:
330,363,92878,2,0,P|380:338|422:336,1,78.7499975967408,0|0,3:2|0:0,0:0:0:0:
402,335,93472,6,0,P|377:265|379:165,1,157.499995193482,0|0,3:2|0:0,0:0:0:0:
444,118,94066,1,0,3:2:0:0:
497,195,94264,2,0,L|484:288,1,78.7499975967408,8|0,0:0|0:0,0:0:0:0:
508,367,94660,1,0,3:2:0:0:
502,370,95056,2,0,P|457:372|412:358,1,78.7499975967408,0|0,0:3|0:0,0:0:0:0:
336,328,95452,1,0,3:2:0:0:
328,329,95848,1,8,0:0:0:0:
243,370,96046,1,0,3:2:0:0:
235,275,96244,1,0,0:0:0:0:
306,212,96442,1,8,0:3:0:0:
393,257,96640,6,0,P|458:266|507:189,1,157.499995193482,0|0,3:2|0:0,0:0:0:0:
425,150,97234,1,0,3:2:0:0:
481,73,97432,2,0,P|491:30|513:-9,1,78.7499975967408,8|0,0:0|0:0,0:0:0:0:
412,1,97828,1,0,3:2:0:0:
329,47,98026,1,8,0:3:0:0:
233,50,98224,2,0,P|173:23|71:22,1,157.499995193482,2|0,0:1|3:2,0:0:0:0:
82,19,99017,1,8,0:0:0:0:
88,118,99215,1,0,3:2:0:0:
48,205,99413,1,0,0:0:0:0:
78,302,99611,1,0,0:0:0:0:
48,205,99809,6,0,P|104:209|170:281,1,157.499995193482,2|0,0:1|0:0,0:0:0:0:
232,209,100403,1,0,3:2:0:0:
283,288,100601,2,0,P|257:329|248:375,1,78.7499975967408,8|0,0:0|0:0,0:0:0:0:
343,353,100997,1,0,3:2:0:0:
343,344,101393,2,0,P|414:355|488:332,1,150,2|0,0:1|3:2,0:0:0:0:
440,255,101987,2,0,L|359:240,2,75,2|2|2,0:2|0:2|3:2,0:0:0:0:
422,166,102581,2,0,L|459:162,2,37.5,8|8|8,0:3|0:3|0:3,0:0:0:0:
362,86,102977,5,4,3:2:0:0:
362,86,103373,2,0,P|355:61|341:4,1,82.5000025177003,0|0,0:0|3:2,0:0:0:0:
259,62,103769,1,8,0:0:0:0:
259,62,104165,2,0,P|213:51|170:50,1,82.5000025177003,0|8,3:2|0:3,0:0:0:0:
102,113,104561,2,0,L|5:103,1,82.5000025177003,0|0,0:3|0:0,0:0:0:0:
50,198,104957,2,0,P|117:197|180:285,1,165.000005035401,0|8,3:2|0:0,0:0:0:0:
264,219,105551,1,0,3:2:0:0:
343,277,105749,2,0,P|306:306|249:318,1,82.5000025177003
264,219,106145,6,0,L|284:30,1,165.000005035401,0|0,3:2|0:0,0:0:0:0:
368,102,106739,1,0,3:2:0:0:
274,134,106937,2,0,L|189:152,1,82.5000025177003,8|0,0:0|0:0,0:0:0:0:
101,113,107333,2,0,L|85:209,1,82.5000025177003,0|8,3:2|0:3,0:0:0:0:
71,292,107729,1,0,2:3:0:0:
68,287,108125,2,0,P|87:323|100:371,1,82.5000025177003,0|0,3:2|0:0,0:0:0:0:
179,306,108521,1,8,0:0:0:0:
261,360,108720,2,0,P|316:360|386:278,1,165.000005035401,0|8,3:2|0:3,0:0:0:0:
312,215,109314,6,0,L|325:29,1,165.000005035401,0|0,3:2|2:0,0:0:0:0:
130,94,110106,1,8,0:0:0:0:
137,192,110304,1,0,0:0:0:0:
127,93,110502,1,0,3:2:0:0:
137,192,110700,1,8,0:3:0:0:
87,277,110898,2,0,P|136:304|230:384,1,165.000005035401,2|0,0:1|3:2,0:0:0:0:
407,310,111690,1,8,0:0:0:0:
310,290,111888,1,0,3:2:0:0:
406,312,112086,1,0,0:0:0:0:
310,290,112284,1,0,0:0:0:0:
249,211,112482,6,0,P|305:180|421:160,1,165.000005035401,2|0,0:1|0:3,0:0:0:0:
211,110,113274,1,8,0:0:0:0:
195,12,113472,1,0,0:0:0:0:
211,110,113670,1,0,3:2:0:0:
195,12,113868,1,8,0:3:0:0:
121,78,114066,2,0,P|122:147|104:258,1,165.000005035401,2|0,0:1|3:2,0:0:0:0:
270,355,114858,1,8,0:0:0:0:
240,260,115056,1,0,3:2:0:0:
270,165,115254,1,0,0:0:0:0:
247,68,115452,1,8,0:3:0:0:
256,192,115650,12,0,119908,0:0:0:0:
