osu file format v14

[General]
AudioFilename: audio.mp3
AudioLeadIn: 0
PreviewTime: -1
Countdown: 1
SampleSet: None
StackLeniency: 0.7
Mode: 0
LetterboxInBreaks: 0
WidescreenStoryboard: 0

[Editor]
Bookmarks: 12621,13035
DistanceSpacing: 0.6
BeatDivisor: 4
GridSize: 8
TimelineZoom: 1

[Metadata]
Title:SKRT SKRT
TitleUnicode:SKRT SKRT
Artist:SKRT SKRT
ArtistUnicode:SKRT SKRT
Creator:samves
Version:Extra
Source:
Tags:
BeatmapID:1240571
BeatmapSetID:585684

[Difficulty]
HPDrainRate:6.5
CircleSize:3.5
OverallDifficulty:8.8
ApproachRate:9.3
SliderMultiplier:1.4
SliderTickRate:1

[Events]
//Background and Video events
//Break Periods
//Storyboard Layer 0 (Background)
//Storyboard Layer 1 (Fail)
//Storyboard Layer 2 (Pass)
//Storyboard Layer 3 (Foreground)
//Storyboard Sound Samples

[TimingPoints]
2511,331.491712707182,4,1,0,100,1,0
14278,-66.6666666666667,4,1,0,100,0,0

[HitObjects]
96,96,2511,6,0,P|88:152|96:192,1,70
224,240,2842,2,0,P|168:248|136:240,1,70
320,72,3173,2,0,P|344:104|360:144,2,70
96,96,3671,2,0,P|136:120|232:120,1,140
205,305,4168,2,0,P|213:257|229:233,1,70
320,152,4499,2,8,P|354:186|365:212,1,70,8|8,0:0|0:0,0:3:0:0:
96,96,4831,1,0,0:0:0:0:
205,305,4997,1,0,0:0:0:0:
220,109,5162,6,0,P|194:132|173:160,1,70,0|0,0:3|0:3,0:3:0:0:
304,224,5493,2,0,P|312:280|304:312,1,70
96,96,5824,2,0,P|106:62|123:32,2,70,0|8|0,0:0|0:0|0:0,0:0:0:0:
160,352,6322,2,0,P|184:312|184:216,1,140
369,243,6819,2,0,P|321:235|297:219,1,70
216,128,7150,2,8,P|250:93|276:82,1,70,8|8,0:0|0:0,0:3:0:0:
160,352,7482,1,0,0:0:0:0:
416,96,7814,6,0,P|424:152|416:192,1,70
288,240,8145,2,0,P|344:248|376:240,1,70
192,72,8476,2,0,P|168:104|152:144,2,70
416,96,8974,2,0,P|376:120|280:120,1,140
307,305,9471,2,0,P|299:257|283:233,1,70
192,152,9802,2,8,P|158:186|147:212,1,70,8|8,0:0|0:0,0:3:0:0:
416,96,10134,1,0,0:0:0:0:
307,305,10300,1,0,0:0:0:0:
96,96,10466,6,0,P|88:152|96:192,1,70
224,240,10797,2,0,P|168:248|136:240,1,70
320,72,11128,2,0,P|344:104|360:144,2,70
64,157,11627,2,8,P|75:124|96:96,1,70
288,168,11958,1,0,0:0:0:0:
120,256,12124,1,0,0:0:0:0:
288,168,12290,1,0,0:0:0:0:
120,256,12455,1,0,0:0:0:0:
80,72,12621,5,0,0:0:0:0:
114,69,12703,1,0,0:0:0:0:
149,75,12786,1,0,0:0:0:0:
180,90,12869,1,0,0:0:0:0:
209,110,12952,1,0,0:0:0:0:
233,136,13035,1,0,0:0:0:0:
255,161,13118,6,0,P|298:197|336:211,2,70
56,24,13615,1,0,0:0:0:0:
256,160,13781,1,0,0:0:0:0:
56,24,13947,1,0,0:0:0:0:
256,160,14113,1,0,0:0:0:0:
40,186,14278,2,8,B|98:164|98:164|125:114|125:114|209:81,1,210.000008010865,8|8,0:0|0:0,0:3:0:0:
296,96,14776,5,0,0:0:0:0:
40,184,14941,1,0,0:0:0:0:
296,96,15107,1,0,0:0:0:0:
40,184,15273,1,0,0:3:0:0:
272,176,15439,5,0,0:3:0:0:
272,176,15522,1,0,0:3:0:0:
272,176,15604,1,0,0:3:0:0:
160,280,15770,1,0,0:0:0:0:
232,56,15936,1,0,0:0:0:0:
380,230,16102,1,0,0:0:0:0:
115,154,16267,1,0,0:0:0:0:
358,89,16433,1,0,0:0:0:0:
280,328,16599,1,0,0:0:0:0:
115,154,16765,5,0,0:0:0:0:
358,89,16930,2,8,B|283:140|283:140|268:194|268:194|216:229,1,210.000008010865,8|8,0:0|0:0,0:3:0:0:
148,161,17428,1,0,0:0:0:0:
336,114,17593,1,0,0:0:0:0:
283,300,17759,1,0,0:0:0:0:
216,56,17925,1,0,0:0:0:0:
392,232,18091,1,0,0:0:0:0:
160,280,18256,1,0,0:0:0:0:
