osu file format v14

[General]
AudioFilename: audio.mp3
AudioLeadIn: 0
PreviewTime: 54261
Countdown: 1
SampleSet: Normal
StackLeniency: 0.2
Mode: 0
LetterboxInBreaks: 0
WidescreenStoryboard: 1

[Editor]
Bookmarks: 39594,54281,107897
DistanceSpacing: 0.1
BeatDivisor: 4
GridSize: 16
TimelineZoom: 2.1

[Metadata]
Title:Whispers in the Dark (Metal Cover) by Caleb Hyles and Jonathan Young
TitleUnicode:Whispers in the Dark (Metal Cover) by Caleb Hyles and Jonathan Young
Artist:Skillet
ArtistUnicode:Skillet
Creator:Kusiu
Version:Extra
Source:
Tags:
BeatmapID:2227923
BeatmapSetID:1064081

[Difficulty]
HPDrainRate:7
CircleSize:5
OverallDifficulty:8
ApproachRate:9.3
SliderMultiplier:1.5
SliderTickRate:2

[Events]
//Background and Video events
0,0,"backgroundd.jpg",0,0
//Break Periods
2,51921,53531
2,74906,83530
//Storyboard Layer 0 (Background)
//Storyboard Layer 1 (Fail)
//Storyboard Layer 2 (Pass)
//Storyboard Layer 3 (Foreground)
//Storyboard Layer 4 (Overlay)
//Storyboard Sound Samples

[TimingPoints]
11190,319.148936170213,4,1,0,100,1,0
21083,-66.6666666666667,4,1,0,100,0,0
31296,-100,4,1,0,100,0,0
54281,319.148936170213,4,1,0,100,1,1
56834,-33.3333333333333,4,1,0,100,0,1
64812,-66.6666666666667,4,1,0,100,0,1
67046,-33.3333333333333,4,1,0,100,0,1
74706,319.148936170213,4,1,0,100,1,0
96408,-50,4,1,0,100,0,0
107897,319.148936170213,4,1,0,100,1,1
107897,-28.5714285714286,4,1,0,100,0,1
113003,-50,4,1,0,100,0,1
128322,319.148936170213,4,1,0,100,1,0
143641,-50,4,1,0,100,0,0
143648,319.148936170213,4,1,0,100,1,1
143648,-50,4,1,0,100,0,0
143720,-50,4,1,0,100,0,1
150509,-50,4,1,0,100,0,1
150509,-50,4,1,0,100,0,1
156413,-41.6666666666667,4,1,0,100,0,1
164073,319.148936170213,4,1,0,100,1,0
171733,-200,4,1,0,100,0,0
174285,319.148936170213,4,1,0,100,1,0

[Colours]
Combo1 : 255,0,0
Combo2 : 255,255,255
Combo3 : 255,255,255
Combo4 : 255,0,0

[HitObjects]
80,64,11189,5,0,0:0:0:0:
160,64,11349,1,0,0:0:0:0:
80,144,11509,1,0,0:0:0:0:
160,144,11668,1,0,0:0:0:0:
80,224,11828,1,0,0:0:0:0:
160,224,11987,1,0,0:0:0:0:
240,224,12147,6,0,L|240:128,1,75
272,112,12466,2,0,L|272:192,1,75
304,224,12785,2,0,L|304:144,1,75
336,112,13104,2,0,L|336:192,1,75
416,192,13424,5,0,0:0:0:0:
416,272,13583,1,0,0:0:0:0:
336,272,13743,1,0,0:0:0:0:
256,272,13902,1,0,0:0:0:0:
176,272,14062,1,0,0:0:0:0:
96,272,14221,1,0,0:0:0:0:
16,272,14381,1,0,0:0:0:0:
96,192,14541,6,0,L|176:192,1,75
240,192,14860,2,0,L|336:192,1,75
304,128,15179,2,0,L|208:128,1,75
192,128,15498,2,0,L|112:128,1,75
112,48,15817,1,0,0:0:0:0:
112,48,15977,1,0,0:0:0:0:
112,48,16296,5,0,0:0:0:0:
256,48,16615,1,0,0:0:0:0:
400,48,16934,1,0,0:0:0:0:
400,336,17572,1,0,0:0:0:0:
256,336,17891,1,0,0:0:0:0:
112,336,18210,1,0,0:0:0:0:
144,240,18849,2,0,L|176:240,4,18.75
256,192,19168,2,0,L|288:192,4,18.75
368,144,19487,2,0,L|400:144,4,18.75
256,192,19807,12,0,20924,0:0:0:0:
256,144,21083,5,0,0:0:0:0:
256,64,21243,1,0,0:0:0:0:
336,64,21402,1,0,0:0:0:0:
336,144,21562,1,0,0:0:0:0:
256,144,21721,1,0,0:0:0:0:
256,64,21881,1,0,0:0:0:0:
336,64,22041,1,0,0:0:0:0:
336,144,22200,1,0,0:0:0:0:
144,224,22360,6,0,L|32:224,1,112.500004291535
336,224,22679,2,0,L|224:224,1,112.500004291535
223,224,22998,2,0,L|335:224,1,112.500004291535
31,224,23317,2,0,L|143:224,1,112.500004291535
32,144,23636,5,0,0:0:0:0:
80,80,23796,1,0,0:0:0:0:
128,144,23955,1,0,0:0:0:0:
176,80,24115,1,0,0:0:0:0:
224,144,24275,1,0,0:0:0:0:
272,80,24434,1,0,0:0:0:0:
320,144,24594,1,0,0:0:0:0:
368,80,24753,1,0,0:0:0:0:
416,144,24913,6,0,B|416:208|416:208|352:208,1,112.500004291535
256,144,25232,2,0,B|256:208|256:208|320:208,1,112.500004291535
256,336,25551,2,0,B|256:272|256:272|320:272,1,112.500004291535
416,336,25870,2,0,B|416:272|416:272|352:272,1,112.500004291535
336,240,26190,5,0,0:0:0:0:
400,192,26349,1,0,0:0:0:0:
272,192,26509,1,0,0:0:0:0:
336,160,26668,1,0,0:0:0:0:
336,96,26828,1,0,0:0:0:0:
304,64,26908,1,0,0:0:0:0:
256,64,26987,1,0,0:0:0:0:
208,64,27067,1,0,0:0:0:0:
160,64,27147,1,0,0:0:0:0:
96,64,27307,6,0,L|96:128,1,56.2500021457673
96,144,27466,2,0,L|160:144,1,56.2500021457673
192,144,27626,1,0,0:0:0:0:
256,144,27785,1,0,0:0:0:0:
256,192,27865,1,0,0:0:0:0:
256,240,27945,1,0,0:0:0:0:
208,240,28025,1,0,0:0:0:0:
160,240,28104,1,0,0:0:0:0:
80,240,28264,1,0,0:0:0:0:
336,240,28424,5,0,0:0:0:0:
400,192,28583,1,0,0:0:0:0:
336,144,28743,1,0,0:0:0:0:
400,96,28902,1,0,0:0:0:0:
336,48,29062,1,0,0:0:0:0:
96,48,29221,1,0,0:0:0:0:
96,48,29381,1,0,0:0:0:0:
96,48,29541,1,0,0:0:0:0:
96,48,29700,1,0,0:0:0:0:
256,192,29860,1,0,0:0:0:0:
256,192,30019,1,0,0:0:0:0:
256,192,30179,1,0,0:0:0:0:
256,192,30338,1,0,0:0:0:0:
256,192,30498,1,0,0:0:0:0:
432,192,30658,5,0,0:0:0:0:
384,192,30764,1,0,0:0:0:0:
336,192,30870,1,0,0:0:0:0:
288,192,30977,1,0,0:0:0:0:
240,192,31083,1,0,0:0:0:0:
192,192,31190,1,0,0:0:0:0:
144,192,31296,1,0,0:0:0:0:
224,128,31615,5,0,0:0:0:0:
272,128,31775,1,0,0:0:0:0:
320,128,31934,1,0,0:0:0:0:
368,80,32094,1,0,0:0:0:0:
320,80,32253,1,0,0:0:0:0:
272,80,32413,1,0,0:0:0:0:
224,80,32572,2,0,L|224:160,1,75
288,208,32892,2,0,L|288:128,1,75
112,48,33211,2,0,L|112:128,1,75
400,256,33531,2,0,L|400:176,1,75
400,112,33849,5,0,0:0:0:0:
352,64,34009,1,0,0:0:0:0:
256,112,34168,1,0,0:0:0:0:
160,64,34328,1,0,0:0:0:0:
112,112,34487,1,0,0:0:0:0:
112,272,34647,1,0,0:0:0:0:
160,320,34807,1,0,0:0:0:0:
256,272,34966,1,0,0:0:0:0:
352,320,35126,1,0,0:0:0:0:
400,272,35285,1,0,0:0:0:0:
400,192,35445,1,0,0:0:0:0:
320,192,35604,1,0,0:0:0:0:
192,192,35764,1,0,0:0:0:0:
112,192,35924,1,0,0:0:0:0:
256,192,36083,1,0,0:0:0:0:
400,192,36243,1,0,0:0:0:0:
112,192,36402,1,0,0:0:0:0:
256,64,36721,5,0,0:0:0:0:
112,304,37041,1,0,0:0:0:0:
400,304,37360,1,0,0:0:0:0:
224,256,37679,5,0,0:0:0:0:
320,192,37838,1,0,0:0:0:0:
224,128,37998,1,0,0:0:0:0:
288,256,38158,1,0,0:0:0:0:
192,192,38317,1,0,0:0:0:0:
288,128,38477,5,0,0:0:0:0:
256,192,38636,1,0,0:0:0:0:
112,96,38955,5,0,0:0:0:0:
400,96,39275,1,0,0:0:0:0:
400,288,39594,1,0,0:0:0:0:
112,288,39914,1,0,0:0:0:0:
112,192,40232,5,0,0:0:0:0:
144,192,40312,1,0,0:0:0:0:
176,192,40392,1,0,0:0:0:0:
208,192,40471,1,0,0:0:0:0:
240,192,40551,1,0,0:0:0:0:
272,192,40631,2,0,L|320:192,2,37.5
240,160,40870,1,0,0:0:0:0:
272,160,40950,1,0,0:0:0:0:
304,160,41030,1,0,0:0:0:0:
336,144,41110,1,0,0:0:0:0:
352,112,41190,1,0,0:0:0:0:
352,80,41269,1,0,0:0:0:0:
320,80,41349,1,0,0:0:0:0:
288,80,41429,1,0,0:0:0:0:
256,80,41509,1,0,0:0:0:0:
96,128,41828,5,0,0:0:0:0:
160,176,41987,1,0,0:0:0:0:
240,176,42147,1,0,0:0:0:0:
320,176,42307,1,0,0:0:0:0:
384,240,42466,1,0,0:0:0:0:
320,304,42626,1,0,0:0:0:0:
224,304,42785,1,0,0:0:0:0:
128,304,42945,1,0,0:0:0:0:
128,192,43104,1,0,0:0:0:0:
256,192,43264,1,0,0:0:0:0:
256,64,43424,1,0,0:0:0:0:
256,320,43583,1,0,0:0:0:0:
384,192,43743,1,0,0:0:0:0:
384,128,43902,1,0,0:0:0:0:
320,128,44062,6,0,L|320:224,1,75
256,128,44381,2,0,L|256:208,1,75
192,352,44700,2,0,L|192:256,1,75
256,352,45019,2,0,L|256:272,1,75
256,32,45338,2,0,L|256:112,1,75
32,192,45658,2,0,L|112:192,1,75
480,192,45977,2,0,L|400:192,1,75
256,192,46296,1,0,0:0:0:0:
224,160,46376,1,0,0:0:0:0:
256,128,46455,1,0,0:0:0:0:
288,96,46535,1,0,0:0:0:0:
256,64,46615,1,0,0:0:0:0:
176,96,46934,5,0,0:0:0:0:
176,192,47094,1,0,0:0:0:0:
176,288,47253,1,0,0:0:0:0:
176,192,47413,1,0,0:0:0:0:
176,96,47572,1,0,0:0:0:0:
352,48,48211,5,0,0:0:0:0:
352,192,48370,1,0,0:0:0:0:
352,336,48530,1,0,0:0:0:0:
352,192,48690,1,0,0:0:0:0:
352,48,48849,1,0,0:0:0:0:
208,192,49168,5,0,0:0:0:0:
256,144,49328,1,0,0:0:0:0:
304,192,49487,1,0,0:0:0:0:
256,240,49647,1,0,0:0:0:0:
160,96,49807,5,0,0:0:0:0:
352,96,49966,1,0,0:0:0:0:
352,288,50126,1,0,0:0:0:0:
160,288,50285,1,0,0:0:0:0:
256,96,50445,5,0,0:0:0:0:
224,112,50551,1,0,0:0:0:0:
256,128,50658,1,0,0:0:0:0:
288,144,50764,1,0,0:0:0:0:
256,160,50870,1,0,0:0:0:0:
224,176,50977,1,0,0:0:0:0:
256,192,51083,1,0,0:0:0:0:
288,208,51190,1,0,0:0:0:0:
256,224,51296,1,0,0:0:0:0:
224,240,51402,1,0,0:0:0:0:
256,256,51509,1,0,0:0:0:0:
288,272,51615,1,0,0:0:0:0:
256,288,51721,1,0,0:0:0:0:
256,128,54281,5,0,0:0:0:0:
304,64,54440,1,0,0:0:0:0:
352,128,54600,1,0,0:0:0:0:
304,192,54759,1,0,0:0:0:0:
256,128,54919,1,0,0:0:0:0:
304,64,55078,1,0,0:0:0:0:
352,128,55238,1,0,0:0:0:0:
304,192,55398,1,0,0:0:0:0:
304,288,55557,2,0,B|240:288|240:288|176:224,1,150
208,96,56195,2,0,B|272:96|272:96|336:160,1,150
480,128,56834,6,0,P|275:344|51:120,1,675.000025749207
128,128,57472,1,0,0:0:0:0:
208,128,57632,1,0,0:0:0:0:
288,128,57791,1,0,0:0:0:0:
288,208,57951,1,0,0:0:0:0:
208,208,58110,1,0,0:0:0:0:
128,208,58270,1,0,0:0:0:0:
128,288,58429,1,0,0:0:0:0:
208,288,58589,1,0,0:0:0:0:
288,288,58749,1,0,0:0:0:0:
352,208,59068,5,0,0:0:0:0:
256,32,59387,1,0,0:0:0:0:
256,192,59706,1,0,0:0:0:0:
256,352,60025,1,0,0:0:0:0:
256,192,60344,1,0,0:0:0:0:
32,192,60663,1,0,0:0:0:0:
256,192,60983,1,0,0:0:0:0:
480,192,61302,1,0,0:0:0:0:
256,192,61621,1,0,0:0:0:0:
256,192,61940,1,0,0:0:0:0:
256,112,62100,1,0,0:0:0:0:
256,32,62259,1,0,0:0:0:0:
176,32,62578,5,0,0:0:0:0:
176,112,62738,1,0,0:0:0:0:
96,112,62898,1,0,0:0:0:0:
96,192,63057,1,0,0:0:0:0:
160,192,63217,5,0,0:0:0:0:
160,208,63296,1,0,0:0:0:0:
176,208,63376,1,0,0:0:0:0:
192,208,63456,1,0,0:0:0:0:
192,192,63536,1,0,0:0:0:0:
192,176,63616,1,0,0:0:0:0:
176,176,63695,1,0,0:0:0:0:
160,176,63775,1,0,0:0:0:0:
160,192,63855,1,0,0:0:0:0:
176,192,63935,5,0,0:0:0:0:
192,192,64015,5,0,0:0:0:0:
208,192,64094,5,0,0:0:0:0:
224,192,64174,5,0,0:0:0:0:
240,192,64254,5,0,0:0:0:0:
256,192,64334,5,0,0:0:0:0:
256,192,64413,5,0,0:0:0:0:
256,192,64493,6,0,P|352:144|208:160,1,450.000017166138
160,128,64972,1,0,0:0:0:0:
128,144,65132,1,0,0:0:0:0:
96,160,65291,1,0,0:0:0:0:
128,176,65451,1,0,0:0:0:0:
160,192,65610,2,0,L|160:320,1,112.500004291535
352,192,65929,2,0,L|352:320,1,112.500004291535
352,144,66249,2,0,L|352:32,1,112.500004291535
160,144,66568,2,0,L|160:32,1,112.500004291535
256,32,66887,5,0,0:0:0:0:
253,108,67046,2,0,B|253:189|240:348|267:304|249:303|276:420|340:405|425:350|474:375|474:38,1,675.000025749207
463,64,67685,2,0,P|352:64|223:64,1,225.000008583069
32,129,68004,2,0,P|145:129|270:129,1,225.000008583069
464,193,68323,2,0,P|351:193|226:193,1,225.000008583069
32,256,68642,2,0,P|145:256|270:256,1,225.000008583069
464,320,68961,2,0,P|351:320|226:320,1,225.000008583069
160,320,69281,1,0,0:0:0:0:
256,192,69600,5,0,0:0:0:0:
352,320,69919,1,0,0:0:0:0:
256,192,70238,1,0,0:0:0:0:
448,192,70557,1,0,0:0:0:0:
256,192,70876,1,0,0:0:0:0:
352,64,71195,1,0,0:0:0:0:
256,192,71515,1,0,0:0:0:0:
160,64,71834,1,0,0:0:0:0:
64,192,72153,1,0,0:0:0:0:
256,192,72472,1,0,0:0:0:0:
192,160,72791,5,0,0:0:0:0:
256,128,72951,1,0,0:0:0:0:
192,96,73110,1,0,0:0:0:0:
256,64,73270,1,0,0:0:0:0:
320,64,73429,1,0,0:0:0:0:
384,64,73589,1,0,0:0:0:0:
448,112,73749,1,0,0:0:0:0:
384,160,73908,1,0,0:0:0:0:
448,208,74068,1,0,0:0:0:0:
384,256,74227,1,0,0:0:0:0:
448,304,74387,1,0,0:0:0:0:
320,304,74546,1,0,0:0:0:0:
192,304,74706,1,4,0:0:0:0:
208,64,84280,5,0,0:0:0:0:
240,48,84360,1,0,0:0:0:0:
276,57,84440,1,0,0:0:0:0:
293,86,84599,1,0,0:0:0:0:
366,90,84759,1,0,0:0:0:0:
443,90,84918,6,0,P|424:165|370:177,1,112.5
368,182,85237,2,0,P|296:223|290:263,1,112.5
277,271,85557,2,0,P|191:296|182:278,1,112.5
170,272,85876,2,0,P|141:183|164:158,1,112.5
156,154,86195,1,0,0:0:0:0:
173,135,86275,1,0,0:0:0:0:
196,123,86354,1,0,0:0:0:0:
220,123,86434,1,0,0:0:0:0:
242,131,86514,1,0,0:0:0:0:
300,175,86833,5,0,0:0:0:0:
320,191,86913,1,0,0:0:0:0:
347,197,86993,1,0,0:0:0:0:
372,191,87073,1,0,0:0:0:0:
392,173,87152,1,0,0:0:0:0:
394,95,87471,6,0,P|342:66|283:102,1,112.5
277,104,87791,2,0,P|202:139|154:114,1,112.5
153,114,88110,2,0,P|112:190|140:229,1,112.5
133,230,88429,2,0,P|217:248|224:230,1,112.5
232,190,88748,5,0,0:0:0:0:
277,243,88908,1,0,0:0:0:0:
223,281,89067,1,0,0:0:0:0:
180,228,89227,1,0,0:0:0:0:
178,165,89386,1,0,0:0:0:0:
280,305,89546,1,0,0:0:0:0:
123,205,89706,1,0,0:0:0:0:
339,257,89865,1,0,0:0:0:0:
402,273,90025,1,0,0:0:0:0:
393,206,90344,5,0,0:0:0:0:
356,146,90503,1,0,0:0:0:0:
298,106,90663,1,0,0:0:0:0:
232,82,90823,1,0,0:0:0:0:
163,81,90982,1,0,0:0:0:0:
163,318,91301,1,0,0:0:0:0:
244,297,91461,1,0,0:0:0:0:
310,244,91620,1,0,0:0:0:0:
353,172,91780,1,0,0:0:0:0:
369,92,91940,1,0,0:0:0:0:
312,149,92099,1,0,0:0:0:0:
250,198,92259,1,0,0:0:0:0:
173,228,92418,6,0,P|133:215|133:174,1,75
169,136,92737,2,0,P|216:134|243:89,1,75
268,58,93057,2,0,P|312:61|343:105,1,75
362,140,93376,2,0,P|416:120|427:99,1,75
469,56,93695,2,0,L|469:118,1,37.5
474,122,93854,1,0,0:0:0:0:
483,150,93933,1,0,0:0:0:0:
486,180,94013,1,0,0:0:0:0:
483,209,94093,1,0,0:0:0:0:
474,238,94173,1,0,0:0:0:0:
460,264,94252,1,0,0:0:0:0:
440,287,94332,1,0,0:0:0:0:
416,304,94412,1,0,0:0:0:0:
380,314,94493,2,0,L|333:315,7,37.5
323,314,95131,6,0,P|288:314|297:276,1,75
314,248,95450,2,0,P|302:213|267:221,1,75
225,174,95769,2,0,P|209:139|173:152,1,75
118,229,96088,2,0,P|124:272|158:266,1,75
224,288,96408,2,0,P|352:341|513:283,1,300
498,216,96886,1,0,0:0:0:0:
438,153,97046,1,0,0:0:0:0:
365,108,97206,1,0,0:0:0:0:
499,104,97365,1,0,0:0:0:0:
33,265,97684,5,0,0:0:0:0:
71,194,97844,1,0,0:0:0:0:
137,141,98003,1,0,0:0:0:0:
211,118,98163,1,0,0:0:0:0:
292,119,98323,1,0,0:0:0:0:
366,155,98482,1,0,0:0:0:0:
419,217,98642,1,0,0:0:0:0:
454,285,98801,1,0,0:0:0:0:
375,285,98961,2,0,P|274:246|147:300,1,225
127,234,99280,2,0,P|237:187|359:205,1,225
388,152,99599,2,0,P|284:122|151:151,1,225
113,113,99918,2,0,P|223:50|441:69,1,300
456,77,100397,5,0,0:0:0:0:
431,105,100477,1,0,0:0:0:0:
455,132,100557,1,0,0:0:0:0:
456,199,100716,1,0,0:0:0:0:
326,86,100876,1,0,0:0:0:0:
456,199,101035,1,0,0:0:0:0:
326,86,101195,1,0,0:0:0:0:
329,325,101514,5,0,0:0:0:0:
299,343,101594,1,0,0:0:0:0:
260,338,101674,1,0,0:0:0:0:
226,326,101753,1,0,0:0:0:0:
193,337,101833,1,0,0:0:0:0:
104,333,101993,1,0,0:0:0:0:
84,299,102073,1,0,0:0:0:0:
74,264,102152,1,0,0:0:0:0:
81,226,102232,1,0,0:0:0:0:
103,192,102312,1,0,0:0:0:0:
133,173,102392,1,0,0:0:0:0:
165,156,102471,1,0,0:0:0:0:
187,127,102551,1,0,0:0:0:0:
203,94,102631,1,0,0:0:0:0:
210,58,102711,1,0,0:0:0:0:
204,28,102791,6,0,P|129:39|102:110,1,150
310,29,103110,2,0,P|385:40|412:111,1,150
148,318,103429,2,0,P|73:307|46:236,1,150
364,318,103748,2,0,P|439:307|466:236,1,150
511,107,104067,5,0,0:0:0:0:
462,162,104146,1,0,0:0:0:0:
400,202,104226,1,0,0:0:0:0:
327,206,104306,1,0,0:0:0:0:
258,179,104386,1,0,0:0:0:0:
195,139,104465,1,0,0:0:0:0:
129,108,104545,1,0,0:0:0:0:
61,132,104625,1,0,0:0:0:0:
10,186,104705,1,0,0:0:0:0:
256,192,104706,12,0,105344,0:0:0:0:
288,192,105503,5,0,0:0:0:0:
224,192,105663,1,0,0:0:0:0:
256,160,105982,1,0,0:0:0:0:
256,224,106142,1,0,0:0:0:0:
288,192,106461,1,0,0:0:0:0:
224,192,106780,1,0,0:0:0:0:
288,192,106940,1,0,0:0:0:0:
224,192,107099,1,0,0:0:0:0:
288,192,107259,1,0,0:0:0:0:
448,192,107897,6,0,B|192:144|160:96|176:32|256:0|336:16|384:80|352:128|304:192|208:208|160:208|160:208,1,525.00000500679
64,192,108375,2,0,B|320:144|352:96|336:32|256:0|176:16|128:80|160:128|208:192|304:208|352:208|352:208,1,525.00000500679
321,174,108854,1,0,0:0:0:0:
384,128,109014,1,0,0:0:0:0:
320,80,109173,1,0,0:0:0:0:
256,128,109333,1,0,0:0:0:0:
176,128,109492,1,0,0:0:0:0:
107,170,109652,1,0,0:0:0:0:
91,249,109811,1,0,0:0:0:0:
133,322,109971,1,0,0:0:0:0:
210,349,110131,1,0,0:0:0:0:
291,342,110290,1,0,0:0:0:0:
350,287,110450,6,0,P|427:164|334:124,1,262.500002503395
296,122,110769,2,0,P|214:228|77:256,1,262.500002503395
83,197,111088,2,0,B|85:128|65:44|225:-37,1,262.500002503395
201,59,111407,2,0,P|407:61|323:299,1,525.00000500679
288,304,111886,1,0,0:0:0:0:
176,192,112045,1,0,0:0:0:0:
288,80,112205,1,0,0:0:0:0:
400,192,112365,1,0,0:0:0:0:
320,272,112524,1,0,0:0:0:0:
208,160,112684,1,0,0:0:0:0:
320,48,112843,1,0,0:0:0:0:
322,214,113003,6,0,P|301:130|194:159,1,150
190,170,113322,2,0,P|211:254|318:225,1,150
322,214,113641,2,0,P|301:130|194:159,1,150
190,170,113960,2,0,P|211:254|318:225,1,150
431,193,114279,2,0,P|439:111|431:38,1,150
81,193,114599,2,0,P|73:111|81:38,1,150
339,174,114918,2,0,P|347:256|339:329,1,150
173,174,115237,2,0,P|165:256|173:329,1,150
192,76,115556,6,0,P|277:45|371:71,1,150
359,65,115795,1,0,0:0:0:0:
384,90,115875,1,0,0:0:0:0:
383,118,115955,1,0,0:0:0:0:
358,135,116035,1,0,0:0:0:0:
331,147,116115,2,0,L|246:166,1,75
179,169,116354,5,0,0:0:0:0:
57,192,116514,1,0,0:0:0:0:
179,202,116673,1,0,0:0:0:0:
236,206,116833,5,0,0:0:0:0:
262,245,116912,1,0,0:0:0:0:
304,266,116991,1,0,0:0:0:0:
352,270,117071,1,0,0:0:0:0:
398,258,117151,1,0,0:0:0:0:
437,230,117231,1,0,0:0:0:0:
461,189,117310,1,0,0:0:0:0:
460,142,117390,1,0,0:0:0:0:
435,102,117470,1,0,0:0:0:0:
397,73,117550,1,0,0:0:0:0:
352,56,117630,1,0,0:0:0:0:
304,49,117709,1,0,0:0:0:0:
257,50,117789,1,0,0:0:0:0:
210,60,117869,1,0,0:0:0:0:
166,78,117949,1,0,0:0:0:0:
126,106,118029,1,0,0:0:0:0:
95,142,118108,1,0,0:0:0:0:
98,218,118269,5,0,0:0:0:0:
129,292,118428,1,0,0:0:0:0:
206,329,118588,1,0,0:0:0:0:
294,334,118748,1,0,0:0:0:0:
375,303,118907,1,0,0:0:0:0:
429,239,119067,1,0,0:0:0:0:
451,156,119226,1,0,0:0:0:0:
446,70,119386,2,0,P|374:102|308:68,1,150
362,134,119705,2,0,P|290:166|224:132,1,150
280,190,120024,2,0,P|208:222|142:188,1,150
196,254,120343,6,0,P|124:286|58:252,1,150
59,188,120662,1,0,0:0:0:0:
85,109,120822,1,0,0:0:0:0:
144,49,120982,1,0,0:0:0:0:
197,112,121141,1,0,0:0:0:0:
221,79,121301,1,0,0:0:0:0:
253,61,121460,1,0,0:0:0:0:
286,80,121620,1,0,0:0:0:0:
307,112,121779,1,0,0:0:0:0:
357,209,121939,5,0,0:0:0:0:
389,219,122019,1,0,0:0:0:0:
421,209,122099,1,0,0:0:0:0:
423,70,122258,5,0,0:0:0:0:
391,60,122338,1,0,0:0:0:0:
359,70,122418,1,0,0:0:0:0:
269,47,122577,5,0,0:0:0:0:
251,79,122656,1,0,0:0:0:0:
241,116,122736,1,0,0:0:0:0:
243,153,122816,1,0,0:0:0:0:
254,189,122896,1,0,0:0:0:0:
265,225,122975,1,0,0:0:0:0:
271,262,123055,1,0,0:0:0:0:
266,299,123135,1,0,0:0:0:0:
111,304,123216,5,0,0:0:0:0:
192,192,123375,1,0,0:0:0:0:
112,80,123535,1,0,0:0:0:0:
224,336,123694,1,0,0:0:0:0:
320,192,123854,1,0,0:0:0:0:
224,32,124014,1,0,0:0:0:0:
320,32,124173,1,0,0:0:0:0:
224,192,124333,1,0,0:0:0:0:
320,336,124492,1,0,0:0:0:0:
416,288,124652,1,0,0:0:0:0:
336,192,124811,1,0,0:0:0:0:
416,96,124971,1,0,0:0:0:0:
416,192,125131,1,0,0:0:0:0:
256,256,125290,1,0,0:0:0:0:
96,192,125450,1,0,0:0:0:0:
256,128,125609,1,0,0:0:0:0:
40,193,125769,2,0,B|209:147|257:204|417:235|491:197,1,450
486,159,126407,5,0,0:0:0:0:
465,124,126487,1,0,0:0:0:0:
433,101,126567,1,0,0:0:0:0:
403,122,126647,1,0,0:0:0:0:
379,159,126726,1,0,0:0:0:0:
356,120,126806,1,0,0:0:0:0:
334,159,126886,1,0,0:0:0:0:
316,199,126966,1,0,0:0:0:0:
293,237,127045,1,0,0:0:0:0:
256,257,127125,1,0,0:0:0:0:
217,234,127205,1,0,0:0:0:0:
198,197,127285,1,0,0:0:0:0:
163,171,127365,1,0,0:0:0:0:
124,153,127444,1,0,0:0:0:0:
98,122,127524,1,0,0:0:0:0:
105,80,127604,1,0,0:0:0:0:
138,55,127684,1,0,0:0:0:0:
178,50,127764,1,0,0:0:0:0:
214,71,127843,1,0,0:0:0:0:
255,77,127923,1,0,0:0:0:0:
294,61,128003,1,0,0:0:0:0:
339,62,128083,1,0,0:0:0:0:
376,85,128162,1,0,0:0:0:0:
383,127,128242,1,0,0:0:0:0:
398,167,128322,1,0,0:0:0:0:
320,208,128481,5,0,0:0:0:0:
256,240,128641,1,0,0:0:0:0:
192,272,128800,1,0,0:0:0:0:
160,208,128960,1,0,0:0:0:0:
128,144,129119,1,0,0:0:0:0:
192,112,129279,1,0,0:0:0:0:
256,80,129439,1,0,0:0:0:0:
320,48,129598,2,0,L|400:48,1,75
448,96,129917,2,0,L|352:96,1,75
320,144,130236,5,0,0:0:0:0:
352,144,130316,1,0,0:0:0:0:
384,144,130396,1,0,0:0:0:0:
416,144,130476,1,0,0:0:0:0:
448,144,130556,1,0,0:0:0:0:
448,224,130715,5,0,0:0:0:0:
448,304,130875,1,0,0:0:0:0:
400,304,131034,1,0,0:0:0:0:
400,224,131194,1,0,0:0:0:0:
352,224,131353,1,0,0:0:0:0:
352,304,131513,1,0,0:0:0:0:
352,128,131673,1,0,0:0:0:0:
352,304,131832,1,0,0:0:0:0:
176,304,131992,1,0,0:0:0:0:
176,192,132151,1,0,0:0:0:0:
192,192,132231,1,0,0:0:0:0:
208,192,132311,1,0,0:0:0:0:
224,192,132391,1,0,0:0:0:0:
240,192,132470,1,0,0:0:0:0:
256,192,132550,1,0,0:0:0:0:
272,192,132630,1,0,0:0:0:0:
335,192,132790,5,0,0:0:0:0:
320,192,132869,1,0,0:0:0:0:
304,192,132949,1,0,0:0:0:0:
288,192,133029,1,0,0:0:0:0:
272,192,133109,1,0,0:0:0:0:
256,192,133189,1,0,0:0:0:0:
240,192,133268,1,0,0:0:0:0:
224,192,133348,1,0,0:0:0:0:
208,192,133428,6,0,L|208:96,1,75
208,64,133747,2,0,L|304:64,1,75
336,64,134066,2,0,L|336:160,1,75
336,192,134385,2,0,L|240:192,1,75
208,320,134704,6,0,L|304:320,1,75
128,144,135024,2,0,L|128:240,1,75
304,64,135343,2,0,L|208:64,1,75
384,240,135662,2,0,L|384:144,1,75
384,64,135981,5,0,0:0:0:0:
304,64,136141,1,0,0:0:0:0:
224,64,136300,1,0,0:0:0:0:
144,64,136460,1,0,0:0:0:0:
144,192,136619,5,0,0:0:0:0:
224,256,136779,1,0,0:0:0:0:
336,256,136939,1,0,0:0:0:0:
416,192,137098,1,0,0:0:0:0:
416,96,137258,6,0,L|320:96,1,75
304,128,137577,2,0,L|384:128,1,75
272,160,137896,2,0,L|176:160,1,75
240,192,138215,2,0,L|160:192,1,75
128,160,138534,5,0,0:0:0:0:
144,144,138614,5,0,0:0:0:0:
160,128,138694,1,0,0:0:0:0:
176,112,138774,1,0,0:0:0:0:
176,144,138853,1,0,0:0:0:0:
192,160,138933,1,0,0:0:0:0:
208,176,139013,1,0,0:0:0:0:
224,192,139093,1,0,0:0:0:0:
224,160,139173,1,0,0:0:0:0:
240,144,139252,1,0,0:0:0:0:
256,128,139332,1,0,0:0:0:0:
272,112,139412,1,0,0:0:0:0:
272,144,139492,1,0,0:0:0:0:
288,160,139572,1,0,0:0:0:0:
304,176,139651,1,0,0:0:0:0:
320,192,139731,5,0,0:0:0:0:
320,176,139811,1,0,0:0:0:0:
320,160,139891,1,0,0:0:0:0:
320,144,139970,1,0,0:0:0:0:
320,128,140050,1,0,0:0:0:0:
320,112,140130,1,0,0:0:0:0:
320,96,140210,1,0,0:0:0:0:
320,80,140290,1,0,0:0:0:0:
320,64,140369,1,0,0:0:0:0:
320,48,140449,1,0,0:0:0:0:
288,48,140529,5,0,0:0:0:0:
256,48,140609,1,0,0:0:0:0:
224,48,140689,1,0,0:0:0:0:
192,48,140768,1,0,0:0:0:0:
160,48,140848,1,0,0:0:0:0:
128,48,140928,1,0,0:0:0:0:
96,48,141008,1,0,0:0:0:0:
64,48,141087,2,0,B|64:96|64:96|112:96|112:96|112:48|112:48|80:48,4,150
256,192,142364,12,0,143002,0:0:0:0:
256,192,143002,12,0,143561,0:0:0:0:
408,52,143648,6,0,P|338:89|314:144,1,112.5
321,115,143967,5,0,0:0:0:0:
312,108,144046,1,0,0:0:0:0:
312,124,144126,1,0,0:0:0:0:
328,124,144206,1,0,0:0:0:0:
328,108,144286,1,0,0:0:0:0:
259,172,144445,1,0,0:0:0:0:
333,256,144605,1,0,0:0:0:0:
390,161,144765,1,0,0:0:0:0:
457,243,144924,6,0,P|418:312|329:326,1,150
284,331,145243,2,0,L|284:176,1,150
360,182,145562,2,0,P|319:103|247:103,1,150
192,97,145882,5,0,0:0:0:0:
150,111,145961,1,0,0:0:0:0:
106,125,146041,1,0,0:0:0:0:
61,138,146121,1,0,0:0:0:0:
20,151,146201,2,0,B|49:300|112:299|333:299,1,375
342,296,146679,1,0,0:0:0:0:
383,286,146759,1,0,0:0:0:0:
416,260,146839,1,0,0:0:0:0:
431,171,146999,5,0,0:0:0:0:
431,171,147078,1,0,0:0:0:0:
431,171,147158,1,0,0:0:0:0:
373,98,147318,1,0,0:0:0:0:
373,98,147398,1,0,0:0:0:0:
373,98,147477,1,0,0:0:0:0:
296,65,147637,5,0,0:0:0:0:
296,65,147717,1,0,0:0:0:0:
296,65,147796,1,0,0:0:0:0:
296,65,147876,1,0,0:0:0:0:
296,65,147956,1,0,0:0:0:0:
296,65,148036,1,0,0:0:0:0:
296,65,148116,1,0,0:0:0:0:
254,191,148275,1,0,0:0:0:0:
103,191,148435,1,0,0:0:0:0:
254,191,148594,1,0,0:0:0:0:
408,192,148754,6,0,P|387:109|330:74,1,150
336,75,148993,1,0,0:0:0:0:
336,75,149073,2,0,P|288:135|221:129,1,150
220,128,149312,1,0,0:0:0:0:
220,128,149392,2,0,P|151:67|78:108,1,150
103,79,149632,1,0,0:0:0:0:
103,79,149711,2,0,P|59:155|92:212,1,150
245,300,150030,5,0,0:0:0:0:
245,300,150110,2,0,P|338:302|392:280,1,150
389,281,150350,1,0,0:0:0:0:
319,190,150509,1,0,0:0:0:0:
246,77,150669,1,0,0:0:0:0:
246,77,150749,2,0,P|339:75|393:97,1,150
390,96,150989,1,0,0:0:0:0:
319,190,151148,1,0,0:0:0:0:
319,190,151307,1,0,0:0:0:0:
279,190,151467,6,0,P|232:210|121:184,1,150
136,170,151786,2,0,P|183:150|294:176,1,150
350,163,152105,5,0,0:0:0:0:
416,304,152265,1,0,0:0:0:0:
256,352,152424,1,0,0:0:0:0:
96,304,152584,1,0,0:0:0:0:
160,160,152743,1,0,0:0:0:0:
352,160,152903,1,0,0:0:0:0:
416,304,153062,1,0,0:0:0:0:
256,352,153222,1,0,0:0:0:0:
256,192,153382,1,0,0:0:0:0:
256,32,153541,1,0,0:0:0:0:
464,32,153701,1,0,0:0:0:0:
48,32,153860,6,0,B|48:96|48:96|112:96|112:96|112:176|112:176|192:176|192:176|192:256|192:256|256:256|256:256|256:336|256:336|320:336,1,525
304,336,154499,1,0,0:0:0:0:
384,336,154658,1,0,0:0:0:0:
432,272,154818,1,0,0:0:0:0:
464,192,154977,1,0,0:0:0:0:
416,112,155137,2,0,L|288:224,1,150
304,112,155456,2,0,L|432:224,1,150
352,272,155775,5,0,0:0:0:0:
352,352,155935,1,0,0:0:0:0:
352,272,156094,1,0,0:0:0:0:
272,272,156254,1,0,0:0:0:0:
272,352,156413,2,0,B|48:352|48:352|48:192|48:192|192:192|192:192|192:272|192:272|80:272|80:272,1,719.999978027344
48,272,157211,5,0,0:0:0:0:
112,272,157371,1,0,0:0:0:0:
112,208,157530,1,0,0:0:0:0:
192,208,157690,1,0,0:0:0:0:
192,304,157850,1,0,0:0:0:0:
288,304,158009,1,0,0:0:0:0:
288,160,158169,1,0,0:0:0:0:
288,16,158328,1,0,0:0:0:0:
480,16,158488,1,0,0:0:0:0:
480,192,158648,1,0,0:0:0:0:
480,368,158807,1,0,0:0:0:0:
352,368,158967,6,0,L|160:368,1,179.999994506836
144,16,159286,2,0,L|336:16,1,179.999994506836
384,320,159605,2,0,L|192:320,1,179.999994506836
112,64,159924,2,0,L|304:64,1,179.999994506836
368,64,160243,2,0,P|432:80|480:192,1,179.999994506836
144,64,160562,2,0,P|80:80|32:192,1,179.999994506836
352,96,160882,2,0,P|384:144|432:256,1,179.999994506836
160,96,161201,2,0,P|128:144|80:256,1,179.999994506836
256,341,161520,5,0,0:0:0:0:
176,192,161679,1,0,0:0:0:0:
256,32,161839,1,0,0:0:0:0:
336,192,161999,1,0,0:0:0:0:
192,240,162158,5,0,0:0:0:0:
320,144,162318,1,0,0:0:0:0:
224,272,162477,1,0,0:0:0:0:
288,112,162637,1,0,0:0:0:0:
238,324,162796,1,0,0:0:0:0:
256,48,162956,1,0,0:0:0:0:
315,305,163116,1,0,0:0:0:0:
183,74,163275,1,0,0:0:0:0:
371,254,163435,1,0,0:0:0:0:
124,128,163594,1,0,0:0:0:0:
407,189,163754,1,0,0:0:0:0:
101,196,163913,5,0,0:0:0:0:
87,131,164073,1,0,0:0:0:0:
74,63,164233,1,0,0:0:0:0:
144,64,164392,1,0,0:0:0:0:
144,64,164472,1,0,0:0:0:0:
144,64,164552,1,0,0:0:0:0:
144,64,164632,1,0,0:0:0:0:
144,64,164711,1,0,0:0:0:0:
144,64,164791,1,0,0:0:0:0:
144,64,164871,1,0,0:0:0:0:
144,64,164951,1,0,0:0:0:0:
256,64,165350,5,0,0:0:0:0:
320,64,165509,1,0,0:0:0:0:
288,128,165669,1,0,0:0:0:0:
256,192,165828,1,0,0:0:0:0:
320,192,165988,1,0,0:0:0:0:
352,128,166148,1,0,0:0:0:0:
384,64,166307,1,0,0:0:0:0:
416,128,166467,1,0,0:0:0:0:
448,64,166626,1,0,0:0:0:0:
432,336,167903,5,0,0:0:0:0:
368,336,168062,1,0,0:0:0:0:
368,272,168222,1,0,0:0:0:0:
304,272,168382,1,0,0:0:0:0:
304,208,168541,1,0,0:0:0:0:
304,144,168701,1,0,0:0:0:0:
368,144,168860,1,0,0:0:0:0:
432,144,169020,1,0,0:0:0:0:
432,208,169179,1,0,0:0:0:0:
64,192,170456,5,0,0:0:0:0:
128,192,170616,1,0,0:0:0:0:
192,192,170775,1,0,0:0:0:0:
256,192,170935,1,0,0:0:0:0:
256,128,171094,1,0,0:0:0:0:
320,128,171254,1,0,0:0:0:0:
384,128,171413,1,0,0:0:0:0:
448,128,171573,1,0,0:0:0:0:
448,192,171733,2,0,B|432:208|448:224|464:208|464:192|448:176|432:192|416:208|432:224|448:240|464:224|480:208|496:192|480:176|464:160|448:144|432:160|416:176|400:192|384:208|400:224|416:240|432:256|448:272|464:256|480:240|496:224|496:176,2,300
448,112,174444,5,0,0:0:0:0:
384,48,174604,1,0,0:0:0:0:
320,112,174763,1,0,0:0:0:0:
384,176,174923,1,0,0:0:0:0:
448,112,175082,1,0,0:0:0:0:
384,48,175242,1,0,0:0:0:0:
320,112,175402,1,0,0:0:0:0:
320,240,175561,6,0,L|320:320,1,75
256,320,175880,2,0,L|256:224,1,75
192,240,176199,2,0,L|192:320,1,75
128,320,176519,2,0,L|128:240,1,75
128,160,176838,5,0,0:0:0:0:
192,160,176997,1,0,0:0:0:0:
192,96,177157,1,0,0:0:0:0:
128,96,177316,1,0,0:0:0:0:
128,160,177476,1,0,0:0:0:0:
192,160,177636,1,0,0:0:0:0:
192,96,177795,1,0,0:0:0:0:
128,96,177955,1,0,0:0:0:0:
128,160,178114,6,0,P|176:192|208:192,1,75
256,160,178433,2,0,P|320:160|352:176,1,75
338,229,178753,2,0,P|396:212|416:187,1,75
420,137,179072,2,0,P|389:92|359:73,1,75
304,64,179391,5,0,0:0:0:0:
272,64,179550,1,0,0:0:0:0:
240,64,179710,1,0,0:0:0:0:
208,64,179870,1,0,0:0:0:0:
176,64,180029,1,0,0:0:0:0:
144,64,180189,1,0,0:0:0:0:
112,64,180348,1,0,0:0:0:0:
80,64,180508,1,0,0:0:0:0:
80,128,180667,6,0,L|144:192,1,75
176,224,180987,2,0,L|240:288,1,75
272,320,181306,2,0,L|336:256,1,75
368,224,181625,2,0,L|432:160,1,75
416,96,181944,5,0,0:0:0:0:
400,96,182104,1,0,0:0:0:0:
384,96,182263,1,0,0:0:0:0:
368,96,182423,1,0,0:0:0:0:
352,96,182582,1,0,0:0:0:0:
336,96,182742,1,0,0:0:0:0:
320,96,182902,1,0,0:0:0:0:
304,96,183061,1,0,0:0:0:0:
240,96,183221,2,0,B|240:176|240:176|336:176,1,150
368,176,183859,5,0,0:0:0:0:
340,213,183939,5,0,0:0:0:0:
300,239,184019,1,0,0:0:0:0:
257,247,184098,1,0,0:0:0:0:
213,237,184178,1,0,0:0:0:0:
184,202,184258,1,0,0:0:0:0:
180,159,184338,1,0,0:0:0:0:
196,117,184417,1,0,0:0:0:0:
232,92,184497,1,0,0:0:0:0:
