osu file format v14

[General]
AudioFilename: audio.ogg
AudioLeadIn: 0
PreviewTime: 142162
Countdown: 0
SampleSet: Soft
StackLeniency: 0.7
Mode: 0
LetterboxInBreaks: 0
WidescreenStoryboard: 1

[Editor]
DistanceSpacing: 0.8
BeatDivisor: 4
GridSize: 8
TimelineZoom: 3.199999

[Metadata]
Title:Kitakaze
TitleUnicode:キタカゼ
Artist:SIX LOUNGE
ArtistUnicode:SIX LOUNGE
Creator:Hinae
Version:Normal
Source:僕のヒーローアカデミア
Tags:my boku no hero academia 第6期 6th season 6 heroaca japanese rock anime j-rock jrock full version male vocal six sixth ending ed bnha mha ナガマツシンタロウ ヤマグチユウモリ Nagamatsu Shintarou Yamaguchi Koumori Iwao Riku イワオリク
BeatmapID:4065917
BeatmapSetID:1931084

[Difficulty]
HPDrainRate:3
CircleSize:3.5
OverallDifficulty:4.5
ApproachRate:5
SliderMultiplier:1.12
SliderTickRate:1

[Events]
//Background and Video events
0,0,"27cc412bf32b61be4ddbe0d25af3ec4117abc198_s2_n1.jpg",0,0
//Break Periods
2,119958,126557
//Storyboard Layer 0 (Background)
//Storyboard Layer 1 (Fail)
//Storyboard Layer 2 (Pass)
//Storyboard Layer 3 (Foreground)
//Storyboard Layer 4 (Overlay)
//Storyboard Sound Samples

[TimingPoints]
1080,333.333333333333,4,2,1,20,1,0
4413,337.078651685393,4,2,1,60,1,0
5087,329.67032967033,4,2,1,70,1,0
5581,-101.010101010101,4,2,1,70,0,0
5746,326.086956521739,4,2,1,70,1,0
6072,333.333333333333,4,2,1,70,1,0
6405,333.333333333333,4,2,1,70,1,0
8404,338.983050847458,4,2,1,70,1,0
9081,333.333333333333,4,2,1,70,1,0
10414,335.195530726257,4,2,1,70,1,0
13095,324.324324324324,4,2,1,50,1,0
13095,-117.647058823529,4,2,1,50,0,0
14392,337.078651685393,4,2,1,50,1,0
14729,-117.647058823529,4,2,1,50,0,0
15740,335.195530726257,4,2,1,50,1,0
15740,-117.647058823529,4,2,1,50,0,0
18421,329.67032967033,4,2,1,50,1,0
18421,-117.647058823529,4,2,1,50,0,0
19739,333.333333333333,4,2,1,50,1,0
19739,-117.647058823529,4,2,1,50,0,0
26072,357.142857142857,4,2,1,50,1,0
26429,315.789473684211,4,2,1,50,1,0
26429,-117.647058823529,4,2,1,50,0,0
26902,348.837209302326,4,2,1,50,1,0
26902,-117.647058823529,4,2,1,50,0,0
27774,-106.382978723404,4,2,1,50,0,0
27948,320.855614973262,4,2,1,50,1,0
28429,-114.942528735632,4,2,1,50,0,0
28589,319.148936170213,4,2,1,50,1,0
29093,322.58064516129,4,2,1,50,1,0
29093,-117.647058823529,4,2,1,50,0,0
29576,329.67032967033,4,2,1,50,1,0
29576,-117.647058823529,4,2,1,50,0,0
30086,333.333333333333,4,2,1,50,1,0
30419,-117.647058823529,4,2,1,50,0,0
31086,338.983050847458,4,2,1,50,1,0
31086,-117.647058823529,4,2,1,50,0,0
31763,333.333333333333,4,2,1,60,1,0
31763,-100,4,2,1,60,0,0
32929,-99.009900990099,4,2,1,60,0,0
33096,331.491712707182,4,2,1,60,1,0
34421,333.333333333333,4,2,1,70,1,0
34421,-100,4,2,1,70,0,0
36420,-100,4,2,1,20,0,0
36754,-100,4,2,1,70,0,0
37087,-90.9090909090909,4,2,1,80,0,1
57087,335.195530726257,4,2,1,80,1,1
57087,-90.0900900900901,4,2,1,80,0,1
58092,329.67032967033,4,2,1,80,1,1
58421,333.333333333333,4,2,1,70,1,0
58421,-90.9090909090909,4,2,1,70,0,0
61421,329.67032967033,4,2,1,70,1,0
61750,-90.9090909090909,4,2,1,70,0,0
62739,333.333333333333,4,2,1,70,1,0
62739,-90.9090909090909,4,2,1,70,0,0
63739,344.827586206897,4,2,1,70,1,0
64083,333.333333333333,4,2,1,80,1,1
64083,-90.9090909090909,4,2,1,80,0,1
65082,333.333333333333,4,2,1,80,1,1
65082,-90.9090909090909,4,2,1,80,0,1
75415,338.983050847458,4,2,1,80,1,1
75753,-89.2857142857143,4,2,1,80,0,1
76092,333.333333333333,4,2,1,80,1,1
76758,-90.9090909090909,4,2,1,80,0,1
77092,333.333333333333,4,2,1,80,1,1
77092,-90.9090909090909,4,2,1,80,0,1
78758,329.67032967033,4,2,1,80,1,1
79417,340.909090909091,4,2,1,80,1,1
79417,-88.4955752212389,4,2,1,80,0,1
79757,348.837209302326,4,2,1,60,1,0
79757,-100,4,2,1,60,0,0
80454,333.333333333333,4,2,1,60,1,0
80454,-100,4,2,1,60,0,0
80954,-98.0392156862745,4,2,1,60,0,0
81120,319.148936170213,4,2,1,60,1,0
82077,342.857142857143,4,2,1,60,1,0
82077,-100,4,2,1,60,0,0
82419,333.333333333333,4,2,1,70,1,0
82419,-100,4,2,1,70,0,0
83752,-100,4,2,1,60,0,0
84252,-100,4,2,1,60,0,0
84419,329.67032967033,4,2,1,60,1,0
84419,-100,4,2,1,60,0,0
85078,340.909090909091,4,2,1,60,1,0
86271,333.333333333333,4,2,1,60,1,0
86771,342.857142857143,4,2,1,60,1,0
87113,327.868852459016,4,2,1,60,1,0
87768,340.909090909091,4,2,1,50,1,0
87768,-133.333333333333,4,2,1,50,0,0
88108,326.086956521739,4,2,1,50,1,0
88434,-133.333333333333,4,2,1,50,0,0
89086,331.491712707182,4,2,1,50,1,0
89086,-133.333333333333,4,2,1,50,0,0
90411,333.333333333333,4,2,1,50,1,0
90411,-117.647058823529,4,2,1,60,0,0
91744,335.195530726257,4,2,1,60,1,0
92079,-116.279069767442,4,2,1,60,0,0
95766,331.491712707182,4,2,1,60,1,0
95766,-119.047619047619,4,2,1,60,0,0
98417,333.333333333333,4,2,1,60,1,0
98417,-117.647058823529,4,2,1,60,0,0
99417,359.281437125748,4,2,1,60,1,0
99776,324.324324324324,4,2,1,60,1,0
99776,-117.647058823529,4,2,1,60,0,0
100424,329.67032967033,4,2,1,60,1,0
100424,-117.647058823529,4,2,1,60,0,0
101083,335.195530726257,4,2,1,60,1,0
101083,-117.647058823529,4,2,1,60,0,0
102423,331.491712707182,4,2,1,60,1,0
102423,-117.647058823529,4,2,1,60,0,0
103748,-100,4,2,1,60,0,0
106400,-100,4,2,1,70,0,0
107561,368.098159509202,4,2,1,70,1,0
107929,320.855614973262,4,2,1,70,1,0
108089,326.086956521739,4,2,1,70,1,0
108741,337.078651685393,4,2,1,70,1,0
109078,333.333333333333,4,2,1,70,1,0
109078,-100,4,2,1,80,0,0
109744,342.857142857143,4,2,1,80,1,0
110430,333.333333333333,4,2,1,80,1,0
111096,327.868852459016,4,2,1,80,1,0
111751,333.333333333333,4,2,1,80,1,0
112417,338.983050847458,4,2,1,80,1,0
113094,333.333333333333,4,2,1,80,1,0
114427,329.67032967033,4,2,1,80,1,0
115086,326.086956521739,4,2,1,80,1,0
115412,333.333333333333,4,2,1,80,1,0
115745,335.195530726257,4,2,1,80,1,0
117085,333.333333333333,4,2,1,80,1,0
118418,335.195530726257,4,2,1,80,1,0
119758,333.333333333333,4,2,1,80,1,0
127757,-133.333333333333,4,2,1,50,0,0
131758,327.868852459016,4,2,1,50,1,0
131758,-133.333333333333,4,2,1,50,0,0
132741,346.820809248555,4,2,1,50,1,0
133087,335.195530726257,4,2,1,50,1,0
133087,-133.333333333333,4,2,1,50,0,0
134427,324.324324324324,4,2,1,50,1,0
134427,-133.333333333333,4,2,1,50,0,0
135399,-100,4,2,1,60,0,0
135724,333.333333333333,4,2,1,60,1,0
135724,-100,4,2,1,60,0,0
137057,338.983050847458,4,2,1,60,1,0
138412,333.333333333333,4,2,1,70,1,0
141078,-100,4,2,1,80,0,0
143930,326.086956521739,4,2,1,80,1,0
144093,333.333333333333,4,2,1,80,1,0
144093,-100,4,2,1,80,0,0
145093,329.67032967033,4,2,1,80,1,0
146411,333.333333333333,4,2,1,80,1,0
146411,-90.9090909090909,4,2,1,90,0,1
150411,331.491712707182,4,2,1,90,1,1
150411,-90.0900900900901,4,2,1,90,0,1
151736,333.333333333333,4,2,1,90,1,1
151736,-90.9090909090909,4,2,1,90,0,1
154403,337.078651685393,4,2,1,90,1,1
154403,-90.9090909090909,4,2,1,90,0,1
155751,335.195530726257,4,2,1,90,1,1
155751,-90.9090909090909,4,2,1,90,0,1
157091,331.491712707182,4,2,1,90,1,1
157091,-90.9090909090909,4,2,1,90,0,1
158416,322.58064516129,4,2,1,90,1,1
158416,-90.9090909090909,4,2,1,90,0,1
159061,337.078651685393,4,2,1,90,1,1
159398,-90.9090909090909,4,2,1,90,0,1
159735,340.909090909091,4,2,1,90,1,1
159735,-90.9090909090909,4,2,1,90,0,1
161098,327.868852459016,4,2,1,90,1,1
162081,-90.9090909090909,4,2,1,90,0,1
162409,333.333333333333,4,2,1,90,1,1
162409,-90.9090909090909,4,2,1,90,0,1
165075,-100,4,2,1,80,0,0
169409,340.909090909091,4,2,1,80,1,0
170431,333.333333333333,4,2,1,80,1,0
170764,-90.9090909090909,4,2,1,90,0,1
173097,-90.9090909090909,4,2,1,90,0,0
173431,-90.9090909090909,4,2,1,90,0,1
174764,327.868852459016,4,2,1,90,1,1
174764,-90.9090909090909,4,2,1,90,0,1
175747,333.333333333333,4,2,1,90,1,1
175747,-90.9090909090909,4,2,1,90,0,1
179413,335.195530726257,4,2,1,90,1,1
179748,-90.9090909090909,4,2,1,90,0,1
180418,331.491712707182,4,2,1,90,1,1
180418,-90.9090909090909,4,2,1,90,0,1
181080,333.333333333333,4,2,1,90,1,1
181080,-90.9090909090909,4,2,1,90,0,1
186413,-100,4,2,1,80,0,0
187746,337.078651685393,4,2,1,80,1,0
189094,333.333333333333,4,2,1,80,1,0
191760,-100,4,2,1,70,0,0
197760,-100,4,2,1,68,0,0
198427,-100,4,2,1,66,0,0
199093,-100,4,2,1,64,0,0
199760,-100,4,2,1,62,0,0
200427,-100,4,2,1,60,0,0
201093,-100,4,2,1,58,0,0
201760,-100,4,2,1,56,0,0
202427,-100,4,2,1,54,0,0
203093,-100,4,2,1,52,0,0
203760,-100,4,2,1,50,0,0
204427,-100,4,2,1,48,0,0
205093,-100,4,2,1,46,0,0
205760,-100,4,2,1,40,0,0
206427,-100,4,2,1,30,0,0
207093,-100,4,2,1,20,0,0
207427,-100,4,2,1,10,0,0
207760,-100,4,2,1,5,0,0

[Colours]
Combo1 : 255,128,128
Combo2 : 128,255,128
Combo3 : 255,255,128
Combo4 : 255,149,98
Combo5 : 94,174,255

[HitObjects]
11,62,4413,6,0,P|38:55|66:48,1,56,8|8,0:0|1:3,0:0:0:0:
109,42,4750,1,12,0:0:0:0:
164,111,5087,6,0,P|198:121|237:131,2,56,6|2|10,1:2|0:0|0:0,0:0:0:0:
130,140,5581,2,0,P|86:141|27:181,1,110.32,2|2,0:0|1:2,0:0:0:0:
18,269,6238,1,2,1:2:0:0:
18,269,6405,2,0,P|51:279|94:293,1,56,2|0,1:2|1:2,0:0:0:0:
105,314,6738,2,0,P|138:304|179:288,1,56,10|0,0:0|0:0,0:0:0:0:
191,315,7071,2,0,P|239:300|297:339,1,112,2|8,1:2|0:0,0:0:0:0:
361,278,7738,6,0,P|352:229|339:148,2,112,6|10|2,1:2|0:0|1:2,0:0:0:0:
410,354,8742,1,10,0:0:0:0:
488,309,9081,2,0,B|504:295|504:295|480:191,1,112,2|10,0:0|0:0,0:0:0:0:
459,120,9747,2,0,P|433:112|399:103,1,56,8|8,1:3|1:3,0:0:0:0:
370,76,10080,2,0,P|344:84|310:93,1,56,8|8,0:0|1:3,0:0:0:0:
286,124,10414,1,2,0:0:0:0:
279,137,13095,6,0,P|271:95|258:31,1,95.2000018157959,6|10,1:2|0:0,0:0:0:0:
186,0,13743,2,0,P|158:9|132:20,1,47.600000907898,2|0,1:2|1:2,0:0:0:0:
111,47,14067,2,0,P|78:20|8:20,1,95.2000018157959,10|2,0:0|0:3,0:0:0:0:
5,98,14729,2,0,P|15:140|28:200,1,95.2000018157959,10|2,0:0|1:2,0:0:0:0:
16,274,15403,1,10,0:0:0:0:
80,334,15740,6,0,P|117:344|190:373,1,95.2000018157959,2|8,1:2|0:0,0:0:0:0:
242,311,16410,1,2,1:2:0:0:
306,367,16745,1,10,0:0:0:0:
383,331,17080,2,0,P|417:306|481:311,1,95.2000018157959,8|8,0:3|0:0,0:0:0:0:
505,229,17751,2,0,P|501:199|495:166,1,47.8659217877097,2|0,1:2|1:2,0:0:0:0:
489,139,18086,1,10,0:0:0:0:
422,85,18421,2,0,P|447:58|519:54,2,95.2000018157959,2|10|2,1:2|0:0|1:2,0:0:0:0:
401,123,19245,2,0,P|379:111|348:100,1,47.600000907898,2|10,1:2|0:0,0:0:0:0:
299,40,19739,6,0,P|261:47|202:64,1,95.2000000000004,2|10,0:3|0:0,0:0:0:0:
126,33,20405,1,2,1:2:0:0:
69,97,20739,2,0,P|75:131|79:164,1,47.6000000000002,10|2,0:0|0:3,0:0:0:0:
105,175,21072,2,0,P|148:182|205:204,2,95.2000000000004,2|8|2,1:2|0:0|1:2,0:0:0:0:
38,229,22072,1,10,0:0:0:0:
100,287,22405,6,0,P|132:317|198:314,1,95.2000000000004,2|8,0:3|0:0,0:0:0:0:
244,263,23072,1,2,1:2:0:0:
312,314,23405,1,10,0:0:0:0:
387,353,23738,6,0,P|394:324|402:290,2,47.6000000000002,2|2|10,1:2|0:0|0:0,0:0:0:0:
476,356,24405,1,2,1:2:0:0:
476,356,24572,2,0,P|484:315|490:290,1,47.6000000000002,2|8,0:0|0:0,0:0:0:0:
497,268,24905,2,0,B|487:248|487:248|403:230,1,95.2000000000004,2|2,1:2|1:2,0:0:0:0:
373,226,25405,1,10,0:0:0:0:
313,164,25738,2,0,P|320:134|332:107,1,47.6000000000002,0|0,1:2|1:2,0:0:0:0:
340,73,26072,1,12,0:1:0:0:
411,7,26429,6,0,P|458:10|507:52,1,95.2000018157959,4|8,1:2|0:3,0:0:0:0:
500,75,26902,2,0,P|490:114|474:181,1,95.2000018157959,8|8,0:0|0:3,0:0:0:0:
467,209,27425,1,8,1:3:0:0:
409,284,27774,2,0,B|393:287|382:270|382:270|353:263|312:294,1,100.799996923828,2|8,1:1|1:3,0:0:0:0:
244,336,28429,2,0,P|253:368|259:398,2,48.456800907898,8|8|8,0:3|0:3|1:3,0:0:0:0:
193,259,29093,6,0,P|199:234|206:200,2,47.600000907898,8|8|8,0:3|0:3|0:3,0:0:0:0:
170,294,29576,2,0,P|144:322|86:337,1,95.2000018157959,12|8,0:1|1:3,0:0:0:0:
58,318,30086,1,8,0:3:0:0:
19,241,30419,2,0,P|28:211|46:146,1,95.2000000000004,0|8,1:2|1:3,0:0:0:0:
11,70,31086,2,0,P|41:62|75:50,1,47.600000907898,8|8,0:3|0:3,0:0:0:0:
91,32,31424,1,8,1:3:0:0:
164,83,31763,6,0,B|230:99|210:112|281:128,1,112,6|8,1:2|0:0,0:0:0:0:
310,111,32263,2,0,P|305:77|299:44,1,56,0|12,1:2|0:1,0:0:0:0:
378,9,32763,1,0,1:2:0:0:
378,9,32929,2,0,P|391:58|408:140,1,112,8|8,1:3|0:0,0:0:0:0:
408,162,33427,1,8,1:3:0:0:
486,205,33758,2,0,P|447:202|390:252,1,112,10|8,0:0|0:0,0:0:0:0:
376,286,34256,1,8,0:0:0:0:
376,286,34421,5,6,1:2:0:0:
440,348,34754,1,2,1:2:0:0:
357,381,35087,2,0,P|329:372|293:364,1,56,2|8,1:2|1:3,0:0:0:0:
269,336,35421,1,8,1:3:0:0:
269,336,35587,6,0,B|222:391|138:388|83:348|99:264|173:255|200:295,1,280,6|0,1:2|0:0,0:0:0:0:
267,236,36754,2,0,P|274:201|282:164,1,56,8|8,0:0|0:0,0:0:0:0:
288,144,37087,6,0,P|248:129|174:156,1,123.2,6|8,1:2|0:0,0:0:0:0:
117,234,37754,2,0,P|71:231|12:182,1,123.2,0|8,1:2|0:0,0:0:0:0:
12,138,38254,1,2,1:2:0:0:
12,138,38420,1,2,0:0:0:0:
58,51,38754,1,10,0:0:0:0:
146,95,39087,1,2,1:2:0:0:
204,15,39420,2,0,P|236:26|280:42,1,61.6,10|2,0:0|0:3,0:0:0:0:
304,61,39754,6,0,P|350:28|428:37,1,123.2,2|10,1:2|0:0,0:0:0:0:
449,122,40420,2,0,P|482:130|517:143,2,61.6,2|2|8,1:2|1:2|0:0,0:0:0:0:
410,152,40920,2,0,P|421:200|440:291,1,123.2,2|0,1:2|1:2,0:0:0:0:
442,321,41420,1,10,0:0:0:0:
351,355,41754,1,0,1:2:0:0:
351,355,41920,2,0,P|333:333|331:286,2,61.6,2|10|8,1:2|0:0|0:0,0:0:0:0:
305,374,42420,6,0,P|264:368|161:354,1,123.2,6|8,1:2|0:0,0:0:0:0:
137,354,42920,1,2,0:0:0:0:
137,354,43087,2,0,B|117:333|117:333|142:229,1,123.2,2|8,1:2|0:0,0:0:0:0:
153,194,43587,1,2,1:2:0:0:
153,194,43754,5,2,0:0:0:0:
82,125,44087,1,10,0:0:0:0:
13,195,44420,1,2,1:2:0:0:
77,270,44754,2,0,P|65:305|58:332,1,61.6,10|2,0:0|0:3,0:0:0:0:
51,377,45087,6,0,P|99:385|171:358,1,123.2,0|8,1:2|0:0,0:0:0:0:
237,290,45754,2,0,P|278:301|317:319,1,61.6,0|2,1:2|1:2,0:0:0:0:
335,279,46087,2,0,P|376:268|415:250,1,61.6,8|2,0:0|1:2,0:0:0:0:
434,288,46420,5,10,0:0:0:0:
499,213,46754,1,10,0:0:0:0:
442,132,47087,1,10,0:0:0:0:
498,51,47420,2,0,P|468:36|434:27,1,61.6,8|8,0:3|0:3,0:0:0:0:
395,8,47754,6,0,B|327:21|348:49|270:62,1,123.2,6|8,1:2|0:0,0:0:0:0:
196,102,48420,2,0,P|157:84|67:64,1,123.2,0|8,1:2|0:0,0:0:0:0:
35,57,48920,1,2,1:2:0:0:
35,57,49087,2,0,P|-1:84|10:170,1,123.2,2|10,0:0|0:0,0:0:0:0:
88,198,49754,1,2,1:2:0:0:
23,272,50087,2,0,P|18:309|11:339,1,61.6,10|2,0:0|0:3,0:0:0:0:
47,368,50420,6,0,B|80:376|112:361|112:361|125:324|169:315,1,123.2,6|10,1:2|0:0,0:0:0:0:
239,361,51087,2,0,P|273:368|315:381,1,61.6,2|2,1:2|1:2,0:0:0:0:
347,383,51420,1,8,0:0:0:0:
312,290,51754,2,0,P|306:251|298:218,1,61.6,2|0,0:0|1:2,0:0:0:0:
289,181,52087,2,0,P|316:145|407:145,1,123.2,10|0,0:0|1:2,0:0:0:0:
435,166,52587,1,2,1:2:0:0:
435,166,52754,2,0,P|473:151|508:144,1,61.6,10|10,0:0|0:0,0:0:0:0:
506,193,53087,6,0,B|530:216|530:216|501:317,1,123.2,6|8,1:2|0:0,0:0:0:0:
498,354,53587,1,2,0:0:0:0:
498,354,53754,1,2,1:2:0:0:
401,373,54087,2,0,P|368:363|332:352,1,61.6,8|2,0:0|1:2,0:0:0:0:
302,325,54420,2,0,P|297:287|275:189,1,123.2,2|10,0:0|0:0,0:0:0:0:
349,134,55087,1,2,1:2:0:0:
293,52,55420,2,0,P|260:61|224:71,1,61.6,10|2,0:0|0:3,0:0:0:0:
189,91,55754,5,0,1:2:0:0:
121,19,56087,2,0,P|81:-6|2:3,1,123.2,12|12,0:1|0:1,0:0:0:0:
3,49,56587,1,0,1:2:0:0:
3,49,56754,2,0,P|12:87|19:124,1,61.6,2|12,1:2|0:0,0:0:0:0:
50,144,57087,2,0,P|39:187|21:267,1,124.320003035156,2|10,0:0|0:0,0:0:0:0:
110,309,57757,2,0,P|119:271|130:243,2,61.9441340782124,10|0|8,0:0|1:2|1:3,0:0:0:0:
182,374,58421,6,0,P|223:377|297:334,2,123.015203759766,4|10|2,1:2|0:1|1:1,0:0:0:0:
110,309,59421,1,10,0:1:0:0:
176,236,59754,2,0,B|220:223|220:223|259:235|259:235|311:222,2,123.2,2|10|2,1:1|0:1|1:1,0:0:0:0:
88,190,60754,1,10,0:1:0:0:
162,125,61087,6,0,P|156:88|126:4,1,123.569603759766,2|12,1:1|0:0,0:0:0:0:
225,0,61750,2,0,P|247:57|261:118,1,123.200003759766,0|12,1:2|0:0,0:0:0:0:
278,168,62245,1,2,0:0:0:0:
278,168,62410,6,0,P|309:151|348:137,1,60.9230769230771,10|0,0:0|1:2,0:0:0:0:
376,119,62739,1,10,0:0:0:0:
453,58,63072,2,0,P|468:93|478:125,1,61.6,8|8,0:0|0:0,0:0:0:0:
466,163,63405,2,0,P|451:198|441:230,1,61.6,8|8,0:3|0:3,0:0:0:0:
465,267,63739,1,8,1:3:0:0:
382,326,64083,6,0,P|346:358|262:357,1,123.200003759766,12|0,0:0|1:2,0:0:0:0:
197,300,64749,2,0,P|166:319|130:332,1,61.6,8|2,0:0|1:2,0:0:0:0:
120,372,65082,2,0,P|67:359|-9:346,1,123.2,2|10,0:0|0:0,0:0:0:0:
61,270,65748,1,2,1:2:0:0:
0,194,66082,2,0,P|7:163|21:124,1,61.6,8|8,0:0|0:0,0:0:0:0:
33,88,66415,6,0,P|73:50|146:46,1,123.2,6|8,1:2|0:0,0:0:0:0:
186,69,66915,1,2,0:0:0:0:
186,69,67082,1,2,1:2:0:0:
236,159,67415,1,8,0:0:0:0:
236,159,67581,2,0,P|225:193|213:228,2,61.6,2|2|0,1:2|0:0|1:2,0:0:0:0:
273,127,68081,2,0,B|326:117|326:117|361:129|361:129|411:117,1,123.2,8|2,0:0|1:2,0:0:0:0:
488,145,68748,2,0,P|492:109|498:68,1,61.6,10|8,0:0|0:0,0:0:0:0:
492,34,69081,6,0,B|468:5|468:5|373:30,1,123.2,6|10,1:2|0:0,0:0:0:0:
342,46,69581,1,2,0:0:0:0:
342,46,69748,1,2,1:2:0:0:
262,103,70081,2,0,P|210:92|176:82,1,61.6000018798829,10|2,0:0|1:2,0:0:0:0:
159,54,70415,2,0,P|113:67|79:77,1,61.6000018798829,2|2,0:0|1:2,0:0:0:0:
63,104,70748,2,0,P|78:159|97:241,1,123.2,10|2,0:0|1:2,0:0:0:0:
107,275,71248,1,0,1:2:0:0:
107,275,71415,6,0,P|74:252|-3:275,1,123.2,10|0,0:0|1:2,0:0:0:0:
56,352,72081,2,0,P|89:375|178:342,1,123.2,14|2,0:0|1:2,0:0:0:0:
204,327,72581,1,0,1:2:0:0:
204,327,72748,1,10,0:0:0:0:
291,372,73081,2,0,P|328:360|379:348,1,61.6,10|0,0:0|1:2,0:0:0:0:
396,337,73415,1,8,0:0:0:0:
465,267,73748,1,2,1:2:0:0:
400,192,74081,2,0,P|439:172|473:162,1,61.6,8|8,1:3|1:3,0:0:0:0:
482,124,74415,6,0,B|499:85|513:54|513:54|498:45|464:21,1,123.2,6|8,1:2|0:0,0:0:0:0:
377,9,75081,1,8,0:0:0:0:
312,68,75415,1,10,0:0:0:0:
228,12,75753,2,0,B|180:33|177:60|123:79,1,125.44000153125,10|10,0:0|0:0,0:0:0:0:
87,103,76258,1,2,1:2:0:0:
87,103,76425,1,8,0:0:0:0:
18,174,76758,2,0,P|29:210|41:252,1,61.6,10|0,0:0|0:0,0:0:0:0:
44,281,77092,6,0,P|87:303|169:260,1,123.200003759766,10|10,0:0|0:0,0:0:0:0:
231,218,77758,1,10,0:0:0:0:
288,298,78092,2,0,P|321:305|359:319,1,61.6000018798829,10|0,0:0|1:0,0:0:0:0:
378,352,78425,2,0,P|428:337|513:319,1,123.200003759766,10|10,0:0|0:0,0:0:0:0:
507,232,79087,1,10,0:0:0:0:
421,183,79417,2,0,P|409:105|409:97,1,63.2800001931152,8|8,1:3|1:3,0:0:0:0:
406,77,79757,6,0,P|446:70|503:111,2,112,6|2|12,1:2|1:0|0:0,0:0:0:0:
336,30,80787,1,2,0:0:0:0:
336,30,80954,2,0,P|288:43|205:69,1,112,8|2,0:0|0:0,0:0:0:0:
187,78,81439,1,2,1:3:0:0:
114,25,81758,2,0,P|84:3|1:12,1,112,14|2,0:0|0:3,0:0:0:0:
8,53,82248,1,8,0:0:0:0:
8,53,82419,6,0,P|15:96|24:190,1,112,6|8,1:2|0:0,0:0:0:0:
90,222,83085,2,0,P|83:265|70:357,1,112,0|10,1:2|0:0,0:0:0:0:
102,373,83585,1,2,0:0:0:0:
102,373,83752,2,0,P|138:378|179:386,1,56,0|0,1:2|1:2,0:0:0:0:
197,362,84085,1,8,0:0:0:0:
255,292,84419,2,0,P|288:304|324:318,1,55.3846153846157,14|0,0:0|1:2,0:0:0:0:
341,340,84748,2,0,P|374:328|410:314,1,55.3846153846157,8|8,1:3|1:3,0:0:0:0:
432,339,85078,6,0,P|457:297|440:231,1,112,6|12,1:2|0:1,0:0:0:0:
375,189,85759,1,4,1:1:0:0:
375,189,85930,1,0,1:2:0:0:
412,105,86271,2,0,P|369:89|286:65,1,112,8|8,0:0|0:0,0:0:0:0:
263,59,86771,2,0,P|254:91|246:123,1,56,8|8,0:0|0:3,0:0:0:0:
236,156,87113,1,8,0:0:0:0:
236,156,87276,1,8,0:0:0:0:
143,254,87768,6,0,P|105:246|42:235,1,84.0000032043458,6|2,1:2|1:2,0:0:0:0:
45,319,88434,2,0,P|86:327|131:338,1,84.0000032043458,2|2,1:2|1:2,0:0:0:0:
204,382,89086,1,2,1:2:0:0:
265,320,89417,1,2,1:2:0:0:
339,358,89748,2,0,P|372:376|469:366,1,126.000004806519,8|0,1:3|0:0,0:0:0:0:
489,343,90411,6,0,P|481:300|467:229,1,95.2000000000006,6|10,1:2|0:0,0:0:0:0:
409,189,91077,2,0,P|414:160|421:124,1,47.6000000000003,2|0,1:2|1:2,0:0:0:0:
425,99,91411,2,0,P|402:80|330:81,1,95.2000018157959,10|0,0:0|0:0,0:0:0:0:
268,124,92079,2,0,P|245:143|169:141,1,96.3200014697266,10|2,0:0|1:2,0:0:0:0:
112,96,92749,1,10,0:0:0:0:
48,153,93084,6,0,P|57:193|73:264,1,95.7318435754197,2|10,1:2|0:0,0:0:0:0:
13,311,93755,1,2,1:2:0:0:
75,369,94090,1,10,0:0:0:0:
144,319,94425,2,0,B|188:307|188:307|212:313|212:313|253:301,1,95.7318435754197,2|10,1:2|0:0,0:0:0:0:
313,343,95095,2,0,P|320:318|332:282,1,47.8659217877099,2|0,0:0|1:2,0:0:0:0:
340,256,95431,1,10,0:0:0:0:
289,186,95766,6,0,P|263:192|227:201,2,47.0399985644532,2|0|10,1:2|1:2|0:0,0:0:0:0:
321,157,96263,2,0,P|358:132|412:132,1,94.0799971289063,2|0,0:0|1:2,0:0:0:0:
446,149,96760,1,10,0:0:0:0:
494,78,97091,2,0,P|458:62|386:39,1,94.0799971289063,2|10,0:0|0:0,0:0:0:0:
324,15,97754,2,0,P|297:22|267:33,1,47.3370165745859,2|0,1:2|1:2,0:0:0:0:
240,48,98086,1,12,0:1:0:0:
183,112,98417,6,0,P|209:152|199:206,1,95.2000000000006,4|8,1:2|0:3,0:0:0:0:
166,217,98917,2,0,P|140:257|150:311,1,95.2000000000006,8|8,0:0|0:3,0:0:0:0:
176,331,99417,1,8,1:3:0:0:
102,375,99776,2,0,P|68:364|-3:346,1,95.2000018157959,2|8,1:1|1:3,0:0:0:0:
17,264,100424,2,0,P|42:270|77:278,2,47.600000907898,8|8|8,0:3|0:3|1:3,0:0:0:0:
30,179,101083,6,0,P|55:185|93:191,2,47.600000907898,8|8|8,0:3|0:3|0:3,0:0:0:0:
6,142,101585,2,0,P|2:100|28:38,1,95.2000018157959,12|8,0:1|1:3,0:0:0:0:
46,18,102088,1,8,0:3:0:0:
123,55,102423,2,0,P|165:42|234:24,1,95.2000018157959,0|8,1:2|1:3,0:0:0:0:
287,75,103085,2,0,P|278:102|269:133,1,47.600000907898,8|8,0:3|0:3,0:0:0:0:
262,161,103417,1,8,1:3:0:0:
212,230,103748,6,0,B|234:254|234:254|326:240,1,112,6|12,1:2|0:1,0:0:0:0:
355,235,104246,2,0,P|363:277|369:312,1,55.6906077348068,0|12,1:2|0:1,0:0:0:0:
432,357,104743,1,0,1:2:0:0:
432,357,104909,2,0,P|467:331|480:267,1,112,12|8,1:3|0:0,0:0:0:0:
458,228,105406,1,8,1:3:0:0:
502,150,105737,2,0,B|466:126|466:126|433:155|384:153,1,112,10|8,0:0|0:0,0:0:0:0:
357,152,106235,1,8,0:0:0:0:
357,152,106400,5,6,1:2:0:0:
402,67,106732,1,4,1:1:0:0:
323,13,107063,2,0,P|279:15|215:57,1,112,8|8,0:0|1:3,0:0:0:0:
190,81,107561,1,6,1:2:0:0:
126,143,107929,1,0,1:2:0:0:
126,143,108089,2,0,P|92:131|47:119,1,56,8|0,0:0|1:2,0:0:0:0:
28,118,108415,1,8,0:0:0:0:
16,207,108741,2,0,P|48:218|93:235,1,56,8|8,0:0|0:0,0:0:0:0:
113,233,109078,6,0,P|99:276|78:348,1,112,4|14,1:1|0:0,0:0:0:0:
164,372,109744,1,0,1:2:0:0:
164,372,109915,2,0,P|178:329|197:262,1,112,2|2,0:0|0:0,0:0:0:0:
216,224,110430,2,0,P|263:237|334:255,1,112,2|10,1:2|0:0,0:0:0:0:
368,260,110930,1,2,0:0:0:0:
422,331,111259,1,2,0:0:0:0:
497,282,111587,5,2,0:0:0:0:
497,282,111751,2,0,P|511:240|492:175,1,112,2|10,1:2|0:0,0:0:0:0:
433,110,112417,1,2,1:2:0:0:
433,110,112586,1,2,0:0:0:0:
361,164,112925,2,0,P|326:155|290:148,1,56,2|2,0:0|1:2,0:0:0:0:
262,143,113260,2,0,B|245:75|283:87|253:14,1,112,2|2,0:0|0:0,0:0:0:0:
227,0,113760,1,0,1:2:0:0:
157,56,114094,1,8,0:0:0:0:
76,17,114427,6,0,P|66:49|51:86,1,56,2|2,1:2|0:0,0:0:0:0:
24,100,114756,2,0,P|5:134|33:202,1,112,10|2,0:0|1:2,0:0:0:0:
69,218,115249,1,2,0:0:0:0:
20,294,115578,1,2,0:0:0:0:
20,294,115745,2,0,P|60:308|129:337,1,112,2|8,1:2|0:0,0:0:0:0:
164,354,116247,1,2,0:0:0:0:
240,307,116582,1,2,0:0:0:0:
189,233,116918,5,2,0:0:0:0:
189,233,117085,2,0,P|156:242|115:254,2,56.0000000000002,12|2|10,0:1|1:2|0:0,0:0:0:0:
225,206,117585,1,2,1:2:0:0:
225,206,117751,2,0,P|213:164|192:89,1,112,12|2,0:1|1:2,0:0:0:0:
185,54,118251,1,8,0:0:0:0:
263,9,118585,5,0,1:2:0:0:
263,9,118753,2,0,P|296:17|325:24,1,56,10|8,0:0|0:0,0:0:0:0:
340,61,119088,2,0,P|373:53|406:45,1,56,10|8,0:0|0:0,0:0:0:0:
426,16,119423,2,0,P|457:22|497:29,1,56,8|8,0:3|0:3,0:0:0:0:
504,68,119758,5,6,1:2:0:0:
33,80,127757,6,0,B|83:88|110:36|110:36|113:40|113:40|98:88|130:113,1,168.000000000001,4|12,1:2|0:1,0:0:0:0:
261,195,129091,2,0,B|362:214|323:255|416:278,1,168.000000000001,2|12,1:3|0:1,0:0:0:0:
503,139,130424,6,0,P|489:86|383:76,1,168.000000000001,6|12,1:2|0:1,0:0:0:0:
250,166,131758,2,0,P|260:215|284:336,1,168.000006408692,2|12,1:3|0:1,0:0:0:0:
123,382,133087,6,0,P|93:371|30:354,2,84.0000032043458,6|0|12,1:2|1:2|0:1,0:0:0:0:
190,332,134092,1,2,1:2:0:0:
130,273,134427,2,0,P|121:233|105:173,1,84.0000032043458,2|2,1:3|1:2,0:0:0:0:
40,144,135075,1,12,0:1:0:0:
99,84,135399,1,0,1:2:0:0:
29,34,135724,6,0,P|64:8|155:2,1,112,6|8,1:2|0:0,0:0:0:0:
192,62,136390,1,0,1:2:0:0:
275,23,136724,1,10,0:0:0:0:
275,23,136890,2,0,B|335:34|317:65|389:80,1,112.326666666667,2|0,1:2|1:2,0:0:0:0:
411,96,137395,1,10,0:0:0:0:
475,158,137734,2,0,P|464:204|447:285,1,112,2|10,1:2|0:0,0:0:0:0:
376,313,138412,6,0,P|339:312|262:363,1,112,6|10,1:2|0:0,0:0:0:0:
250,383,138912,1,0,1:0:0:0:
250,383,139078,2,0,P|210:373|134:356,1,112,10|0,0:0|1:2,0:0:0:0:
97,346,139578,1,10,0:0:0:0:
35,277,139912,1,0,1:2:0:0:
35,277,140078,2,0,P|26:243|18:216,1,56,8|8,0:0|0:0,0:0:0:0:
10,179,140412,1,8,0:0:0:0:
64,118,140745,1,8,1:3:0:0:
0,62,141078,6,0,P|39:38|125:52,1,112,6|8,1:2|0:0,0:0:0:0:
140,75,141578,1,8,0:0:0:0:
140,75,141745,2,0,P|180:64|217:59,1,56,8|8,0:0|0:0,0:0:0:0:
231,36,142078,2,0,P|271:47|307:51,1,56.0000000000002,8|8,1:3|0:0,0:0:0:0:
318,78,142412,1,6,1:2:0:0:
350,126,144093,6,0,P|399:120|455:167,1,111.896296296297,4|0,1:2|0:0,0:0:0:0:
473,197,144593,1,0,1:2:0:0:
473,197,144759,2,0,P|461:237|455:265,1,56,8|4,0:0|1:1,0:0:0:0:
446,295,145093,2,0,P|402:311|339:340,1,112,2|8,1:2|0:0,0:0:0:0:
260,374,145752,1,0,1:2:0:0:
208,300,146082,2,0,P|215:274|223:236,1,56,8|8,1:3|1:3,0:0:0:0:
227,197,146411,6,0,P|183:231|103:221,1,123.2,4|14,1:1|0:0,0:0:0:0:
90,194,146911,1,0,0:0:0:0:
90,194,147077,2,0,P|52:204|15:217,1,61.6000000000002,0|0,1:2|1:2,0:0:0:0:
0,169,147411,1,8,0:0:0:0:
68,98,147744,2,0,P|64:68|56:31,1,61.6000000000002,2|0,0:0|1:2,0:0:0:0:
100,12,148077,2,0,B|151:-3|151:-3|185:8|185:8|227:-3,1,123.2,10|0,0:0|1:2,0:0:0:0:
256,38,148577,1,2,1:2:0:0:
256,38,148744,2,0,P|290:46|334:61,1,61.6000000000002,10|10,0:0|0:0,0:0:0:0:
355,83,149077,6,0,P|381:49|463:53,1,123.2,6|8,1:2|0:0,0:0:0:0:
498,84,149577,1,2,0:0:0:0:
498,84,149744,1,2,1:2:0:0:
442,165,150077,2,0,P|452:201|459:229,1,61.6000000000002,8|2,0:0|1:2,0:0:0:0:
479,269,150411,1,2,0:0:0:0:
415,345,150742,1,10,0:0:0:0:
337,282,151073,1,2,1:2:0:0:
264,350,151405,2,0,P|234:341|194:331,1,62.1600015175782,10|2,0:0|0:3,0:0:0:0:
163,305,151736,6,0,P|121:299|36:344,1,123.2,0|8,1:2|0:0,0:0:0:0:
18,236,152402,2,0,P|29:202|37:164,1,61.6000000000002,0|2,1:2|1:2,0:0:0:0:
47,135,152736,1,8,0:0:0:0:
8,44,153069,5,10,0:0:0:0:
97,3,153402,1,10,0:0:0:0:
172,66,153736,1,10,0:0:0:0:
141,159,154069,2,0,P|172:168|212:184,1,61.6000000000002,8|8,0:3|0:3,0:0:0:0:
247,187,154403,6,0,P|262:142|288:66,1,123.200003759766,6|8,1:2|0:0,0:0:0:0:
212,4,155077,2,0,P|172:-6|87:43,1,123.200003759766,0|8,1:2|0:0,0:0:0:0:
72,67,155582,1,2,1:2:0:0:
72,67,155751,2,0,P|87:120|107:204,1,123.200003759766,2|10,0:0|0:0,0:0:0:0:
32,254,156421,1,2,1:2:0:0:
100,325,156756,2,0,P|136:316|183:305,1,61.6000018798829,10|2,0:0|0:3,0:0:0:0:
201,282,157091,6,0,B|278:299|246:321|332:342,1,122.519337016575,6|10,1:2|0:0,0:0:0:0:
397,380,157753,2,0,P|428:371|472:362,1,61.6000018798829,2|2,1:2|1:2,0:0:0:0:
505,356,158085,1,8,0:0:0:0:
488,256,158416,2,0,P|482:222|474:177,1,61.6000018798829,2|0,0:0|1:2,0:0:0:0:
469,146,158738,2,0,P|424:140|357:187,1,123.200003759766,10|0,0:0|1:2,0:0:0:0:
332,215,159229,1,2,1:2:0:0:
332,215,159398,2,0,P|294:201|262:193,1,61.6000018798829,10|10,0:0|0:0,0:0:0:0:
226,181,159735,6,0,B|215:134|215:134|235:107|235:107|224:59,1,123.200003759766,6|8,1:2|0:0,0:0:0:0:
216,23,160246,1,2,0:0:0:0:
216,23,160416,1,2,1:2:0:0:
118,5,160757,2,0,P|87:14|53:21,1,61.6000018798829,8|2,0:0|1:2,0:0:0:0:
12,26,161098,1,2,0:0:0:0:
62,99,161425,1,10,0:0:0:0:
6,169,161753,1,2,1:2:0:0:
84,228,162081,2,0,P|79:261|74:297,1,61.6000018798829,10|2,0:0|0:3,0:0:0:0:
69,337,162409,5,0,1:2:0:0:
160,373,162742,2,0,P|202:357|294:350,1,123.2,12|12,0:1|0:1,0:0:0:0:
328,348,163242,2,0,P|314:306|298:272,1,61.6000000000002,0|2,1:2|1:2,0:0:0:0:
298,246,163575,1,12,0:0:0:0:
298,246,163742,2,0,B|347:232|347:232|379:244|379:244|430:228,1,123.2,2|10,0:0|0:0,0:0:0:0:
502,279,164409,2,0,P|515:244|476:165,1,123.2,8|8,0:0|1:3,0:0:0:0:
442,150,164909,1,8,1:3:0:0:
442,150,165075,6,0,P|432:103|416:28,1,112,4|10,1:2|0:1,0:0:0:0:
335,7,165742,1,2,1:1:0:0:
261,58,166075,1,10,0:1:0:0:
317,127,166409,2,0,P|327:168|352:249,2,112,2|10|2,1:1|0:1|1:1,0:0:0:0:
242,176,167409,1,10,0:1:0:0:
167,126,167742,6,0,P|139:131|58:92,1,112,2|12,1:1|0:0,0:0:0:0:
14,174,168409,2,0,P|38:210|43:292,1,112,0|12,1:2|0:0,0:0:0:0:
74,318,168909,1,2,0:0:0:0:
74,318,169075,6,0,P|107:308|135:303,1,56.0000000000002,10|0,0:0|1:2,0:0:0:0:
171,296,169409,1,10,0:0:0:0:
239,353,169749,2,0,P|269:356|309:366,1,56,8|8,0:0|0:0,0:0:0:0:
335,378,170090,2,0,P|365:375|402:363,1,56,8|8,0:3|0:3,0:0:0:0:
425,338,170431,1,8,1:3:0:0:
505,281,170764,6,0,P|516:236|473:173,1,123.2,12|0,0:0|1:2,0:0:0:0:
436,156,171264,1,0,1:2:0:0:
436,156,171431,2,0,P|446:117|456:85,1,61.6000000000002,8|2,0:0|1:2,0:0:0:0:
451,47,171764,2,0,P|412:50|370:59,1,61.6000000000002,2|0,0:0|1:2,0:0:0:0:
343,70,172097,1,12,0:1:0:0:
260,16,172431,2,0,B|230:-5|194:2|194:2|170:31|137:36,1,123.200003759766,10|8,0:0|0:0,0:0:0:0:
119,71,172931,1,8,0:0:0:0:
119,71,173097,1,4,1:1:0:0:
183,145,173431,6,0,B|223:127|223:127|264:165|309:153,1,123.200003759766,12|2,0:0|1:2,0:0:0:0:
334,193,173931,1,0,1:2:0:0:
334,193,174097,2,0,P|376:199|408:203,1,61.6000000000002,8|2,0:0|1:2,0:0:0:0:
414,247,174431,2,0,B|396:303|367:293|346:351,1,123.2,2|8,0:0|0:0,0:0:0:0:
250,329,175091,2,0,P|213:342|174:359,1,61.6000018798829,2|0,1:2|1:2,0:0:0:0:
151,378,175419,2,0,P|114:365|75:348,1,61.6000018798829,10|8,0:0|0:0,0:0:0:0:
49,334,175747,6,0,P|38:281|84:211,1,123.2,6|10,1:2|0:0,0:0:0:0:
110,193,176247,1,2,0:0:0:0:
110,193,176413,1,2,1:2:0:0:
44,119,176747,2,0,P|37:81|27:46,1,61.6000000000002,10|2,0:0|1:2,0:0:0:0:
58,17,177080,2,0,P|102:27|135:35,1,61.6000000000002,2|2,0:0|1:2,0:0:0:0:
166,39,177413,1,10,0:0:0:0:
217,123,177747,2,0,P|255:112|288:103,1,61.6000000000002,2|0,1:2|1:2,0:0:0:0:
324,93,178080,6,0,B|353:111|353:111|321:208,1,123.2,10|0,0:0|1:2,0:0:0:0:
310,245,178580,1,0,1:2:0:0:
310,245,178747,1,10,0:0:0:0:
245,319,179080,2,0,P|279:327|317:342,1,61.6000000000002,2|0,1:2|1:2,0:0:0:0:
346,348,179413,1,10,0:0:0:0:
439,380,179748,6,0,P|455:342|470:312,1,61.6000018798829,2|0,1:2|1:2,0:0:0:0:
493,283,180083,1,8,0:0:0:0:
432,203,180418,2,0,P|423:159|400:74,1,123.200003759766,2|8,1:2|1:3,0:0:0:0:
385,42,180915,1,8,1:3:0:0:
385,42,181080,6,0,P|347:20|272:52,1,123.2,6|8,1:2|0:0,0:0:0:0:
204,111,181746,1,8,0:0:0:0:
132,43,182080,1,10,0:0:0:0:
53,102,182413,2,0,B|67:174|95:141|110:230,1,123.2,10|10,0:0|0:0,0:0:0:0:
20,259,183080,1,8,0:0:0:0:
86,331,183413,2,0,P|120:343|157:352,1,61.6000000000002,10|0,0:0|1:2,0:0:0:0:
184,378,183746,6,0,P|239:358|309:344,1,123.200003759766,14|10,0:0|0:0,0:0:0:0:
364,267,184413,1,10,0:0:0:0:
422,346,184746,1,10,0:0:0:0:
477,264,185080,2,0,P|491:194|509:130,1,123.2,10|10,0:0|0:0,0:0:0:0:
447,64,185746,1,10,0:0:0:0:
373,129,186080,2,0,P|344:114|309:102,1,61.6000000000002,8|8,1:3|1:3,0:0:0:0:
272,95,186413,6,0,P|263:61|306:-3,2,112,6|2|12,1:2|1:0|0:0,0:0:0:0:
205,151,187413,1,2,0:0:0:0:
205,151,187580,2,0,P|195:186|173:273,1,112.336,8|2,0:0|0:0,0:0:0:0:
166,303,188083,1,2,1:3:0:0:
96,359,188420,2,0,P|59:365|8:314,1,112,14|8,0:0|0:0,0:0:0:0:
6,276,188925,1,8,0:0:0:0:
6,276,189094,6,0,P|18:230|36:143,1,112,6|8,1:2|0:0,0:0:0:0:
53,80,189760,2,0,P|121:95|186:110,1,112,0|10,1:2|0:2,0:0:0:0:
231,46,190427,2,0,P|258:41|300:31,1,56.0000000000002,0|0,1:2|1:2,0:0:0:0:
329,26,190760,1,4,1:1:0:0:
409,66,191094,2,0,P|399:97|391:134,1,56.0000000000002,8|8,0:0|0:0,0:0:0:0:
362,151,191427,2,0,P|372:182|380:219,1,56.0000000000002,8|8,0:0|0:0,0:0:0:0:
409,236,191760,6,0,P|449:237|517:279,1,112,6|10,1:2|0:0,0:0:0:0:
447,335,192427,1,0,1:2:0:0:
447,335,192594,2,0,P|409:343|326:364,1,112,2|2,1:2|0:0,0:0:0:0:
294,371,193094,2,0,P|285:337|273:300,1,56.0000000000002,2|0,1:2|1:2,0:0:0:0:
265,274,193427,1,10,0:0:0:0:
193,229,193760,1,2,1:2:0:0:
193,229,193927,2,0,B|155:221|155:221|124:236|124:236|74:228,1,112,2|0,1:2|0:0,0:0:0:0:
41,223,194427,6,0,P|33:181|13:104,1,112,2|10,1:2|0:0,0:0:0:0:
63,38,195093,1,2,1:2:0:0:
150,88,195427,1,10,0:0:0:0:
231,29,195760,2,0,P|259:58|342:64,1,112,2|10,0:0|0:0,0:0:0:0:
367,38,196260,1,2,1:2:0:0:
367,38,196427,2,0,P|410:46|442:54,1,56.0000000000002,8|2,0:0|0:0,0:0:0:0:
441,95,196760,2,0,P|433:138|425:170,1,56,8|8,0:0|0:0,0:0:0:0:
450,195,197093,5,6,1:2:0:0:
256,192,197260,12,0,207760,0:0:0:0:
