osu file format v14

[General]
AudioFilename: audio.ogg
AudioLeadIn: 0
PreviewTime: 142162
Countdown: 0
SampleSet: Soft
StackLeniency: 0.7
Mode: 0
LetterboxInBreaks: 0
WidescreenStoryboard: 1

[Editor]
Bookmarks: 170431
DistanceSpacing: 0.3
BeatDivisor: 4
GridSize: 8
TimelineZoom: 1.7

[Metadata]
Title:Kitakaze
TitleUnicode:キタカゼ
Artist:SIX LOUNGE
ArtistUnicode:SIX LOUNGE
Creator:Hinae
Version:Insane
Source:僕のヒーローアカデミア
Tags:my boku no hero academia 第6期 6th season 6 heroaca japanese rock anime j-rock jrock full version male vocal six sixth ending ed bnha mha ナガマツシンタロウ ヤマグチユウモリ Nagamatsu Shintarou Yamaguchi Koumori Iwao Riku イワオリク
BeatmapID:4008797
BeatmapSetID:1931084

[Difficulty]
HPDrainRate:4.8
CircleSize:4
OverallDifficulty:8
ApproachRate:9
SliderMultiplier:1.82
SliderTickRate:1

[Events]
//Background and Video events
0,0,"27cc412bf32b61be4ddbe0d25af3ec4117abc198_s2_n1.jpg",0,0
//Break Periods
2,119958,127157
//Storyboard Layer 0 (Background)
//Storyboard Layer 1 (Fail)
//Storyboard Layer 2 (Pass)
//Storyboard Layer 3 (Foreground)
//Storyboard Layer 4 (Overlay)
//Storyboard Sound Samples

[TimingPoints]
1080,333.333333333333,4,2,1,20,1,0
1080,-100,4,2,1,20,0,0
4413,337.078651685393,4,2,1,60,1,0
4413,-100,4,2,1,60,0,0
5087,329.67032967033,4,2,1,70,1,0
5087,-100,4,2,1,70,0,0
5746,326.086956521739,4,2,1,70,1,0
6072,333.333333333333,4,2,1,70,1,0
6405,333.333333333333,4,2,1,70,1,0
6405,-100,4,2,1,70,0,0
8404,338.983050847458,4,2,1,70,1,0
9081,333.333333333333,4,2,1,70,1,0
9414,-100,4,2,1,70,0,0
10414,335.195530726257,4,2,1,70,1,0
10414,-128.205128205128,4,2,1,70,0,0
11754,-128.205128205128,4,2,1,30,0,0
13095,324.324324324324,4,2,1,50,1,0
13095,-117.647058823529,4,2,1,50,0,0
14392,337.078651685393,4,2,1,50,1,0
14729,-111.111111111111,4,2,1,50,0,0
15740,335.195530726257,4,2,1,50,1,0
15740,-117.647058823529,4,2,1,50,0,0
18421,329.67032967033,4,2,1,50,1,0
18421,-117.647058823529,4,2,1,50,0,0
19739,333.333333333333,4,2,1,50,1,0
19739,-117.647058823529,4,2,1,50,0,0
26072,357.142857142857,4,2,1,50,1,0
26429,315.789473684211,4,2,1,50,1,0
26429,-166.666666666667,4,2,1,50,0,0
26902,348.837209302326,4,2,1,50,1,0
26902,-153.846153846154,4,2,1,50,0,0
27774,-158.730158730159,4,2,1,50,0,0
27948,320.855614973262,4,2,1,50,1,0
28589,319.148936170213,4,2,1,50,1,0
29093,322.58064516129,4,2,1,50,1,0
29093,-172.413793103448,4,2,1,50,0,0
29576,329.67032967033,4,2,1,50,1,0
29576,-166.666666666667,4,2,1,50,0,0
30086,333.333333333333,4,2,1,50,1,0
30752,-166.666666666667,4,2,1,50,0,0
31086,338.983050847458,4,2,1,50,1,0
31763,333.333333333333,4,2,1,60,1,0
31763,-117.647058823529,4,2,1,60,0,0
33096,331.491712707182,4,2,1,60,1,0
33427,-117.647058823529,4,2,1,60,0,0
34421,333.333333333333,4,2,1,70,1,0
34421,-100,4,2,1,70,0,0
35587,-166.666666666667,4,2,1,70,0,0
36420,-100,4,2,1,20,0,0
36754,-90.9090909090909,4,2,1,70,0,0
37087,-90.9090909090909,4,2,1,80,0,1
39754,-133.333333333333,4,2,1,80,0,1
40004,-133.333333333333,4,2,1,5,0,1
40087,-90.9090909090909,4,2,1,80,0,1
50420,-133.333333333333,4,2,1,80,0,1
50670,-133.333333333333,4,2,1,5,0,1
50754,-80,4,2,1,80,0,1
51004,-80,4,2,1,5,0,1
51087,-80,4,2,1,80,0,1
51420,-90.9090909090909,4,2,1,80,0,1
57087,335.195530726257,4,2,1,80,1,1
58092,329.67032967033,4,2,1,80,1,1
58421,333.333333333333,4,2,1,70,1,1
58421,-133.333333333333,4,2,1,70,0,0
61087,-111.111111111111,4,2,1,70,0,0
61421,329.67032967033,4,2,1,70,1,0
61421,-111.111111111111,4,2,1,70,0,0
62410,-100,4,2,1,70,0,0
62739,333.333333333333,4,2,1,70,1,0
63739,344.827586206897,4,2,1,70,1,0
63739,-200,4,2,1,70,0,0
64083,333.333333333333,4,2,1,80,1,0
64083,-80,4,2,1,80,0,1
64583,-90.9090909090909,4,2,1,80,0,1
65082,333.333333333333,4,2,1,80,1,1
65083,-90.9090909090909,4,2,1,80,0,1
75415,338.983050847458,4,2,1,80,1,1
75753,-90.0900900900901,4,2,1,80,0,1
76092,333.333333333333,4,2,1,80,1,1
76092,-90.9090909090909,4,2,1,80,0,1
77092,333.333333333333,4,2,1,80,1,1
77092,-90.9090909090909,4,2,1,80,0,1
78758,329.67032967033,4,2,1,80,1,1
78758,-90.0900900900901,4,2,1,80,0,1
79417,340.909090909091,4,2,1,80,1,1
79757,348.837209302326,4,2,1,60,1,1
79757,-117.647058823529,4,2,1,60,0,0
80454,333.333333333333,4,2,1,60,1,0
80454,-100,4,2,1,60,0,0
80787,-166.666666666667,4,2,1,60,0,0
81120,319.148936170213,4,2,1,60,1,0
81279,-166.666666666667,4,2,1,60,0,0
81758,-133.333333333333,4,2,1,60,0,0
82077,342.857142857143,4,2,1,60,1,0
82077,-100,4,2,1,60,0,0
82419,333.333333333333,4,2,1,70,1,0
82419,-100,4,2,1,70,0,0
84419,329.67032967033,4,2,1,60,1,0
84419,-100,4,2,1,60,0,0
85078,340.909090909091,4,2,1,60,1,0
85078,-153.846153846154,4,2,1,60,0,0
86271,333.333333333333,4,2,1,60,1,0
86271,-153.846153846154,4,2,1,60,0,0
86771,342.857142857143,4,2,1,60,1,0
86771,-100,4,2,1,60,0,0
87113,327.868852459016,4,2,1,60,1,0
87113,-100,4,2,1,60,0,0
87768,340.909090909091,4,2,1,50,1,0
87768,-166.666666666667,4,2,1,50,0,0
88108,326.086956521739,4,2,1,50,1,0
88108,-166.666666666667,4,2,1,50,0,0
89086,331.491712707182,4,2,1,50,1,0
89748,-117.647058823529,4,2,1,50,0,0
90411,333.333333333333,4,2,1,50,1,0
90411,-117.647058823529,4,2,1,60,0,0
91744,335.195530726257,4,2,1,60,1,0
92079,-117.647058823529,4,2,1,60,0,0
95766,331.491712707182,4,2,1,60,1,0
96263,-117.647058823529,4,2,1,60,0,0
98417,333.333333333333,4,2,1,60,1,0
98417,-166.666666666667,4,2,1,60,0,0
99417,359.281437125748,4,2,1,60,1,0
99417,-166.666666666667,4,2,1,60,0,0
99776,324.324324324324,4,2,1,60,1,0
99776,-166.666666666667,4,2,1,60,0,0
100424,329.67032967033,4,2,1,60,1,0
101083,335.195530726257,4,2,1,60,1,0
101083,-166.666666666667,4,2,1,60,0,0
102423,331.491712707182,4,2,1,60,1,0
103748,-117.647058823529,4,2,1,60,0,0
106400,-100,4,2,1,70,0,0
107561,368.098159509202,4,2,1,70,1,0
107929,320.855614973262,4,2,1,70,1,0
108089,326.086956521739,4,2,1,70,1,0
108741,337.078651685393,4,2,1,70,1,0
109078,333.333333333333,4,2,1,70,1,0
109078,-100,4,2,1,80,0,0
109744,342.857142857143,4,2,1,80,1,0
110430,333.333333333333,4,2,1,80,1,0
111096,327.868852459016,4,2,1,80,1,0
111751,333.333333333333,4,2,1,80,1,0
112417,338.983050847458,4,2,1,80,1,0
113094,333.333333333333,4,2,1,80,1,0
114427,329.67032967033,4,2,1,80,1,0
115086,326.086956521739,4,2,1,80,1,0
115412,333.333333333333,4,2,1,80,1,0
115745,335.195530726257,4,2,1,80,1,0
117085,333.333333333333,4,2,1,80,1,0
118418,335.195530726257,4,2,1,80,1,0
119758,333.333333333333,4,2,1,80,1,0
127757,-133.333333333333,4,2,1,50,0,0
129091,-250,4,2,1,50,0,0
129757,-100,4,2,1,50,0,0
130424,-133.333333333333,4,2,1,50,0,0
131758,327.868852459016,4,2,1,50,1,0
131758,-133.333333333333,4,2,1,50,0,0
132741,346.820809248555,4,2,1,50,1,0
133087,335.195530726257,4,2,1,50,1,0
133087,-133.333333333333,4,2,1,50,0,0
133338,-133.333333333333,4,2,1,5,0,0
133422,-133.333333333333,4,2,1,50,0,0
133673,-133.333333333333,4,2,1,5,0,0
133757,-100,4,2,1,50,0,0
134427,324.324324324324,4,2,1,50,1,0
134427,-133.333333333333,4,2,1,50,0,0
135399,-100,4,2,1,60,0,0
135724,333.333333333333,4,2,1,60,1,0
135724,-100,4,2,1,60,0,0
136890,-101.010101010101,4,2,1,60,0,0
137057,338.983050847458,4,2,1,60,1,0
138412,333.333333333333,4,2,1,70,1,0
138412,-100,4,2,1,70,0,0
139078,-166.666666666667,4,2,1,70,0,0
140078,-100,4,2,1,70,0,0
141078,-100,4,2,1,80,0,0
141745,-100,4,2,1,80,0,0
142412,-166.666666666667,4,2,1,80,0,0
143078,-166.666666666667,4,2,1,20,0,0
143930,326.086956521739,4,2,1,80,1,0
144093,333.333333333333,4,2,1,80,1,0
145093,329.67032967033,4,2,1,80,1,0
145093,-100,4,2,1,80,0,0
146411,333.333333333333,4,2,1,80,1,0
146411,-100,4,2,1,90,0,1
146744,-80,4,2,1,90,0,1
147411,-90.9090909090909,4,2,1,90,0,1
150411,331.491712707182,4,2,1,90,1,1
150411,-90.9090909090909,4,2,1,90,0,1
151736,333.333333333333,4,2,1,90,1,1
151736,-90.9090909090909,4,2,1,90,0,1
154403,337.078651685393,4,2,1,90,1,1
154403,-90.9090909090909,4,2,1,90,0,1
155751,335.195530726257,4,2,1,90,1,1
155751,-90.9090909090909,4,2,1,90,0,1
157091,331.491712707182,4,2,1,90,1,1
157091,-111.111111111111,4,2,1,90,0,1
157339,-111.111111111111,4,2,1,5,0,1
157422,-83.3333333333333,4,2,1,90,0,1
157919,-90.9090909090909,4,2,1,90,0,1
158416,322.58064516129,4,2,1,90,1,1
159061,337.078651685393,4,2,1,90,1,1
159735,340.909090909091,4,2,1,90,1,1
159735,-90.9090909090909,4,2,1,90,0,1
161098,327.868852459016,4,2,1,90,1,1
161098,-90.9090909090909,4,2,1,90,0,1
162409,333.333333333333,4,2,1,90,1,1
162409,-90.9090909090909,4,2,1,90,0,1
165075,-117.647058823529,4,2,1,80,0,0
167742,-90.9090909090909,4,2,1,80,0,0
169409,340.909090909091,4,2,1,80,1,0
170431,333.333333333333,4,2,1,80,1,0
170431,-250,4,2,1,80,0,0
170764,-83.3333333333333,4,2,1,90,0,1
171264,-90.9090909090909,4,2,1,90,0,1
172431,-90.9090909090909,4,2,1,90,0,0
173097,-250,4,2,1,90,0,0
173347,-250,4,2,1,5,0,0
173431,-76.9230769230769,4,2,1,90,0,1
173931,-90.9090909090909,4,2,1,90,0,1
174764,327.868852459016,4,2,1,90,1,1
174764,-90.9090909090909,4,2,1,90,0,1
175747,333.333333333333,4,2,1,90,1,1
175747,-90.9090909090909,4,2,1,90,0,1
179413,335.195530726257,4,2,1,90,1,1
179413,-90.9090909090909,4,2,1,90,0,1
180418,331.491712707182,4,2,1,90,1,1
181080,333.333333333333,4,2,1,90,1,1
181080,-90.9090909090909,4,2,1,90,0,1
186413,-133.333333333333,4,2,1,80,0,0
187746,337.078651685393,4,2,1,80,1,0
188420,-133.333333333333,4,2,1,80,0,0
189094,333.333333333333,4,2,1,80,1,0
189094,-100,4,2,1,80,0,0
191760,-100,4,2,1,70,0,0
197760,-100,4,2,1,68,0,0
198427,-100,4,2,1,66,0,0
199093,-100,4,2,1,64,0,0
199760,-100,4,2,1,62,0,0
200427,-100,4,2,1,60,0,0
201093,-100,4,2,1,58,0,0
201760,-100,4,2,1,56,0,0
202427,-100,4,2,1,54,0,0
203093,-100,4,2,1,52,0,0
203760,-100,4,2,1,50,0,0
204427,-100,4,2,1,48,0,0
205093,-100,4,2,1,46,0,0
205760,-100,4,2,1,40,0,0
206427,-100,4,2,1,30,0,0
207093,-100,4,2,1,20,0,0
207427,-100,4,2,1,10,0,0
207760,-100,4,2,1,5,0,0

[Colours]
Combo1 : 255,128,128
Combo2 : 128,255,128
Combo3 : 255,255,128
Combo4 : 255,149,98
Combo5 : 94,174,255

[HitObjects]
256,192,2413,12,0,4079,0:0:0:0:
72,16,4413,6,0,P|79:49|84:99,1,46.0112359550562,8|8,0:0|1:3,0:0:0:0:
34,133,4581,1,8,1:3:0:0:
30,124,4665,1,8,1:3:0:0:
26,115,4750,2,0,P|79:98|152:155,1,136.5,12|0,0:0|0:0,0:0:0:0:
153,152,5087,5,6,1:2:0:0:
0,239,5251,1,2,0:0:0:0:
154,309,5416,1,10,0:0:0:0:
90,370,5581,2,0,P|80:321|67:270,1,90.454,2|0,0:0|1:2,0:0:0:0:
153,152,5909,2,0,P|193:178|190:224,1,91,2|8,1:2|0:0,0:0:0:0:
154,309,6238,1,2,1:2:0:0:
288,239,6405,5,2,1:2:0:0:
153,152,6571,1,0,1:2:0:0:
309,25,6738,2,0,P|291:76|279:119,1,91,10|0,0:0|0:0,0:0:0:0:
405,255,7071,2,0,P|387:204|374:158,1,91.0000000000002,2|2,1:2|1:2,0:0:0:0:
281,112,7404,1,8,0:0:0:0:
470,34,7570,5,8,0:0:0:0:
470,34,7654,1,8,0:0:0:0:
470,34,7738,2,0,P|447:85|524:174,2,182,6|10|2,1:2|0:0|1:2,0:0:0:0:
320,132,8573,1,0,1:2:0:0:
419,239,8742,2,0,P|429:187|438:130,1,91.0000000000003,10|0,0:0|1:2,0:0:0:0:
497,366,9081,6,0,P|432:350|294:317,1,182,2|10,0:0|0:0,0:0:0:0:
177,251,9580,1,8,1:3:0:0:
114,299,9747,2,0,P|126:349|139:407,1,91,8|8,1:3|1:3,0:0:0:0:
263,252,10080,1,8,0:0:0:0:
133,171,10247,1,8,1:3:0:0:
133,171,10330,1,8,1:3:0:0:
133,171,10414,6,0,B|95:163|72:218|72:218|73:115|166:138|273:136|278:-18|175:-74|53:-24|76:74|76:74|91:66|112:70,1,567.840019062012,2|0,0:0|0:0,0:0:0:0:
341,61,13095,6,0,P|393:50|477:129,2,154.700002950668,6|10|2,1:2|0:0|1:2,0:0:0:0:
219,23,13905,1,0,1:2:0:0:
219,23,14067,2,0,P|231:67|259:194,1,154.700002950668,10|2,0:0|0:3,0:0:0:0:
197,239,14560,1,0,1:2:0:0:
100,101,14729,6,0,P|74:80|78:19,1,81.8999975006104,10|0,0:0|0:0,0:0:0:0:
77,181,15066,2,0,P|71:214|18:233,1,81.8999975006104,2|0,1:2|1:2,0:0:0:0:
168,158,15403,2,0,P|199:145|243:178,1,81.8999975006104,10|0,0:0|0:0,0:0:0:0:
149,366,15740,6,0,P|101:348|-6:312,2,154.700002950668,2|8|2,1:2|0:0|1:2,0:0:0:0:
285,306,16577,1,0,1:2:0:0:
285,306,16745,2,0,P|272:350|261:396,1,77.3500014753342,10|0,0:0|1:2,0:0:0:0:
196,249,17080,6,0,P|246:210|358:231,1,154.700002950668,8|8,0:3|0:0,0:0:0:0:
474,306,17583,1,0,0:0:0:0:
406,351,17751,2,0,P|394:307|378:260,1,77.3500014753342,2|0,1:2|1:2,0:0:0:0:
506,148,18086,2,0,P|494:192|476:244,1,77.3500014753342,10|0,0:0|0:3,0:0:0:0:
387,38,18421,6,0,P|425:26|474:1,1,77.3500014753342,2|2,1:2|0:0,0:0:0:0:
510,72,18750,1,10,0:0:0:0:
510,72,18915,1,0,0:0:0:0:
354,113,19080,2,0,P|345:151|341:204,1,76.5000000000004,2|2,1:2|1:2,0:0:0:0:
283,55,19410,2,0,P|253:28|210:-2,1,76.5000000000004,10|0,0:0|1:2,0:0:0:0:
77,163,19739,6,0,P|141:173|197:106,2,154.700000000001,2|10|2,0:3|0:0|1:2,0:0:0:0:
222,223,20572,1,0,0:0:0:0:
108,84,20739,1,10,0:0:0:0:
12,246,20905,1,2,0:3:0:0:
12,246,20989,1,2,0:3:0:0:
12,246,21072,6,0,P|22:293|30:342,1,77.3500000000003,2|2,1:2|0:0,0:0:0:0:
158,384,21405,2,0,P|181:349|138:268,1,116.025,8|0,0:0|0:0,0:0:0:0:
149,267,21738,1,2,1:2:0:0:
257,190,21905,1,2,1:2:0:0:
147,115,22072,2,0,P|170:163|180:204,1,77.3500000000003,10|0,0:0|1:2,0:0:0:0:
296,275,22405,6,0,B|388:251|365:327|474:300,2,154.700000000001,2|8|2,0:3|0:0|1:2,0:0:0:0:
432,208,23238,1,0,1:2:0:0:
324,376,23405,2,0,P|289:366|213:352,1,77.3500000000003,10|0,0:0|0:0,0:0:0:0:
432,208,23738,5,2,1:2:0:0:
487,153,23905,1,2,0:0:0:0:
401,70,24072,2,0,P|363:57|305:38,1,77.3500000000003,10|2,0:0|0:0,0:0:0:0:
372,148,24405,1,2,1:2:0:0:
483,71,24572,2,0,P|495:36|471:-6,1,77.3500000000003,2|8,0:0|0:0,0:0:0:0:
363,159,24905,6,0,B|308:177|308:177|295:220|295:220|234:242,1,154.700000000001,2|2,1:2|1:2,0:0:0:0:
200,79,25405,2,0,P|219:122|233:164,1,77.3500000000003,10|0,0:0|0:0,0:0:0:0:
179,294,25738,1,0,1:2:0:0:
101,263,25905,1,0,1:2:0:0:
28,235,26072,1,12,0:1:0:0:
28,235,26429,6,0,P|39:202|46:174,2,54.5999983337403,4|8|8,1:2|0:3|0:3,0:0:0:0:
12,112,26902,2,0,P|43:96|70:82,2,59.149997292328,8|8|8,0:0|0:3|0:3,0:0:0:0:
94,11,27425,2,0,P|127:22|152:30,1,59.149997292328,8|2,1:3|0:1,0:0:0:0:
242,113,27774,6,0,P|207:103|142:152,1,109.199996667481,2|8,1:1|1:3,0:0:0:0:
147,138,28429,1,8,0:3:0:0:
152,158,28589,1,8,0:3:0:0:
206,225,28748,1,8,1:3:0:0:
201,246,28908,1,8,1:3:0:0:
141,328,29093,6,0,P|117:316|83:307,1,52.7800016107178,8|8,0:3|0:3,0:0:0:0:
150,339,29415,1,8,0:3:0:0:
19,380,29576,2,0,P|11:329|-4:257,1,109.199996667481,12|8,0:1|1:3,0:0:0:0:
66,180,30086,1,8,0:3:0:0:
66,180,30419,5,0,1:2:0:0:
132,220,30586,1,8,0:3:0:0:
200,159,30752,2,0,P|180:144|139:136,1,54.5999983337403,8|8,1:3|0:3,0:0:0:0:
255,240,31086,5,8,0:3:0:0:
260,238,31170,1,8,0:3:0:0:
265,236,31255,1,8,0:3:0:0:
208,306,31424,1,8,1:3:0:0:
316,166,31594,1,8,1:3:0:0:
200,318,31763,6,0,P|248:331|351:371,1,154.700002950668,6|8,1:2|0:0,0:0:0:0:
345,368,32263,1,0,1:2:0:0:
456,181,32429,2,0,B|379:199|412:242|326:266,1,154.700002950668,12|0,0:1|1:2,0:0:0:0:
489,369,32929,1,8,1:3:0:0:
489,369,33261,5,8,0:0:0:0:
432,310,33427,2,0,P|442:271|455:226,1,77.3500014753342,8|8,1:3|1:3,0:0:0:0:
379,98,33758,1,10,0:0:0:0:
446,50,33924,1,0,1:1:0:0:
389,186,34090,5,8,0:0:0:0:
374,182,34173,1,8,0:0:0:0:
358,178,34256,1,8,0:0:0:0:
343,174,34339,1,8,0:0:0:0:
328,170,34421,6,0,P|296:133|321:38,1,135.954,6|0,1:2|0:0,0:0:0:0:
172,7,34754,2,0,P|188:71|151:125,1,136.5,2|0,1:2|0:0,0:0:0:0:
92,198,35087,1,2,1:2:0:0:
19,128,35254,1,8,1:3:0:0:
27,125,35337,1,8,1:3:0:0:
35,122,35421,2,0,P|63:113|94:104,1,45.5,8|8,1:3|1:3,0:0:0:0:
207,239,35587,6,0,B|159:264|161:305|161:305|133:258|195:209|191:233|255:210|233:126,1,272.999999999999,6|0,1:2|0:0,0:0:0:0:
462,21,36754,5,8,0:0:0:0:
487,36,36837,1,8,0:0:0:0:
498,63,36920,1,8,0:0:0:0:
493,92,37004,1,8,0:0:0:0:
470,111,37087,6,0,P|413:93|316:70,1,150.15,6|0,1:2|0:0,0:0:0:0:
310,69,37420,2,0,P|327:120|338:180,1,100.1,8|0,0:0|0:0,0:0:0:0:
429,277,37754,2,0,P|451:235|429:182,1,100.1,0|0,1:2|1:2,0:0:0:0:
308,285,38087,1,8,0:0:0:0:
379,368,38254,1,2,1:2:0:0:
332,183,38420,6,0,P|260:204|172:229,1,150.15,2|0,0:0|0:0,0:0:0:0:
169,226,38754,2,0,P|132:197|135:140,1,100.1,10|0,0:0|0:0,0:0:0:0:
176,23,39087,1,2,1:2:0:0:
234,113,39254,1,0,1:2:0:0:
90,54,39420,1,10,0:0:0:0:
1,189,39587,5,2,0:3:0:0:
1,189,39671,1,2,0:3:0:0:
1,189,39754,2,0,B|43:203|43:203|57:226|57:226|108:241,1,102.375,2|0,1:2|0:0,0:0:0:0:
180,233,40087,2,0,B|116:258|116:258|103:312|103:312|27:349,1,200.2,10|2,0:0|1:2,0:0:0:0:
231,380,40587,1,2,1:2:0:0:
321,233,40754,1,8,0:0:0:0:
377,350,40920,6,0,P|318:328|239:303,1,100.1,2|0,1:2|0:0,0:0:0:0:
404,227,41254,1,0,1:2:0:0:
275,162,41420,2,0,B|253:72|153:81|138:156|190:194|214:175,1,200.200006109619,10|0,0:0|1:2,0:0:0:0:
368,73,41920,5,2,1:2:0:0:
271,173,42087,1,10,0:0:0:0:
480,279,42254,1,8,0:0:0:0:
480,279,42337,1,8,0:0:0:0:
480,279,42420,2,0,P|490:201|447:125,1,150.15,6|0,1:2|0:0,0:0:0:0:
449,128,42754,1,8,0:0:0:0:
293,45,42920,1,2,0:0:0:0:
229,94,43087,2,0,B|130:125|168:169|52:195,1,200.2,2|8,1:2|0:0,0:0:0:0:
217,207,43587,1,2,1:2:0:0:
62,99,43754,6,0,P|37:69|32:8,1,100.1,2|0,0:0|1:2,0:0:0:0:
65,179,44087,2,0,P|51:215|2:250,1,100.1,10|0,0:0|0:0,0:0:0:0:
138,142,44420,2,0,P|176:135|231:161,1,100.1,2|0,1:2|1:2,0:0:0:0:
155,313,44754,1,10,0:0:0:0:
221,366,44920,1,2,0:3:0:0:
236,363,45004,1,2,0:3:0:0:
253,358,45087,6,0,P|304:347|364:330,1,100.1,0|2,1:2|0:0,0:0:0:0:
191,238,45420,2,0,P|138:232|74:311,1,150.15,8|0,0:0|0:0,0:0:0:0:
67,313,45754,1,0,1:2:0:0:
253,358,45920,2,0,P|265:303|286:250,1,100.1,2|8,1:2|0:0,0:0:0:0:
252,177,46254,1,2,1:2:0:0:
349,21,46420,5,10,0:0:0:0:
421,44,46587,1,0,1:2:0:0:
421,143,46754,5,10,0:0:0:0:
349,166,46920,1,0,1:2:0:0:
467,295,47087,6,0,P|494:259|478:202,1,100.1,10|0,0:0|1:2,0:0:0:0:
302,96,47420,1,8,0:3:0:0:
287,100,47504,1,8,0:3:0:0:
272,104,47587,1,8,0:3:0:0:
257,108,47670,1,8,0:3:0:0:
242,112,47754,6,0,P|178:95|50:62,1,150.15,6|0,1:2|0:0,0:0:0:0:
81,70,48087,2,0,P|51:116|78:176,1,100.1,8|0,0:0|0:0,0:0:0:0:
112,272,48420,1,0,1:2:0:0:
166,188,48587,1,0,1:2:0:0:
10,231,48754,2,0,P|23:291|35:351,1,100.1,8|2,0:0|1:2,0:0:0:0:
171,373,49087,6,0,P|227:381|295:315,1,150.15,2|0,0:0|0:0,0:0:0:0:
296,315,49420,2,0,P|282:269|261:202,1,100.1,10|0,0:0|0:0,0:0:0:0:
349,98,49754,1,2,1:2:0:0:
405,199,49920,1,0,1:2:0:0:
237,125,50087,1,10,0:0:0:0:
413,28,50254,5,2,0:3:0:0:
413,28,50337,1,2,0:3:0:0:
413,28,50420,2,0,B|470:45|470:45|474:60|498:80,1,102.375,6|0,1:2|0:0,0:0:0:0:
392,112,50754,2,0,B|324:138|324:138|306:203|230:228,1,170.625,10|0,0:0|0:0,0:0:0:0:
255,214,51087,1,2,1:2:0:0:
378,361,51254,1,2,1:2:0:0:
415,290,51420,2,0,P|465:279|521:264,1,100.1,8|2,0:0|1:2,0:0:0:0:
353,226,51754,5,2,0:0:0:0:
353,226,51920,1,0,1:2:0:0:
250,338,52087,2,0,B|190:319|190:319|130:349|130:349|42:323,1,200.2,10|0,0:0|1:2,0:0:0:0:
122,259,52587,1,2,1:2:0:0:
13,384,52754,1,10,0:0:0:0:
7,188,52920,5,10,0:0:0:0:
7,188,53004,1,8,0:0:0:0:
7,188,53087,2,0,P|85:214|220:257,1,200.2,6|8,1:2|0:0,0:0:0:0:
89,58,53587,1,2,0:0:0:0:
30,107,53754,2,0,P|-5:144|32:202,1,100.1,2|0,1:2|1:2,0:0:0:0:
164,89,54087,2,0,P|216:72|290:50,1,100.1,8|2,0:0|1:2,0:0:0:0:
367,183,54420,6,0,B|382:102|433:135|447:17,1,150.15,2|0,0:0|0:0,0:0:0:0:
446,37,54754,2,0,P|394:24|318:8,1,100.1,10|0,0:0|0:0,0:0:0:0:
457,169,55087,1,2,1:2:0:0:
294,256,55254,1,0,1:2:0:0:
380,379,55420,2,0,P|399:339|392:277,1,100.1,10|2,0:0|0:3,0:0:0:0:
390,274,55670,1,2,0:3:0:0:
390,274,55754,6,0,P|316:296|215:323,1,150.15,0|0,1:2|0:0,0:0:0:0:
228,318,56087,2,0,P|217:269|201:211,1,100.1,12|2,0:1|1:2,0:0:0:0:
75,121,56420,1,12,0:1:0:0:
35,180,56587,1,0,1:2:0:0:
76,241,56754,1,2,1:2:0:0:
0,369,56920,6,0,P|60:332|188:325,1,200.800606109619,12|0,0:0|1:2,0:0:0:0:
34,179,57422,2,0,P|7:149|8:76,1,91,10|0,0:0|1:2,0:0:0:0:
179,11,57757,1,10,0:0:0:0:
233,69,57924,1,0,1:2:0:0:
196,138,58092,1,8,1:3:0:0:
196,138,58421,6,0,P|139:153|52:178,2,136.295255207062,4|10|2,1:2|0:1|1:1,0:0:0:0:
279,207,59254,1,0,1:0:0:0:
279,207,59421,2,0,P|292:167|305:124,1,68.2500000000002,10|0,0:1|0:0,0:0:0:0:
413,13,59754,6,0,B|459:35|459:35|471:79|506:106,2,136.5,2|10|2,1:1|0:1|1:1,0:0:0:0:
345,75,60587,1,0,1:0:0:0:
389,189,60754,2,0,P|402:151|416:115,1,68.2500000000002,10|0,0:1|0:0,0:0:0:0:
501,270,61087,6,0,P|453:259|387:309,1,122.85,2|0,1:1|0:0,0:0:0:0:
382,307,61421,2,0,P|396:347|410:397,1,81.8999975006104,12|0,0:0|0:0,0:0:0:0:
239,264,61750,1,0,1:2:0:0:
307,209,61915,1,0,1:2:0:0:
264,358,62080,2,0,P|219:348|151:337,1,81.8999975006104,12|2,0:0|0:0,0:0:0:0:
19,259,62410,6,0,P|9:214|-7:135,1,90.0000000000002,10|0,0:0|1:2,0:0:0:0:
119,21,62739,1,10,0:0:0:0:
195,123,62905,5,8,0:0:0:0:
195,123,62989,1,8,0:0:0:0:
195,123,63072,2,0,P|158:131|122:147,1,45.5,8|8,0:0|0:0,0:0:0:0:
74,103,63239,2,0,P|37:95|1:79,1,45.5,8|8,0:0|0:0,0:0:0:0:
95,206,63405,1,8,0:3:0:0:
108,209,63489,1,8,0:3:0:0:
120,213,63572,1,8,0:3:0:0:
132,217,63655,1,8,0:3:0:0:
144,222,63739,6,0,P|179:236|200:246,1,45.5,8|8,1:3|1:3,0:0:0:0:
384,349,64083,6,0,B|453:348|487:284|487:284|453:347|482:387,1,227.5,12|0,0:0|1:2,0:0:0:0:
298,227,64583,1,0,1:2:0:0:
351,169,64749,2,0,P|389:195|379:262,1,100.10000305481,8|2,0:0|1:2,0:0:0:0:
144,83,65083,6,0,P|175:42|225:4,1,100.1,2|0,0:0|1:2,0:0:0:0:
96,153,65415,2,0,P|44:145|-12:121,1,100.1,10|0,0:0|0:0,0:0:0:0:
179,158,65748,2,0,P|198:206|205:267,1,100.1,2|0,1:2|1:2,0:0:0:0:
65,369,66082,1,8,0:0:0:0:
12,275,66248,5,8,0:0:0:0:
12,275,66332,1,8,0:0:0:0:
12,275,66415,2,0,B|130:251|103:317|215:287,1,200.2,6|8,1:2|0:0,0:0:0:0:
349,203,66915,1,2,0:0:0:0:
406,259,67082,2,0,P|456:277|520:303,1,100.1,2|0,1:2|1:2,0:0:0:0:
308,128,67415,1,8,0:0:0:0:
398,31,67581,2,0,P|451:57|430:180,1,200.2,2|0,1:2|1:2,0:0:0:0:
320,281,68081,2,0,P|272:299|208:320,1,100.1,8|0,0:0|0:0,0:0:0:0:
479,384,68415,6,0,P|503:354|492:283,1,100.1,2|0,1:2|1:2,0:0:0:0:
433,178,68748,1,10,0:0:0:0:
495,62,68915,1,8,0:0:0:0:
498,47,68998,1,8,0:0:0:0:
501,32,69081,5,6,1:2:0:0:
426,8,69248,1,2,0:0:0:0:
366,60,69415,1,10,0:0:0:0:
408,123,69581,1,2,0:0:0:0:
301,201,69748,2,0,P|244:185|190:171,1,100.1,2|0,1:2|1:2,0:0:0:0:
394,127,70081,5,10,0:0:0:0:
352,64,70248,1,2,1:2:0:0:
387,140,70415,5,2,0:0:0:0:
345,204,70581,1,2,1:2:0:0:
405,298,70748,2,0,P|433:261|418:206,1,100.10000305481,10|0,0:0|0:0,0:0:0:0:
297,124,71081,2,0,P|269:87|283:31,1,100.1,2|0,1:2|1:2,0:0:0:0:
67,13,71415,6,0,P|128:45|139:177,1,200.2,10|0,0:0|1:2,0:0:0:0:
44,275,71915,1,0,1:2:0:0:
1,215,72081,2,0,P|19:158|36:99,1,100.1,14|0,0:0|0:0,0:0:0:0:
112,233,72415,2,0,P|127:279|95:332,1,100.1,2|0,1:2|1:2,0:0:0:0:
229,379,72748,2,0,P|276:363|336:344,1,100.1,10|0,0:0|1:2,0:0:0:0:
112,233,73081,5,10,0:0:0:0:
170,179,73248,1,0,1:2:0:0:
285,244,73415,2,0,B|287:163|336:199|326:69,1,150.15,8|0,0:0|0:0,0:0:0:0:
322,82,73748,2,0,P|265:92|203:100,1,100.1,2|0,1:2|1:2,0:0:0:0:
378,252,74081,1,8,1:3:0:0:
378,252,74165,1,8,1:3:0:0:
378,252,74248,1,8,1:3:0:0:
378,252,74331,1,8,1:3:0:0:
378,252,74415,6,0,P|406:294|514:296,1,150.15,6|0,1:2|0:0,0:0:0:0:
510,294,74748,2,0,P|497:238|481:173,1,100.1,8|2,0:0|0:0,0:0:0:0:
413,33,75081,2,0,P|399:89|383:153,1,100.1,8|0,0:0|1:2,0:0:0:0:
496,91,75415,1,10,0:0:0:0:
496,91,75584,1,0,1:2:0:0:
326,207,75753,6,0,P|277:210|230:171,1,101.010002466065,10|0,0:0|0:0,0:0:0:0:
133,50,76092,2,0,P|192:34|256:19,1,100.10000305481,10|2,0:0|1:2,0:0:0:0:
82,158,76425,1,8,0:0:0:0:
26,85,76592,1,0,1:2:0:0:
170,140,76758,1,10,0:0:0:0:
28,258,76925,1,0,1:2:0:0:
124,367,77092,6,0,P|162:327|140:236,1,150.150004582214,10|0,0:0|0:0,0:0:0:0:
123,227,77425,2,0,P|63:247|-2:265,1,100.1,10|0,0:0|0:0,0:0:0:0:
198,314,77758,2,0,P|245:328|293:344,1,100.1,10|0,0:0|1:2,0:0:0:0:
403,206,78092,1,10,0:0:0:0:
321,253,78258,1,0,1:2:0:0:
436,368,78425,6,0,P|465:336|443:278,1,100.1,10|0,0:0|0:0,0:0:0:0:
321,253,78758,2,0,P|292:221|313:160,1,101.010002466065,10|0,0:0|1:2,0:0:0:0:
390,21,79087,5,10,0:0:0:0:
406,29,79252,1,0,1:2:0:0:
454,102,79417,5,8,1:3:0:0:
438,110,79587,1,8,1:3:0:0:
339,92,79757,6,0,P|280:73|184:57,2,154.700002950668,6|2|12,1:2|1:0|0:0,0:0:0:0:
155,192,80787,2,0,P|145:163|133:132,1,54.5999983337403,2|8,0:0|0:0,0:0:0:0:
58,73,81120,1,2,0:1:0:0:
43,91,81279,2,0,P|33:120|18:148,1,54.5999983337403,2|2,0:0|1:3,0:0:0:0:
76,217,81598,1,2,0:0:0:0:
3,317,81758,2,0,P|51:300|134:367,1,136.500005207062,14|2,0:0|0:3,0:0:0:0:
256,198,82248,5,8,0:0:0:0:
256,198,82334,1,8,0:0:0:0:
256,198,82419,2,0,P|239:113|219:16,2,182,6|8|0,1:2|0:0|1:2,0:0:0:0:
339,327,83252,1,0,1:0:0:0:
426,259,83419,2,0,P|370:239|320:219,1,91,10|2,0:0|0:0,0:0:0:0:
250,294,83752,5,0,1:2:0:0:
250,294,83919,1,0,1:2:0:0:
406,384,84085,2,0,P|433:345|398:228,1,136.247222222222,8|0,0:0|0:0,0:0:0:0:
412,238,84419,2,0,P|424:184|437:122,1,90.0000000000004,14|0,0:0|1:2,0:0:0:0:
345,33,84748,1,8,1:3:0:0:
345,33,84831,1,8,1:3:0:0:
345,33,84913,2,0,P|337:64|325:110,1,45.0000000000002,8|8,1:3|1:3,0:0:0:0:
263,142,85078,6,0,P|217:141|152:184,2,118.299994584656,6|12|4,1:2|0:1|1:1,0:0:0:0:
150,75,85930,2,0,P|124:69|91:25,1,59.149997292328,0|4,1:2|0:1,0:0:0:0:
233,223,86271,2,0,P|224:281|180:345,1,118.299994584656,8|8,0:0|0:0,0:0:0:0:
105,383,86771,1,8,0:0:0:0:
105,383,86856,1,8,0:3:0:0:
105,383,86942,2,0,P|98:353|86:305,1,45.5,8|8,0:3|0:3,0:0:0:0:
29,263,87113,5,8,0:0:0:0:
189,317,87276,1,8,0:0:0:0:
25,17,87768,6,0,P|11:58|21:90,1,54.5999983337403,6|0,1:2|0:0,0:0:0:0:
139,26,88108,2,0,P|100:45|83:75,1,54.5999983337403,2|0,1:2|0:0,0:0:0:0:
205,116,88434,2,0,P|163:102|135:113,1,54.5999983337403,2|0,1:2|0:0,0:0:0:0:
202,230,88760,2,0,P|182:191|157:178,1,54.5999983337403,2|0,1:2|0:0,0:0:0:0:
69,140,89086,5,2,1:2:0:0:
69,140,89417,1,2,1:2:0:0:
69,140,89748,6,0,P|38:169|34:196,2,51.566666666667,8|8|8,1:3|1:3|1:3,0:0:0:0:
3,245,90080,6,0,P|2:287|17:309,2,51.566666666667,8|8|8,0:3|0:3|0:3,0:0:0:0:
64,348,90411,6,0,P|108:378|201:360,1,116.025000000001,6|0,1:2|0:0,0:0:0:0:
190,369,90744,2,0,P|187:325|182:271,1,77.3500000000005,10|0,0:0|0:0,0:0:0:0:
254,140,91077,1,2,1:2:0:0:
254,140,91244,1,0,1:2:0:0:
318,234,91411,2,0,P|269:224|141:199,1,154.700002950668,10|0,0:0|0:0,0:0:0:0:
342,142,91911,1,0,1:2:0:0:
223,17,92079,6,0,P|177:34|179:81,1,77.3500014753342,10|0,0:0|0:0,0:0:0:0:
227,183,92414,2,0,P|235:134|194:115,1,77.3500014753342,2|0,1:2|1:2,0:0:0:0:
69,100,92749,2,0,P|106:131|143:102,1,77.3500014753342,10|0,0:0|0:0,0:0:0:0:
344,48,93084,6,0,P|394:34|494:4,2,154.700002950668,2|10|2,1:2|0:0|1:2,0:0:0:0:
420,191,93922,1,0,1:2:0:0:
420,191,94090,2,0,P|431:150|448:93,1,77.3500014753342,10|0,0:0|0:0,0:0:0:0:
495,290,94425,6,0,P|449:272|370:335,1,154.700002950668,2|10,1:2|0:0,0:0:0:0:
268,377,94928,1,0,1:2:0:0:
205,324,95095,2,0,P|251:300|305:275,1,77.7821229050285,2|0,0:0|1:2,0:0:0:0:
176,224,95431,2,0,P|141:207|107:188,1,77.7821229050285,10|2,0:0|0:3,0:0:0:0:
93,181,95682,1,2,0:3:0:0:
93,181,95766,5,2,1:2:0:0:
34,234,95931,1,0,1:2:0:0:
72,300,96097,1,10,0:0:0:0:
15,372,96263,2,0,P|63:339|166:343,1,153.845303867404,2|0,0:0|1:2,0:0:0:0:
34,234,96760,2,0,P|9:203|17:155,1,76.9226519337022,10|0,0:0|1:2,0:0:0:0:
161,69,97091,6,0,P|122:54|7:15,2,154.700002950668,2|10|2,0:0|0:0|1:2,0:0:0:0:
235,12,97920,1,0,1:2:0:0:
117,151,98086,1,12,0:1:0:0:
117,151,98417,6,0,P|134:171|137:204,2,54.6,4|8|8,1:2|0:3|0:3,0:0:0:0:
65,310,98917,2,0,P|73:285|100:266,2,54.6,8|8|8,0:0|0:3|0:3,0:0:0:0:
230,272,99417,2,0,P|204:276|174:262,1,54.5999983337403,8|2,1:3|0:1,0:0:0:0:
289,218,99776,6,0,P|273:269|249:346,1,109.199996667481,2|8,1:1|1:3,0:0:0:0:
256,322,100424,5,8,0:3:0:0:
282,333,100588,1,8,0:3:0:0:
354,377,100753,5,8,1:3:0:0:
405,368,100918,1,8,1:3:0:0:
470,300,101083,6,0,P|480:266|492:231,2,54.5999983337403,8|8|8,0:3|0:3|0:3,0:0:0:0:
405,190,101585,2,0,P|420:222|499:244,1,109.199996667481,12|8,0:1|1:3,0:0:0:0:
371,106,102088,1,8,0:3:0:0:
371,106,102588,5,8,0:3:0:0:
299,145,102754,1,8,1:3:0:0:
305,59,102920,1,8,0:3:0:0:
372,190,103085,1,8,0:3:0:0:
372,190,103168,1,8,0:3:0:0:
372,190,103251,1,8,0:3:0:0:
299,47,103417,1,8,1:3:0:0:
374,11,103583,1,8,1:3:0:0:
225,95,103748,6,0,B|196:119|160:103|160:103|143:52|77:55,1,154.700002950668,6|12,1:2|0:1,0:0:0:0:
21,30,104246,1,0,1:2:0:0:
0,156,104411,2,0,P|52:178|130:214,1,115.383977900553,12|0,0:1|0:0,0:0:0:0:
120,209,104743,1,0,1:2:0:0:
71,383,104909,2,0,B|52:298|12:337|-4:229,1,153.845303867404,12|8,1:3|0:0,0:0:0:0:
96,115,105406,1,8,1:3:0:0:
96,115,105737,5,10,0:0:0:0:
223,179,105903,1,0,1:1:0:0:
161,304,106070,1,8,0:0:0:0:
161,304,106152,1,8,0:0:0:0:
161,304,106235,1,8,0:0:0:0:
161,304,106318,1,8,0:0:0:0:
161,304,106400,6,0,P|215:281|325:271,1,135.745856353592,6|0,1:2|0:0,0:0:0:0:
377,207,106732,2,0,P|340:240|307:339,1,135.745856353592,4|0,1:1|0:0,0:0:0:0:
398,377,107063,2,0,P|397:345|387:313,1,45.2486187845305,8|8,0:0|1:3,0:0:0:0:
464,267,107229,1,8,1:3:0:0:
464,267,107312,1,8,1:3:0:0:
464,267,107395,2,0,P|465:235|475:203,1,45.2486187845305,8|8,1:3|1:3,0:0:0:0:
436,126,107561,6,0,B|411:126|377:110|377:110|320:130|320:130|287:115|230:104,1,182,6|0,1:2|1:2,0:0:0:0:
173,32,108089,2,0,P|218:18|274:9,1,91,8|0,0:0|1:2,0:0:0:0:
302,216,108415,2,0,P|257:230|196:239,1,91,8|8,0:0|1:3,0:0:0:0:
59,140,108741,1,8,0:0:0:0:
59,140,108825,1,8,0:0:0:0:
59,140,108909,1,8,0:0:0:0:
59,140,108993,1,8,0:0:0:0:
59,140,109078,6,0,P|77:187|86:238,1,91.0000000000003,4|2,1:1|0:0,0:0:0:0:
6,383,109411,2,0,P|50:346|140:353,1,136.5,14|0,0:0|0:0,0:0:0:0:
135,356,109744,1,0,1:2:0:0:
252,276,109915,2,0,P|213:267|143:246,1,91,2|8,0:0|0:0,0:0:0:0:
245,367,110258,1,2,0:0:0:0:
326,206,110430,6,0,B|435:229|387:278|495:295,1,182.546,2|10,1:2|0:0,0:0:0:0:
357,384,110930,2,0,P|333:355|341:299,1,91.0000000000003,2|0,0:0|1:2,0:0:0:0:
482,205,111259,2,0,P|506:176|498:114,1,91,2|8,0:0|0:0,0:0:0:0:
402,6,111587,1,2,0:0:0:0:
370,87,111751,5,2,1:2:0:0:
481,39,111917,1,2,0:0:0:0:
370,87,112084,2,0,P|306:69|165:33,1,182,10|2,0:0|1:2,0:0:0:0:
135,165,112586,2,0,P|185:152|245:135,1,91,2|8,0:0|0:0,0:0:0:0:
71,55,112925,5,2,0:0:0:0:
26,118,113094,1,2,1:2:0:0:
129,245,113260,2,0,P|150:209|125:157,1,91.0000000000003,2|8,0:0|0:0,0:0:0:0:
31,235,113594,1,2,0:0:0:0:
2,355,113760,2,0,P|51:339|109:319,1,91.0000000000003,0|2,1:2|0:0,0:0:0:0:
167,373,114094,1,8,0:0:0:0:
181,365,114260,1,0,0:0:0:0:
255,295,114427,5,2,1:2:0:0:
253,278,114591,1,2,0:0:0:0:
315,202,114756,2,0,P|345:222|344:283,1,90.0000000000004,10|0,0:0|0:0,0:0:0:0:
251,264,115086,1,2,1:2:0:0:
189,188,115249,2,0,P|159:208|161:269,1,91,2|8,0:0|0:0,0:0:0:0:
249,249,115578,1,2,0:0:0:0:
311,173,115745,2,0,P|341:193|340:254,1,91.5083798882685,2|0,1:2|0:0,0:0:0:0:
240,107,116080,1,8,0:0:0:0:
325,41,116247,5,2,0:0:0:0:
328,56,116331,1,2,0:0:0:0:
331,69,116415,1,2,1:2:0:0:
172,37,116582,2,0,P|128:27|79:16,2,91.5083798882685,2|8|2,0:0|0:0|0:0,0:0:0:0:
410,153,117085,6,0,P|457:124|441:34,1,136.5,12|0,0:1|0:0,0:0:0:0:
448,36,117418,1,10,0:0:0:0:
352,81,117585,1,2,1:2:0:0:
477,224,117751,2,0,P|462:278|441:362,1,136.5,12|0,0:1|0:0,0:0:0:0:
441,371,118085,1,2,1:2:0:0:
353,305,118251,2,0,B|309:272|256:294|242:345|242:345|273:369|303:357,1,182.546,8|0,0:0|1:2,0:0:0:0:
265,197,118753,5,10,0:0:0:0:
185,249,118920,1,8,0:0:0:0:
185,249,119004,1,8,0:0:0:0:
185,249,119088,1,10,0:0:0:0:
344,149,119255,1,8,0:0:0:0:
206,114,119423,1,8,0:3:0:0:
312,279,119591,1,8,0:3:0:0:
149,383,119758,5,6,1:2:0:0:
157,27,127757,6,0,B|184:91|131:134|124:113|69:156|102:225,1,204.750000000001,4|0,1:2|0:0,0:0:0:0:
67,288,128424,2,0,B|26:313|-2:273|48:210|134:211|165:294,1,204.750000000001,12|0,0:1|0:0,0:0:0:0:
201,346,129091,6,0,P|168:359|131:381,1,72.8000000000002,2|2,1:3|1:3,0:0:0:0:
256,192,129757,6,0,B|357:217|310:266|407:293,1,182.000000000001,12|2,0:1|1:2,0:0:0:0:
402,291,130257,1,0,0:0:0:0:
475,170,130424,6,0,B|437:166|418:134|418:134|436:166|418:202,1,136.500000000001,6|0,1:2|1:2,0:0:0:0:
321,350,131091,2,0,B|283:354|264:386|264:386|282:354|264:318,1,136.500000000001,12|2,0:1|1:2,0:0:0:0:
168,145,131758,6,0,P|214:113|297:104,2,136.500005207062,2|2|12,1:3|1:3|0:1,0:0:0:0:
256,192,132741,1,2,1:2:0:0:
443,37,133087,6,0,B|437:19|418:4|418:4|465:12|466:68,1,102.946927374302,6|0,1:2|0:0,0:0:0:0:
423,121,133422,2,0,B|417:139|398:154|398:154|445:146|446:90,1,102.946927374302,0|0,1:2|0:0,0:0:0:0:
361,71,133757,6,0,B|334:68|296:56|296:56|254:74|254:74|218:60|170:54,1,182,12|2,0:1|1:2,0:0:0:0:
65,103,134260,5,0,0:0:0:0:
18,180,134427,2,0,P|69:190|145:136,2,136.500005207062,2|2|12,1:3|1:2|0:1,0:0:0:0:
103,359,135399,5,10,0:0:0:0:
47,286,135562,1,8,0:0:0:0:
47,286,135643,1,8,0:0:0:0:
47,286,135724,6,0,B|160:252|131:308|247:266,2,182.265416666667,6|8|0,1:2|0:0|1:2,0:0:0:0:
180,186,136557,1,0,1:2:0:0:
180,186,136724,1,10,0:0:0:0:
301,323,136890,6,0,P|339:371|454:351,1,182,2|0,1:2|1:2,0:0:0:0:
417,195,137395,2,0,P|396:236|390:294,1,91,10|0,0:0|0:0,0:0:0:0:
512,199,137734,1,2,1:2:0:0:
367,58,137904,1,0,1:2:0:0:
466,11,138073,2,0,P|485:45|474:93,1,91,10|8,0:0|0:0,0:0:0:0:
453,108,138328,1,8,0:0:0:0:
453,108,138412,6,0,P|373:91|260:65,1,182,6|10,1:2|0:0,0:0:0:0:
83,15,139078,1,10,0:0:0:0:
27,71,139245,2,0,L|48:144,2,54.5999983337403,0|0|0,0:0|1:2|0:0,0:0:0:0:
129,162,139745,1,2,0:1:0:0:
129,162,139912,1,0,1:2:0:0:
61,243,140078,6,0,P|38:238|8:235,1,45.5,8|0,0:0|0:0,0:0:0:0:
48,339,140245,1,8,0:0:0:0:
48,339,140328,1,8,0:0:0:0:
48,339,140412,2,0,P|70:344|94:351,1,45.5,8|8,0:0|0:0,0:0:0:0:
188,263,140578,1,8,0:0:0:0:
188,263,140662,1,8,0:0:0:0:
188,263,140745,2,0,P|165:257|143:251,1,45.5,8|8,1:3|1:3,0:0:0:0:
223,366,140912,1,8,1:3:0:0:
223,366,140995,1,8,1:3:0:0:
223,366,141078,6,0,P|285:318|390:350,1,182,6|8,1:2|0:0,0:0:0:0:
456,216,141578,1,8,0:0:0:0:
321,138,141745,1,8,0:0:0:0:
466,58,141912,1,8,0:0:0:0:
319,4,142078,1,8,1:3:0:0:
418,133,142245,1,8,0:0:0:0:
311,272,142412,6,0,P|292:195|250:52,1,218.399993334961,6|0,1:2|0:0,0:0:0:0:
59,19,143930,5,0,1:2:0:0:
59,19,144011,1,0,1:2:0:0:
59,19,144093,2,0,P|17:53|40:170,1,181.831481481482,6|0,1:2|1:2,0:0:0:0:
154,259,144593,1,0,1:2:0:0:
222,178,144759,2,0,P|180:162|135:141,1,91,8|4,0:0|1:1,0:0:0:0:
11,299,145093,6,0,P|66:323|157:382,1,136.845,2|0,1:2|0:0,0:0:0:0:
152,375,145422,2,0,P|164:345|182:319,1,45.0000000000002,8|8,0:0|0:0,0:0:0:0:
97,229,145587,1,8,0:0:0:0:
97,229,145669,1,8,0:0:0:0:
97,229,145752,2,0,P|85:199|67:173,1,45.0000000000002,0|0,1:2|1:3,0:0:0:0:
161,72,145917,2,0,P|191:84|217:102,1,45.0000000000002,0|0,1:3|1:3,0:0:0:0:
301,181,146082,1,8,1:3:0:0:
322,189,146164,1,8,1:3:0:0:
344,190,146246,1,8,1:3:0:0:
365,182,146329,1,8,1:3:0:0:
379,162,146411,6,0,P|364:102|348:39,1,91.0000000000003,4|0,1:1|0:0,0:0:0:0:
502,263,146744,2,0,P|444:258|362:353,1,170.625,14|0,0:0|0:0,0:0:0:0:
360,351,147077,1,0,1:2:0:0:
255,231,147244,1,0,1:2:0:0:
164,364,147411,2,0,P|217:343|273:327,1,100.1,8|0,0:0|1:2,0:0:0:0:
79,191,147744,5,2,0:0:0:0:
79,191,147911,1,0,1:2:0:0:
11,280,148077,2,0,P|89:283|186:212,1,200.200000000001,10|0,0:0|1:2,0:0:0:0:
45,86,148577,1,2,1:2:0:0:
208,6,148744,1,10,0:0:0:0:
156,129,148911,5,10,0:0:0:0:
156,129,148994,1,8,0:0:0:0:
156,129,149077,2,0,P|230:146|336:180,1,150.15,6|0,1:2|0:0,0:0:0:0:
311,178,149411,1,8,0:0:0:0:
463,71,149577,1,2,0:0:0:0:
390,21,149744,2,0,B|405:115|443:72|461:197,1,150.15,2|0,1:2|0:0,0:0:0:0:
453,168,150077,1,8,0:0:0:0:
403,333,150244,1,2,1:2:0:0:
485,273,150411,6,0,P|440:255|366:231,1,100.10000305481,2|0,0:0|1:2,0:0:0:0:
308,365,150742,2,0,P|361:349|407:330,1,100.10000305481,10|0,0:0|0:0,0:0:0:0:
272,175,151073,2,0,P|287:224|306:270,1,100.10000305481,2|0,1:2|1:2,0:0:0:0:
190,375,151405,1,10,0:0:0:0:
86,264,151571,1,2,0:3:0:0:
86,264,151654,1,2,0:3:0:0:
86,264,151736,6,0,P|140:251|190:233,1,100.1,0|2,1:2|1:2,0:0:0:0:
33,353,152069,2,0,P|-4:298|10:196,1,150.15,8|0,0:0|0:0,0:0:0:0:
4,205,152402,1,0,1:2:0:0:
103,64,152569,2,0,P|118:110|133:170,1,100.1,2|8,1:2|0:0,0:0:0:0:
13,102,152902,1,2,1:2:0:0:
138,182,153069,5,10,0:0:0:0:
212,216,153236,1,0,1:2:0:0:
304,35,153402,5,10,0:0:0:0:
230,69,153569,1,0,1:2:0:0:
373,209,153736,6,0,P|394:156|415:101,1,100.1,10|0,0:0|1:2,0:0:0:0:
482,285,154069,1,8,0:3:0:0:
482,285,154152,1,8,0:3:0:0:
482,285,154235,1,8,0:3:0:0:
482,285,154319,1,8,0:3:0:0:
482,285,154403,6,0,B|349:330|349:330|348:362|326:384,1,200.200006109619,6|8,1:2|0:0,0:0:0:0:
178,294,154908,1,0,0:0:0:0:
247,226,155077,2,0,P|265:283|276:329,1,100.10000305481,0|0,1:2|1:2,0:0:0:0:
104,369,155414,2,0,P|86:312|76:263,1,100.10000305481,8|2,0:0|1:2,0:0:0:0:
7,118,155751,6,0,P|62:67|140:78,1,150.150004582214,2|0,0:0|0:0,0:0:0:0:
148,79,156086,2,0,P|137:132|126:182,1,100.10000305481,10|0,0:0|0:0,0:0:0:0:
194,295,156421,1,2,1:2:0:0:
255,226,156588,1,0,1:2:0:0:
129,177,156756,1,10,0:0:0:0:
266,42,156924,5,2,0:3:0:0:
266,42,157007,1,2,0:3:0:0:
266,42,157091,2,0,B|332:55|310:86|379:108,1,122.171270718233,6|0,1:2|0:0,0:0:0:0:
481,82,157422,2,0,B|450:66|392:89|395:133|403:132|397:184|335:207|283:172,1,217.193370165747,10|2,0:0|1:2,0:0:0:0:
442,317,157919,1,2,1:2:0:0:
495,261,158085,2,0,P|482:206|472:152,1,99.5469613259671,8|2,0:0|1:2,0:0:0:0:
359,300,158416,5,2,0:0:0:0:
503,384,158577,1,0,1:2:0:0:
359,300,158738,2,0,B|299:318|299:318|284:366|284:366|202:386,1,182,10|0,0:0|1:2,0:0:0:0:
115,234,159229,1,2,1:2:0:0:
201,287,159398,1,10,0:0:0:0:
96,378,159566,5,10,0:0:0:0:
96,378,159650,1,8,0:0:0:0:
96,378,159735,2,0,B|81:291|33:334|12:215,1,150.150004582214,6|0,1:2|0:0,0:0:0:0:
19,240,160075,1,8,0:0:0:0:
135,85,160246,1,2,0:0:0:0:
78,25,160416,2,0,P|40:58|58:153,1,150.150004582214,2|0,1:2|0:0,0:0:0:0:
68,157,160757,1,8,0:0:0:0:
228,68,160928,1,2,1:2:0:0:
326,240,161098,6,0,P|262:252|197:204,1,150.150004582214,2|0,0:0|0:0,0:0:0:0:
186,189,161425,2,0,P|201:140|223:69,1,100.10000305481,10|0,0:0|0:0,0:0:0:0:
339,17,161753,2,0,P|354:64|374:119,1,100.10000305481,2|0,1:2|1:2,0:0:0:0:
460,300,162081,1,10,0:0:0:0:
511,231,162245,1,2,0:3:0:0:
511,231,162327,1,2,0:3:0:0:
511,231,162409,6,0,P|451:204|355:230,1,150.15,0|0,1:2|0:0,0:0:0:0:
353,230,162742,2,0,P|366:286|375:346,1,100.1,12|2,0:1|1:2,0:0:0:0:
260,373,163075,1,12,0:1:0:0:
200,318,163242,1,0,1:2:0:0:
241,253,163409,1,2,1:2:0:0:
109,383,163575,6,0,P|94:325|54:188,1,200.200000000001,12|0,0:0|1:2,0:0:0:0:
143,53,164075,1,10,0:0:0:0:
210,109,164242,1,8,0:0:0:0:
210,109,164325,1,8,0:0:0:0:
210,109,164409,2,0,P|196:151|181:176,1,50.0500000000002,8|8,0:0|0:0,0:0:0:0:
79,103,164575,2,0,P|65:61|50:36,1,50.0500000000002,8|8,0:0|0:0,0:0:0:0:
247,14,164742,1,8,1:3:0:0:
270,21,164825,1,8,1:3:0:0:
293,28,164909,1,8,1:3:0:0:
317,35,164992,1,8,1:3:0:0:
340,44,165075,6,0,B|324:136|288:104|271:201,2,154.700000000001,4|10|2,1:2|0:1|1:1,0:0:0:0:
447,151,165909,1,0,1:0:0:0:
447,151,166075,2,0,P|402:166|362:188,1,77.3500000000005,10|0,0:1|0:0,0:0:0:0:
315,294,166409,6,0,P|355:330|465:330,2,154.700000000001,2|10|2,1:1|0:1|1:1,0:0:0:0:
405,263,167242,1,0,1:0:0:0:
283,384,167409,2,0,P|238:371|204:363,1,77.3500000000005,10|0,0:1|0:0,0:0:0:0:
20,241,167742,6,0,P|103:221|211:195,1,150.15,2|0,1:1|0:0,0:0:0:0:
185,202,168075,2,0,P|222:236|208:283,1,100.1,12|0,0:0|0:0,0:0:0:0:
74,60,168409,1,0,1:2:0:0:
142,4,168575,1,0,1:2:0:0:
101,146,168742,2,0,P|57:140|-19:131,1,100.1,12|2,0:0|0:0,0:0:0:0:
12,370,169075,6,0,P|56:364|132:355,1,100.1,10|0,0:0|1:2,0:0:0:0:
211,279,169409,1,10,0:0:0:0:
323,366,169579,1,8,0:0:0:0:
323,366,169664,1,8,0:0:0:0:
323,366,169749,2,0,P|329:330|342:285,1,45.5,8|8,0:0|0:0,0:0:0:0:
298,231,169920,2,0,P|292:195|278:156,1,45.5,8|8,0:0|0:0,0:0:0:0:
354,109,170090,1,8,0:3:0:0:
375,95,170176,1,8,0:3:0:0:
384,71,170261,1,8,0:3:0:0:
381,46,170346,1,8,0:3:0:0:
363,28,170431,6,0,L|320:44,1,36.4,8|8,1:3|1:3,0:0:0:0:
470,270,170764,6,0,B|524:226|529:152|450:104|405:181|429:213,1,218.400000000001,12|0,0:0|1:2,0:0:0:0:
342,291,171264,1,0,1:2:0:0:
461,362,171431,2,0,P|481:317|466:265,1,100.1,8|2,0:0|1:2,0:0:0:0:
316,177,171764,6,0,P|265:193|201:213,1,100.1,2|0,0:0|1:2,0:0:0:0:
74,301,172097,2,0,B|133:317|133:317|152:355|152:355|229:375,1,150.15,12|0,0:1|0:0,0:0:0:0:
213,369,172431,1,10,0:0:0:0:
132,220,172597,6,0,P|124:198|106:168,1,50.0500000000002,8|8,0:0|0:0,0:0:0:0:
25,125,172764,1,8,0:0:0:0:
44,95,172847,1,8,0:0:0:0:
74,77,172931,1,8,0:0:0:0:
109,73,173014,1,8,0:0:0:0:
143,79,173097,6,0,P|179:91|205:99,1,54.6000000000002,4|0,1:1|0:0,0:0:0:0:
281,0,173431,6,0,B|314:33|291:101|253:104|250:105|245:107|193:113|183:186|232:228,1,236.600000000001,12|2,0:0|1:2,0:0:0:0:
316,291,173931,1,0,1:2:0:0:
366,213,174097,1,8,0:0:0:0:
226,273,174264,1,2,1:2:0:0:
358,377,174431,2,0,P|419:384|511:289,1,200.200000000001,2|8,0:0|0:0,0:0:0:0:
366,213,174927,1,0,0:0:0:0:
469,133,175091,6,0,P|457:195|446:256,1,100.10000305481,2|0,1:2|1:2,0:0:0:0:
307,86,175419,1,10,0:0:0:0:
399,28,175583,1,8,0:0:0:0:
409,44,175665,1,8,0:0:0:0:
404,63,175747,5,6,1:2:0:0:
374,140,175913,1,2,0:0:0:0:
298,172,176080,1,10,0:0:0:0:
226,129,176247,1,2,0:0:0:0:
118,254,176413,6,0,P|167:232|222:217,1,100.1,2|0,1:2|1:2,0:0:0:0:
237,118,176747,5,10,0:0:0:0:
175,66,176913,1,2,1:2:0:0:
238,15,177080,5,2,0:0:0:0:
159,73,177247,1,2,1:2:0:0:
12,36,177413,6,0,P|67:19|118:2,1,100.1,10|0,0:0|0:0,0:0:0:0:
139,157,177747,2,0,P|91:172|43:187,1,100.1,2|0,1:2|1:2,0:0:0:0:
0,340,178080,6,0,P|62:322|191:403,1,200.200000000001,10|0,0:0|1:2,0:0:0:0:
326,244,178580,1,0,1:2:0:0:
233,212,178747,2,0,P|250:277|263:328,1,100.1,10|0,0:0|0:0,0:0:0:0:
392,368,179080,2,0,P|423:338|409:276,1,100.1,2|0,1:2|1:2,0:0:0:0:
344,161,179413,2,0,P|313:131|325:71,1,100.10000305481,10|0,0:0|0:0,0:0:0:0:
505,84,179748,5,2,1:2:0:0:
445,129,179915,1,0,1:2:0:0:
331,64,180083,2,0,B|278:47|278:47|264:15|264:15|197:1,1,150.150004582214,8|0,0:0|0:0,0:0:0:0:
185,11,180418,5,2,1:2:0:0:
110,150,180583,1,0,1:2:0:0:
46,83,180749,2,0,P|74:73|103:62,1,45.5,8|8,1:3|1:3,0:0:0:0:
205,112,180915,1,8,1:3:0:0:
205,112,180998,1,8,1:3:0:0:
205,112,181080,6,0,P|194:185|181:288,1,150.15,6|0,1:2|0:0,0:0:0:0:
182,280,181413,2,0,P|137:268|68:254,1,100.1,8|2,0:0|0:0,0:0:0:0:
17,384,181746,2,0,P|65:373|114:360,1,100.1,8|0,0:0|1:2,0:0:0:0:
267,224,182080,1,10,0:0:0:0:
267,224,182246,1,0,1:2:0:0:
364,361,182413,6,0,P|423:382|496:332,1,150.15,10|0,0:0|0:0,0:0:0:0:
495,321,182746,2,0,P|475:269|453:216,1,100.1,10|2,0:0|1:2,0:0:0:0:
394,94,183080,2,0,P|375:140|357:187,1,100.1,8|0,0:0|1:2,0:0:0:0:
499,102,183413,1,10,0:0:0:0:
325,12,183580,1,0,1:2:0:0:
325,12,183663,1,0,1:0:0:0:
325,12,183746,6,0,B|244:36|276:71|179:96,1,150.15,14|0,0:0|0:0,0:0:0:0:
184,93,184080,2,0,P|165:43|135:-2,1,100.1,10|0,0:0|0:0,0:0:0:0:
26,101,184413,2,0,P|-2:154|-9:207,1,100.1,10|0,0:0|1:2,0:0:0:0:
106,281,184746,1,10,0:0:0:0:
153,220,184913,1,0,1:2:0:0:
248,384,185080,6,0,P|201:366|147:346,1,100.1,10|0,0:0|0:0,0:0:0:0:
49,256,185413,2,0,P|96:238|150:218,1,100.1,10|0,0:0|1:2,0:0:0:0:
283,132,185746,5,10,0:0:0:0:
345,176,185913,1,0,1:2:0:0:
284,248,186080,5,8,1:3:0:0:
266,258,186246,1,8,1:3:0:0:
379,331,186413,6,0,P|435:348|518:382,2,136.500000000001,6|2|12,1:2|1:0|0:0,0:0:0:0:
487,144,187413,2,0,P|502:112|501:66,1,68.2500000000004,2|8,0:0|0:0,0:0:0:0:
432,17,187746,5,2,0:1:0:0:
416,24,187914,1,2,0:0:0:0:
342,69,188083,5,2,1:3:0:0:
326,62,188251,1,2,0:0:0:0:
179,9,188420,6,0,B|189:75|219:53|225:148,1,136.500005207062,14|8,0:0|0:0,0:0:0:0:
177,242,188925,5,8,0:0:0:0:
177,242,189010,1,8,0:0:0:0:
177,242,189094,2,0,P|196:187|330:204,2,182.000000000001,6|8|0,1:2|0:0|1:2,0:0:0:0:
34,88,189927,1,0,0:0:0:0:
119,40,190094,2,0,P|121:89|98:153,1,91.0000000000003,10|2,0:2|0:0,0:0:0:0:
19,282,190427,5,0,1:2:0:0:
19,263,190510,1,0,1:2:0:0:
33,251,190594,1,0,1:2:0:0:
50,248,190677,1,0,1:2:0:0:
66,255,190760,2,0,P|114:267|185:290,1,91.0000000000003,4|0,1:1|1:2,0:0:0:0:
254,366,191094,5,8,0:0:0:0:
280,373,191177,1,8,0:0:0:0:
307,371,191260,1,8,0:0:0:0:
331,358,191344,1,8,0:0:0:0:
353,342,191427,2,0,P|348:315|335:280,1,45.5000000000001,8|8,0:0|0:0,0:0:0:0:
415,230,191594,2,0,P|420:203|433:168,1,45.5000000000001,8|8,0:0|0:0,0:0:0:0:
350,113,191760,5,6,1:2:0:0:
498,27,191927,1,2,0:0:0:0:
350,113,192094,2,0,P|300:130|219:65,1,136.5,10|0,0:0|0:0,0:0:0:0:
223,75,192427,1,0,1:2:0:0:
94,14,192594,2,0,P|118:68|132:119,1,91.0000000000003,2|8,1:2|0:0,0:0:0:0:
38,205,192927,6,0,B|134:181|127:234|227:200,1,182.000000000001,2|0,0:0|1:2,0:0:0:0:
72,308,193427,1,10,0:0:0:0:
150,372,193594,1,0,1:0:0:0:
150,372,193677,1,8,0:0:0:0:
150,372,193760,2,0,P|165:323|155:279,1,91.0000000000003,2|2,1:2|1:2,0:0:0:0:
264,170,194093,2,0,P|257:214|271:257,1,91.0000000000003,8|0,0:0|0:0,0:0:0:0:
339,374,194427,6,0,B|402:352|402:352|450:373|450:373|530:349,2,182.000000000001,2|10|2,1:2|0:0|1:2,0:0:0:0:
465,242,195260,1,0,1:2:0:0:
341,178,195427,2,0,P|365:244|377:295,1,91.0000000000003,10|0,0:0|1:2,0:0:0:0:
484,114,195760,6,0,P|437:100|371:77,1,91.0000000000003,2|0,0:0|1:2,0:0:0:0:
234,20,196093,1,10,0:0:0:0:
291,106,196260,2,0,P|316:55|343:13,1,91.0000000000003,2|8,1:2|0:0,0:0:0:0:
187,123,196593,1,2,0:0:0:0:
60,25,196760,1,8,0:0:0:0:
37,40,196844,1,8,0:0:0:0:
26,65,196927,1,8,0:0:0:0:
26,92,197010,1,8,0:0:0:0:
40,114,197093,5,6,1:2:0:0:
256,192,197177,12,0,207760,0:0:0:0:
