osu file format v14

[General]
AudioFilename: audio.ogg
AudioLeadIn: 0
PreviewTime: 142162
Countdown: 0
SampleSet: Soft
StackLeniency: 0.4
Mode: 0
LetterboxInBreaks: 0
WidescreenStoryboard: 1

[Editor]
DistanceSpacing: 0.3
BeatDivisor: 4
GridSize: 8
TimelineZoom: 1.6

[Metadata]
Title:Kitakaze
TitleUnicode:キタカゼ
Artist:SIX LOUNGE
ArtistUnicode:SIX LOUNGE
Creator:Hinae
Version:Hard
Source:僕のヒーローアカデミア
Tags:my boku no hero academia 第6期 6th season 6 heroaca japanese rock anime j-rock jrock full version male vocal six sixth ending ed bnha mha ナガマツシンタロウ ヤマグチユウモリ Nagamatsu Shintarou Yamaguchi Koumori Iwao Riku イワオリク
BeatmapID:4065916
BeatmapSetID:1931084

[Difficulty]
HPDrainRate:4
CircleSize:3.5
OverallDifficulty:6.3
ApproachRate:8
SliderMultiplier:1.42
SliderTickRate:1

[Events]
//Background and Video events
0,0,"27cc412bf32b61be4ddbe0d25af3ec4117abc198_s2_n1.jpg",0,0
//Break Periods
2,119958,127007
//Storyboard Layer 0 (Background)
//Storyboard Layer 1 (Fail)
//Storyboard Layer 2 (Pass)
//Storyboard Layer 3 (Foreground)
//Storyboard Layer 4 (Overlay)
//Storyboard Sound Samples

[TimingPoints]
1080,333.333333333333,4,2,1,20,1,0
1080,-100,4,2,1,20,0,0
4413,337.078651685393,4,2,1,60,1,0
4413,-100,4,2,1,60,0,0
5087,329.67032967033,4,2,1,70,1,0
5087,-100,4,2,1,70,0,0
5581,-101.010101010101,4,2,1,70,0,0
5746,326.086956521739,4,2,1,70,1,0
6072,333.333333333333,4,2,1,70,1,0
6405,333.333333333333,4,2,1,70,1,0
6405,-100,4,2,1,70,0,0
8404,338.983050847458,4,2,1,70,1,0
9081,333.333333333333,4,2,1,70,1,0
9414,-100,4,2,1,70,0,0
10414,335.195530726257,4,2,1,70,1,0
10414,-144.927536231884,4,2,1,70,0,0
11754,-144.927536231884,4,2,1,30,0,0
13095,324.324324324324,4,2,1,50,1,0
13095,-117.647058823529,4,2,1,50,0,0
14392,337.078651685393,4,2,1,50,1,0
14729,-117.647058823529,4,2,1,50,0,0
15740,335.195530726257,4,2,1,50,1,0
15740,-117.647058823529,4,2,1,50,0,0
18421,329.67032967033,4,2,1,50,1,0
18421,-117.647058823529,4,2,1,50,0,0
19739,333.333333333333,4,2,1,50,1,0
19739,-117.647058823529,4,2,1,50,0,0
26072,357.142857142857,4,2,1,50,1,0
26429,315.789473684211,4,2,1,50,1,0
26429,-133.333333333333,4,2,1,50,0,0
26902,348.837209302326,4,2,1,50,1,0
26902,-133.333333333333,4,2,1,50,0,0
27774,-126.582278481013,4,2,1,50,0,0
27948,320.855614973262,4,2,1,50,1,0
28268,-133.333333333333,4,2,1,50,0,0
28589,319.148936170213,4,2,1,50,1,0
29093,322.58064516129,4,2,1,50,1,0
29093,-133.333333333333,4,2,1,50,0,0
29576,329.67032967033,4,2,1,50,1,0
29576,-133.333333333333,4,2,1,50,0,0
30086,333.333333333333,4,2,1,50,1,0
30419,-133.333333333333,4,2,1,50,0,0
31086,338.983050847458,4,2,1,50,1,0
31424,-133.333333333333,4,2,1,50,0,0
31763,333.333333333333,4,2,1,60,1,0
31763,-111.111111111111,4,2,1,60,0,0
33096,331.491712707182,4,2,1,60,1,0
33261,-111.111111111111,4,2,1,60,0,0
34421,333.333333333333,4,2,1,70,1,0
34421,-111.111111111111,4,2,1,70,0,0
35587,-133.333333333333,4,2,1,70,0,0
36420,-133.333333333333,4,2,1,20,0,0
36754,-100,4,2,1,70,0,0
37087,-90.9090909090909,4,2,1,80,0,1
57087,335.195530726257,4,2,1,80,1,1
57422,-90.9090909090909,4,2,1,80,0,1
58092,329.67032967033,4,2,1,80,1,1
58421,333.333333333333,4,2,1,70,1,0
58421,-100,4,2,1,70,0,0
61421,329.67032967033,4,2,1,70,1,0
62739,333.333333333333,4,2,1,70,1,0
63739,344.827586206897,4,2,1,70,1,0
63739,-111.111111111111,4,2,1,70,0,0
64083,333.333333333333,4,2,1,80,1,1
64083,-90.9090909090909,4,2,1,80,0,1
65082,333.333333333333,4,2,1,80,1,1
65082,-90.9090909090909,4,2,1,80,0,1
75415,338.983050847458,4,2,1,80,1,1
75415,-90.9090909090909,4,2,1,80,0,1
76092,333.333333333333,4,2,1,80,1,1
76092,-90.9090909090909,4,2,1,80,0,1
77092,333.333333333333,4,2,1,80,1,1
77092,-90.9090909090909,4,2,1,80,0,1
78758,329.67032967033,4,2,1,80,1,1
79417,340.909090909091,4,2,1,80,1,1
79417,-90.9090909090909,4,2,1,80,0,1
79757,348.837209302326,4,2,1,60,1,0
79757,-117.647058823529,4,2,1,60,0,0
80454,333.333333333333,4,2,1,60,1,0
80454,-100,4,2,1,60,0,0
81120,319.148936170213,4,2,1,60,1,0
81120,-100,4,2,1,60,0,0
82077,342.857142857143,4,2,1,60,1,0
82077,-100,4,2,1,60,0,0
82419,333.333333333333,4,2,1,70,1,0
82419,-100,4,2,1,70,0,0
84419,329.67032967033,4,2,1,60,1,0
84419,-100,4,2,1,60,0,0
85078,340.909090909091,4,2,1,60,1,0
85418,-100,4,2,1,60,0,0
86271,333.333333333333,4,2,1,60,1,0
86604,-100,4,2,1,60,0,0
86771,342.857142857143,4,2,1,60,1,0
86771,-100,4,2,1,60,0,0
87113,327.868852459016,4,2,1,60,1,0
87113,-100,4,2,1,60,0,0
87768,340.909090909091,4,2,1,50,1,0
87768,-133.333333333333,4,2,1,50,0,0
88108,326.086956521739,4,2,1,50,1,0
88434,-133.333333333333,4,2,1,50,0,0
89086,331.491712707182,4,2,1,50,1,0
89086,-133.333333333333,4,2,1,50,0,0
90411,333.333333333333,4,2,1,50,1,0
90411,-117.647058823529,4,2,1,60,0,0
91744,335.195530726257,4,2,1,60,1,0
92079,-117.647058823529,4,2,1,60,0,0
95766,331.491712707182,4,2,1,60,1,0
95766,-117.647058823529,4,2,1,60,0,0
98417,333.333333333333,4,2,1,60,1,0
98417,-133.333333333333,4,2,1,60,0,0
99417,359.281437125748,4,2,1,60,1,0
99417,-133.333333333333,4,2,1,60,0,0
99776,324.324324324324,4,2,1,60,1,0
100100,-133.333333333333,4,2,1,60,0,0
100424,329.67032967033,4,2,1,60,1,0
100424,-133.333333333333,4,2,1,60,0,0
101083,335.195530726257,4,2,1,60,1,0
101083,-133.333333333333,4,2,1,60,0,0
102423,331.491712707182,4,2,1,60,1,0
103251,-133.333333333333,4,2,1,60,0,0
103748,-111.111111111111,4,2,1,60,0,0
106400,-111.111111111111,4,2,1,70,0,0
107561,368.098159509202,4,2,1,70,1,0
107929,320.855614973262,4,2,1,70,1,0
108089,326.086956521739,4,2,1,70,1,0
108741,337.078651685393,4,2,1,70,1,0
109078,333.333333333333,4,2,1,70,1,0
109078,-111.111111111111,4,2,1,80,0,0
109411,-100,4,2,1,80,0,0
109744,342.857142857143,4,2,1,80,1,0
110430,333.333333333333,4,2,1,80,1,0
111096,327.868852459016,4,2,1,80,1,0
111751,333.333333333333,4,2,1,80,1,0
112417,338.983050847458,4,2,1,80,1,0
113094,333.333333333333,4,2,1,80,1,0
114427,329.67032967033,4,2,1,80,1,0
115086,326.086956521739,4,2,1,80,1,0
115249,-101.010101010101,4,2,1,80,0,0
115412,333.333333333333,4,2,1,80,1,0
115745,335.195530726257,4,2,1,80,1,0
117085,333.333333333333,4,2,1,80,1,0
118418,335.195530726257,4,2,1,80,1,0
119758,333.333333333333,4,2,1,80,1,0
127757,-117.647058823529,4,2,1,50,0,0
131758,327.868852459016,4,2,1,50,1,0
131758,-117.647058823529,4,2,1,50,0,0
132741,346.820809248555,4,2,1,50,1,0
133087,335.195530726257,4,2,1,50,1,0
133087,-117.647058823529,4,2,1,50,0,0
134427,324.324324324324,4,2,1,50,1,0
134427,-117.647058823529,4,2,1,50,0,0
135724,333.333333333333,4,2,1,60,1,0
135724,-100,4,2,1,60,0,0
137057,338.983050847458,4,2,1,60,1,0
138243,-100,4,2,1,60,0,0
138412,333.333333333333,4,2,1,70,1,0
138412,-117.647058823529,4,2,1,70,0,0
140245,-100,4,2,1,70,0,0
141078,-100,4,2,1,80,0,0
141745,-100,4,2,1,80,0,0
142412,-142.857142857143,4,2,1,80,0,0
143078,-142.857142857143,4,2,1,20,0,0
143930,326.086956521739,4,2,1,80,1,0
144093,333.333333333333,4,2,1,80,1,0
144093,-100,4,2,1,80,0,0
145093,329.67032967033,4,2,1,80,1,0
145093,-100,4,2,1,80,0,0
145422,-100,4,2,1,80,0,0
146411,333.333333333333,4,2,1,80,1,0
146411,-90.9090909090909,4,2,1,90,0,1
150411,331.491712707182,4,2,1,90,1,1
150411,-90.9090909090909,4,2,1,90,0,1
151736,333.333333333333,4,2,1,90,1,1
151736,-90.9090909090909,4,2,1,90,0,1
154403,337.078651685393,4,2,1,90,1,1
154403,-90.9090909090909,4,2,1,90,0,1
155751,335.195530726257,4,2,1,90,1,1
155751,-90.9090909090909,4,2,1,90,0,1
157091,331.491712707182,4,2,1,90,1,1
157091,-90.9090909090909,4,2,1,90,0,1
158416,322.58064516129,4,2,1,90,1,1
158416,-90.9090909090909,4,2,1,90,0,1
159061,337.078651685393,4,2,1,90,1,1
159735,340.909090909091,4,2,1,90,1,1
159735,-90.9090909090909,4,2,1,90,0,1
161098,327.868852459016,4,2,1,90,1,1
161098,-90.9090909090909,4,2,1,90,0,1
162409,333.333333333333,4,2,1,90,1,1
162409,-90.9090909090909,4,2,1,90,0,1
165075,-100,4,2,1,80,0,0
169409,340.909090909091,4,2,1,80,1,0
170431,333.333333333333,4,2,1,80,1,0
170431,-111.111111111111,4,2,1,80,0,0
170764,-90.9090909090909,4,2,1,90,0,1
173097,-90.9090909090909,4,2,1,90,0,0
173431,-90.9090909090909,4,2,1,90,0,1
174764,327.868852459016,4,2,1,90,1,1
175091,-90.9090909090909,4,2,1,90,0,1
175747,333.333333333333,4,2,1,90,1,1
175747,-90.9090909090909,4,2,1,90,0,1
179413,335.195530726257,4,2,1,90,1,1
179413,-90.9090909090909,4,2,1,90,0,1
180418,331.491712707182,4,2,1,90,1,1
180418,-90.9090909090909,4,2,1,90,0,1
181080,333.333333333333,4,2,1,90,1,1
181080,-90.9090909090909,4,2,1,90,0,1
186413,-117.647058823529,4,2,1,80,0,0
187746,337.078651685393,4,2,1,80,1,0
187914,-117.647058823529,4,2,1,80,0,0
189094,333.333333333333,4,2,1,80,1,0
189094,-100,4,2,1,80,0,0
191760,-100,4,2,1,70,0,0
197760,-100,4,2,1,68,0,0
198427,-100,4,2,1,66,0,0
199093,-100,4,2,1,64,0,0
199760,-100,4,2,1,62,0,0
200427,-100,4,2,1,60,0,0
201093,-100,4,2,1,58,0,0
201760,-100,4,2,1,56,0,0
202427,-100,4,2,1,54,0,0
203093,-100,4,2,1,52,0,0
203760,-100,4,2,1,50,0,0
204427,-100,4,2,1,48,0,0
205093,-100,4,2,1,46,0,0
205760,-100,4,2,1,40,0,0
206427,-100,4,2,1,30,0,0
207093,-100,4,2,1,20,0,0
207427,-100,4,2,1,10,0,0
207760,-100,4,2,1,5,0,0

[Colours]
Combo1 : 255,128,128
Combo2 : 128,255,128
Combo3 : 255,255,128
Combo4 : 255,149,98
Combo5 : 94,174,255

[HitObjects]
66,25,4413,6,0,P|53:28|25:36,2,35.5,8|8|8,0:0|1:3|1:3,0:0:0:0:
144,73,4750,1,12,0:0:0:0:
144,73,5087,6,0,P|134:116|127:152,1,70.2197802197804,6|2,1:2|0:0,0:0:0:0:
69,214,5416,1,10,0:0:0:0:
69,214,5581,2,0,P|119:187|209:219,1,139.87,2|2,0:0|1:2,0:0:0:0:
261,275,6072,2,0,P|250:312|235:362,1,71,8|2,0:0|1:2,0:0:0:0:
336,380,6405,6,0,P|373:370|415:361,1,71,2|0,1:2|1:2,0:0:0:0:
429,271,6738,2,0,P|394:278|354:287,1,71,10|0,0:0|0:0,0:0:0:0:
325,210,7071,1,2,1:2:0:0:
325,210,7238,2,0,P|335:170|346:133,1,71,0|8,0:0|0:0,0:0:0:0:
291,64,7571,1,8,0:0:0:0:
291,64,7654,1,8,0:0:0:0:
291,64,7738,6,0,P|343:102|435:102,2,142,6|10|2,1:2|0:0|1:2,0:0:0:0:
211,11,8573,1,0,1:2:0:0:
211,11,8742,2,0,P|169:22|133:33,1,71.0000000000002,10|0,0:0|1:2,0:0:0:0:
68,85,9081,6,0,B|81:165|121:128|130:229,1,142,2|10,0:0|0:0,0:0:0:0:
33,369,9747,2,0,P|23:328|6:283,1,71,8|8,1:3|1:3,0:0:0:0:
49,215,10080,1,8,0:0:0:0:
138,265,10247,1,8,1:3:0:0:
138,265,10330,1,8,1:3:0:0:
138,265,10414,6,0,B|192:226|272:277|232:334|301:368|364:378|462:311|368:195|301:260,1,391.920000598022,2|0,0:0|0:0,0:0:0:0:
383,43,13095,6,0,P|435:35|493:85,2,120.70000230217,6|10|2,1:2|0:0|1:2,0:0:0:0:
312,100,13905,1,0,1:2:0:0:
312,100,14067,2,0,P|318:139|332:238,1,120.70000230217,10|2,0:0|0:3,0:0:0:0:
446,358,14729,2,0,P|474:346|526:331,1,60.3500011510849,10|0,0:0|0:0,0:0:0:0:
480,249,15066,2,0,P|451:257|419:271,1,60.3500011510849,2|0,1:2|1:2,0:0:0:0:
349,322,15403,2,0,P|304:331|249:297,1,90.5250017266274,10|0,0:0|0:0,0:0:0:0:
256,304,15740,6,0,P|268:257|288:168,2,120.70000230217,2|8|2,1:2|0:0|1:2,0:0:0:0:
191,368,16577,1,0,1:2:0:0:
191,368,16745,2,0,P|154:357|106:351,1,60.3500011510849,10|0,0:0|1:2,0:0:0:0:
46,381,17080,2,0,P|15:345|32:259,1,120.70000230217,8|8,0:3|0:0,0:0:0:0:
89,216,17583,1,0,0:0:0:0:
89,216,17751,2,0,P|96:177|105:135,1,60.3500011510849,2|0,1:2|1:2,0:0:0:0:
26,103,18086,2,0,P|19:64|10:29,1,60.3500011510849,10|2,0:0|0:3,0:0:0:0:
97,5,18421,6,0,B|161:12|150:46|235:52,1,120.70000230217,2|10,1:2|0:0,0:0:0:0:
276,117,18915,1,0,0:0:0:0:
276,117,19080,2,0,P|265:170|248:258,1,120.70000230217,2|10,1:2|0:0,0:0:0:0:
179,289,19574,1,0,1:2:0:0:
237,358,19739,2,0,P|274:348|322:335,1,60.3500011510849,2|0,0:3|1:2,0:0:0:0:
355,274,20072,2,0,P|392:284|439:296,1,60.3500011510849,10|0,0:0|0:0,0:0:0:0:
488,238,20405,2,0,B|465:170|518:186|481:101,1,120.7,2|10,1:2|0:0,0:0:0:0:
433,26,20905,5,2,0:3:0:0:
433,26,20989,1,2,0:3:0:0:
433,26,21072,2,0,B|367:56|367:56|357:87|386:109,1,120.70000230217,2|8,1:2|0:0,0:0:0:0:
217,199,21738,2,0,P|209:168|194:129,1,60.3500000000002,2|2,1:2|1:2,0:0:0:0:
260,74,22072,1,10,0:0:0:0:
260,74,22238,1,0,1:2:0:0:
188,19,22405,6,0,P|136:18|81:68,2,120.7,2|8|2,0:3|0:0|1:2,0:0:0:0:
260,74,23238,1,0,1:2:0:0:
260,74,23405,2,0,P|294:83|332:95,1,60.3500000000002,10|0,0:0|0:0,0:0:0:0:
353,174,23738,6,0,P|336:211|323:249,1,60.3500000000002,2|2,1:2|0:0,0:0:0:0:
255,281,24072,2,0,P|272:318|285:356,1,60.3500000000002,10|2,0:0|0:0,0:0:0:0:
198,379,24405,1,2,1:2:0:0:
198,379,24572,2,0,P|160:368|123:357,1,60.3500000000002,2|8,0:0|0:0,0:0:0:0:
63,313,24905,6,0,P|91:273|172:270,1,120.7,2|2,1:2|1:2,0:0:0:0:
210,189,25405,2,0,P|199:151|171:57,1,120.7,10|0,0:0|1:2,0:0:0:0:
103,18,25905,1,0,1:2:0:0:
36,80,26072,1,12,0:1:0:0:
36,80,26429,6,0,P|81:69|127:120,1,106.500004062653,4|8,1:2|0:3,0:0:0:0:
168,178,26902,2,0,P|213:189|264:135,1,106.500004062653,8|8,0:0|0:3,0:0:0:0:
306,84,27425,2,0,P|300:58|288:24,1,53.2500020313264,8|2,1:3|0:1,0:0:0:0:
374,5,27774,2,0,P|387:48|405:131,1,107.458504062653,2|8,1:1|1:3,0:0:0:0:
466,163,28268,2,0,P|453:205|435:290,1,106.500004062653,8|8,0:3|0:3,0:0:0:0:
495,331,28748,1,8,1:3:0:0:
495,331,28908,1,8,1:3:0:0:
423,374,29093,6,0,P|395:366|358:357,2,53.2500020313264,8|8|8,0:3|0:3|0:3,0:0:0:0:
355,266,29576,2,0,P|307:281|232:302,1,106.500004062653,12|8,0:1|1:3,0:0:0:0:
191,357,30086,1,8,0:3:0:0:
191,357,30419,2,0,P|152:353|118:351,1,53.2500020313264,0|8,1:2|0:3,0:0:0:0:
73,294,30752,2,0,P|34:298|2:301,1,53.2500000000001,8|8,1:3|0:3,0:0:0:0:
35,207,31086,1,8,0:3:0:0:
32,199,31170,1,8,0:3:0:0:
29,191,31255,1,8,0:3:0:0:
83,126,31424,2,0,P|90:92|99:51,1,53.2500020313264,8|8,1:3|1:3,0:0:0:0:
45,0,31763,6,0,P|81:39|175:27,1,127.799996099854,6|8,1:2|0:0,0:0:0:0:
226,105,32263,1,0,1:2:0:0:
226,105,32429,2,0,P|214:156|195:242,1,127.799996099854,12|0,0:1|1:2,0:0:0:0:
253,301,32929,1,8,1:3:0:0:
253,301,33261,1,8,0:0:0:0:
319,241,33427,2,0,P|351:251|384:262,1,63.8999980499268,8|8,1:3|1:3,0:0:0:0:
466,283,33758,2,0,P|476:251|489:219,1,63.8999980499268,10|0,0:0|1:1,0:0:0:0:
443,144,34090,2,0,L|437:98,3,31.9499990249634,8|8|8|8,0:0|0:0|0:0|0:0,0:0:0:0:
432,67,34421,6,0,B|409:49|388:48|388:48|355:76|303:69,1,127.799996099854,6|2,1:2|1:2,0:0:0:0:
168,175,35087,1,2,1:2:0:0:
94,123,35254,1,8,1:3:0:0:
32,187,35421,1,8,1:3:0:0:
32,187,35504,1,8,1:3:0:0:
32,187,35587,2,0,B|-49:273|-5:359|75:372|110:283|59:254,1,266.250000000001,6|0,1:2|0:0,0:0:0:0:
168,175,36754,6,0,P|189:178|224:191,3,35.5,8|8|8|8,0:0|0:0|0:0|0:0,0:0:0:0:
224,191,37087,6,0,P|285:202|344:160,1,117.15,6|0,1:2|0:0,0:0:0:0:
337,166,37420,2,0,P|326:122|316:79,1,78.1,8|0,0:0|0:0,0:0:0:0:
404,50,37754,2,0,P|412:88|422:125,1,78.1,0|0,1:2|1:2,0:0:0:0:
501,176,38087,1,8,0:0:0:0:
501,176,38254,1,2,1:2:0:0:
433,240,38420,6,0,P|390:240|321:300,1,117.15,2|0,0:0|0:0,0:0:0:0:
321,294,38754,2,0,P|334:341|344:378,1,78.1,10|0,0:0|0:0,0:0:0:0:
247,369,39087,2,0,P|236:331|226:293,1,78.1,2|0,1:2|1:2,0:0:0:0:
269,210,39420,1,10,0:0:0:0:
188,161,39587,1,2,0:3:0:0:
119,225,39754,6,0,P|65:241|7:209,1,117.15,2|0,1:2|0:0,0:0:0:0:
5,198,40087,2,0,P|15:138|35:17,1,156.2,10|2,0:0|1:2,0:0:0:0:
114,1,40587,1,2,1:2:0:0:
114,1,40754,1,8,0:0:0:0:
190,54,40920,2,0,B|248:37|248:37|296:54|296:54|345:42,1,156.2,2|0,1:2|1:2,0:0:0:0:
425,81,41420,2,0,B|473:104|464:159|464:159|417:176|414:222,1,156.2,10|0,0:0|1:2,0:0:0:0:
500,245,41920,5,2,1:2:0:0:
425,302,42087,1,10,0:0:0:0:
497,367,42254,1,8,0:0:0:0:
497,367,42337,1,8,0:0:0:0:
497,367,42420,6,0,P|439:349|338:340,1,156.2,6|8,1:2|0:0,0:0:0:0:
271,281,42920,1,2,0:0:0:0:
202,344,43087,2,0,P|161:326|66:383,1,156.2,2|8,1:2|0:0,0:0:0:0:
9,302,43587,1,2,1:2:0:0:
74,235,43754,6,0,P|66:197|52:139,1,78.1,2|0,0:0|1:2,0:0:0:0:
7,79,44087,2,0,P|68:64|131:104,1,117.15,10|0,0:0|0:0,0:0:0:0:
124,94,44420,1,2,1:2:0:0:
202,44,44587,1,0,1:2:0:0:
281,98,44754,2,0,P|267:143|258:192,1,78.1,10|2,0:0|0:3,0:0:0:0:
260,173,45004,1,2,0:3:0:0:
260,173,45087,5,0,1:2:0:0:
200,245,45254,1,2,0:0:0:0:
265,311,45420,2,0,P|306:297|349:289,1,78.1,8|2,0:0|0:0,0:0:0:0:
417,344,45754,2,0,P|438:300|403:220,1,117.15,0|0,1:2|0:0,0:0:0:0:
410,224,46087,1,8,0:0:0:0:
471,160,46254,1,2,1:2:0:0:
406,96,46420,6,0,P|363:111|316:130,1,78.1,10|0,0:0|1:2,0:0:0:0:
263,58,46754,2,0,P|220:43|173:24,1,78.1,10|0,0:0|1:2,0:0:0:0:
135,107,47087,2,0,P|92:122|45:141,1,78.1,10|0,0:0|1:2,0:0:0:0:
13,214,47420,1,8,0:3:0:0:
98,273,47587,5,8,0:3:0:0:
98,273,47670,1,8,0:3:0:0:
98,273,47754,2,0,P|143:264|213:326,1,117.15,6|0,1:2|0:0,0:0:0:0:
210,309,48087,2,0,P|248:298|306:284,1,78.1,8|0,0:0|0:0,0:0:0:0:
355,350,48420,2,0,P|393:361|451:375,1,78.1,0|0,1:2|1:2,0:0:0:0:
501,307,48754,1,8,0:0:0:0:
501,307,48920,1,2,1:2:0:0:
432,242,49087,6,0,B|461:174|476:211|510:123,1,117.15,2|0,0:0|0:0,0:0:0:0:
503,130,49420,2,0,P|462:120|419:102,1,78.1,10|0,0:0|0:0,0:0:0:0:
366,36,49754,2,0,P|325:46|282:64,1,78.1,2|0,1:2|1:2,0:0:0:0:
229,129,50087,1,10,0:0:0:0:
151,76,50254,1,2,0:3:0:0:
76,132,50420,6,0,P|93:176|118:269,1,117.15,6|0,1:2|0:0,0:0:0:0:
119,255,50754,2,0,P|165:240|255:302,1,156.2,10|2,0:0|1:2,0:0:0:0:
180,354,51254,1,2,1:2:0:0:
180,354,51420,2,0,P|135:369|89:383,1,78.1,8|2,0:0|1:2,0:0:0:0:
23,331,51754,2,0,P|31:289|42:233,1,78.1,2|0,0:0|1:2,0:0:0:0:
97,181,52087,2,0,B|136:114|136:114|80:93|43:63,1,156.2,10|0,0:0|1:2,0:0:0:0:
137,19,52587,5,2,1:2:0:0:
217,67,52754,1,10,0:0:0:0:
294,15,52920,1,10,0:0:0:0:
294,15,53004,1,8,0:0:0:0:
294,15,53087,2,0,B|325:104|355:60|388:155,1,156.2,6|8,1:2|0:0,0:0:0:0:
312,202,53587,1,2,0:0:0:0:
393,248,53754,2,0,P|328:242|263:313,1,156.2,2|8,1:2|0:0,0:0:0:0:
343,354,54254,1,2,1:2:0:0:
343,354,54420,6,0,P|383:362|434:377,1,78.1,2|0,0:0|1:2,0:0:0:0:
496,318,54754,2,0,P|491:259|481:172,1,117.15,10|0,0:0|0:0,0:0:0:0:
482,182,55087,2,0,P|442:188|394:194,1,78.1,2|0,1:2|1:2,0:0:0:0:
333,131,55420,1,10,0:0:0:0:
400,65,55587,1,2,0:3:0:0:
400,65,55670,1,2,0:3:0:0:
400,65,55754,6,0,P|358:38|281:44,1,117.15,0|0,1:2|0:0,0:0:0:0:
276,48,56087,2,0,B|219:35|219:35|181:54|181:54|114:38,1,156.2,12|12,0:1|0:1,0:0:0:0:
50,95,56587,1,0,1:2:0:0:
112,165,56754,1,2,1:2:0:0:
32,213,56920,6,0,P|90:208|168:265,1,156.668604766846,12|0,0:0|1:2,0:0:0:0:
215,343,57422,2,0,P|261:332|310:325,1,78.1000023834229,10|0,0:0|1:2,0:0:0:0:
358,259,57757,2,0,P|347:213|336:158,1,78.1000023834229,10|0,0:0|1:2,0:0:0:0:
392,104,58092,1,8,1:3:0:0:
392,104,58421,6,0,P|348:97|260:142,2,141.787,4|10|2,1:2|0:1|1:1,0:0:0:0:
466,159,59254,1,0,1:0:0:0:
466,159,59421,2,0,P|455:206|446:249,1,71,10|0,0:1|0:0,0:0:0:0:
382,291,59754,2,0,B|300:290|325:329|240:321,1,142,2|10,1:1|0:1,0:0:0:0:
170,374,60254,1,0,0:0:0:0:
170,374,60420,2,0,P|129:362|76:350,1,71,2|0,1:1|1:0,0:0:0:0:
30,295,60754,1,10,0:1:0:0:
156,160,61087,6,0,P|123:151|83:137,1,71,2|0,1:1|0:0,0:0:0:0:
9,89,61421,2,0,P|39:43|117:47,1,106.5,12|0,0:0|0:0,0:0:0:0:
102,44,61750,1,0,1:2:0:0:
184,2,61915,1,0,1:2:0:0:
254,62,62080,2,0,P|258:108|264:150,1,70.2197802197804,12|2,0:0|0:0,0:0:0:0:
261,132,62327,1,2,0:0:0:0:
261,132,62410,5,10,0:0:0:0:
206,206,62574,1,0,1:2:0:0:
275,266,62739,2,0,P|312:258|361:244,1,71,10|8,0:0|0:0,0:0:0:0:
427,289,63072,2,0,P|435:260|440:240,3,35.5,8|8|8|8,0:0|0:0|0:0|0:0,0:0:0:0:
459,214,63405,2,0,P|451:185|446:165,3,35.5,8|8|8|8,0:3|0:3|0:3|0:3,0:0:0:0:
467,136,63739,2,0,P|474:100|490:62,1,63.8999980499268,8|8,1:3|1:3,0:0:0:0:
383,4,64083,6,0,B|297:30|297:30|290:73|261:96,1,156.2,12|0,0:0|1:2,0:0:0:0:
221,161,64583,1,0,1:2:0:0:
221,161,64749,2,0,P|174:142|128:128,1,78.1,8|2,0:0|1:2,0:0:0:0:
77,66,65083,2,0,P|42:119|69:178,1,117.150003575134,2|0,0:0|0:0,0:0:0:0:
72,177,65415,2,0,P|58:230|48:275,1,78.1000023834229,10|0,0:0|0:0,0:0:0:0:
25,343,65748,2,0,P|62:352|100:362,1,78.1,2|0,1:2|1:2,0:0:0:0:
175,305,66082,1,8,0:0:0:0:
261,363,66248,5,8,0:0:0:0:
261,363,66332,1,8,0:0:0:0:
261,363,66415,2,0,P|306:380|399:318,1,156.2,6|8,1:2|0:0,0:0:0:0:
441,249,66915,1,2,0:0:0:0:
373,184,67082,2,0,P|383:145|398:90,2,78.1,2|0|8,1:2|1:2|0:0,0:0:0:0:
290,228,67581,1,2,1:2:0:0:
290,228,67748,6,0,B|241:204|241:204|201:244|125:228,1,156.2,2|8,0:0|0:0,0:0:0:0:
72,174,68248,1,0,0:0:0:0:
72,174,68415,2,0,P|62:131|48:80,1,78.1,2|0,1:2|1:2,0:0:0:0:
111,23,68748,1,10,0:0:0:0:
194,85,68915,1,8,0:0:0:0:
194,85,68998,1,8,0:0:0:0:
194,85,69081,6,0,P|242:71|293:57,1,78.1,6|2,1:2|0:0,0:0:0:0:
350,17,69415,1,10,0:0:0:0:
418,81,69581,1,2,0:0:0:0:
342,136,69748,2,0,P|394:126|477:186,1,156.2,2|10,1:2|0:0,0:0:0:0:
510,273,70248,1,2,1:2:0:0:
510,273,70415,6,0,P|466:287|420:306,1,78.1,2|2,0:0|1:2,0:0:0:0:
369,365,70748,2,0,B|330:350|330:350|317:325|317:325|245:304,1,117.15,10|0,0:0|0:0,0:0:0:0:
257,309,71081,1,2,1:2:0:0:
188,373,71248,1,0,1:2:0:0:
116,312,71415,6,0,B|128:217|178:252|186:161,1,156.2,10|0,0:0|1:2,0:0:0:0:
123,104,71915,1,0,1:2:0:0:
123,104,72081,2,0,P|80:114|28:137,1,78.1,14|0,0:0|0:0,0:0:0:0:
24,35,72415,2,0,P|60:21|98:12,1,78.1,2|0,1:2|1:2,0:0:0:0:
187,43,72748,1,10,0:0:0:0:
187,43,72915,1,0,1:2:0:0:
273,7,73081,6,0,P|281:57|289:98,1,78.1,10|0,0:0|1:2,0:0:0:0:
362,138,73415,2,0,P|315:129|241:189,1,117.15,8|0,0:0|0:0,0:0:0:0:
248,174,73748,2,0,P|258:220|266:271,1,78.1,2|0,1:2|1:2,0:0:0:0:
189,308,74081,1,8,1:3:0:0:
269,374,74248,1,8,1:3:0:0:
269,374,74331,1,8,1:3:0:0:
269,374,74415,6,0,P|322:355|427:331,1,156.2,6|8,1:2|0:0,0:0:0:0:
480,261,74915,1,2,0:0:0:0:
480,261,75081,2,0,P|471:214|461:165,1,78.1000023834229,8|0,0:0|1:2,0:0:0:0:
444,92,75415,2,0,P|397:101|346:111,1,78.1000023834229,10|0,0:0|1:2,0:0:0:0:
290,51,75753,6,0,P|248:88|166:84,1,117.150003575134,10|0,0:0|0:0,0:0:0:0:
170,80,76092,2,0,P|130:68|77:56,1,78.1000023834229,10|2,0:0|1:2,0:0:0:0:
18,114,76425,2,0,P|31:160|43:204,1,78.1,8|0,0:0|1:2,0:0:0:0:
113,246,76758,1,10,0:0:0:0:
39,303,76925,1,0,1:2:0:0:
39,303,77008,1,0,1:0:0:0:
39,303,77092,6,0,P|86:298|156:346,1,117.150003575134,10|0,0:0|0:0,0:0:0:0:
156,342,77425,2,0,P|198:331|245:320,1,78.1,10|0,0:0|0:0,0:0:0:0:
294,252,77758,1,10,0:0:0:0:
294,252,77925,1,0,1:2:0:0:
376,296,78092,2,0,P|368:339|363:388,1,78.1,10|0,0:0|1:2,0:0:0:0:
455,353,78425,6,0,P|459:314|466:275,1,78.1,10|0,0:0|0:0,0:0:0:0:
407,202,78758,1,10,0:0:0:0:
407,202,78922,1,0,1:2:0:0:
465,128,79087,2,0,P|431:115|381:92,1,71,10|0,0:0|1:2,0:0:0:0:
324,34,79417,2,0,P|290:47|239:71,1,78.1000023834229,8|8,1:3|1:3,0:0:0:0:
188,131,79757,6,0,P|145:136|72:84,2,120.70000230217,6|2|12,1:2|1:0|0:0,0:0:0:0:
309,295,80787,1,2,0:0:0:0:
309,295,80954,2,0,P|269:309|234:328,1,71,8|2,0:0|0:1,0:0:0:0:
163,371,81279,2,0,P|136:342|30:337,1,142,2|2,0:0|0:0,0:0:0:0:
12,246,81758,2,0,P|21:198|30:144,1,71,14|0,0:0|0:0,0:0:0:0:
95,107,82077,1,2,0:3:0:0:
32,30,82248,1,8,0:0:0:0:
32,30,82334,1,8,0:0:0:0:
32,30,82419,6,0,P|74:64|180:60,1,142,6|8,1:2|0:0,0:0:0:0:
351,15,83085,2,0,P|338:57|328:104,1,71,0|0,1:2|1:0,0:0:0:0:
261,144,83419,1,10,0:0:0:0:
261,144,83585,2,0,B|194:166|216:198|131:220,1,142,2|0,0:0|1:2,0:0:0:0:
98,293,84085,2,0,P|145:313|178:326,1,71,8|0,0:0|1:2,0:0:0:0:
244,363,84419,2,0,P|291:343|324:332,1,71,14|0,0:0|1:2,0:0:0:0:
380,277,84748,2,0,P|384:258|397:213,3,35.5,8|8|8|8,1:3|1:3|1:3|1:3,0:0:0:0:
409,213,85078,6,0,B|402:122|356:158|348:67,1,142,6|12,1:2|0:1,0:0:0:0:
187,18,85759,1,4,1:1:0:0:
187,18,85930,2,0,P|173:64|165:106,1,71,0|4,1:2|0:1,0:0:0:0:
226,159,86271,2,0,P|175:181|83:135,1,142,8|8,0:0|0:0,0:0:0:0:
23,205,86771,5,8,0:0:0:0:
23,205,86856,1,8,0:3:0:0:
23,205,86942,1,8,0:3:0:0:
84,274,87113,1,8,0:0:0:0:
20,340,87276,1,8,0:0:0:0:
256,377,87768,6,0,P|294:366|372:348,1,106.500004062653,6|2,1:2|1:2,0:0:0:0:
438,237,88434,2,0,P|400:226|325:209,1,106.500004062653,2|2,1:2|1:2,0:0:0:0:
238,110,89086,2,0,P|269:71|338:76,1,106.500004062653,2|2,1:2|1:2,0:0:0:0:
455,28,89748,6,0,P|476:35|516:51,2,35.5000013542176,8|8|8,1:3|1:3|1:3,0:0:0:0:
429,67,90080,6,0,P|412:73|392:84,2,35.5000013542176,8|8|8,0:3|0:3|0:3,0:0:0:0:
466,110,90411,6,0,P|458:165|445:249,1,120.700000000001,6|10,1:2|0:0,0:0:0:0:
382,291,90911,1,0,0:0:0:0:
382,291,91077,2,0,P|389:331|393:368,1,60.3500000000004,2|0,1:2|1:2,0:0:0:0:
304,378,91411,2,0,P|261:383|181:342,1,120.70000230217,10|0,0:0|0:0,0:0:0:0:
129,286,91911,1,0,1:2:0:0:
129,286,92079,2,0,P|93:297|63:306,1,60.3500011510849,10|0,0:0|0:0,0:0:0:0:
52,215,92414,2,0,P|80:205|109:197,1,60.3500011510849,2|0,1:2|1:2,0:0:0:0:
177,135,92749,2,0,B|189:77|209:99|217:28,1,90.5250017266274,10|0,0:0|0:0,0:0:0:0:
218,26,93084,6,0,P|164:15|106:59,2,120.70000230217,2|10|2,1:2|0:0|1:2,0:0:0:0:
292,78,93922,1,0,1:2:0:0:
292,78,94090,2,0,P|330:68|371:59,1,60.3500011510849,10|0,0:0|0:0,0:0:0:0:
421,6,94425,6,0,P|445:46|429:100,1,90.5250017266274,2|0,1:2|0:0,0:0:0:0:
430,102,94760,2,0,P|439:141|445:179,1,60.3500011510849,10|0,0:0|1:2,0:0:0:0:
371,216,95095,2,0,P|362:255|353:300,1,60.3500011510849,2|0,0:0|1:2,0:0:0:0:
421,338,95431,1,10,0:0:0:0:
493,283,95598,1,2,0:3:0:0:
493,283,95682,1,2,0:3:0:0:
493,283,95766,6,0,P|485:240|477:202,2,59.9879011510849,2|0|10,1:2|1:2|0:0,0:0:0:0:
421,338,96263,2,0,P|378:373|292:364,1,120.033149171272,2|0,0:0|1:2,0:0:0:0:
245,316,96760,2,0,P|253:278|259:242,1,60.3500011510849,10|0,0:0|1:2,0:0:0:0:
190,195,97091,6,0,B|155:182|155:182|125:211|62:217,2,120.70000230217,2|10|2,0:0|0:0|1:2,0:0:0:0:
262,139,97920,1,0,1:2:0:0:
199,73,98086,1,12,0:1:0:0:
199,73,98417,6,0,P|234:58|255:48,2,53.2500000000003,4|8|8,1:2|0:3|0:3,0:0:0:0:
124,19,98917,2,0,P|86:8|13:53,1,106.500000000001,8|8,0:0|0:3,0:0:0:0:
10,122,99417,2,0,P|48:133|115:91,1,106.500004062653,8|2,1:3|1:1,0:0:0:0:
174,178,99938,1,8,0:3:0:0:
174,178,100100,2,0,P|165:216|157:253,1,53.2500020313264,8|8,1:3|0:3,0:0:0:0:
88,283,100424,2,0,B|31:298|57:326|-18:352,1,106.500004062653,8|8,0:3|1:3,0:0:0:0:
181,374,101083,6,0,P|174:340|162:303,2,53.2500020313264,8|8|8,0:3|0:3|0:3,0:0:0:0:
271,380,101585,2,0,P|317:365|397:346,1,106.500004062653,12|8,0:1|1:3,0:0:0:0:
459,378,102088,2,0,B|475:357|475:357|452:265,1,106.500004062653,8|0,0:3|1:2,0:0:0:0:
433,192,102588,1,8,0:3:0:0:
433,192,102920,1,8,0:3:0:0:
493,124,103085,1,8,0:3:0:0:
493,124,103168,1,8,0:3:0:0:
493,124,103251,2,0,P|499:97|510:60,1,53.2500020313264,8|8,0:3|1:3,0:0:0:0:
437,13,103583,1,8,1:3:0:0:
361,63,103748,6,0,P|326:73|235:33,1,127.799996099854,6|12,1:2|0:1,0:0:0:0:
163,14,104246,1,0,1:2:0:0:
163,14,104411,2,0,B|115:29|115:29|100:60|100:60|35:78,1,127.799996099854,12|0,0:1|1:2,0:0:0:0:
10,147,104909,1,12,1:3:0:0:
10,147,105240,1,8,0:0:0:0:
70,212,105406,2,0,P|63:248|55:291,1,63.5469613259671,8|8,1:3|1:3,0:0:0:0:
49,364,105737,2,0,P|85:371|128:379,1,63.5469613259671,10|0,0:0|1:1,0:0:0:0:
188,329,106069,2,0,L|231:318,3,31.7734806629835,8|8|8|8,0:0|0:0|0:0|0:0,0:0:0:0:
250,339,106400,6,0,B|278:365|278:365|322:379|375:337,1,127.799996099854,6|4,1:2|1:1,0:0:0:0:
474,208,107063,2,0,P|473:184|470:160,3,31.7734806629835,8|8|8|8,0:0|1:3|1:3|1:3,0:0:0:0:
468,131,107395,1,8,1:3:0:0:
468,131,107478,1,8,1:3:0:0:
468,131,107561,2,0,B|417:124|417:124|381:146|381:146|317:132,1,142,6|0,1:2|1:2,0:0:0:0:
284,68,108089,2,0,P|244:79|188:96,1,71,8|0,0:0|1:2,0:0:0:0:
147,28,108415,1,8,0:0:0:0:
91,100,108578,1,8,1:3:0:0:
162,156,108741,2,0,L|154:202,3,35.5,8|8|8|8,0:0|0:0|0:0|0:0,0:0:0:0:
177,226,109078,6,0,P|190:270|199:311,1,63.9000000000002,4|2,1:1|0:0,0:0:0:0:
129,366,109411,2,0,B|19:326|19:326|3:348|-18:355,1,142,14|0,0:0|1:2,0:0:0:0:
86,238,109915,2,0,B|97:153|142:183|146:102,1,142,2|2,0:0|0:0,0:0:0:0:
81,50,110430,2,0,P|42:64|11:73,2,71,2|0|10,1:2|0:0|0:0,0:0:0:0:
160,2,110930,2,0,P|192:15|230:28,1,71,2|0,0:0|1:2,0:0:0:0:
293,90,111259,2,0,P|337:97|395:62,1,106.5,2|0,0:0|0:0,0:0:0:0:
399,56,111587,5,2,0:0:0:0:
468,117,111751,2,0,P|457:164|446:211,1,71,2|2,1:2|0:0,0:0:0:0:
462,278,112084,2,0,B|440:283|410:270|410:270|369:287|369:287|344:278|319:282,1,142,10|2,0:0|1:2,0:0:0:0:
252,337,112586,1,2,0:0:0:0:
252,337,112925,5,2,0:0:0:0:
176,283,113094,1,2,1:2:0:0:
102,338,113260,2,0,P|91:298|74:250,1,71,2|8,0:0|0:0,0:0:0:0:
0,223,113594,2,0,P|37:189|135:188,1,142,2|0,0:0|0:0,0:0:0:0:
193,122,114094,1,8,0:0:0:0:
349,24,114427,6,0,P|357:65|366:108,1,71,2|2,1:2|0:0,0:0:0:0:
350,194,114756,2,0,B|314:159|274:165|274:165|252:202|215:211,1,142,10|2,0:0|1:2,0:0:0:0:
293,273,115249,2,0,B|365:299|337:337|419:362,1,142,2|2,0:0|0:0,0:0:0:0:
480,300,115745,2,0,P|488:264|505:208,2,71,2|0|8,1:2|0:0|0:0,0:0:0:0:
408,241,116247,1,2,0:0:0:0:
408,241,116331,1,2,0:0:0:0:
408,241,116415,1,2,1:2:0:0:
451,159,116582,2,0,B|480:85|480:85|462:38|412:53,1,142.793296089386,2|2,0:0|0:0,0:0:0:0:
346,0,117085,6,0,P|299:-5|237:42,1,106.5,12|0,0:1|0:0,0:0:0:0:
244,35,117418,1,10,0:0:0:0:
301,107,117585,1,2,1:2:0:0:
229,165,117751,2,0,B|178:152|178:152|140:172|140:172|80:158,1,142,12|2,0:1|1:2,0:0:0:0:
23,225,118251,1,8,0:0:0:0:
23,225,118585,5,0,1:2:0:0:
15,132,118753,1,10,0:0:0:0:
5,40,118920,1,8,0:0:0:0:
5,40,119004,1,8,0:0:0:0:
5,40,119088,2,0,P|42:30|86:18,1,71.396648044693,10|8,0:0|0:0,0:0:0:0:
140,85,119423,2,0,P|177:95|221:107,1,71.396648044693,8|8,0:3|0:3,0:0:0:0:
277,40,119758,5,6,1:2:0:0:
246,69,127757,6,0,B|320:-16|425:51|372:148|305:111,1,241.400000000002,4|12,1:2|0:1,0:0:0:0:
184,225,129091,2,0,B|110:140|5:207|58:304|125:267,1,241.400000000002,2|12,1:3|0:1,0:0:0:0:
257,364,130424,6,0,B|332:335|332:335|339:265|339:265|430:232,1,241.400000000002,6|12,1:2|0:1,0:0:0:0:
271,160,131758,2,0,B|195:131|195:131|188:61|188:61|92:28,1,241.40000460434,2|12,1:3|0:1,0:0:0:0:
14,197,133087,6,0,B|74:169|52:140|135:118,2,120.70000230217,6|0|12,1:2|1:2|0:1,0:0:0:0:
121,273,134092,1,2,1:2:0:0:
39,355,134427,2,0,P|30:307|15:218,2,120.70000230217,2|2|12,1:3|1:2|0:1,0:0:0:0:
121,273,135399,1,0,1:2:0:0:
202,333,135562,1,8,0:0:0:0:
202,333,135643,1,8,0:0:0:0:
202,333,135724,6,0,P|248:324|311:368,1,106.5,6|0,1:2|0:0,0:0:0:0:
313,362,136057,2,0,P|350:350|397:341,1,71,8|0,0:0|0:0,0:0:0:0:
403,241,136390,2,0,P|366:253|321:263,1,71,0|0,1:2|1:2,0:0:0:0:
259,212,136724,1,10,0:0:0:0:
259,212,136890,6,0,P|230:166|266:88,1,142.414166666667,2|0,1:2|1:2,0:0:0:0:
324,22,137395,2,0,P|356:41|399:54,1,71,10|0,0:0|0:0,0:0:0:0:
465,111,137734,2,0,P|431:121|396:142,1,71,2|0,1:2|1:2,0:0:0:0:
342,209,138073,1,10,0:0:0:0:
420,268,138243,1,8,0:0:0:0:
420,268,138328,1,8,0:0:0:0:
420,268,138412,6,0,B|441:334|475:308|495:391,1,120.70000230217,4|10,1:2|0:0,0:0:0:0:
286,375,139078,1,10,0:0:0:0:
286,375,139245,2,0,P|303:328|312:298,2,60.3500011510849,0|0|0,0:0|1:2|0:0,0:0:0:0:
197,382,139745,2,0,P|169:345|82:347,1,120.70000230217,2|8,0:1|0:0,0:0:0:0:
15,281,140245,1,8,0:0:0:0:
15,281,140328,1,8,0:0:0:0:
15,281,140412,2,0,P|19:252|21:220,3,35.5,8|8|8|8,0:0|0:0|0:0|0:0,0:0:0:0:
48,203,140745,2,0,P|44:174|39:142,3,35.5,8|8|8|8,1:3|1:3|1:3|1:3,0:0:0:0:
10,133,141078,6,0,P|50:91|145:104,1,142,6|8,1:2|0:0,0:0:0:0:
202,154,141578,1,8,0:0:0:0:
265,83,141745,2,0,P|302:90|344:102,1,71,8|8,0:0|0:0,0:0:0:0:
410,47,142078,1,8,1:3:0:0:
466,120,142245,1,8,0:0:0:0:
404,191,142412,6,0,B|374:157|295:178|289:239|289:239|310:267|297:304,1,198.799993933106,6|0,1:2|0:0,0:0:0:0:
57,374,143930,5,0,1:2:0:0:
57,374,144011,1,0,1:2:0:0:
57,374,144093,2,0,P|46:324|28:234,1,141.868518518519,6|0,1:2|1:2,0:0:0:0:
71,157,144593,1,0,1:2:0:0:
71,157,144759,2,0,P|110:166|153:178,1,71,8|4,0:0|1:1,0:0:0:0:
203,113,145093,6,0,B|276:80|276:80|312:92|299:135,1,142.358901098901,2|8,1:2|0:0,0:0:0:0:
251,206,145587,1,8,0:0:0:0:
251,206,145669,1,8,0:0:0:0:
251,206,145752,2,0,P|256:239|262:266,3,35.5,0|0|0|0,1:2|1:3|1:3|1:3,0:0:0:0:
227,276,146082,2,0,P|222:309|215:339,3,35.5,8|8|8|8,1:3|1:3|1:3|1:3,0:0:0:0:
250,348,146411,6,0,P|297:354|354:372,1,78.1000000000002,4|0,1:1|0:0,0:0:0:0:
403,318,146744,2,0,P|433:281|412:211,1,117.15,14|0,0:0|0:0,0:0:0:0:
408,203,147077,1,0,1:2:0:0:
408,203,147244,1,0,1:2:0:0:
481,147,147411,2,0,P|494:106|513:56,1,78.1000000000002,8|0,0:0|1:2,0:0:0:0:
437,15,147744,2,0,P|399:24|345:40,1,78.1000000000002,2|0,0:0|1:2,0:0:0:0:
304,99,148077,2,0,B|216:88|244:125|148:111,1,156.2,10|0,0:0|1:2,0:0:0:0:
93,38,148577,5,2,1:2:0:0:
30,103,148744,1,10,0:0:0:0:
101,178,148911,1,10,0:0:0:0:
101,178,148994,1,8,0:0:0:0:
101,178,149077,6,0,P|89:237|68:342,1,156.2,6|8,1:2|0:0,0:0:0:0:
147,383,149577,1,2,0:0:0:0:
209,318,149744,2,0,B|242:357|285:357|285:357|303:333|348:322,1,156.2,2|8,1:2|0:0,0:0:0:0:
418,281,150244,1,2,1:2:0:0:
491,352,150411,6,0,P|504:307|524:260,1,78.1000023834229,2|0,0:0|1:2,0:0:0:0:
459,201,150742,2,0,P|415:190|321:164,1,117.150003575134,10|0,0:0|0:0,0:0:0:0:
333,167,151073,1,2,1:2:0:0:
259,111,151239,1,0,1:2:0:0:
197,179,151405,2,0,P|159:189|112:206,1,78.1000023834229,10|2,0:0|0:3,0:0:0:0:
122,201,151654,1,2,0:3:0:0:
122,201,151736,5,0,1:2:0:0:
43,143,151902,1,2,1:2:0:0:
2,226,152069,2,0,B|21:286|50:257|72:342,1,117.15,8|0,0:0|0:0,0:0:0:0:
66,338,152402,1,0,1:2:0:0:
152,374,152569,2,0,P|186:364|246:352,1,78.1000000000002,2|8,1:2|0:0,0:0:0:0:
285,283,152902,1,2,1:2:0:0:
208,223,153069,6,0,P|200:184|187:142,1,78.1000000000002,10|0,0:0|1:2,0:0:0:0:
263,97,153402,2,0,P|284:63|306:22,1,78.1000000000002,10|0,0:0|1:2,0:0:0:0:
392,35,153736,2,0,P|431:26|472:15,1,78.1000000000002,10|0,0:0|1:2,0:0:0:0:
508,97,154069,1,8,0:3:0:0:
446,166,154236,1,8,0:3:0:0:
446,166,154319,1,8,0:3:0:0:
446,166,154403,6,0,P|459:233|468:288,1,117.150003575134,6|0,1:2|0:0,0:0:0:0:
468,294,154740,2,0,P|431:300|381:308,1,78.1000023834229,8|0,0:0|0:0,0:0:0:0:
327,364,155077,2,0,P|290:358|238:350,1,78.1000023834229,0|0,1:2|1:2,0:0:0:0:
186,279,155414,1,8,0:0:0:0:
186,279,155582,1,2,1:2:0:0:
139,358,155751,6,0,B|115:341|115:341|78:375|16:368,1,117.150003575134,2|0,0:0|0:0,0:0:0:0:
23,360,156086,2,0,P|14:321|-2:268,1,78.1000023834229,10|0,0:0|0:0,0:0:0:0:
71,228,156421,2,0,P|80:189|95:133,1,78.1000023834229,2|0,1:2|1:2,0:0:0:0:
11,104,156756,1,10,0:0:0:0:
78,43,156924,1,2,0:3:0:0:
78,43,157007,1,2,0:3:0:0:
78,43,157091,6,0,P|115:72|183:65,1,117.150003575134,6|0,1:2|0:0,0:0:0:0:
198,60,157422,2,0,P|258:74|353:96,1,156.200004766846,10|2,0:0|1:2,0:0:0:0:
408,28,157919,1,2,1:2:0:0:
408,28,158085,2,0,P|445:20|492:13,1,78.1000023834229,8|2,0:0|1:2,0:0:0:0:
510,100,158416,2,0,P|496:141|485:198,1,78.1000023834229,2|0,0:0|1:2,0:0:0:0:
408,220,158738,2,0,B|332:239|359:276|266:300,1,156.200004766846,10|0,0:0|1:2,0:0:0:0:
216,370,159229,5,2,1:2:0:0:
140,309,159398,1,10,0:0:0:0:
64,365,159566,1,10,0:0:0:0:
64,365,159650,1,8,0:0:0:0:
64,365,159735,6,0,P|52:308|25:191,1,156.200004766846,6|8,1:2|0:0,0:0:0:0:
85,142,160246,1,2,0:0:0:0:
2,98,160416,2,0,P|36:59|140:63,1,156.200004766846,2|8,1:2|0:0,0:0:0:0:
217,7,160928,1,2,1:2:0:0:
273,79,161098,6,0,P|255:119|241:158,1,78.1000023834229,2|0,0:0|1:2,0:0:0:0:
175,223,161425,2,0,P|230:243|304:289,1,117.150003575134,10|0,0:0|0:0,0:0:0:0:
297,279,161753,1,2,1:2:0:0:
220,336,161917,1,0,1:2:0:0:
299,382,162081,2,0,P|340:369|388:357,1,78.1000023834229,10|2,0:0|0:3,0:0:0:0:
373,360,162327,1,2,0:3:0:0:
373,360,162409,5,0,1:2:0:0:
439,291,162575,1,2,0:0:0:0:
373,219,162742,2,0,P|382:178|390:122,1,78.1000023834229,12|2,0:1|1:2,0:0:0:0:
466,101,163075,2,0,P|457:60|448:4,1,78.1000023834229,12|0,0:1|1:2,0:0:0:0:
364,4,163409,1,2,1:2:0:0:
289,58,163575,6,0,B|236:42|236:42|198:57|198:57|131:42,1,156.2,12|0,0:0|1:2,0:0:0:0:
64,0,164075,1,10,0:0:0:0:
15,81,164242,1,8,0:0:0:0:
15,81,164325,1,8,0:0:0:0:
15,81,164409,2,0,L|19:129,3,39.0500000000001,8|8|8|8,0:0|0:0|0:0|0:0,0:0:0:0:
54,145,164742,2,0,L|50:196,3,39.0500000000001,8|8|8|8,1:3|1:3|1:3|1:3,0:0:0:0:
75,218,165075,6,0,P|123:227|221:265,2,142,4|10|2,1:2|0:1|1:1,0:0:0:0:
7,281,165909,1,0,1:0:0:0:
7,281,166075,2,0,P|17:319|24:353,1,71.0000000000002,10|0,0:1|0:0,0:0:0:0:
110,381,166409,2,0,B|193:355|183:396|270:374,1,142,2|10,1:1|0:1,0:0:0:0:
307,306,166909,1,0,0:0:0:0:
307,306,167075,2,0,P|340:318|379:329,1,71.0000000000002,2|0,1:1|1:0,0:0:0:0:
450,380,167409,1,10,0:1:0:0:
501,202,167742,6,0,P|493:164|482:120,1,71.0000000000002,2|0,1:1|0:0,0:0:0:0:
504,42,168075,2,0,P|462:47|400:95,1,106.5,12|0,0:0|0:0,0:0:0:0:
399,95,168409,1,0,1:2:0:0:
322,42,168575,1,0,1:2:0:0:
251,102,168742,2,0,P|215:91|161:78,1,71.0000000000002,12|2,0:0|1:2,0:0:0:0:
182,82,168992,1,0,1:0:0:0:
182,82,169075,6,0,P|171:118|158:172,1,71.0000000000002,10|0,0:0|1:2,0:0:0:0:
231,211,169409,1,10,0:0:0:0:
163,274,169579,1,8,0:0:0:0:
163,274,169664,1,8,0:0:0:0:
163,274,169749,2,0,P|135:281|102:291,3,35.5,8|8|8|8,0:0|0:0|0:0|0:0,0:0:0:0:
91,310,170090,2,0,P|63:303|32:294,3,35.5,8|8|8|8,0:3|0:3|0:3|0:3,0:0:0:0:
17,275,170431,2,0,P|12:236|5:195,1,63.8999980499268,8|8,1:3|1:3,0:0:0:0:
49,92,170764,6,0,B|75:93|102:75|102:75|140:90|140:90|169:73|196:73,1,156.200004766846,12|0,0:0|1:2,0:0:0:0:
262,13,171264,1,0,1:2:0:0:
262,13,171431,2,0,P|301:23|355:40,1,78.1000000000002,8|2,0:0|1:2,0:0:0:0:
396,103,171764,2,0,P|439:92|485:81,1,78.1000000000002,2|0,0:0|1:2,0:0:0:0:
505,167,172097,6,0,P|496:216|479:309,1,117.15,12|0,0:1|0:0,0:0:0:0:
483,301,172431,1,10,0:0:0:0:
409,359,172597,1,8,0:0:0:0:
409,359,172681,1,8,0:0:0:0:
409,359,172764,2,0,L|365:349,3,39.0500000000001,8|8|8|8,0:0|0:0|0:0|0:0,0:0:0:0:
335,319,173097,2,0,P|290:332|244:343,1,78.1000000000002,4|0,1:1|0:0,0:0:0:0:
127,375,173431,6,0,B|144:312|171:333|187:237,1,117.15,12|0,0:0|0:0,0:0:0:0:
177,253,173764,1,2,1:2:0:0:
108,189,173931,2,0,P|103:151|89:107,1,78.1000000000002,0|8,1:2|0:0,0:0:0:0:
6,71,174264,1,2,1:2:0:0:
77,10,174431,6,0,P|137:25|252:58,1,156.2,2|8,0:0|0:0,0:0:0:0:
310,5,174927,1,0,0:0:0:0:
382,63,175091,2,0,P|368:106|350:164,1,78.1000023834229,2|0,1:2|1:2,0:0:0:0:
419,208,175419,1,10,0:0:0:0:
341,261,175583,1,8,0:0:0:0:
341,261,175665,1,8,0:0:0:0:
341,261,175747,6,0,P|296:274|252:295,1,78.1000000000002,6|2,1:2|0:0,0:0:0:0:
303,373,176080,2,0,P|338:357|376:347,1,78.1000000000002,10|2,0:0|0:0,0:0:0:0:
464,381,176413,2,0,P|496:344|461:249,1,156.2,2|10,1:2|0:0,0:0:0:0:
464,251,176913,1,2,1:2:0:0:
399,184,177080,2,0,P|412:141|425:94,1,78.1000000000002,2|2,0:0|1:2,0:0:0:0:
468,28,177413,2,0,B|450:9|450:9|330:28,1,117.15,10|0,0:0|0:0,0:0:0:0:
350,25,177747,1,2,1:2:0:0:
280,87,177913,1,0,1:2:0:0:
202,33,178080,6,0,P|143:25|74:90,1,156.2,10|0,0:0|1:2,0:0:0:0:
15,158,178580,1,0,1:2:0:0:
80,224,178747,2,0,P|72:273|68:317,1,78.1000000000002,10|0,0:0|0:0,0:0:0:0:
117,381,179080,1,2,1:2:0:0:
190,322,179247,1,0,1:2:0:0:
269,369,179413,2,0,P|308:358|360:344,1,78.1000023834229,10|0,0:0|0:0,0:0:0:0:
436,384,179748,5,2,1:2:0:0:
511,328,179915,1,0,1:2:0:0:
435,272,180083,2,0,P|444:228|455:177,1,78.1000023834229,8|0,0:0|1:2,0:0:0:0:
508,121,180418,2,0,P|499:77|488:23,1,77.6685082872931,2|0,1:2|1:2,0:0:0:0:
399,23,180749,2,0,L|351:34,3,39.0500011917115,8|8|8|8,1:3|1:3|1:3|1:3,0:0:0:0:
322,4,181080,6,0,B|288:-15|288:-15|220:-9|187:49,1,156.200004766846,6|8,1:2|0:0,0:0:0:0:
112,86,181580,1,2,0:0:0:0:
171,158,181746,2,0,P|166:201|161:261,1,78.1000000000002,8|0,0:0|1:2,0:0:0:0:
78,277,182080,2,0,P|83:320|88:380,1,78.1000000000002,10|0,0:0|1:2,0:0:0:0:
177,375,182413,6,0,B|199:374|215:356|215:356|254:353|287:391,1,117.15,10|0,0:0|0:0,0:0:0:0:
308,382,182746,2,0,P|355:371|399:364,1,78.1000000000002,10|2,0:0|1:2,0:0:0:0:
391,272,183080,2,0,P|344:261|300:254,1,78.1000000000002,8|0,0:0|1:2,0:0:0:0:
247,190,183413,1,10,0:0:0:0:
314,124,183580,1,0,1:2:0:0:
247,58,183746,6,0,P|305:31|378:62,1,117.15,14|0,0:0|0:0,0:0:0:0:
397,73,184080,2,0,P|406:118|415:168,1,78.1000000000002,10|0,0:0|0:0,0:0:0:0:
371,234,184413,1,10,0:0:0:0:
438,290,184580,1,0,1:2:0:0:
363,347,184746,2,0,P|323:363|283:387,1,78.1000000000002,10|0,0:0|1:2,0:0:0:0:
239,303,185080,6,0,P|199:287|159:263,1,78.1000000000002,10|0,0:0|0:0,0:0:0:0:
96,328,185413,1,10,0:0:0:0:
96,328,185580,1,0,1:2:0:0:
35,256,185746,2,0,P|43:217|56:172,1,78.1000000000002,10|0,0:0|1:2,0:0:0:0:
27,89,186080,1,8,1:3:0:0:
97,27,186246,1,8,1:3:0:0:
175,76,186413,6,0,P|218:70|282:124,2,120.700000000001,6|2|12,1:2|1:0|0:0,0:0:0:0:
86,219,187413,1,2,0:0:0:0:
86,219,187580,2,0,P|52:232|21:247,1,60.3500011510849,8|2,0:0|0:1,0:0:0:0:
8,323,187914,2,0,P|38:351|119:344,1,120.70000230217,2|2,0:0|0:0,0:0:0:0:
173,289,188420,2,0,P|209:301|246:313,1,60.3500011510849,14|0,0:0|0:0,0:0:0:0:
293,364,188757,1,8,0:0:0:0:
382,305,188925,1,8,0:0:0:0:
382,305,189010,1,8,0:0:0:0:
382,305,189094,6,0,P|372:248|358:162,1,142,6|8,1:2|0:0,0:0:0:0:
435,10,189760,2,0,P|471:18|516:24,1,71.0000000000002,0|0,1:2|0:0,0:0:0:0:
498,108,190094,2,0,P|462:100|417:94,1,71.0000000000002,10|2,0:2|0:0,0:0:0:0:
317,47,190427,5,0,1:2:0:0:
317,47,190594,1,0,1:2:0:0:
241,98,190760,2,0,P|206:107|141:125,1,71.0000000000002,4|0,1:1|1:2,0:0:0:0:
105,179,191094,2,0,L|112:228,3,35.5000000000001,8|8|8|8,0:0|0:0|0:0|0:0,0:0:0:0:
84,253,191427,2,0,L|77:302,3,35.5000000000001,8|8|8|8,0:0|0:0|0:0|0:0,0:0:0:0:
110,323,191760,6,0,P|153:328|195:340,1,71.0000000000002,6|2,1:2|0:0,0:0:0:0:
257,282,192094,1,10,0:0:0:0:
257,282,192260,2,0,P|306:272|375:332,1,142,2|2,0:0|1:2,0:0:0:0:
453,372,192760,2,0,P|466:332|485:298,1,71.0000000000002,8|2,0:0|0:0,0:0:0:0:
427,230,193094,6,0,P|418:188|405:144,1,71.0000000000002,2|0,1:2|1:2,0:0:0:0:
465,86,193427,1,10,0:0:0:0:
389,33,193594,1,0,1:0:0:0:
389,33,193677,1,8,0:0:0:0:
389,33,193760,2,0,P|347:46|309:60,1,71.0000000000002,2|2,1:2|1:2,0:0:0:0:
256,121,194093,2,0,P|207:126|155:86,1,106.5,8|0,0:0|0:0,0:0:0:0:
145,77,194427,6,0,P|124:136|95:219,2,142,2|10|2,1:2|0:0|1:2,0:0:0:0:
64,30,195260,1,0,1:2:0:0:
64,30,195427,2,0,P|43:76|25:118,1,71.0000000000002,10|0,0:0|1:2,0:0:0:0:
90,169,195760,6,0,B|165:192|146:226|234:248,1,142,2|10,0:0|0:0,0:0:0:0:
290,194,196260,1,2,1:2:0:0:
347,265,196427,1,8,0:0:0:0:
280,328,196593,1,2,1:2:0:0:
280,328,196677,1,0,1:0:0:0:
280,328,196760,2,0,P|253:338|230:350,3,35.5000000000001,8|8|8|8,0:0|0:0|0:0|0:0,0:0:0:0:
214,357,197093,5,6,1:2:0:0:
256,192,197177,12,0,207760,0:0:0:0:
