osu file format v14

[General]
AudioFilename: Touch My Body.mp3
AudioLeadIn: 0
PreviewTime: 54824
Countdown: 0
SampleSet: Normal
StackLeniency: 0.7
Mode: 0
LetterboxInBreaks: 0
WidescreenStoryboard: 1

[Editor]
DistanceSpacing: 0.8
BeatDivisor: 4
GridSize: 4
TimelineZoom: 1.1

[Metadata]
Title:Touch My Body
TitleUnicode:Touch My Body
Artist:SISTAR
ArtistUnicode:씨스타
Creator:ValuuNekuu4
Version:Normal
Source:
Tags:SISTAR Hyolyn Hyorin Bora Soyu Soyou Dasom Touch My Body Touch N Move Starship Entertainment 씨스타 효린 보라 소유 다솜 kpop k-pop
BeatmapID:961542
BeatmapSetID:447947

[Difficulty]
HPDrainRate:4
CircleSize:3
OverallDifficulty:5
ApproachRate:5
SliderMultiplier:1.3
SliderTickRate:2

[Events]
//Background and Video events
Video,0,"video.avi"
0,0,"background normal.jpg",0,0
//Break Periods
2,176796,184136
//Storyboard Layer 0 (Background)
//Storyboard Layer 1 (Fail)
//Storyboard Layer 2 (Pass)
//Storyboard Layer 3 (Foreground)
//Storyboard Sound Samples

[TimingPoints]
8880,472.44094488189,4,1,0,70,1,0
56124,-100,4,1,0,70,0,1
70297,-100,4,1,0,70,0,0
71242,-100,4,1,0,70,0,1
85415,-100,4,1,0,70,0,0
101478,-80,4,1,0,70,0,0
116596,-100,4,1,0,70,0,0
131714,-100,4,1,0,70,0,1
145887,-100,4,1,0,70,0,0
146832,-100,4,1,0,70,0,1
161005,-111.111111111111,4,1,0,70,0,0
169509,-100,4,1,0,70,0,0
185336,-100,4,1,0,60,0,0
192187,-100,4,1,0,70,0,1
207305,-100,4,1,0,5,0,0

[Colours]
Combo1 : 51,59,104
Combo2 : 255,81,70
Combo3 : 246,191,230
Combo4 : 208,180,169
Combo5 : 236,122,182
Combo6 : 188,89,180
Combo7 : 236,255,139
Combo8 : 131,234,110
SliderBorder : 254,80,69

[HitObjects]
40,72,9824,6,0,P|104:48|164:80,1,130
160,128,10533,2,0,L|224:128,1,65
204,232,11242,2,0,B|308:205|337:325|448:292,1,260
448,240,12423,2,0,L|479:184,1,65
412,108,13131,1,0,0:0:0:0:
472,24,13604,2,0,P|408:0|348:32,1,130
352,80,14313,2,0,L|288:80,1,65
308,184,15022,2,0,B|204:157|175:277|64:244,1,260
64,192,16203,2,0,L|33:136,1,65
96,44,16911,1,0,0:0:0:0:
184,0,17383,6,0,B|244:24|244:24|304:0,1,130
356,0,18092,2,0,L|420:0,1,65
384,96,18801,2,0,P|491:105|480:232,1,260
444,196,19982,2,0,L|388:228,1,65
444,316,20691,1,0,0:0:0:0:
352,336,21163,2,0,B|292:312|292:312|232:336,1,130
180,336,21872,2,0,L|116:336,1,65
152,240,22817,6,0,P|44:230|55:103,1,260
96,76,23998,1,0,0:0:0:0:
164,152,24470,1,0,0:0:0:0:
232,72,24942,1,0,0:0:0:0:
284,72,25179,6,0,L|348:72,4,65
180,72,26596,2,0,L|180:204,1,130
272,148,27541,2,0,P|332:124|392:152,1,130
492,132,28486,2,0,L|492:262,1,130
392,228,29431,2,0,P|332:252|272:224,1,130
212,308,30376,2,0,L|166:353,2,65
144,232,31320,2,0,B|153:156|61:233|72:146,3,130
196,60,33446,6,0,B|248:60|288:20|288:20|380:20,1,195
320,104,34628,2,0,L|384:104,1,65
352,204,35336,2,0,B|260:204|260:204|220:164|168:164,1,195
80,220,36517,2,0,L|24:251,2,65
108,264,37226,54,0,B|157:249|189:281|237:264,1,130
240,316,37935,2,0,B|312:338|360:291|431:316,1,195
392,284,38880,1,0,0:0:0:0:
352,252,39116,22,0,L|306:206,1,65
280,252,39588,2,0,L|234:206,1,65
208,252,40061,2,0,L|162:206,1,65
124,172,40533,1,0,0:0:0:0:
172,80,41005,102,0,P|236:64|304:84,1,130
236,164,41950,2,0,P|300:180|368:160,1,130
448,124,42895,2,0,L|448:60,3,65
296,92,44313,1,0,0:0:0:0:
224,168,44785,2,0,P|160:152|92:172,1,130
160,252,45730,2,0,P|96:268|28:248,1,130
96,168,46675,1,0,0:0:0:0:
196,192,47147,1,0,0:0:0:0:
248,192,47383,2,0,L|312:192,4,65
216,232,48565,102,0,B|180:259|102:218|176:174|98:133|63:161,2,195
268,232,50218,2,0,B|303:259|381:218|307:174|385:133|420:161,1,195
420,212,51163,69,0,0:0:0:0:
340,276,51635,2,0,L|287:312,1,65
288,260,52108,1,0,0:0:0:0:
256,220,52344,2,0,L|308:183,3,65
308,132,53289,1,0,0:0:0:0:
244,48,53761,1,0,0:0:0:0:
192,48,53998,1,0,0:0:0:0:
176,96,54234,70,0,L|208:96,6,32.5
241,96,55179,6,0,L|213:154,3,65
212,208,56124,1,0,0:0:0:0:
117,184,56596,2,0,P|123:247|169:296,1,130
169,244,57305,2,0,P|191:221|194:189,1,65
193,136,57778,1,0,0:0:0:0:
237,108,58014,1,0,0:0:0:0:
281,80,58250,2,0,B|307:33|360:65|387:14,1,130
449,68,58958,6,0,L|477:126,3,65
477,180,59903,1,0,0:0:0:0:
377,200,60376,1,0,0:0:0:0:
377,96,60848,2,0,P|316:88|291:143,1,130
345,136,61557,1,0,0:0:0:0:
381,172,61793,1,0,0:0:0:0:
381,224,62029,2,0,B|433:210|447:270|503:253,1,130
501,356,62974,86,0,L|437:356,1,65
369,276,63683,2,0,P|458:247|489:156,1,195
397,180,64864,1,0,0:0:0:0:
397,180,65100,1,0,0:0:0:0:
301,200,65572,2,0,P|331:111|421:81,1,195
456,120,66517,1,0,0:0:0:0:
492,160,66754,2,0,L|443:201,1,65
400,236,67226,1,0,0:0:0:0:
440,268,67462,86,0,L|489:309,1,65
464,356,67934,1,0,0:0:0:0:
428,320,68171,1,0,0:0:0:0:
392,284,68407,2,0,L|328:284,1,65
248,216,69116,1,0,0:0:0:0:
168,148,69588,1,0,0:0:0:0:
128,116,69824,2,0,L|64:116,1,65
64,168,70297,38,0,L|42:228,3,65
64,276,71242,1,0,0:0:0:0:
168,276,71714,2,0,L|232:276,1,65
248,228,72187,2,0,P|274:243|286:273,1,65
392,276,72895,1,0,0:0:0:0:
436,304,73131,1,0,0:0:0:0:
480,332,73368,2,0,B|506:286|452:256|483:207,1,130
444,172,74076,6,0,L|466:112,3,65
444,64,75021,1,0,0:0:0:0:
368,132,75494,1,0,0:0:0:0:
264,132,75966,2,0,L|200:132,1,65
200,236,76675,1,0,0:0:0:0:
148,236,76911,1,0,0:0:0:0:
148,184,77147,2,0,B|97:170|82:230|27:213,1,130
44,316,78092,86,0,P|76:320|108:316,2,65
76,276,78801,2,0,L|76:212,2,65
115,244,79509,2,0,L|115:308,2,65
83,204,80218,2,0,P|115:200|147:204,2,65
239,204,81399,2,0,L|288:163,1,65
328,128,81872,2,0,L|278:86,1,65
240,52,82344,1,0,0:0:0:0:
287,60,82580,86,0,L|350:54,1,65
399,76,83053,1,0,0:0:0:0:
363,112,83290,1,0,0:0:0:0:
327,148,83526,2,0,L|263:148,1,65
183,216,84235,1,0,0:0:0:0:
275,268,84707,1,0,0:0:0:0:
315,300,84943,2,0,L|379:300,1,65
424,272,85415,70,0,B|431:206|431:206|423:142,1,130
372,140,86124,2,0,L|372:75,1,65
268,76,86832,2,0,B|225:76|203:65|203:65|182:76|140:76,1,130
88,76,87541,2,0,L|42:121,1,65
44,172,88013,2,0,B|68:180|57:209|84:217,1,65
12,292,88722,1,0,0:0:0:0:
96,352,89194,2,0,B|162:359|162:359|226:351,1,130
228,300,89903,2,0,L|293:300,1,65
292,196,90612,2,0,B|292:153|282:131|282:131|292:110|292:68,1,130
344,68,91321,2,0,L|390:22,1,65
440,24,91793,2,0,B|449:48|478:37|486:64,1,65
440,156,92501,1,0,0:0:0:0:
440,260,92974,86,0,P|376:272|300:256,1,130
312,208,93683,2,0,L|312:144,1,65
249,70,94391,2,0,P|313:60|376:72,2,130
248,124,95573,2,0,L|216:180,1,65
112,200,96282,1,0,0:0:0:0:
176,280,96754,2,0,P|112:292|36:276,1,130
0,280,97463,2,0,L|0:344,1,65
156,356,98407,70,0,B|237:386|328:295|409:335,1,260
464,248,99824,2,0,L|432:248,6,32.5
464,196,100769,2,0,L|400:196,2,65
460,132,101478,86,0,L|296:132,1,162.5
232,132,102187,1,0,0:0:0:0:
180,92,102423,2,0,P|164:120|188:168,3,81.25
240,172,103368,2,0,P|256:200|232:248,3,81.25
172,248,104313,2,0,L|88:248,1,81.25
252,352,105257,2,0,B|212:356|212:356|168:352,3,81.25
164,288,106202,2,0,B|124:284|124:284|80:288,3,81.25
80,224,107147,2,0,L|164:224,1,81.25
164,160,107620,2,0,L|248:160,1,81.25
248,96,108092,1,0,0:0:0:0:
388,228,108801,69,0,0:0:0:0:
452,224,109037,2,0,B|379:190|378:69|298:41,1,243.75
352,160,110218,2,0,P|368:131|422:128,2,81.25
409,192,110927,2,0,P|417:223|381:262,2,81.25
350,213,111635,2,0,B|321:196|303:229|272:210,1,81.25
228,212,112108,38,0,L|144:212,2,81.25
228,148,112817,1,0,0:0:0:0:
356,148,113289,1,0,0:0:0:0:
484,148,113761,1,0,0:0:0:0:
452,272,114234,2,0,L|368:272,1,81.25
304,272,114706,1,0,0:0:0:0:
172,272,115179,1,0,0:0:0:0:
44,272,115651,1,0,0:0:0:0:
144,192,116124,5,0,0:0:0:0:
232,248,116596,2,0,P|257:193|224:124,1,130
180,132,117305,2,0,P|155:77|188:8,1,130
232,16,118013,2,0,P|287:-9|356:24,2,130
232,68,119194,1,0,0:0:0:0:
264,168,119667,2,0,L|200:168,2,65
264,220,120376,2,0,P|319:195|388:228,1,130
324,308,121320,2,0,P|379:333|448:300,2,130
300,208,122738,2,0,P|213:212|217:300,1,195
312,304,123919,2,0,B|364:268|428:280|392:328|456:340|488:308,1,195
488,256,124864,2,0,B|436:220|372:232|408:280|344:292|312:260,1,195
260,260,125809,2,0,B|208:296|144:284|180:236|116:224|84:256,1,195
68,148,127226,22,0,L|4:148,2,65
120,148,127935,2,0,B|169:133|201:165|249:148,1,130
248,200,128643,2,0,B|322:177|369:225|441:200,1,195
416,244,129588,1,0,0:0:0:0:
336,288,129824,6,0,L|304:288,6,32.5
271,288,130769,6,0,L|299:230,3,65
300,176,131714,1,0,0:0:0:0:
395,200,132186,2,0,P|389:137|343:88,1,130
343,140,132895,2,0,P|321:163|318:195,1,65
319,248,133368,1,0,0:0:0:0:
275,276,133604,1,0,0:0:0:0:
231,304,133840,2,0,B|205:351|152:319|125:370,1,130
63,316,134548,6,0,L|35:258,3,65
35,204,135493,1,0,0:0:0:0:
135,184,135966,1,0,0:0:0:0:
135,288,136438,2,0,P|196:296|221:241,1,130
167,248,137147,1,0,0:0:0:0:
131,212,137383,1,0,0:0:0:0:
131,160,137619,2,0,B|79:174|65:114|9:131,1,130
11,28,138564,86,0,L|75:28,1,65
143,108,139273,2,0,P|54:137|23:228,1,195
115,204,140454,1,0,0:0:0:0:
115,204,140690,1,0,0:0:0:0:
211,184,141163,2,0,P|181:273|91:303,1,195
56,264,142107,1,0,0:0:0:0:
20,224,142344,2,0,L|69:183,1,65
112,148,142816,1,0,0:0:0:0:
72,116,143052,86,0,L|23:75,1,65
48,28,143524,1,0,0:0:0:0:
84,64,143761,1,0,0:0:0:0:
120,100,143997,2,0,L|184:100,1,65
264,168,144706,1,0,0:0:0:0:
344,236,145178,1,0,0:0:0:0:
384,268,145414,2,0,L|448:268,1,65
448,216,145887,38,0,L|470:156,3,65
448,108,146832,1,0,0:0:0:0:
344,108,147304,2,0,L|280:108,1,65
264,156,147777,2,0,P|238:141|226:111,1,65
120,108,148485,1,0,0:0:0:0:
76,80,148721,1,0,0:0:0:0:
32,52,148958,2,0,B|6:98|60:128|29:177,1,130
68,212,149667,6,0,L|46:272,3,65
68,320,150611,1,0,0:0:0:0:
144,252,151084,1,0,0:0:0:0:
248,252,151556,2,0,L|312:252,1,65
312,148,152265,1,0,0:0:0:0:
364,148,152501,1,0,0:0:0:0:
364,200,152737,2,0,B|415:214|430:154|485:171,1,130
468,68,153682,86,0,P|436:64|404:68,2,65
436,108,154391,2,0,L|436:172,2,65
397,140,155099,2,0,L|397:76,2,65
429,180,155808,2,0,P|397:184|365:180,2,65
273,180,156989,2,0,L|224:221,1,65
184,256,157462,2,0,L|234:298,1,65
272,332,157934,1,0,0:0:0:0:
225,324,158170,86,0,L|162:330,1,65
113,308,158643,1,0,0:0:0:0:
149,272,158880,1,0,0:0:0:0:
185,236,159116,2,0,L|249:236,1,65
329,168,159825,1,0,0:0:0:0:
237,116,160297,1,0,0:0:0:0:
197,84,160533,2,0,L|133:84,1,65
100,120,161005,69,0,0:0:0:0:
100,212,161478,1,0,0:0:0:0:
176,264,161950,2,0,P|220:288|284:256,1,116.999996429443
224,188,162895,2,0,P|268:164|332:196,1,116.999996429443
332,280,163840,1,0,0:0:0:0:
424,280,164313,1,0,0:0:0:0:
472,280,164549,1,0,0:0:0:0:
464,188,165021,85,0,0:0:0:0:
464,140,165258,1,0,0:0:0:0:
408,64,165730,2,0,P|364:40|300:72,1,116.999996429443
360,140,166675,2,0,P|316:164|252:132,1,116.999996429443
252,48,167620,1,0,0:0:0:0:
160,48,168093,1,0,0:0:0:0:
112,48,168329,1,0,0:0:0:0:
116,140,168801,6,0,L|148:140,6,29.2499991073609
268,176,170218,2,0,B|320:165|330:226|386:214,1,130
280,328,171399,1,0,0:0:0:0:
224,240,171872,1,0,0:0:0:0:
192,200,172108,1,0,0:0:0:0:
88,208,172580,54,0,B|152:160|204:237|273:185,1,195
220,40,173998,2,0,B|263:8|297:59|343:24,2,130
220,92,175179,1,0,0:0:0:0:
220,168,175533,1,0,0:0:0:0:
220,244,175887,1,0,0:0:0:0:
360,176,176596,1,0,0:0:0:0:
256,192,185336,12,0,192187,0:0:0:0:
196,324,192659,102,0,P|260:340|328:320,2,130
196,272,193840,2,0,P|132:256|64:276,2,130
196,168,195257,2,0,P|260:184|328:164,1,130
316,116,195966,1,0,0:0:0:0:
396,248,196675,86,0,P|429:256|463:245,2,65
368,348,197620,2,0,P|432:364|500:344,2,130
324,252,199037,2,0,P|260:236|192:256,1,130
200,304,199746,1,0,0:0:0:0:
80,204,200454,38,0,P|167:166|254:204,1,195
256,256,201399,2,0,P|338:293|441:244,1,195
432,204,202344,1,0,0:0:0:0:
344,148,202817,1,0,0:0:0:0:
392,240,203289,2,0,B|291:278|178:164|77:214,1,325
148,352,205179,2,0,B|234:416|304:313|396:382,1,260
432,344,206360,38,0,L|460:286,3,65
461,232,207305,1,0,0:0:0:0:
