osu file format v14

[General]
AudioFilename: audio.mp3
AudioLeadIn: 0
PreviewTime: 55179
Countdown: 0
SampleSet: Soft
StackLeniency: 0.7
Mode: 0
LetterboxInBreaks: 0
WidescreenStoryboard: 0

[Editor]
Bookmarks: 175179,190297
DistanceSpacing: 1
BeatDivisor: 4
GridSize: 4
TimelineZoom: 1

[Metadata]
Title:Touch My Body
TitleUnicode:Touch My Body
Artist:SISTAR
ArtistUnicode:씨스타
Creator:Lilyanna
Version:Summer
Source:
Tags:Starship entertainment Touch N Move K-pop kpop Bora Hyorin Dasom Soyou 김효정 윤보라 소유 김다솜 Bakari Namki
BeatmapID:1273190
BeatmapSetID:602753

[Difficulty]
HPDrainRate:7
CircleSize:4.8
OverallDifficulty:7
ApproachRate:8.5
SliderMultiplier:1.7
SliderTickRate:1

[Events]
//Background and Video events
0,0,"3.png",0,0
Video,0,"BodyWash.avi"
//Break Periods
2,177068,189622
//Storyboard Layer 0 (Background)
//Storyboard Layer 1 (Fail)
//Storyboard Layer 2 (Pass)
//Storyboard Layer 3 (Foreground)
//Storyboard Sound Samples

[TimingPoints]
8880,472.44094488189,4,2,1,40,1,0
23998,-100,4,2,3,40,0,0
25887,-100,4,2,1,40,0,0
28958,-58.8235294117647,4,2,1,40,0,0
29667,-100,4,2,1,40,0,0
32738,-58.8235294117647,4,2,1,40,0,0
33446,-100,4,2,1,40,0,0
34155,-166.666666666667,4,2,1,40,0,0
35100,-100,4,2,1,40,0,0
36045,-166.666666666667,4,2,1,40,0,0
36517,-58.8235294117647,4,2,1,40,0,0
37226,-100,4,2,1,40,0,0
40533,-200,4,2,1,40,0,0
41005,-100,4,2,1,40,0,0
44076,-58.8235294117647,4,2,1,40,0,0
44785,-100,4,2,1,40,0,0
47856,-58.8235294117647,4,2,1,40,0,0
48565,-100,4,2,1,40,0,0
51635,-58.8235294117647,4,2,1,40,0,0
52344,-100,4,2,1,40,0,0
54234,-100,4,2,3,40,0,0
54706,-133.333333333333,4,2,3,40,0,0
55179,-200,4,2,3,40,0,0
56124,-100,4,2,1,60,0,1
83289,-100,4,2,3,60,0,1
83761,-100,4,2,1,60,0,1
84234,-100,4,2,3,60,0,1
84942,-100,4,2,1,60,0,1
85179,-100,4,2,3,60,0,1
86360,-100,4,2,1,40,0,0
99352,-100,4,2,3,40,0,0
100533,-100,4,2,1,40,0,0
101005,-200,4,2,1,40,0,0
101478,-100,4,2,1,40,0,0
104313,-250,4,2,1,40,0,0
105257,-100,4,2,1,40,0,0
113761,-100,4,2,3,40,0,0
114234,-100,4,2,1,40,0,0
114470,-100,4,2,3,40,0,0
116124,-200,4,2,1,40,0,0
116596,-100,4,2,1,40,0,0
119667,-58.8235294117647,4,2,1,40,0,0
120376,-100,4,2,1,40,0,0
123446,-58.8235294117647,4,2,1,40,0,0
124155,-100,4,2,1,40,0,0
127226,-58.8235294117647,4,2,1,40,0,0
127935,-100,4,2,1,40,0,0
129824,-100,4,2,3,40,0,0
130769,-200,4,2,3,40,0,0
131714,-100,4,2,1,60,0,1
158880,-100,4,2,3,60,0,1
159352,-100,4,2,1,60,0,1
159824,-100,4,2,3,60,0,1
161950,-100,4,2,1,30,0,0
162423,-100,4,2,3,30,0,0
169509,-100,4,2,1,40,0,0
173998,-133.333333333333,4,2,1,40,0,0
174942,-200,4,2,1,40,0,0
190297,-100,4,2,1,40,0,0
205415,-100,4,2,3,40,0,0

[Colours]
Combo1 : 255,202,255
Combo2 : 255,184,149
Combo3 : 199,141,141
Combo4 : 255,140,140

[HitObjects]
98,96,8880,5,2,0:0:0:0:
105,137,8998,1,2,0:0:0:0:
126,173,9116,1,2,0:0:0:0:
160,197,9234,1,2,0:0:0:0:
200,209,9352,1,2,0:0:0:0:
242,207,9470,1,2,0:0:0:0:
275,180,9588,1,2,0:0:0:0:
307,152,9706,1,2,0:0:0:0:
328,115,9824,5,2,0:0:0:0:
360,144,9942,1,2,0:0:0:0:
396,166,10061,1,2,0:0:0:0:
438,171,10179,1,2,0:0:0:0:
476,153,10297,1,2,0:0:0:0:
496,114,10415,1,2,0:0:0:0:
475,70,10533,1,2,0:0:0:0:
426,49,10651,1,2,0:0:0:0:
390,73,10769,6,0,P|409:144|348:218,1,170,4|8,0:0|0:0,0:0:0:0:
303,126,11478,2,0,B|211:111|211:149|122:120,1,170,2|2,0:0|0:0,0:0:0:0:
65,91,12068,1,0,0:0:0:0:
65,91,12187,2,0,L|55:187,1,85,8|0,0:0|0:0,0:0:0:0:
73,327,12659,6,0,B|134:321|163:262|163:262|174:297|199:313,1,170,2|8,0:0|0:0,0:0:0:0:
273,179,13368,1,0,0:0:0:0:
278,26,13604,2,0,P|327:45|356:84,1,85,0|2,0:0|0:0,0:0:0:0:
357,144,13958,1,0,0:0:0:0:
357,144,14076,2,0,P|385:98|439:65,1,85,8|0,0:0|0:0,0:0:0:0:
463,196,14549,6,0,L|448:21,1,170,6|8,0:0|0:0,0:0:0:0:
310,57,15257,2,0,P|242:78|300:109,1,170,2|2,0:0|0:0,0:0:0:0:
342,172,15848,1,0,0:0:0:0:
342,172,15966,2,0,L|252:200,1,85,8|0,0:0|0:0,0:0:0:0:
76,212,16439,6,0,B|84:286|140:307|140:307|103:327|107:348,1,170,2|8,0:0|0:0,0:0:0:0:
183,208,17147,1,2,0:0:0:0:
199,359,17383,2,0,L|303:368,1,85,0|2,0:0|0:0,0:0:0:0:
340,313,17738,1,0,0:0:0:0:
340,313,17856,2,0,P|337:251|339:244,2,42.5,8|0|0,0:0|0:0|0:0,0:0:0:0:
425,100,18328,6,0,P|475:175|448:266,1,170,6|8,0:0|0:0,0:0:0:0:
346,231,19037,2,0,P|291:269|317:209,1,170,2|2,0:0|0:0,0:0:0:0:
327,134,19628,1,0,0:0:0:0:
327,134,19746,2,0,L|219:156,1,85,8|0,0:0|0:0,0:0:0:0:
151,273,20218,6,0,L|134:93,1,170,2|8,0:0|0:0,0:0:0:0:
287,45,20927,1,2,0:0:0:0:
181,48,21163,2,0,P|129:31|88:43,1,85,0|2,0:0|0:0,0:0:0:0:
38,81,21517,1,0,0:0:0:0:
38,81,21635,2,0,L|48:170,1,85,8|0,0:0|0:0,0:0:0:0:
127,295,22108,6,0,B|225:285|213:293|198:300|310:289,1,170,6|8,0:0|0:0,0:0:0:0:
414,259,22817,2,0,P|469:221|404:225,1,170,2|2,0:0|0:0,0:0:0:0:
339,205,23407,1,0,0:0:0:0:
339,205,23525,2,0,B|339:171|374:144|374:144|353:119|342:92,1,127.5,8|0,0:0|0:0,0:0:0:0:
301,99,23998,5,8,0:0:0:0:
271,68,24116,1,8,0:0:0:0:
284,27,24234,1,8,0:0:0:0:
326,22,24352,1,8,0:0:0:0:
354,52,24470,2,0,L|458:67,1,85,8|8,0:0|0:0,0:0:0:0:
468,94,24824,1,8,0:0:0:0:
468,94,24942,2,0,L|484:146,1,42.5,8|0,0:0|0:0,0:0:0:0:
493,230,25179,6,0,L|486:283,1,42.5,8|0,0:0|0:0,0:0:0:0:
404,322,25415,6,0,L|319:298,1,85,8|8,0:0|0:0,0:0:0:0:
250,220,25769,1,8,0:0:0:0:
250,220,25887,6,0,P|241:286|220:320,1,85,6|0,0:0|0:0,0:0:0:0:
137,329,26360,2,0,L|143:375,1,42.5,8|0,0:0|0:0,0:0:0:0:
66,266,26596,1,2,0:0:0:0:
128,188,26832,2,0,L|116:92,1,85,0|2,0:0|0:0,0:0:0:0:
106,27,27187,1,0,0:0:0:0:
106,27,27305,1,8,0:0:0:0:
212,69,27541,2,0,L|223:126,1,42.5,0|0,0:0|0:0,0:0:0:0:
301,143,27777,6,0,L|301:40,1,85,2|0,0:0|0:0,0:0:0:0:
397,34,28250,2,0,L|389:86,1,42.5,8|0,0:0|0:0,0:0:0:0:
472,70,28486,2,0,L|458:155,1,85,2|0,0:0|0:0,0:0:0:0:
267,261,28958,6,0,P|281:300|312:325,1,72.2500013780594,2|0,0:0|0:0,0:0:0:0:
237,253,29194,2,0,P|227:293|239:331,1,72.2500013780594,8|0,0:0|0:0,0:0:0:0:
212,230,29431,2,0,P|182:258|171:297,1,72.2500013780594,0|0,0:0|0:0,0:0:0:0:
271,173,29667,6,0,P|278:118|268:68,1,85,2|0,0:0|0:0,0:0:0:0:
151,86,30139,2,0,L|139:45,1,42.5,8|0,0:0|0:0,0:0:0:0:
91,178,30376,1,2,0:0:0:0:
86,288,30612,2,0,L|190:310,1,85,0|2,0:0|0:0,0:0:0:0:
271,346,30966,1,0,0:0:0:0:
271,346,31084,1,8,0:0:0:0:
416,293,31320,2,0,L|347:307,1,42.5,0|0,0:0|0:0,0:0:0:0:
485,334,31557,6,0,P|494:277|466:231,1,85,2|0,0:0|0:0,0:0:0:0:
497,143,32029,2,0,L|395:169,2,85,10|2|0,0:0|0:0|0:0,0:0:0:0:
323,217,32738,6,0,L|397:251,1,72.2500013780594,2|0,0:0|0:0,0:0:0:0:
296,233,32974,2,0,L|339:301,1,72.2500013780594,8|0,0:0|0:0,0:0:0:0:
264,232,33210,2,0,L|263:313,1,72.2500013780594,0|0,0:0|0:0,0:0:0:0:
176,359,33446,6,0,L|179:249,1,85,2|0,0:0|0:0,0:0:0:0:
184,109,33919,2,0,L|182:156,1,42.5,8|0,0:0|0:0,0:0:0:0:
76,246,34155,6,0,L|77:151,1,76.4999976654053,2|0,0:0|0:0,0:0:0:0:
77,123,34628,1,2,0:0:0:0:
77,97,34746,1,0,0:0:0:0:
79,71,34864,1,8,0:0:0:0:
182,151,35100,2,0,L|237:151,1,42.5,0|0,0:0|0:0,0:0:0:0:
266,38,35336,6,0,L|376:41,1,85,2|0,0:0|0:0,0:0:0:0:
436,141,35809,2,0,L|389:139,1,42.5,8|0,0:0|0:0,0:0:0:0:
314,204,36045,6,0,P|306:250|322:298,1,76.4999976654053,2|0,0:0|0:0,0:0:0:0:
168,340,36517,6,0,B|162:264,1,72.2500013780594,2|0,0:0|0:0,0:0:0:0:
96,271,36754,2,0,B|138:202,1,72.2500013780594,8|0,0:0|0:0,0:0:0:0:
73,185,36990,2,0,B|144:148,1,72.2500013780594,0|0,0:0|0:0,0:0:0:0:
216,182,37226,6,0,P|223:126|197:85,1,85,2|0,0:0|0:0,0:0:0:0:
178,32,37580,1,0,0:0:0:0:
178,32,37698,1,8,0:0:0:0:
297,69,37935,2,0,P|364:100|461:57,1,170,2|2,0:0|0:0,0:0:0:0:
504,14,38525,1,0,0:0:0:0:
504,14,38643,1,8,0:0:0:0:
490,141,38880,2,0,L|483:204,1,42.5,0|0,0:0|0:0,0:0:0:0:
441,286,39116,5,2,0:0:0:0:
372,155,39352,1,2,0:0:0:0:
395,354,39588,1,8,0:0:0:0:
269,191,39824,1,2,0:0:0:0:
245,346,40061,1,0,0:0:0:0:
189,148,40297,1,2,0:0:0:0:
162,289,40533,6,0,L|160:356,1,63.75,8|0,0:0|0:0,0:0:0:0:
108,372,41005,6,0,P|78:360|16:356,1,85,6|0,0:0|0:0,0:0:0:0:
25,244,41478,2,0,P|67:241|107:226,1,85,8|0,0:0|0:0,0:0:0:0:
160,130,41950,1,0,0:0:0:0:
106,227,42187,1,2,0:0:0:0:
211,195,42423,1,8,0:0:0:0:
162,49,42659,2,0,L|112:42,1,42.5,0|0,0:0|0:0,0:0:0:0:
18,47,42895,6,0,P|29:106|6:152,1,85,2|0,0:0|0:0,0:0:0:0:
20,205,43250,1,2,0:0:0:0:
20,205,43368,2,0,L|123:210,2,85,8|2|0,0:0|0:0|0:0,0:0:0:0:
158,258,44076,6,0,L|219:295,1,72.2500013780594,2|0,0:0|0:0,0:0:0:0:
183,232,44313,2,0,L|260:228,1,72.2500013780594,8|0,0:0|0:0,0:0:0:0:
197,184,44549,2,0,L|256:144,1,72.2500013780594,0|0,0:0|0:0,0:0:0:0:
307,41,44785,6,0,P|330:111|323:140,1,85,2|0,0:0|0:0,0:0:0:0:
326,230,45257,1,8,0:0:0:0:
429,142,45494,1,2,0:0:0:0:
343,324,45730,1,0,0:0:0:0:
489,211,45966,1,2,0:0:0:0:
419,366,46202,1,8,0:0:0:0:
206,305,46439,2,0,L|158:315,1,42.5,0|0,0:0|0:0,0:0:0:0:
92,370,46675,6,0,P|74:314|86:271,1,85,2|0,0:0|0:0,0:0:0:0:
90,213,47029,1,2,0:0:0:0:
90,213,47147,2,0,L|65:116,2,85,8|2|0,0:0|0:0|0:0,0:0:0:0:
132,26,47856,6,0,L|147:104,1,72.2500013780594,2|0,0:0|0:0,0:0:0:0:
201,21,48092,2,0,L|171:94,1,72.2500013780594,8|0,0:0|0:0,0:0:0:0:
258,47,48328,2,0,L|192:92,1,72.2500013780594,0|0,0:0|0:0,0:0:0:0:
171,198,48565,6,0,L|189:296,1,85,2|0,0:0|0:0,0:0:0:0:
202,356,48919,1,0,0:0:0:0:
202,356,49037,1,8,0:0:0:0:
280,254,49273,2,0,P|375:242|434:292,1,170,2|2,0:0|0:0,0:0:0:0:
476,345,49864,1,0,0:0:0:0:
476,345,49982,1,8,0:0:0:0:
483,218,50218,2,0,L|486:167,1,42.5,0|0,0:0|0:0,0:0:0:0:
414,106,50454,6,0,P|359:113|314:100,1,85,2|0,0:0|0:0,0:0:0:0:
261,71,50809,1,2,0:0:0:0:
261,71,50927,2,0,L|249:168,2,85,8|2|0,0:0|0:0|0:0,0:0:0:0:
146,225,51635,6,0,L|157:308,1,72.2500013780594,2|0,0:0|0:0,0:0:0:0:
169,179,51872,2,0,L|158:262,1,72.2500013780594,8|0,0:0|0:0,0:0:0:0:
137,147,52108,2,0,L|156:221,1,72.2500013780594,0|0,0:0|0:0,0:0:0:0:
156,70,52344,6,0,L|153:154,1,85,2|0,0:0|0:0,0:0:0:0:
215,15,52698,1,2,0:0:0:0:
215,15,52817,2,0,L|327:30,1,85,8|0,0:0|0:0,0:0:0:0:
353,115,53289,2,0,P|346:160|362:222,1,85,0|2,0:0|0:0,0:0:0:0:
296,293,53761,2,0,L|211:304,1,85,8|0,0:0|0:0,0:0:0:0:
132,172,54234,5,8,0:0:0:0:
173,165,54352,1,8,0:0:0:0:
194,201,54470,1,8,0:0:0:0:
166,233,54588,1,8,0:0:0:0:
135,222,54706,2,0,L|48:234,1,63.7500024318696,8|8,0:0|0:0,0:0:0:0:
21,176,55061,1,8,0:0:0:0:
21,176,55179,6,0,L|8:119,1,42.5,8|8,0:0|0:0,0:0:0:0:
36,61,55533,1,0,0:0:0:0:
36,61,55651,1,12,0:0:0:0:
137,137,55887,1,0,0:0:0:0:
227,72,56124,6,0,P|244:134|217:208,1,127.5,6|0,0:0|0:0,0:0:0:0:
174,248,56596,1,8,0:0:0:0:
334,295,56832,1,2,0:0:0:0:
192,332,57068,1,0,0:0:0:0:
302,214,57305,1,2,0:0:0:0:
278,357,57541,1,8,0:0:0:0:
445,235,57777,1,0,0:0:0:0:
445,235,57895,1,0,0:0:0:0:
445,235,58013,6,0,P|462:197|447:138,1,85,2|2,0:0|0:0,0:0:0:0:
415,25,58486,2,0,P|398:63|413:122,1,85,8|2,0:0|0:0,0:0:0:0:
302,153,58958,2,0,L|197:167,1,85,0|0,0:0|0:0,0:0:0:0:
141,173,59313,1,0,0:0:0:0:
141,173,59431,2,0,P|147:244|133:277,1,85,8|0,0:0|0:0,0:0:0:0:
283,317,59903,6,0,B|348:304|348:335|441:320,1,127.5,2|0,0:0|0:0,0:0:0:0:
455,262,60376,1,8,0:0:0:0:
355,96,60612,1,2,0:0:0:0:
377,252,60848,1,0,0:0:0:0:
276,46,61084,1,2,0:0:0:0:
243,209,61320,1,8,0:0:0:0:
116,113,61557,1,0,0:0:0:0:
116,113,61675,1,0,0:0:0:0:
116,113,61793,6,0,L|21:124,1,85,2|2,0:0|0:0,0:0:0:0:
30,275,62265,2,0,L|114:284,2,85,8|2|0,0:0|0:0|0:0,0:0:0:0:
176,228,62974,2,0,L|191:288,1,42.5,2|0,0:0|0:0,0:0:0:0:
274,202,63210,2,0,L|284:160,1,42.5,8|0,0:0|0:0,0:0:0:0:
362,237,63446,2,0,L|377:297,1,42.5,0|0,0:0|0:0,0:0:0:0:
441,193,63683,6,0,P|447:137|432:91,1,85,2|0,0:0|0:0,0:0:0:0:
378,64,64037,1,0,0:0:0:0:
378,64,64155,2,0,L|323:75,1,42.5,8|0,0:0|0:0,0:0:0:0:
264,46,64391,2,0,P|266:106|285:130,1,85,2|0,0:0|0:0,0:0:0:0:
159,220,64864,2,0,L|206:225,1,42.5,2|0,0:0|0:0,0:0:0:0:
322,278,65100,2,0,L|275:283,1,42.5,8|0,0:0|0:0,0:0:0:0:
167,347,65336,2,0,L|214:342,1,42.5,0|0,0:0|0:0,0:0:0:0:
382,323,65572,6,0,P|395:263|379:229,1,85,2|2,0:0|0:0,0:0:0:0:
338,183,65927,1,0,0:0:0:0:
338,183,66045,2,0,L|332:128,1,42.5,8|0,0:0|0:0,0:0:0:0:
276,89,66281,2,0,L|174:97,1,85,2|0,0:0|0:0,0:0:0:0:
27,59,66754,1,2,0:0:0:0:
136,166,66990,2,0,L|52:160,1,85,8|0,0:0|0:0,0:0:0:0:
215,162,67462,6,0,P|197:216|150:242,1,85,2|0,0:0|0:0,0:0:0:0:
311,159,67935,2,0,P|329:213|376:239,1,85,8|2,0:0|0:0,0:0:0:0:
263,356,68407,2,0,L|263:271,1,85,0|2,0:0|0:0,0:0:0:0:
262,93,68880,1,8,0:0:0:0:
422,70,69116,2,0,L|464:51,1,42.5,0|0,0:0|0:0,0:0:0:0:
348,45,69352,6,0,P|349:100|379:138,1,85,2|2,0:0|0:0,0:0:0:0:
456,240,69824,2,0,P|474:202|471:160,1,85,8|2,0:0|0:0,0:0:0:0:
346,249,70297,2,0,P|294:222|219:278,1,127.5,8|0,3:0|0:0,0:0:0:0:
291,299,70769,1,8,0:0:0:0:
173,201,71005,2,0,L|175:148,1,42.5,0|0,0:0|0:0,0:0:0:0:
61,71,71242,6,0,L|58:220,1,127.5,6|0,0:0|0:0,0:0:0:0:
136,102,71714,2,0,L|124:2,1,85,8|0,0:0|0:0,0:0:0:0:
228,109,72187,2,0,L|240:209,1,85,0|2,0:0|0:0,0:0:0:0:
289,49,72659,1,8,0:0:0:0:
346,190,72895,2,0,L|354:246,1,42.5,0|0,0:0|0:0,0:0:0:0:
422,160,73131,6,0,L|411:66,1,85,2|2,0:0|0:0,0:0:0:0:
480,212,73604,2,0,L|489:296,1,85,8|2,0:0|0:0,0:0:0:0:
344,342,74076,2,0,L|243:342,1,85,0|2,0:0|0:0,0:0:0:0:
181,341,74431,1,0,0:0:0:0:
181,341,74549,1,8,0:0:0:0:
84,221,74785,2,0,L|78:279,1,42.5,0|0,0:0|0:0,0:0:0:0:
155,183,75021,6,0,P|99:142|30:161,1,127.5,2|0,0:0|0:0,0:0:0:0:
38,73,75494,2,0,P|85:65|125:71,1,85,8|2,0:0|0:0,0:0:0:0:
300,19,75966,1,0,0:0:0:0:
338,167,76202,1,2,0:0:0:0:
237,50,76439,1,8,0:0:0:0:
377,109,76675,1,0,0:0:0:0:
178,110,76911,5,2,0:0:0:0:
386,26,77147,1,2,0:0:0:0:
422,174,77383,2,0,L|429:276,2,85,8|2|0,0:0|0:0|0:0,0:0:0:0:
352,311,78092,1,2,0:0:0:0:
377,109,78328,1,8,0:0:0:0:
289,262,78565,1,0,0:0:0:0:
212,129,78801,6,0,P|155:95|114:105,1,85,2|0,0:0|0:0,0:0:0:0:
146,174,79155,1,0,0:0:0:0:
146,174,79273,1,8,0:0:0:0:
233,214,79509,6,0,P|199:271|209:312,1,85,2|0,0:0|0:0,0:0:0:0:
278,280,79863,1,0,0:0:0:0:
278,280,79981,1,2,0:0:0:0:
342,86,80218,1,8,0:0:0:0:
367,315,80454,1,0,0:0:0:0:
260,113,80691,6,0,L|130:125,1,127.5,2|0,0:0|0:0,0:0:0:0:
57,135,81163,1,8,0:0:0:0:
90,357,81399,2,0,P|129:268|73:189,1,170,2|2,0:0|0:0,0:0:0:0:
16,75,82108,1,8,0:0:0:0:
178,180,82344,2,0,L|236:185,1,42.5,0|0,0:0|0:0,0:0:0:0:
250,311,82580,6,0,P|279:260|274:202,1,85,2|2,0:0|0:0,0:0:0:0:
286,61,83053,1,8,0:0:0:0:
355,273,83289,1,8,0:0:0:0:
355,273,83407,1,8,0:0:0:0:
355,273,83525,6,0,P|348:214|338:202,1,42.5,8|8,0:0|0:0,0:0:0:0:
325,166,83761,1,2,0:0:0:0:
286,61,83998,1,8,0:0:0:0:
455,101,84234,2,0,L|510:102,1,42.5,0|0,0:0|0:0,0:0:0:0:
400,32,84470,1,8,0:0:0:0:
378,68,84588,1,8,0:0:0:0:
376,110,84706,1,8,0:0:0:0:
390,149,84824,1,8,0:0:0:0:
415,183,84942,6,0,P|433:220|434:263,1,85,2|8,0:0|0:0,0:0:0:0:
256,283,85415,2,0,B|195:266|195:304|126:282,1,127.5,0|0,0:0|0:0,0:0:0:0:
160,206,85887,1,0,0:0:0:0:
80,84,86124,2,0,L|83:153,1,42.5
187,89,86360,6,0,B|243:94|276:154|276:154|309:91,1,170,6|8,0:0|0:0,0:0:0:0:
316,257,87068,2,0,B|372:153|372:153|386:231,1,170,2|2,0:0|0:0,0:0:0:0:
457,216,87659,1,0,0:0:0:0:
457,216,87777,2,0,L|442:131,1,85,8|0,0:0|0:0,0:0:0:0:
311,52,88250,6,0,P|206:73|153:47,1,170,2|8,0:0|0:0,0:0:0:0:
63,171,88958,1,2,0:0:0:0:
146,299,89194,2,0,L|137:198,1,85,0|2,0:0|0:0,0:0:0:0:
163,141,89549,1,0,0:0:0:0:
163,141,89667,2,0,L|263:140,1,85,8|0,0:0|0:0,0:0:0:0:
367,218,90139,6,0,P|397:159|359:58,1,170,6|8,0:0|0:0,0:0:0:0:
247,140,90848,2,0,P|288:177|269:105,1,170,2|2,0:0|0:0,0:0:0:0:
224,64,91439,1,0,0:0:0:0:
224,64,91557,2,0,P|174:111|169:155,1,85,8|0,0:0|0:0,0:0:0:0:
115,267,92029,6,0,B|143:162|83:186|98:96,1,170,2|8,0:0|0:0,0:0:0:0:
15,221,92738,1,2,0:0:0:0:
106,343,92974,2,0,L|195:348,1,85,0|2,0:0|0:0,0:0:0:0:
243,292,93328,1,0,0:0:0:0:
243,292,93446,2,0,L|333:296,1,85,8|0,0:0|0:0,0:0:0:0:
396,146,93919,6,0,B|403:195|382:237|382:237|414:269|409:317,1,170,6|8,0:0|0:0,0:0:0:0:
396,146,94628,2,0,P|395:69|434:126,1,170,2|2,0:0|0:0,0:0:0:0:
502,139,95218,1,0,0:0:0:0:
502,139,95336,2,0,P|508:75|485:42,1,85,8|0,0:0|0:0,0:0:0:0:
334,38,95809,6,0,B|247:40|247:40|218:58|168:67,1,170,2|8,0:0|0:0,0:0:0:0:
310,123,96517,1,2,0:0:0:0:
157,147,96754,2,0,P|108:123|90:89,1,85,0|2,0:0|0:0,0:0:0:0:
22,79,97108,1,0,0:0:0:0:
22,79,97226,2,0,L|16:175,1,85,8|0,0:0|0:0,0:0:0:0:
128,268,97698,6,0,B|230:245|230:294|315:260,1,170,6|8,0:0|0:0,0:0:0:0:
363,128,98407,2,0,P|439:140|386:169,1,170,2|2,0:0|0:0,0:0:0:0:
333,195,98998,1,0,0:0:0:0:
333,195,99116,1,8,0:0:0:0:
200,117,99352,1,8,0:0:0:0:
200,117,99470,1,8,0:0:0:0:
200,117,99588,5,0,0:0:0:0:
172,84,99706,1,0,0:0:0:0:
129,81,99824,1,0,0:0:0:0:
102,114,99942,1,0,0:0:0:0:
106,156,100061,1,0,0:0:0:0:
136,186,100179,1,0,0:0:0:0:
153,224,100297,1,0,0:0:0:0:
157,266,100415,1,0,0:0:0:0:
138,304,100533,1,0,0:0:0:0:
71,250,100769,1,2,0:0:0:0:
292,221,101005,6,0,L|299:148,1,63.75,8|0,0:0|0:0,0:0:0:0:
304,80,101478,5,2,0:0:0:0:
403,222,101714,1,0,0:0:0:0:
403,222,101832,1,0,0:0:0:0:
403,222,101950,2,0,L|391:338,1,85,8|2,0:0|0:0,0:0:0:0:
309,317,102423,2,0,L|220:324,1,85,0|2,0:0|0:0,0:0:0:0:
129,236,102777,1,0,0:0:0:0:
129,236,102895,2,0,L|199:233,2,42.5,8|0|0,0:0|0:0|0:0,0:0:0:0:
333,133,103368,6,0,L|244:140,1,85,2|0,0:0|0:0,0:0:0:0:
145,48,103722,1,2,0:0:0:0:
145,48,103840,2,0,L|219:53,2,42.5,8|0|2,0:0|0:0|0:0,0:0:0:0:
173,128,104313,6,0,P|176:166|242:215,1,119,0|0,0:0|0:0,0:0:0:0:
248,139,105257,5,2,0:0:0:0:
350,253,105494,1,0,0:0:0:0:
350,253,105612,1,0,0:0:0:0:
350,253,105730,2,0,L|357:349,1,85,8|2,0:0|0:0,0:0:0:0:
457,223,106202,2,0,L|450:138,1,85
358,45,106557,1,0,0:0:0:0:
358,45,106675,2,0,L|363:112,2,42.5,8|0|0,0:0|0:0|0:0,0:0:0:0:
350,253,107147,5,2,0:0:0:0:
244,142,107383,1,0,0:0:0:0:
244,142,107502,1,0,0:0:0:0:
244,142,107620,2,0,P|182:135|150:146,1,85,8|2,0:0|0:0,0:0:0:0:
161,292,108092,2,0,P|204:209|153:243,1,255
313,318,109037,6,0,P|326:259|308:205,1,85,2|0,0:0|0:0,0:0:0:0:
317,159,109391,1,2,0:0:0:0:
317,159,109509,2,0,L|429:149,2,85,8|2|0,0:0|0:0|0:0,0:0:0:0:
436,62,110218,1,2,0:0:0:0:
283,74,110454,2,0,L|198:81,1,85,8|0,0:0|0:0,0:0:0:0:
113,209,110927,6,0,P|108:144|121:98,1,85,2|0,0:0|0:0,0:0:0:0:
131,51,111281,1,2,0:0:0:0:
131,51,111399,1,8,0:0:0:0:
193,190,111635,2,0,P|185:257|85:284,1,170,2|2,0:0|0:0,0:0:0:0:
248,343,112344,1,8,0:0:0:0:
290,347,112462,1,0,0:0:0:0:
320,317,112580,1,0,0:0:0:0:
303,278,112698,1,0,0:0:0:0:
318,238,112817,6,0,L|384:216,1,42.5,2|0,0:0|0:0,0:0:0:0:
374,108,113171,1,2,0:0:0:0:
374,108,113289,2,8,L|308:86,2,42.5,8|0|8,0:0|0:0|0:0,0:0:0:0:
210,64,113761,1,8,0:0:0:0:
210,64,113880,1,8,0:0:0:0:
210,64,113998,1,8,0:0:0:0:
71,170,114234,2,0,L|137:148,1,42.5,8|0,0:0|0:0,0:0:0:0:
213,175,114470,1,8,0:0:0:0:
213,175,114588,1,8,0:0:0:0:
213,175,114706,6,0,L|174:217,1,42.5,8|0,0:0|0:0,0:0:0:0:
205,332,115179,2,0,L|244:290,1,42.5,8|0,0:0|0:0,0:0:0:0:
360,283,115651,2,0,L|321:325,1,42.5,8|0,0:0|0:0,0:0:0:0:
430,143,116124,6,0,L|432:201,1,42.5,8|0,0:0|0:0,0:0:0:0:
331,314,116596,6,0,L|327:221,1,85,6|0,0:0|0:0,0:0:0:0:
249,335,117068,1,8,0:0:0:0:
294,158,117305,1,2,0:0:0:0:
177,295,117541,1,0,0:0:0:0:
126,118,117778,1,2,0:0:0:0:
258,251,118013,1,8,0:0:0:0:
238,49,118250,2,0,L|243:101,1,42.5,0|0,0:0|0:0,0:0:0:0:
117,204,118486,6,0,P|65:176|48:135,1,85,2|0,0:0|0:0,0:0:0:0:
38,79,118840,1,2,0:0:0:0:
38,79,118958,2,0,L|18:191,2,85,8|2|0,0:0|0:0|0:0,0:0:0:0:
259,350,119667,6,0,L|189:336,1,72.2500013780594,2|0,0:0|0:0,0:0:0:0:
102,296,119903,2,0,L|162:244,1,72.2500013780594,8|0,0:0|0:0,0:0:0:0:
231,192,120139,2,0,L|248:270,1,72.2500013780594,0|0,0:0|0:0,0:0:0:0:
488,220,120376,6,0,L|390:202,1,85,6|0,0:0|0:0,0:0:0:0:
486,130,120848,1,8,0:0:0:0:
327,184,121084,1,2,0:0:0:0:
418,42,121320,1,0,0:0:0:0:
327,184,121556,1,2,0:0:0:0:
268,69,121793,1,8,0:0:0:0:
254,225,122029,2,0,L|252:278,1,42.5
308,335,122265,6,0,P|243:354|215:346,1,85,2|0,0:0|0:0,0:0:0:0:
159,315,122620,1,2,0:0:0:0:
159,315,122738,2,0,L|63:322,2,85,8|2|0,0:0|0:0|0:0,0:0:0:0:
355,122,123446,6,0,L|341:192,1,72.2500013780594,2|0,0:0|0:0,0:0:0:0:
301,279,123682,2,0,L|249:219,1,72.2500013780594,8|0,0:0|0:0,0:0:0:0:
197,150,123918,2,0,L|275:133,1,72.2500013780594,0|0,0:0|0:0,0:0:0:0:
78,56,124155,6,0,B|171:80|171:80|256:60,1,170,6|8,0:0|0:0,0:0:0:0:
325,9,124864,2,0,P|345:84|281:158,1,170,2|2,0:0|0:0,0:0:0:0:
227,191,125454,1,0,0:0:0:0:
227,191,125572,1,8,0:0:0:0:
145,255,125809,2,0,L|145:315,1,42.5,0|0,0:0|0:0,0:0:0:0:
64,321,126045,6,0,L|66:216,1,85,2|0,0:0|0:0,0:0:0:0:
47,161,126399,1,2,0:0:0:0:
47,161,126517,2,0,L|49:56,2,85,8|2|0,0:0|0:0|0:0,0:0:0:0:
218,265,127226,6,0,L|231:353,1,72.2500013780594,2|0,0:0|0:0,0:0:0:0:
229,193,127462,2,0,L|216:281,1,72.2500013780594,8|0,0:0|0:0,0:0:0:0:
218,121,127698,2,0,L|231:209,1,72.2500013780594,0|0,0:0|0:0,0:0:0:0:
281,55,127935,6,0,P|330:75|405:52,1,127.5,6|2,0:0|0:0,0:0:0:0:
469,26,128407,1,8,0:0:0:0:
458,222,128643,2,0,P|438:173|461:98,1,127.5,2|0,0:0|0:0,0:0:0:0:
469,26,129115,1,2,0:0:0:0:
387,249,129352,2,0,P|365:189|365:150,1,85,8|0,0:0|0:0,0:0:0:0:
300,291,129824,5,8,0:0:0:0:
276,327,129942,1,8,0:0:0:0:
234,336,130061,1,8,0:0:0:0:
200,310,130179,1,8,0:0:0:0:
188,270,130297,2,0,P|197:204|199:177,1,85,8|8,0:0|0:0,0:0:0:0:
162,119,130651,1,8,0:0:0:0:
162,119,130769,6,0,L|169:70,1,42.5,8|8,0:0|0:0,0:0:0:0:
97,41,131124,1,0,0:0:0:0:
97,41,131242,1,12,0:0:0:0:
87,197,131478,1,0,0:0:0:0:
169,77,131714,6,0,P|237:88|300:70,1,127.5,6|0,0:0|0:0,0:0:0:0:
362,39,132187,1,8,0:0:0:0:
459,171,132423,1,2,0:0:0:0:
482,31,132659,1,0,0:0:0:0:
354,148,132895,1,2,0:0:0:0:
482,260,133131,1,8,0:0:0:0:
313,230,133368,2,0,L|265:238,1,42.5,0|0,0:0|0:0,0:0:0:0:
238,308,133604,6,0,P|205:278|193:223,1,85,2|2,0:0|0:0,0:0:0:0:
168,75,134076,2,0,P|201:105|213:160,1,85,8|2,0:0|0:0,0:0:0:0:
110,164,134549,2,0,P|92:228|99:264,1,85,0|2,0:0|0:0,0:0:0:0:
106,320,134903,1,0,0:0:0:0:
106,320,135021,1,8,0:0:0:0:
246,260,135257,2,0,L|294:268,1,42.5,0|0,0:0|0:0,0:0:0:0:
321,338,135493,6,0,P|354:308|366:253,1,85,2|0,0:0|0:0,0:0:0:0:
382,117,135966,1,8,0:0:0:0:
447,255,136202,1,2,0:0:0:0:
447,255,136320,1,0,0:0:0:0:
447,255,136439,1,0,0:0:0:0:
448,62,136675,1,2,0:0:0:0:
323,209,136911,1,8,0:0:0:0:
212,103,137147,2,0,L|164:95,1,42.5,0|0,0:0|0:0,0:0:0:0:
137,26,137383,6,0,P|104:56|92:111,1,85,2|2,0:0|0:0,0:0:0:0:
132,249,137856,2,0,L|128:158,2,85,8|2|0,0:0|0:0|0:0,0:0:0:0:
273,309,138565,2,0,L|281:353,1,42.5,2|0,0:0|0:0,0:0:0:0:
337,227,138801,2,0,L|329:185,1,42.5,8|0,0:0|0:0,0:0:0:0:
432,274,139037,2,0,L|440:318,1,42.5,0|0,0:0|0:0,0:0:0:0:
470,187,139273,6,0,L|457:88,1,85,2|0,0:0|0:0,0:0:0:0:
396,56,139628,1,0,0:0:0:0:
396,56,139746,2,0,L|315:69,1,42.5,8|0,0:0|0:0,0:0:0:0:
279,45,139982,2,0,L|188:55,1,85,2|0,0:0|0:0,0:0:0:0:
64,194,140454,2,0,L|55:151,1,42.5,2|0,0:0|0:0,0:0:0:0:
155,245,140690,2,0,L|165:286,1,42.5,8|0,0:0|0:0,0:0:0:0:
224,164,140926,2,0,L|215:121,1,42.5,0|0,0:0|0:0,0:0:0:0:
293,230,141162,6,0,L|320:326,1,85,2|2,0:0|0:0,0:0:0:0:
382,351,141517,1,0,0:0:0:0:
382,351,141635,2,0,L|461:331,1,42.5,8|0,0:0|0:0,0:0:0:0:
468,279,141871,2,0,L|443:197,1,85,2|0,0:0|0:0,0:0:0:0:
425,34,142344,1,2,0:0:0:0:
363,156,142581,2,0,L|339:75,1,85,8|0,0:0|0:0,0:0:0:0:
50,100,143053,6,0,P|124:115|146:109,1,85,2|0,0:0|0:0,0:0:0:0:
238,222,143525,2,0,P|164:207|142:213,1,85,8|2,0:0|0:0,0:0:0:0:
301,158,143998,2,2,P|375:173|397:167,1,85,0|2,0:0|0:0,0:0:0:0:
273,64,144470,1,8,0:0:0:0:
423,92,144706,2,0,L|468:83,1,42.5,0|0,0:0|0:0,0:0:0:0:
462,171,144942,6,0,P|447:218|410:243,1,85,2|2,0:0|0:0,0:0:0:0:
286,314,145415,2,0,P|301:267|338:242,1,85,8|2,0:0|0:0,0:0:0:0:
188,183,145887,2,0,P|123:214|71:190,1,127.5,8|0,3:0|0:0,0:0:0:0:
126,136,146360,1,8,0:0:0:0:
249,225,146596,2,0,L|273:276,1,42.5,0|0,0:0|0:0,0:0:0:0:
307,120,146832,6,0,L|362:249,1,127.5,6|0,0:0|0:0,0:0:0:0:
391,306,147305,1,8,0:0:0:0:
470,129,147541,1,2,0:0:0:0:
484,306,147777,1,0,0:0:0:0:
392,135,148013,1,2,0:0:0:0:
509,233,148250,1,8,0:0:0:0:
358,208,148486,2,0,L|310:218,1,42.5,0|0,0:0|0:0,0:0:0:0:
277,282,148722,6,0,P|242:242|241:204,1,85,2|2,0:0|0:0,0:0:0:0:
233,73,149194,2,0,P|268:113|269:151,1,85,8|2,0:0|0:0,0:0:0:0:
35,151,149667,2,0,B|133:145,1,85,0|2,0:0|0:0,0:0:0:0:
202,139,150021,1,0,0:0:0:0:
202,139,150139,1,8,0:0:0:0:
228,288,150376,2,0,L|276:298,1,42.5,0|0,0:0|0:0,0:0:0:0:
309,362,150612,6,0,P|344:322|345:284,1,85,2|0,0:0|0:0,0:0:0:0:
393,101,151084,1,8,0:0:0:0:
424,272,151320,1,2,0:0:0:0:
325,157,151557,1,0,0:0:0:0:
481,205,151793,1,2,0:0:0:0:
343,244,152029,1,8,0:0:0:0:
477,121,152265,1,0,0:0:0:0:
477,121,152383,1,0,0:0:0:0:
477,121,152502,6,2,L|382:95,1,85,2|0,0:0|0:0,0:0:0:0:
245,65,152974,2,0,L|340:39,2,85,8|2|0,0:0|0:0|0:0,0:0:0:0:
98,115,153683,1,2,0:0:0:0:
179,230,153919,1,8,0:0:0:0:
245,65,154155,1,0,0:0:0:0:
275,193,154391,6,0,L|262:292,1,85,2|0,0:0|0:0,0:0:0:0:
197,315,154746,1,2,0:0:0:0:
197,315,154864,1,8,0:0:0:0:
80,215,155100,2,0,L|93:116,1,85,2|0,0:0|0:0,0:0:0:0:
158,93,155455,1,0,0:0:0:0:
158,93,155573,1,2,0:0:0:0:
44,35,155809,1,8,0:0:0:0:
195,178,156045,1,0,0:0:0:0:
238,52,156281,6,0,P|303:62|381:50,1,127.5,2|2,0:0|0:0,0:0:0:0:
440,44,156754,1,8,0:0:0:0:
370,313,156990,2,0,P|360:234|395:143,1,170,2|2,0:0|0:0,0:0:0:0:
440,44,157698,1,8,0:0:0:0:
247,72,157935,2,0,L|204:68,1,42.5,0|0,0:0|0:0,0:0:0:0:
186,222,158171,6,0,P|215:171|210:113,1,85,2|2,0:0|0:0,0:0:0:0:
88,230,158644,1,8,0:0:0:0:
312,322,158880,1,8,0:0:0:0:
312,322,158998,1,8,0:0:0:0:
312,322,159116,2,0,P|303:261|293:248,1,42.5,8|8,0:0|0:0,0:0:0:0:
280,217,159352,1,2,0:0:0:0:
88,230,159589,1,0,0:0:0:0:
181,109,159825,2,0,L|182:164,1,42.5,8|0,0:0|0:0,0:0:0:0:
112,54,160061,5,8,0:0:0:0:
148,32,160179,1,8,0:0:0:0:
190,30,160297,1,8,0:0:0:0:
229,44,160415,1,8,0:0:0:0:
263,69,160533,2,0,P|300:87|343:88,1,85,8|8,0:0|0:0,0:0:0:0:
471,183,161006,2,0,B|410:166|410:204|341:182,1,127.5,8|0,0:0|0:0,0:0:0:0:
275,153,161478,1,8,3:0:0:0:
162,244,161715,2,0,L|165:313,1,42.5,0|0,0:0|0:0,0:0:0:0:
124,57,161950,6,0,B|98:147|98:147|116:189,1,127.5,6|0,0:0|0:0,0:0:0:0:
67,241,162423,2,0,L|38:191,1,42.5,8|0,0:0|0:0,0:0:0:0:
28,129,162659,1,0,0:0:0:0:
162,244,162895,2,0,L|162:337,1,85,0|0,0:0|0:0,0:0:0:0:
241,267,163250,1,0,0:0:0:0:
241,267,163368,2,0,L|240:326,1,42.5,8|0,0:0|0:0,0:0:0:0:
311,235,163604,1,0,0:0:0:0:
400,35,163840,6,0,B|420:141,1,85,0|0,0:0|0:0,0:0:0:0:
331,155,164194,1,0,0:0:0:0:
331,155,164313,2,0,B|317:93,1,42.5,8|0,0:0|0:0,0:0:0:0:
299,46,164549,1,0,0:0:0:0:
301,229,164785,1,0,0:0:0:0:
301,229,165021,1,0,0:0:0:0:
250,134,165257,1,8,0:0:0:0:
199,228,165494,1,0,0:0:0:0:
92,35,165730,6,0,B|81:104|81:104|95:171,1,127.5,4|0,0:0|0:0,0:0:0:0:
157,120,166202,2,0,L|166:168,1,42.5,8|0,0:0|0:0,0:0:0:0:
123,226,166439,1,0,0:0:0:0:
249,312,166675,2,0,L|342:312,1,85
272,233,167030,1,0,0:0:0:0:
272,233,167148,2,0,L|331:234,1,42.5,8|0,0:0|0:0,0:0:0:0:
240,163,167384,1,0,0:0:0:0:
387,33,167620,6,0,B|408:141,1,85,0|0,0:0|0:0,0:0:0:0:
484,175,167974,1,0,0:0:0:0:
484,175,168092,2,0,L|494:228,1,42.5,8|0,0:0|0:0,0:0:0:0:
390,251,168328,2,0,L|382:209,1,42.5,0|0,0:0|0:0,0:0:0:0:
263,119,168565,1,0,0:0:0:0:
263,119,168801,1,8,0:0:0:0:
263,119,168919,1,8,0:0:0:0:
263,119,169037,1,8,0:0:0:0:
263,119,169155,1,8,0:0:0:0:
263,119,169273,1,8,0:0:0:0:
263,119,169391,1,8,0:0:0:0:
263,119,169509,6,0,L|255:231,1,85,6|0,0:0|0:0,0:0:0:0:
211,265,169864,1,0,0:0:0:0:
211,265,169982,2,0,L|142:260,1,42.5,8|0,0:0|0:0,0:0:0:0:
79,182,170218,1,2,0:0:0:0:
79,182,170336,1,0,0:0:0:0:
79,182,170454,2,2,L|188:192,1,85
227,126,170809,1,0,0:0:0:0:
217,84,170927,1,8,0:0:0:0:
248,55,171045,1,0,0:0:0:0:
288,69,171163,1,0,0:0:0:0:
294,111,171281,1,0,0:0:0:0:
264,141,171399,6,0,L|372:151,1,85,2|0,0:0|0:0,0:0:0:0:
428,209,171754,1,0,0:0:0:0:
428,209,171872,2,0,L|427:274,1,42.5,8|0,0:0|0:0,0:0:0:0:
343,301,172108,2,0,L|343:258,1,42.5,2|0,0:0|0:0,0:0:0:0:
254,218,172344,1,0,0:0:0:0:
254,218,172580,1,2,0:0:0:0:
194,301,172817,1,0,0:0:0:0:
142,212,173053,1,0,0:0:0:0:
270,48,173289,6,0,L|150:59,1,85,6|0,0:0|0:0,0:0:0:0:
90,110,173643,1,0,0:0:0:0:
90,110,173761,2,0,L|149:127,1,42.5,8|0,0:0|0:0,0:0:0:0:
142,212,173998,6,0,L|49:178,1,95.6250036478044,2|0,0:0|0:0,0:0:0:0:
20,245,174470,2,0,L|109:277,1,95.6250036478044,2|0,0:0|0:0,0:0:0:0:
191,266,174942,6,0,P|242:303|239:252,1,127.5,0|2,0:0|0:0,0:0:0:0:
319,252,175887,2,0,P|322:308|277:366,1,127.5,0|8,0:0|0:0,0:0:0:0:
413,104,190297,5,2,0:0:0:0:
370,104,190415,1,2,0:0:0:0:
329,114,190533,1,2,0:0:0:0:
288,125,190651,1,2,0:0:0:0:
246,133,190769,1,2,0:0:0:0:
204,132,190887,1,2,0:0:0:0:
162,125,191005,1,2,0:0:0:0:
130,96,191123,1,2,0:0:0:0:
124,53,191241,5,2,0:0:0:0:
168,27,191359,1,2,0:0:0:0:
211,53,191478,1,2,0:0:0:0:
204,103,191596,1,2,0:0:0:0:
162,125,191714,1,12,0:0:0:0:
330,97,192187,6,0,P|323:142|329:183,1,85,2|0,0:0|0:0,0:0:0:0:
374,252,192659,1,8,0:0:0:0:
289,248,192895,2,0,P|216:228|145:288,1,170,2|0,0:0|0:0,0:0:0:0:
231,320,193604,1,8,0:0:0:0:
74,297,193840,1,0,0:0:0:0:
59,137,194076,6,0,L|44:231,1,85,2|2,0:0|0:0,0:0:0:0:
74,297,194549,1,8,0:0:0:0:
130,191,194785,2,0,P|184:171|300:189,1,170,2|2,0:0|0:0,0:0:0:0:
343,254,195494,1,8,0:0:0:0:
309,107,195730,1,0,0:0:0:0:
414,228,195966,6,0,P|408:292|306:319,1,170,2|8,0:0|0:0,0:0:0:0:
343,254,196675,1,2,0:0:0:0:
185,283,196911,2,0,L|270:274,1,85,0|2,0:0|0:0,0:0:0:0:
343,254,197383,1,8,0:0:0:0:
284,191,197620,1,0,0:0:0:0:
367,178,197856,6,0,L|452:187,1,85,2|2,0:0|0:0,0:0:0:0:
284,191,198328,1,8,0:0:0:0:
224,129,198565,2,0,P|147:157|50:122,1,170,2|2,0:0|0:0,0:0:0:0:
25,58,199273,1,8,0:0:0:0:
37,208,199509,1,0,0:0:0:0:
167,327,199746,6,0,B|179:228|179:228|130:238|87:221,1,170,2|8,0:0|0:0,0:0:0:0:
37,208,200454,1,2,0:0:0:0:
96,147,200691,1,0,0:0:0:0:
214,165,200927,1,2,0:0:0:0:
173,73,201163,1,8,0:0:0:0:
273,104,201398,1,0,0:0:0:0:
300,272,201635,6,0,L|284:173,1,85,2|0,0:0|0:0,0:0:0:0:
273,104,202108,1,8,0:0:0:0:
348,142,202344,2,0,P|443:151|481:89,1,170,2|2,0:0|0:0,0:0:0:0:
402,83,203053,1,8,0:0:0:0:
326,41,203289,1,0,0:0:0:0:
225,247,203525,5,2,0:0:0:0:
341,247,203760,1,2,0:0:0:0:
154,273,203998,1,8,0:0:0:0:
251,336,204233,1,2,0:0:0:0:
87,239,204470,1,0,0:0:0:0:
134,344,204705,1,2,0:0:0:0:
55,175,204942,1,8,0:0:0:0:
37,288,205179,1,0,0:0:0:0:
140,157,205415,5,8,0:0:0:0:
132,115,205533,1,8,0:0:0:0:
144,74,205651,1,8,0:0:0:0:
178,49,205769,1,8,0:0:0:0:
220,49,205887,1,8,0:0:0:0:
221,134,206124,1,8,0:0:0:0:
318,103,206360,2,0,P|356:121|425:106,1,85
433,95,206714,1,0,0:0:0:0:
436,222,207068,1,0,0:0:0:0:
368,274,207305,6,0,P|305:302|328:269,1,170,0|0,0:0|0:0,0:0:0:0:
