osu file format v14

[General]
AudioFilename: audio.mp3
AudioLeadIn: 0
PreviewTime: 55179
Countdown: 0
SampleSet: Soft
StackLeniency: 0.6
Mode: 0
LetterboxInBreaks: 0
WidescreenStoryboard: 0

[Editor]
Bookmarks: 109037,175179,190297,207777
DistanceSpacing: 1.2
BeatDivisor: 4
GridSize: 4
TimelineZoom: 1.14

[Metadata]
Title:Touch My Body
TitleUnicode:Touch My Body
Artist:SISTAR
ArtistUnicode:씨스타
Creator:Lilyanna
Version:Collab Hard
Source:
Tags:Starship entertainment Touch N Move K-pop kpop Bora Hyorin Dasom Soyou 김효정 윤보라 소유 김다솜 Bakari Namki
BeatmapID:1277687
BeatmapSetID:602753

[Difficulty]
HPDrainRate:6
CircleSize:4
OverallDifficulty:6
ApproachRate:7.5
SliderMultiplier:1.5
SliderTickRate:1

[Events]
//Background and Video events
0,0,"3.png",0,0
Video,0,"BodyWash.avi"
//Break Periods
2,177068,189472
//Storyboard Layer 0 (Background)
//Storyboard Layer 1 (Fail)
//Storyboard Layer 2 (Pass)
//Storyboard Layer 3 (Foreground)
//Storyboard Sound Samples

[TimingPoints]
8880,472.44094488189,4,2,1,40,1,0
23998,-100,4,2,3,40,0,0
25887,-100,4,2,1,40,0,0
56124,-90.9090909090909,4,2,1,60,0,1
83289,-90.9090909090909,4,2,3,60,0,1
83761,-90.9090909090909,4,2,1,60,0,1
84234,-90.9090909090909,4,2,3,60,0,1
84942,-90.9090909090909,4,2,1,60,0,1
85179,-90.9090909090909,4,2,3,60,0,1
86360,-100,4,2,1,40,0,0
99352,-100,4,2,3,40,0,0
100533,-100,4,2,1,40,0,0
113761,-100,4,2,3,40,0,0
114234,-100,4,2,1,40,0,0
114470,-100,4,2,3,40,0,0
116124,-100,4,2,1,40,0,0
129824,-100,4,2,3,40,0,0
131714,-90.9090909090909,4,2,1,60,0,1
158880,-90.9090909090909,4,2,3,60,0,1
159352,-90.9090909090909,4,2,1,60,0,1
159824,-90.9090909090909,4,2,3,60,0,1
161950,-100,4,2,1,30,0,0
162423,-100,4,2,3,30,0,0
169509,-100,4,2,1,40,0,0
205415,-100,4,2,3,40,0,0

[Colours]
Combo1 : 255,202,255
Combo2 : 255,184,149
Combo3 : 199,141,141
Combo4 : 255,140,140

[HitObjects]
38,45,8880,6,0,L|98:41,3,37.5,2|2|2|2,0:0|0:0|0:0|0:0,0:0:0:0:
110,71,9352,2,0,L|162:100,3,37.5,2|2|2|2,0:0|0:0|0:0|0:0,0:0:0:0:
145,134,9824,2,0,L|158:219,1,75,2|2,0:0|0:0,0:0:0:0:
173,293,10297,1,2,0:0:0:0:
237,230,10533,1,2,0:0:0:0:
262,316,10769,6,0,B|319:292|325:237|325:237|389:258,1,150,4|8,0:0|0:0,0:0:0:0:
400,334,11478,2,0,P|450:282|437:200,1,150,2|2,0:0|0:0,0:0:0:0:
418,122,12187,1,8,0:0:0:0:
338,79,12423,1,0,0:0:0:0:
338,79,12659,6,0,B|255:67|255:106|186:77,1,150,2|8,0:0|0:0,0:0:0:0:
105,47,13368,1,0,0:0:0:0:
59,125,13604,2,0,L|46:217,1,75,0|2,0:0|0:0,0:0:0:0:
54,289,14076,1,8,0:0:0:0:
54,289,14313,1,0,0:0:0:0:
146,270,14549,6,0,P|220:248|296:277,1,150,6|8,0:0|0:0,0:0:0:0:
330,348,15257,2,0,L|336:192,1,150,2|2,0:0|0:0,0:0:0:0:
341,108,15966,1,8,0:0:0:0:
342,18,16202,1,0,0:0:0:0:
342,18,16439,6,0,P|292:34|258:139,1,150,2|8,0:0|0:0,0:0:0:0:
341,108,17147,1,2,0:0:0:0:
336,199,17383,2,0,L|259:211,1,75,0|2,0:0|0:0,0:0:0:0:
172,225,17856,1,8,0:0:0:0:
172,225,18092,1,0,0:0:0:0:
187,138,18328,6,0,B|139:119|135:56|135:56|114:81|62:85,1,150,6|8,0:0|0:0,0:0:0:0:
102,170,19037,2,0,P|82:236|139:314,1,150,2|2,0:0|0:0,0:0:0:0:
172,225,19746,1,8,0:0:0:0:
210,306,19982,1,0,0:0:0:0:
210,306,20218,6,0,B|297:299|297:299|372:311,1,150,2|8,0:0|0:0,0:0:0:0:
446,330,20927,1,2,0:0:0:0:
462,241,21163,2,0,L|466:155,1,75,0|2,0:0|0:0,0:0:0:0:
472,76,21635,1,8,0:0:0:0:
472,76,21872,1,0,0:0:0:0:
390,114,22108,6,0,P|313:142|231:99,1,150,6|8,0:0|0:0,0:0:0:0:
213,38,22817,2,0,L|198:194,1,150,2|2,0:0|0:0,0:0:0:0:
184,276,23525,1,8,0:0:0:0:
358,321,23998,6,0,L|356:230,1,75,8|8,0:0|0:0,0:0:0:0:
445,254,24470,2,0,L|443:163,1,75,8|8,0:0|0:0,0:0:0:0:
435,94,24942,1,8,0:0:0:0:
435,94,25179,1,8,0:0:0:0:
349,65,25415,1,8,0:0:0:0:
310,147,25651,1,8,0:0:0:0:
244,85,25887,6,0,B|232:91|201:70|201:70|161:126|94:99,1,150,6|8,0:0|0:0,0:0:0:0:
34,57,26596,1,2,0:0:0:0:
41,146,26832,2,0,L|44:237,1,75,0|2,0:0|0:0,0:0:0:0:
47,311,27305,1,8,0:0:0:0:
118,256,27541,1,0,0:0:0:0:
175,324,27777,6,0,P|226:306|335:338,1,150,2|8,0:0|0:0,0:0:0:0:
405,346,28486,1,2,0:0:0:0:
380,259,28722,1,0,0:0:0:0:
463,225,28958,1,2,0:0:0:0:
416,147,29194,2,0,L|413:72,1,75,8|0,0:0|0:0,0:0:0:0:
329,38,29667,6,0,B|272:59|272:59|168:51,1,150,2|8,0:0|0:0,0:0:0:0:
94,33,30376,1,2,0:0:0:0:
63,117,30612,2,0,L|57:206,2,75,0|2|8,0:0|0:0|0:0,0:0:0:0:
94,33,31320,1,0,0:0:0:0:
183,52,31557,6,0,L|276:63,1,75,2|0,0:0|0:0,0:0:0:0:
319,126,32029,1,10,0:0:0:0:
259,199,32265,2,0,L|166:210,1,75,2|0,0:0|0:0,0:0:0:0:
185,300,32738,2,0,L|278:311,2,75,2|8|0,0:0|0:0|0:0,0:0:0:0:
336,355,33446,6,0,B|360:296|329:253|329:253|349:229|363:198,1,150,2|8,0:0|0:0,0:0:0:0:
399,140,34155,1,2,0:0:0:0:
251,36,34628,1,2,0:0:0:0:
169,73,34864,1,8,0:0:0:0:
235,133,35100,1,0,0:0:0:0:
189,210,35336,6,0,B|248:234|291:203|291:203|315:223|345:237,1,150,2|8,0:0|0:0,0:0:0:0:
404,273,36045,1,2,0:0:0:0:
425,94,36517,1,2,0:0:0:0:
342,57,36754,2,0,L|237:60,1,75,8|0,0:0|0:0,0:0:0:0:
177,68,37226,6,0,P|188:116|159:224,1,150,2|8,0:0|0:0,0:0:0:0:
233,272,37935,2,0,P|281:261|389:290,1,150,2|2,0:0|0:0,0:0:0:0:
457,324,38643,1,8,0:0:0:0:
448,234,38880,1,0,0:0:0:0:
439,144,39116,6,0,L|432:51,1,75,2|2,0:0|0:0,0:0:0:0:
344,57,39588,2,0,L|349:131,1,75,8|2,0:0|0:0,0:0:0:0:
265,164,40061,2,0,L|258:71,1,75,0|2,0:0|0:0,0:0:0:0:
188,34,40533,1,8,0:0:0:0:
122,95,40769,1,0,0:0:0:0:
96,181,41005,6,0,B|123:241|123:241|103:331,1,150,6|8,0:0|0:0,0:0:0:0:
189,353,41714,1,0,0:0:0:0:
252,288,41950,2,0,L|340:291,1,75,0|2,0:0|0:0,0:0:0:0:
301,204,42423,2,0,L|389:207,1,75,8|0,0:0|0:0,0:0:0:0:
432,136,42895,6,0,P|443:77|417:24,1,112.5,2|2,0:0|0:0,0:0:0:0:
377,27,43368,2,0,L|303:39,1,75,8|2,0:0|0:0,0:0:0:0:
124,64,44076,1,2,0:0:0:0:
53,119,44313,2,0,L|48:212,1,75,8|0,0:0|0:0,0:0:0:0:
103,265,44785,6,0,B|197:248|197:248|272:266,1,150,2|8,0:0|0:0,0:0:0:0:
334,292,45494,1,2,0:0:0:0:
405,237,45730,2,0,L|408:149,1,75,0|2,0:0|0:0,0:0:0:0:
321,188,46203,2,0,L|324:100,1,75,8|0,0:0|0:0,0:0:0:0:
267,42,46675,6,0,P|193:58|144:43,1,112.5,2|2,0:0|0:0,0:0:0:0:
120,74,47147,2,0,L|117:148,2,75,8|2|0,0:0|0:0|0:0,0:0:0:0:
33,150,47856,1,2,0:0:0:0:
64,234,48092,2,0,L|61:308,1,75,8|0,0:0|0:0,0:0:0:0:
150,322,48565,6,0,P|212:305|302:340,1,150,2|8,0:0|0:0,0:0:0:0:
360,273,49273,2,0,P|342:211|378:121,1,150,2|2,0:0|0:0,0:0:0:0:
357,42,49982,2,0,L|283:38,1,75,8|0,0:0|0:0,0:0:0:0:
193,54,50454,6,0,L|189:186,1,112.5,2|2,0:0|0:0,0:0:0:0:
194,211,50927,2,0,L|284:207,2,75,8|2|0,0:0|0:0|0:0,0:0:0:0:
111,247,51635,1,2,0:0:0:0:
71,328,51872,1,8,0:0:0:0:
160,333,52108,1,0,0:0:0:0:
242,297,52344,6,0,L|363:298,1,112.5,2|2,0:0|0:0,0:0:0:0:
383,263,52817,2,0,L|468:262,1,75,8|0,0:0|0:0,0:0:0:0:
475,173,53289,2,0,L|400:173,1,75,0|2,0:0|0:0,0:0:0:0:
274,95,53761,2,0,L|348:94,1,75,8|0,0:0|0:0,0:0:0:0:
181,32,54234,5,8,0:0:0:0:
181,32,54352,1,8,0:0:0:0:
181,32,54471,2,0,L|185:73,2,37.5,8|0|0,0:0|0:0|0:0,0:0:0:0:
109,86,54942,1,8,0:0:0:0:
109,86,55061,1,8,0:0:0:0:
109,86,55179,2,0,L|118:168,1,75,8|8,0:0|0:0,0:0:0:0:
124,250,55651,1,12,0:0:0:0:
193,193,55887,1,0,0:0:0:0:
295,304,56124,6,0,L|297:138,1,165.000005035401,6|8,0:0|0:0,0:0:0:0:
388,177,56833,2,0,L|386:89,1,82.5000025177003,2|0,0:0|0:0,0:0:0:0:
307,35,57305,1,2,0:0:0:0:
219,80,57541,2,0,L|123:91,1,82.5000025177003,8|0,0:0|0:0,0:0:0:0:
26,187,58013,6,0,L|107:177,1,82.5000025177003,2|2,0:0|0:0,0:0:0:0:
206,166,58486,1,8,0:0:0:0:
381,241,58722,2,0,P|391:291|377:332,1,82.5000025177003,2|0,0:0|0:0,0:0:0:0:
306,192,59195,1,0,0:0:0:0:
385,133,59431,2,0,L|390:51,1,82.5000025177003,8|0,0:0|0:0,0:0:0:0:
245,134,59903,6,0,P|225:201|288:276,1,165.000005035401,2|8,0:0|0:0,0:0:0:0:
369,311,60612,1,2,0:0:0:0:
361,211,60849,1,0,0:0:0:0:
291,353,61085,1,2,0:0:0:0:
209,298,61320,2,0,P|142:304|121:296,1,82.5000025177003,8|0,0:0|0:0,0:0:0:0:
4,180,61793,6,0,P|71:174|92:182,1,82.5000025177003,2|2,0:0|0:0,0:0:0:0:
167,233,62266,1,8,0:0:0:0:
307,160,62502,2,0,L|224:154,1,82.5000025177003,2|0,0:0|0:0,0:0:0:0:
198,58,62975,2,0,L|115:63,2,82.5000025177003,2|0|0,0:0|0:0|0:0,0:0:0:0:
296,56,63683,5,2,0:0:0:0:
387,94,63919,2,0,L|428:91,1,41.2500012588501
467,121,64155,2,0,P|461:177|481:222,2,82.5000025177003,8|2|0,0:0|0:0|0:0,0:0:0:0:
415,261,64864,1,2,0:0:0:0:
288,325,65100,2,0,L|195:336,1,82.5000025177003,8|0,0:0|0:0,0:0:0:0:
56,253,65572,6,0,L|149:264,1,82.5000025177003,2|2,0:0|0:0,0:0:0:0:
213,198,66045,1,8,0:0:0:0:
141,129,66281,2,0,L|48:140,1,82.5000025177003,2|0,0:0|0:0,0:0:0:0:
214,63,66754,1,2,0:0:0:0:
286,131,66990,1,8,0:0:0:0:
213,198,67226,1,0,0:0:0:0:
343,55,67462,6,0,P|378:103|328:217,1,165.000005035401,2|8,0:0|0:0,0:0:0:0:
285,271,68171,2,0,L|289:360,1,82.5000025177003,2|0,0:0|0:0,0:0:0:0:
213,198,68644,1,2,0:0:0:0:
134,129,68880,2,0,L|43:138,1,82.5000025177003,8|0,0:0|0:0,0:0:0:0:
194,59,69352,6,0,L|285:68,1,82.5000025177003,2|2,0:0|0:0,0:0:0:0:
380,101,69825,1,8,0:0:0:0:
303,178,70061,1,2,0:0:0:0:
392,243,70297,2,0,P|399:312|383:346,1,82.5000025177003,8|0,3:0|0:0,0:0:0:0:
229,323,70769,2,0,P|222:254|238:220,1,82.5000025177003,8|0,0:0|0:0,0:0:0:0:
50,151,71242,6,0,P|104:174|207:153,1,165.000005035401,6|8,0:0|0:0,0:0:0:0:
290,47,71950,2,0,L|380:51,1,82.5000025177003,0|0,0:0|0:0,0:0:0:0:
449,119,72423,1,2,0:0:0:0:
375,185,72659,2,0,L|292:181,1,82.5000025177003,8|0,0:0|0:0,0:0:0:0:
207,232,73132,5,2,0:0:0:0:
268,309,73368,1,2,0:0:0:0:
169,317,73604,2,0,L|86:320,1,82.5000025177003,8|2,0:0|0:0,0:0:0:0:
207,232,74076,2,0,P|200:163|216:129,1,82.5000025177003,0|2,0:0|0:0,0:0:0:0:
370,152,74549,2,0,P|377:221|361:255,1,82.5000025177003,8|0,0:0|0:0,0:0:0:0:
290,100,75021,6,0,P|328:65|455:100,1,165.000005035401,2|8,0:0|0:0,0:0:0:0:
370,152,75729,1,0,0:0:0:0:
468,164,75966,1,0,0:0:0:0:
404,239,76202,1,2,0:0:0:0:
313,280,76439,2,0,L|217:296,1,82.5000025177003,8|0,0:0|0:0,0:0:0:0:
138,124,76912,5,2,0:0:0:0:
179,213,77148,1,2,0:0:0:0:
86,223,77383,2,0,L|4:209,2,82.5000025177003,8|2|0,0:0|0:0|0:0,0:0:0:0:
221,133,78093,1,2,0:0:0:0:
316,107,78329,2,0,L|323:22,1,82.5000025177003,8|0,0:0|0:0,0:0:0:0:
401,174,78801,6,0,L|392:314,1,123.75000377655,2|0,0:0|0:0,0:0:0:0:
383,345,79273,1,8,0:0:0:0:
284,335,79509,2,0,L|293:195,1,123.75000377655,2|0,0:0|0:0,0:0:0:0:
302,164,79981,1,2,0:0:0:0:
247,80,80218,1,8,0:0:0:0:
189,160,80454,1,0,0:0:0:0:
135,76,80691,6,0,P|103:116|105:218,1,123.75000377655,2|0,0:0|0:0,0:0:0:0:
101,235,81163,1,8,0:0:0:0:
182,291,81399,2,0,L|273:302,1,82.5000025177003,2|0,0:0|0:0,0:0:0:0:
354,259,81872,1,2,0:0:0:0:
323,165,82108,2,0,L|241:155,1,82.5000025177003,8|0,0:0|0:0,0:0:0:0:
101,235,82580,5,2,0:0:0:0:
182,291,82817,1,2,0:0:0:0:
119,214,83053,1,8,0:0:0:0:
202,159,83290,1,8,0:0:0:0:
202,159,83408,1,8,0:0:0:0:
202,159,83526,2,0,L|209:68,2,82.5000025177003,8|0|8,0:0|0:0|0:0,0:0:0:0:
286,210,84234,2,0,L|278:274,1,41.2500012588501,0|0,0:0|0:0,0:0:0:0:
323,276,84471,6,0,L|317:321,2,41.2500012588501,8|0|0,0:0|0:0|0:0,0:0:0:0:
381,197,84942,2,0,L|396:109,1,82.5000025177003,2|8,0:0|0:0,0:0:0:0:
306,69,85415,2,0,B|243:88|243:88|154:68,1,123.75000377655
44,30,86124,1,0,0:0:0:0:
66,120,86360,6,0,B|77:155|118:166|118:166|81:204|83:269,1,150,6|8,0:0|0:0,0:0:0:0:
10,284,87068,2,0,P|62:320|146:300,1,150,2|2,0:0|0:0,0:0:0:0:
170,216,87778,1,8,0:0:0:0:
227,285,88014,1,0,0:0:0:0:
227,285,88250,6,0,B|310:297|310:258|379:287,1,150,2|8,0:0|0:0,0:0:0:0:
457,321,88959,1,2,0:0:0:0:
442,232,89195,2,0,L|431:157,1,75,0|2,0:0|0:0,0:0:0:0:
412,69,89667,1,8,0:0:0:0:
412,69,89904,1,0,0:0:0:0:
335,117,90140,6,0,B|261:139|261:139|185:110,1,150,6|8,0:0|0:0,0:0:0:0:
147,35,90848,2,0,P|149:104|141:184,1,150,2|2,0:0|0:0,0:0:0:0:
91,260,91557,1,8,0:0:0:0:
170,302,91793,1,0,0:0:0:0:
170,302,92030,6,0,P|259:289|334:313,1,150,2|8,0:0|0:0,0:0:0:0:
398,339,92738,1,2,0:0:0:0:
437,258,92974,2,0,L|424:181,1,75,0|2,0:0|0:0,0:0:0:0:
395,98,93447,1,8,0:0:0:0:
395,98,93683,1,0,0:0:0:0:
329,159,93919,6,0,B|290:97|325:46|325:46|264:26,1,150,6|8,0:0|0:0,0:0:0:0:
227,93,94628,2,0,P|161:113|83:56,1,150,2|2,0:0|0:0,0:0:0:0:
26,15,95337,1,8,0:0:0:0:
19,104,95572,1,0,0:0:0:0:
19,104,95808,6,0,B|26:191|26:191|14:266,1,150,2|8,0:0|0:0,0:0:0:0:
24,343,96518,1,2,0:0:0:0:
113,339,96754,2,0,L|199:343,1,75,0|2,0:0|0:0,0:0:0:0:
277,342,97226,1,8,0:0:0:0:
277,342,97463,1,0,0:0:0:0:
367,340,97699,6,0,P|339:263|382:181,1,150,6|8,0:0|0:0,0:0:0:0:
441,160,98408,2,0,L|285:145,1,150,2|2,0:0|0:0,0:0:0:0:
202,139,99116,1,8,0:0:0:0:
256,192,99588,12,8,101005,0:0:0:0:
305,77,101478,5,2,0:0:0:0:
381,124,101714,1,0,0:0:0:0:
381,124,101832,1,0,0:0:0:0:
381,124,101950,2,0,L|381:208,1,75,8|2,0:0|0:0,0:0:0:0:
291,184,102423,2,0,L|291:268,1,75,0|2,0:0|0:0,0:0:0:0:
206,229,102895,2,0,L|206:313,1,75,8|0,0:0|0:0,0:0:0:0:
129,351,103368,5,2,0:0:0:0:
80,275,103604,1,0,0:0:0:0:
80,275,103722,1,2,0:0:0:0:
80,275,103840,2,0,L|80:191,1,75,8|2,0:0|0:0,0:0:0:0:
37,120,104313,2,0,B|102:92|149:143|149:143|191:73|265:95,1,225,0|0,0:0|0:0,0:0:0:0:
230,180,105257,5,2,0:0:0:0:
306,131,105494,1,0,0:0:0:0:
306,131,105612,1,0,0:0:0:0:
306,131,105730,2,0,L|387:134,1,75,8|2,0:0|0:0,0:0:0:0:
341,214,106202,2,0,L|422:217,1,75,0|0,0:0|0:0,0:0:0:0:
376,297,106675,2,0,L|301:294,1,75,8|0,0:0|0:0,0:0:0:0:
243,225,107147,5,2,0:0:0:0:
186,295,107383,1,0,0:0:0:0:
186,295,107502,1,0,0:0:0:0:
186,295,107620,2,0,L|111:292,1,75,8|2,0:0|0:0,0:0:0:0:
51,225,108092,2,0,P|39:148|79:91,1,150,0|0,0:0|0:0,0:0:0:0:
131,177,108801,1,0,0:0:0:0:
131,177,109037,6,0,L|262:175,1,112.5,2|2,0:0|0:0,0:0:0:0:
283,154,109509,2,0,P|269:195|280:241,2,75,8|2|0,0:0|0:0|0:0,0:0:0:0:
369,200,110218,1,2,0:0:0:0:
451,251,110454,2,0,P|458:289|441:343,1,75,8|0,0:0|0:0,0:0:0:0:
369,200,110927,6,0,L|362:78,1,112.5,2|2,0:0|0:0,0:0:0:0:
356,43,111399,1,8,0:0:0:0:
275,82,111635,2,0,P|220:78|187:73,1,75,2|0,0:0|0:0,0:0:0:0:
119,35,112108,1,2,0:0:0:0:
98,154,112344,2,0,P|135:151|172:147,1,75,8|0,0:0|0:0,0:0:0:0:
260,216,112817,5,2,0:0:0:0:
260,216,112935,2,0,L|252:297,1,75,0|2,0:0|0:0,0:0:0:0:
241,334,113289,2,0,P|306:345|332:338,1,75,8|0,0:0|0:0,0:0:0:0:
373,263,113761,1,8,0:0:0:0:
373,263,113880,2,0,P|351:209|353:173,1,75,8|0,0:0|0:0,0:0:0:0:
370,152,114234,1,8,0:0:0:0:
450,112,114470,5,8,0:0:0:0:
450,112,114588,1,8,0:0:0:0:
450,112,114706,6,0,L|485:94,1,37.5,8|0,0:0|0:0,0:0:0:0:
351,64,115179,2,0,L|386:46,1,37.5,8|0,0:0|0:0,0:0:0:0:
249,35,115651,2,0,L|284:17,1,37.5,8|0,0:0|0:0,0:0:0:0:
227,164,116124,6,0,P|231:218|231:282,1,112.5,8|0,0:0|0:0,0:0:0:0:
222,320,116596,6,0,P|175:298|141:293,2,75,6|0|8,0:0|0:0|0:0,0:0:0:0:
305,354,117305,1,2,0:0:0:0:
389,323,117541,1,0,0:0:0:0:
432,244,117777,2,0,P|411:189|402:152,1,75,2|8,0:0|0:0,0:0:0:0:
497,175,118250,1,0,0:0:0:0:
328,245,118486,6,0,P|267:238|204:230,1,112.5,2|2,0:0|0:0,0:0:0:0:
181,203,118958,2,0,P|178:158|191:114,1,75,8|2,0:0|0:0,0:0:0:0:
268,163,119431,1,0,0:0:0:0:
205,309,119667,2,0,L|117:308,2,75,2|8|0,0:0|0:0|0:0,0:0:0:0:
288,342,120376,6,0,L|442:334,1,150,6|8,0:0|0:0,0:0:0:0:
488,259,121084,2,0,P|492:204|485:175,1,75,2|0,0:0|0:0,0:0:0:0:
410,56,121557,2,0,P|405:93|410:130,1,75,2|8,0:0|0:0,0:0:0:0:
491,91,122029,1,0,0:0:0:0:
322,74,122265,6,0,P|264:76|184:72,1,112.5,2|2,0:0|0:0,0:0:0:0:
173,47,122738,2,0,P|182:97|175:131,2,75,8|2|0,0:0|0:0|0:0,0:0:0:0:
92,87,123446,1,2,0:0:0:0:
8,122,123683,2,0,L|16:205,1,75,8|0,0:0|0:0,0:0:0:0:
69,268,124155,6,0,P|149:296|214:259,1,150,6|8,0:0|0:0,0:0:0:0:
263,201,124864,2,0,L|256:108,1,75,2|0,0:0|0:0,0:0:0:0:
344,245,125336,1,2,0:0:0:0:
422,288,125572,2,0,L|416:362,1,75,8|0,0:0|0:0,0:0:0:0:
493,217,126045,6,0,P|466:167|397:144,1,112.5,2|2,0:0|0:0,0:0:0:0:
372,150,126517,1,8,0:0:0:0:
285,175,126754,2,0,P|253:149|231:112,1,75,2|0,0:0|0:0,0:0:0:0:
319,90,127226,1,2,0:0:0:0:
196,209,127462,2,0,P|143:201|105:199,1,75,8|0,0:0|0:0,0:0:0:0:
285,175,127935,6,0,L|296:310,1,112.5,6|2,0:0|0:0,0:0:0:0:
295,332,128407,2,0,P|343:348|386:344,2,75,8|2|0,0:0|0:0|0:0,0:0:0:0:
214,304,129116,2,0,P|176:305|142:319,2,75,2|8|0,0:0|0:0|0:0,0:0:0:0:
57,319,129824,5,8,0:0:0:0:
57,319,129942,1,8,0:0:0:0:
57,319,130061,2,0,L|45:280,2,37.5,8|8|8,0:0|0:0|0:0,0:0:0:0:
124,259,130533,1,8,0:0:0:0:
124,259,130651,1,8,0:0:0:0:
124,259,130769,2,0,L|98:178,1,75,8|8,0:0|0:0,0:0:0:0:
37,123,131242,1,12,0:0:0:0:
103,62,131478,1,0,0:0:0:0:
268,75,131714,6,0,P|317:102|309:224,1,165.000005035401,6|8,0:0|0:0,0:0:0:0:
237,245,132423,2,0,L|240:157,1,82.5000025177003,2|0,0:0|0:0,0:0:0:0:
141,279,132895,1,2,0:0:0:0:
227,327,133131,2,0,P|283:316|308:290,1,82.5000025177003,8|0,0:0|0:0,0:0:0:0:
141,279,133604,6,0,P|107:255|67:252,1,82.5000025177003,2|2,0:0|0:0,0:0:0:0:
72,350,134076,1,8,0:0:0:0:
193,213,134313,2,0,L|188:117,1,82.5000025177003,2|0,0:0|0:0,0:0:0:0:
149,39,134785,1,2,0:0:0:0:
275,21,135021,2,0,L|270:103,1,82.5000025177003,8|0,0:0|0:0,0:0:0:0:
352,160,135494,6,0,P|376:220|297:285,1,165.000005035401,2|8,0:0|0:0,0:0:0:0:
224,240,136202,1,2,0:0:0:0:
224,240,136439,1,0,0:0:0:0:
254,335,136675,1,2,0:0:0:0:
146,267,136911,2,0,P|148:215|181:165,1,82.5000025177003,8|0,0:0|0:0,0:0:0:0:
339,286,137383,6,0,P|354:324|348:367,1,82.5000025177003,2|2,0:0|0:0,0:0:0:0:
254,335,137856,1,8,0:0:0:0:
356,214,138092,2,0,L|447:220,1,82.5000025177003,2|0,0:0|0:0,0:0:0:0:
286,121,138565,1,2,0:0:0:0:
196,163,138801,2,0,L|93:160,1,82.5000025177003,8|0,0:0|0:0,0:0:0:0:
266,229,139273,5,2,0:0:0:0:
266,327,139509,2,0,L|213:330,1,41.2500012588501,0|0,0:0|0:0,0:0:0:0:
188,295,139746,2,0,P|159:261|103:257,2,82.5000025177003,8|2|0,0:0|0:0|0:0,0:0:0:0:
104,348,140454,1,2,0:0:0:0:
57,220,140691,2,0,P|48:163|47:135,1,82.5000025177003,8|0,0:0|0:0,0:0:0:0:
195,61,141163,6,0,P|237:84|289:86,1,82.5000025177003,2|2,0:0|0:0,0:0:0:0:
378,45,141635,1,8,0:0:0:0:
339,136,141872,2,0,P|340:183|364:229,1,82.5000025177003,2|0,0:0|0:0,0:0:0:0:
435,159,142344,1,2,0:0:0:0:
263,238,142580,2,0,P|206:234|169:234,1,82.5000025177003,8|0,0:0|0:0,0:0:0:0:
331,324,143053,6,0,P|406:331|456:257,1,165.000005035401,2|8,0:0|0:0,0:0:0:0:
374,175,143761,2,0,L|378:264,1,82.5000025177003,2|2,0:0|0:0,0:0:0:0:
421,98,144234,1,2,0:0:0:0:
296,157,144470,2,0,P|260:164|202:144,1,82.5000025177003,8|0,0:0|0:0,0:0:0:0:
387,30,144942,2,0,P|427:23|471:41,1,82.5000025177003,2|2,0:0|0:0,0:0:0:0:
345,96,145415,5,8,0:0:0:0:
250,65,145651,1,2,0:0:0:0:
163,17,145887,2,0,P|112:22|57:25,1,82.5000025177003,8|0,3:0|0:0,0:0:0:0:
201,138,146360,2,0,P|252:143|307:146,1,82.5000025177003,8|0,0:0|0:0,0:0:0:0:
123,99,146832,6,0,P|113:176|116:286,1,165.000005035401,6|8,0:0|0:0,0:0:0:0:
237,333,147541,2,0,P|216:290|165:277,1,82.5000025177003,2|0,0:0|0:0,0:0:0:0:
139,364,148013,1,2,0:0:0:0:
321,316,148250,2,0,P|377:318|422:323,1,82.5000025177003,8|0,0:0|0:0,0:0:0:0:
496,352,148722,5,2,0:0:0:0:
480,254,148958,1,2,0:0:0:0:
461,156,149194,2,0,P|423:125|371:121,1,82.5000025177003,8|2,0:0|0:0,0:0:0:0:
301,162,149667,1,0,0:0:0:0:
384,218,149903,1,2,0:0:0:0:
313,287,150139,2,0,P|265:296|213:290,1,82.5000025177003,8|0,0:0|0:0,0:0:0:0:
145,179,150612,6,0,L|152:351,1,165.000005035401,2|8,0:0|0:0,0:0:0:0:
74,281,151320,1,2,0:0:0:0:
230,232,151557,2,0,P|234:173|242:134,1,82.5000025177003,0|2,0:0|0:0,0:0:0:0:
366,275,152029,2,0,P|372:315|374:356,1,82.5000025177003,8|0,0:0|0:0,0:0:0:0:
307,197,152502,5,2,0:0:0:0:
288,99,152738,1,0,0:0:0:0:
335,12,152974,2,0,P|382:9|424:22,2,82.5000025177003,8|2|0,0:0|0:0|0:0,0:0:0:0:
371,104,153683,1,2,0:0:0:0:
402,197,153919,2,0,L|389:295,1,82.5000025177003,8|0,0:0|0:0,0:0:0:0:
311,336,154391,6,0,P|264:323|230:237,1,123.75000377655,2|2,0:0|0:0,0:0:0:0:
243,213,154864,1,8,0:0:0:0:
296,129,155100,2,0,P|261:163|169:149,1,123.75000377655,2|0,0:0|0:0,0:0:0:0:
153,130,155572,1,2,0:0:0:0:
190,38,155809,2,0,P|229:26|270:30,1,82.5000025177003,8|0,0:0|0:0,0:0:0:0:
368,18,156281,6,0,L|363:158,1,123.75000377655,2|2,0:0|0:0,0:0:0:0:
366,191,156754,1,8,0:0:0:0:
432,264,156990,2,0,P|480:254|510:234,1,82.5000025177003,2|0,0:0|0:0,0:0:0:0:
441,162,157462,1,2,0:0:0:0:
345,281,157698,2,0,P|304:274|269:253,1,82.5000025177003,8|0,0:0|0:0,0:0:0:0:
175,189,158171,5,2,0:0:0:0:
194,285,158407,1,2,0:0:0:0:
101,248,158643,1,8,0:0:0:0:
259,165,158880,1,8,0:0:0:0:
259,165,158998,1,8,0:0:0:0:
259,165,159116,2,0,L|266:74,2,82.5000025177003,8|2|0,0:0|0:0|0:0,0:0:0:0:
252,263,159824,1,8,0:0:0:0:
341,220,160061,6,0,L|356:165,2,41.2500012588501,8|8|8,0:0|0:0|0:0,0:0:0:0:
417,274,160533,2,0,L|441:186,1,82.5000025177003,8|8,0:0|0:0,0:0:0:0:
346,332,161005,2,0,P|235:324|186:341,1,165.000005035401,8|8,0:0|3:0,0:0:0:0:
90,369,161714,1,0,0:0:0:0:
176,268,161950,5,6,0:0:0:0:
176,268,162423,2,0,L|194:92,1,150,8|0,0:0|0:0,0:0:0:0:
247,48,163131,1,0,0:0:0:0:
320,99,163368,2,0,P|372:102|411:96,1,75,8|0,0:0|0:0,0:0:0:0:
475,59,163840,6,0,L|468:217,1,150,0|8,0:0|0:0,0:0:0:0:
484,297,164549,1,0,0:0:0:0:
402,259,164785,2,0,P|355:250|325:262,2,75,0|0|8,0:0|0:0|0:0,0:0:0:0:
368,342,165494,1,0,0:0:0:0:
279,199,165730,6,0,P|282:141|288:108,1,75,4|0,0:0|0:0,0:0:0:0:
195,111,166202,2,0,P|192:53|186:20,1,75,8|0,0:0|0:0,0:0:0:0:
104,6,166675,1,0,0:0:0:0:
32,59,166911,2,0,P|61:87|119:91,2,75,0|8|0,0:0|0:0|0:0,0:0:0:0:
137,164,167620,6,0,P|102:181|78:215,1,75,0|0,0:0|0:0,0:0:0:0:
160,249,168092,1,8,0:0:0:0:
220,315,168328,2,0,L|324:309,1,75,0|0,0:0|0:0,0:0:0:0:
382,334,168801,2,0,L|425:306,1,37.5,8|8,0:0|0:0,0:0:0:0:
440,277,169037,2,0,P|416:224|418:178,1,75,8|8,0:0|0:0,0:0:0:0:
467,135,169509,6,0,P|441:86|343:68,1,150,6|8,0:0|0:0,0:0:0:0:
283,120,170218,2,0,L|287:209,1,75,2|2,0:0|0:0,0:0:0:0:
340,266,170691,1,2,0:0:0:0:
213,225,170927,2,0,L|207:317,1,75,8|0,0:0|0:0,0:0:0:0:
155,166,171399,6,0,P|106:144|33:213,1,150,2|8,0:0|0:0,0:0:0:0:
104,291,172108,2,0,L|105:188,1,75,2|0,0:0|0:0,0:0:0:0:
190,292,172580,2,0,P|231:289|274:320,2,75,2|0|0,0:0|0:0|0:0,0:0:0:0:
340,342,173289,6,0,L|327:185,1,150,6|8,0:0|0:0,0:0:0:0:
388,125,173998,2,0,P|442:138|475:132,1,75,2|0,0:0|0:0,0:0:0:0:
438,48,174470,1,2,0:0:0:0:
299,74,174706,2,0,P|261:73|226:84,1,75,0|0,0:0|0:0,0:0:0:0:
172,157,175179,6,0,P|117:149|88:71,1,112.5,0|0,0:0|0:0,0:0:0:0:
226,83,175887,2,0,P|315:102|283:214,1,225,2|8,0:0|0:0,0:0:0:0:
187,321,190297,6,0,L|178:274,3,37.5,2|2|2|2,0:0|0:0|0:0|0:0,0:0:0:0:
199,243,190769,2,0,L|190:196,3,37.5,2|2|2|2,0:0|0:0|0:0|0:0,0:0:0:0:
208,164,191242,6,0,L|199:117,3,37.5,2|0|2|2,0:0|0:0|0:0|0:0,0:0:0:0:
228,91,191714,2,0,P|276:72|316:78,1,75,12|0,0:0|0:0,0:0:0:0:
401,156,192187,6,0,P|384:113|436:36,1,112.5,2|0,0:0|0:0,0:0:0:0:
444,29,192659,1,8,0:0:0:0:
477,112,192895,2,0,L|477:200,1,75,2|0,0:0|0:0,0:0:0:0:
478,277,193368,1,0,0:0:0:0:
395,240,193604,2,0,P|355:228|323:239,1,75,8|0,0:0|0:0,0:0:0:0:
358,321,194076,5,2,0:0:0:0:
256,195,194313,2,0,P|216:207|184:196,1,75,2|8,0:0|0:0,0:0:0:0:
98,158,194785,2,0,P|128:129|134:96,1,75,2|0,0:0|0:0,0:0:0:0:
44,86,195257,1,2,0:0:0:0:
206,128,195494,2,0,P|249:129|285:131,1,75,8|0,0:0|0:0,0:0:0:0:
289,41,195966,6,0,P|370:40|465:44,1,150,2|8,0:0|0:0,0:0:0:0:
487,118,196675,2,0,P|502:180|496:214,1,75,2|0,0:0|0:0,0:0:0:0:
414,166,197147,1,2,0:0:0:0:
325,184,197383,2,0,P|312:219|310:256,1,75,8|0,0:0|0:0,0:0:0:0:
400,245,197856,5,2,0:0:0:0:
243,287,198092,2,0,P|186:281|142:279,1,75,2|8,0:0|0:0,0:0:0:0:
87,319,198565,2,0,P|56:293|45:230,1,75,2|0,0:0|0:0,0:0:0:0:
73,176,199037,1,2,0:0:0:0:
35,94,199273,2,0,P|49:59|78:36,1,75,8|0,0:0|0:0,0:0:0:0:
160,75,199746,6,0,P|242:80|302:35,1,150,2|8,0:0|0:0,0:0:0:0:
377,6,200454,1,2,0:0:0:0:
435,74,200691,2,0,P|436:120|433:161,1,75,0|2,0:0|0:0,0:0:0:0:
414,279,201163,1,8,0:0:0:0:
488,228,201399,1,0,0:0:0:0:
354,186,201635,6,0,P|288:175|260:172,1,75,2|0,0:0|0:0,0:0:0:0:
148,249,202108,2,0,P|185:243|222:237,2,75,8|2|0,0:0|0:0|0:0,0:0:0:0:
105,345,202817,1,2,0:0:0:0:
47,257,203053,2,0,P|55:208|58:174,1,75,8|0,0:0|0:0,0:0:0:0:
38,94,203525,5,2,0:0:0:0:
119,55,203761,1,2,0:0:0:0:
202,19,203998,1,8,0:0:0:0:
198,108,204234,2,0,L|304:109,1,75,2|0,0:0|0:0,0:0:0:0:
349,62,204706,1,2,0:0:0:0:
339,166,204942,2,0,L|445:167,1,75,8|0,0:0|0:0,0:0:0:0:
288,237,205415,6,0,L|243:231,4,37.5,8|8|8|8|8,0:0|0:0|0:0|0:0|0:0,0:0:0:0:
376,256,206124,5,8,0:0:0:0:
310,317,206360,2,0,L|212:305,1,75
191,300,206714,1,0,0:0:0:0:
58,323,207068,1,0,0:0:0:0:
58,323,207305,6,0,L|55:161,1,150,0|0,0:0|0:0,0:0:0:0:
