osu file format v14

[General]
AudioFilename: audio.mp3
AudioLeadIn: 0
PreviewTime: 42012
Countdown: 0
SampleSet: Soft
StackLeniency: 0.3
Mode: 0
LetterboxInBreaks: 0
WidescreenStoryboard: 0

[Editor]
Bookmarks: 87095,108762
DistanceSpacing: 0.6
BeatDivisor: 4
GridSize: 4
TimelineZoom: 1.7

[Metadata]
Title:ODOREmotion
TitleUnicode:ODOREmotion
Artist:SILENT SIREN
ArtistUnicode:SILENT SIREN
Creator:SquareTude
Version:Rin Desu's Insane
Source:
Tags:サイレントサイレン Pop Japanese GIRLS POWER Seulgij Minorsonek Rin Desu RVMathew Acyl Nelliel jpop m2usonek
BeatmapID:1992747
BeatmapSetID:948734

[Difficulty]
HPDrainRate:5
CircleSize:3.7
OverallDifficulty:8
ApproachRate:9
SliderMultiplier:1.8
SliderTickRate:1

[Events]
//Background and Video events
0,0,"silent_siren.jpg",0,0
Video,0,"video.mp4"
//Break Periods
2,66962,77162
//Storyboard Layer 0 (Background)
//Storyboard Layer 1 (Fail)
//Storyboard Layer 2 (Pass)
//Storyboard Layer 3 (Foreground)
//Storyboard Layer 4 (Overlay)
//Storyboard Sound Samples

[TimingPoints]
96,333.333333333333,4,2,5,70,1,0
96,-80,4,2,5,70,0,0
10762,-222.222222222222,4,2,5,50,0,0
15762,-222.222222222222,4,2,6,70,0,0
16095,-100,4,2,5,70,0,0
18762,-100,4,2,5,60,0,0
26762,-100,4,2,5,70,0,0
26929,-100,4,2,6,70,0,0
27095,-100,4,2,5,70,0,0
27262,-100,4,2,6,70,0,0
27428,-100,4,2,5,70,0,0
27595,-100,4,2,6,70,0,0
27761,-100,4,2,5,70,0,0
27929,-100,4,2,6,70,0,0
28095,-100,4,2,5,70,0,0
28262,-100,4,2,6,70,0,0
28428,-100,4,2,5,70,0,0
28595,-100,4,2,6,70,0,0
28761,-100,4,2,5,70,0,0
28929,-100,4,2,6,70,0,0
29095,-100,4,2,5,70,0,0
29262,-100,4,2,6,70,0,0
29428,-100,4,2,5,70,0,0
29595,-100,4,2,6,70,0,0
29761,-100,4,2,5,70,0,0
29929,-100,4,2,6,70,0,0
30095,-100,4,2,5,70,0,0
30262,-100,4,2,6,70,0,0
30428,-100,4,2,5,70,0,0
30595,-100,4,2,6,70,0,0
30761,-100,4,2,5,70,0,0
30929,-100,4,2,6,70,0,0
31095,-100,4,2,5,70,0,0
31262,-100,4,2,6,70,0,0
31428,-100,4,2,5,70,0,0
31595,-100,4,2,6,70,0,0
31761,-100,4,2,5,70,0,0
37762,-100,4,2,8,70,0,0
37928,-100,4,2,5,70,0,0
38095,-100,4,2,8,70,0,0
38262,-100,4,2,5,70,0,0
38428,-100,4,2,8,70,0,0
38594,-100,4,2,5,70,0,0
38761,-100,4,2,8,70,0,0
38928,-100,4,2,5,70,0,0
39095,-100,4,2,8,70,0,0
39261,-100,4,2,5,70,0,0
39428,-100,4,2,8,70,0,0
39595,-100,4,2,5,70,0,0
39762,-100,4,2,8,70,0,0
39928,-100,4,2,5,70,0,0
40095,-100,4,2,6,70,0,0
40429,-100,4,2,5,70,0,0
42095,-166.666666666667,4,2,5,50,0,0
42429,-166.666666666667,4,2,5,60,0,0
42762,-71.4285714285714,4,2,5,80,0,0
42929,-71.4285714285714,4,2,7,80,0,0
43095,-71.4285714285714,4,2,5,80,0,0
43262,-71.4285714285714,4,2,7,80,0,0
43428,-71.4285714285714,4,2,5,80,0,0
43595,-71.4285714285714,4,2,7,80,0,0
43761,-71.4285714285714,4,2,5,80,0,0
43929,-71.4285714285714,4,2,7,80,0,0
44095,-71.4285714285714,4,2,5,80,0,0
44262,-71.4285714285714,4,2,7,80,0,0
44428,-71.4285714285714,4,2,5,80,0,0
44595,-71.4285714285714,4,2,7,80,0,0
44761,-71.4285714285714,4,2,5,80,0,0
44929,-71.4285714285714,4,2,7,80,0,0
45095,-71.4285714285714,4,2,5,80,0,0
45262,-71.4285714285714,4,2,7,80,0,0
45428,-71.4285714285714,4,2,5,80,0,0
45595,-71.4285714285714,4,2,7,80,0,0
45761,-71.4285714285714,4,2,5,80,0,0
45928,-71.4285714285714,4,2,7,80,0,0
46094,-71.4285714285714,4,2,5,80,0,0
46262,-71.4285714285714,4,2,7,80,0,0
46428,-71.4285714285714,4,2,5,80,0,0
46595,-71.4285714285714,4,2,7,80,0,0
46761,-71.4285714285714,4,2,5,80,0,0
46928,-71.4285714285714,4,2,7,80,0,0
47094,-71.4285714285714,4,2,5,80,0,0
47262,-71.4285714285714,4,2,7,80,0,0
47428,-71.4285714285714,4,2,5,80,0,0
47595,-71.4285714285714,4,2,6,80,0,0
48095,-71.4285714285714,4,2,5,80,0,0
48262,-71.4285714285714,4,2,7,80,0,0
48428,-71.4285714285714,4,2,5,80,0,0
48595,-71.4285714285714,4,2,7,80,0,0
48761,-71.4285714285714,4,2,5,80,0,0
48928,-71.4285714285714,4,2,7,80,0,0
49094,-71.4285714285714,4,2,5,80,0,0
49262,-71.4285714285714,4,2,7,80,0,0
49428,-71.4285714285714,4,2,5,80,0,0
49595,-71.4285714285714,4,2,7,80,0,0
49761,-71.4285714285714,4,2,5,80,0,0
49928,-71.4285714285714,4,2,7,80,0,0
50094,-71.4285714285714,4,2,5,80,0,0
50262,-71.4285714285714,4,2,7,80,0,0
50428,-71.4285714285714,4,2,5,80,0,0
50595,-71.4285714285714,4,2,7,80,0,0
50761,-71.4285714285714,4,2,5,80,0,0
50928,-71.4285714285714,4,2,7,80,0,0
51094,-71.4285714285714,4,2,5,80,0,0
51261,-71.4285714285714,4,2,7,80,0,0
51427,-71.4285714285714,4,2,5,80,0,0
51595,-71.4285714285714,4,2,7,80,0,0
51761,-71.4285714285714,4,2,5,80,0,0
51928,-71.4285714285714,4,2,7,80,0,0
52094,-71.4285714285714,4,2,5,80,0,0
52261,-71.4285714285714,4,2,7,80,0,0
52427,-71.4285714285714,4,2,5,80,0,0
52595,-71.4285714285714,4,2,7,80,0,0
52761,-71.4285714285714,4,2,5,80,0,0
53595,-71.4285714285714,4,2,7,80,0,0
53761,-71.4285714285714,4,2,5,80,0,0
53928,-71.4285714285714,4,2,7,80,0,0
54094,-71.4285714285714,4,2,5,80,0,0
54261,-71.4285714285714,4,2,7,80,0,0
54427,-71.4285714285714,4,2,5,80,0,0
54595,-71.4285714285714,4,2,7,80,0,0
54761,-71.4285714285714,4,2,5,80,0,0
54928,-71.4285714285714,4,2,7,80,0,0
55094,-71.4285714285714,4,2,5,80,0,0
55261,-71.4285714285714,4,2,7,80,0,0
55427,-71.4285714285714,4,2,5,80,0,0
55595,-71.4285714285714,4,2,7,80,0,0
55761,-71.4285714285714,4,2,5,80,0,0
55929,-71.4285714285714,4,2,7,80,0,0
56095,-71.4285714285714,4,2,5,80,0,0
56262,-71.4285714285714,4,2,7,80,0,0
56428,-71.4285714285714,4,2,5,80,0,0
56595,-71.4285714285714,4,2,7,80,0,0
56761,-71.4285714285714,4,2,5,80,0,0
56929,-71.4285714285714,4,2,7,80,0,0
57095,-71.4285714285714,4,2,5,80,0,0
57262,-71.4285714285714,4,2,7,80,0,0
57428,-71.4285714285714,4,2,5,80,0,0
57595,-71.4285714285714,4,2,7,80,0,0
57761,-71.4285714285714,4,2,5,80,0,0
57929,-71.4285714285714,4,2,7,80,0,0
58095,-71.4285714285714,4,2,5,80,0,0
58262,-71.4285714285714,4,2,6,80,0,0
58762,-71.4285714285714,4,2,5,80,0,0
58929,-71.4285714285714,4,2,7,80,0,0
59095,-71.4285714285714,4,2,5,80,0,0
59262,-71.4285714285714,4,2,7,80,0,0
59428,-71.4285714285714,4,2,5,80,0,0
59595,-71.4285714285714,4,2,7,80,0,0
59761,-71.4285714285714,4,2,5,80,0,0
59929,-71.4285714285714,4,2,7,80,0,0
60095,-71.4285714285714,4,2,5,80,0,0
60262,-71.4285714285714,4,2,7,80,0,0
60428,-71.4285714285714,4,2,5,80,0,0
60595,-71.4285714285714,4,2,7,80,0,0
60761,-71.4285714285714,4,2,5,80,0,0
60929,-71.4285714285714,4,2,7,80,0,0
61095,-71.4285714285714,4,2,5,80,0,0
61595,-71.4285714285714,4,2,7,80,0,0
61762,-71.4285714285714,4,2,5,80,0,0
61929,-71.4285714285714,4,2,7,80,0,0
62096,-71.4285714285714,4,2,5,80,0,0
62262,-71.4285714285714,4,2,7,80,0,0
62429,-71.4285714285714,4,2,5,80,0,0
63262,-71.4285714285714,4,2,7,80,0,0
63429,-71.4285714285714,4,2,5,80,0,0
63595,-71.4285714285714,4,2,7,80,0,0
63762,-71.4285714285714,4,2,5,80,0,0
66762,-71.4285714285714,4,2,5,70,0,0
77429,-100,4,2,5,55,0,0
81429,-100,4,2,6,70,0,0
81595,-100,4,2,5,70,0,0
82429,-200,4,2,5,70,0,0
82762,-100,4,2,5,70,0,0
85429,-100,4,2,5,55,0,0
89429,-100,4,2,6,70,0,0
89512,-100,4,2,5,70,0,0
90429,-200,4,2,6,70,0,0
90762,-100,4,2,5,70,0,0
93596,-100,4,2,6,70,0,0
93762,-100,4,2,5,70,0,0
93929,-100,4,2,6,70,0,0
94095,-100,4,2,5,70,0,0
94262,-100,4,2,6,70,0,0
94428,-100,4,2,5,70,0,0
94596,-100,4,2,6,70,0,0
94762,-100,4,2,5,70,0,0
94929,-100,4,2,6,70,0,0
95095,-100,4,2,5,70,0,0
95262,-100,4,2,6,70,0,0
95428,-100,4,2,5,70,0,0
95596,-100,4,2,6,70,0,0
95762,-100,4,2,5,70,0,0
95929,-100,4,2,6,70,0,0
96095,-100,4,2,5,70,0,0
96262,-100,4,2,6,70,0,0
96428,-100,4,2,5,70,0,0
96596,-100,4,2,6,70,0,0
96762,-100,4,2,5,70,0,0
96929,-100,4,2,6,70,0,0
97095,-100,4,2,5,70,0,0
97262,-100,4,2,6,70,0,0
97428,-100,4,2,5,70,0,0
97596,-100,4,2,6,70,0,0
97762,-100,4,2,5,70,0,0
97929,-100,4,2,6,70,0,0
98095,-100,4,2,5,70,0,0
98262,-100,4,2,6,70,0,0
98428,-100,4,2,5,70,0,0
104429,-100,4,2,8,70,0,0
104595,-100,4,2,5,70,0,0
104762,-100,4,2,8,70,0,0
104929,-100,4,2,5,70,0,0
105095,-100,4,2,8,70,0,0
105261,-100,4,2,5,70,0,0
105428,-100,4,2,8,70,0,0
105595,-100,4,2,5,70,0,0
105762,-100,4,2,8,70,0,0
105928,-100,4,2,5,70,0,0
106095,-100,4,2,8,70,0,0
106262,-100,4,2,5,70,0,0
106429,-100,4,2,8,70,0,0
106595,-100,4,2,5,70,0,0
106762,-100,4,2,6,70,0,0
107096,-100,4,2,5,70,0,0
109095,-200,4,2,6,70,0,0
109429,-71.4285714285714,4,2,5,80,0,0
109595,-71.4285714285714,4,2,7,80,0,0
109761,-71.4285714285714,4,2,5,80,0,0
109928,-71.4285714285714,4,2,7,80,0,0
110094,-71.4285714285714,4,2,5,80,0,0
110261,-71.4285714285714,4,2,7,80,0,0
110427,-71.4285714285714,4,2,5,80,0,0
110595,-71.4285714285714,4,2,7,80,0,0
110761,-71.4285714285714,4,2,5,80,0,0
110928,-71.4285714285714,4,2,7,80,0,0
111094,-71.4285714285714,4,2,5,80,0,0
111261,-71.4285714285714,4,2,7,80,0,0
111427,-71.4285714285714,4,2,5,80,0,0
111595,-71.4285714285714,4,2,7,80,0,0
111761,-71.4285714285714,4,2,5,80,0,0
111928,-71.4285714285714,4,2,7,80,0,0
112094,-71.4285714285714,4,2,5,80,0,0
112261,-71.4285714285714,4,2,7,80,0,0
112427,-71.4285714285714,4,2,5,80,0,0
112594,-71.4285714285714,4,2,7,80,0,0
112760,-71.4285714285714,4,2,5,80,0,0
112928,-71.4285714285714,4,2,7,80,0,0
113094,-71.4285714285714,4,2,5,80,0,0
113261,-71.4285714285714,4,2,7,80,0,0
113427,-71.4285714285714,4,2,5,80,0,0
113594,-71.4285714285714,4,2,7,80,0,0
113760,-71.4285714285714,4,2,5,80,0,0
113928,-71.4285714285714,4,2,7,80,0,0
114094,-71.4285714285714,4,2,5,80,0,0
114261,-71.4285714285714,4,2,6,80,0,0
114761,-71.4285714285714,4,2,5,80,0,0
114928,-71.4285714285714,4,2,7,80,0,0
115094,-71.4285714285714,4,2,5,80,0,0
115261,-71.4285714285714,4,2,7,80,0,0
115427,-71.4285714285714,4,2,5,80,0,0
115594,-71.4285714285714,4,2,7,80,0,0
115760,-71.4285714285714,4,2,5,80,0,0
115928,-71.4285714285714,4,2,7,80,0,0
116094,-71.4285714285714,4,2,5,80,0,0
116261,-71.4285714285714,4,2,7,80,0,0
116427,-71.4285714285714,4,2,5,80,0,0
116594,-71.4285714285714,4,2,7,80,0,0
116760,-71.4285714285714,4,2,5,80,0,0
116928,-71.4285714285714,4,2,7,80,0,0
117094,-71.4285714285714,4,2,5,80,0,0
117261,-71.4285714285714,4,2,7,80,0,0
117427,-71.4285714285714,4,2,5,80,0,0
117594,-71.4285714285714,4,2,7,80,0,0
117760,-71.4285714285714,4,2,5,80,0,0
117927,-71.4285714285714,4,2,7,80,0,0
118093,-71.4285714285714,4,2,5,80,0,0
118261,-71.4285714285714,4,2,7,80,0,0
118427,-71.4285714285714,4,2,5,80,0,0
118594,-71.4285714285714,4,2,7,80,0,0
118760,-71.4285714285714,4,2,5,80,0,0
118927,-71.4285714285714,4,2,7,80,0,0
119093,-71.4285714285714,4,2,5,80,0,0
119261,-71.4285714285714,4,2,7,80,0,0
119427,-71.4285714285714,4,2,5,80,0,0
120261,-71.4285714285714,4,2,7,80,0,0
120427,-71.4285714285714,4,2,5,80,0,0
120594,-71.4285714285714,4,2,7,80,0,0
120760,-71.4285714285714,4,2,5,80,0,0
120927,-71.4285714285714,4,2,7,80,0,0
121093,-71.4285714285714,4,2,5,80,0,0
121261,-71.4285714285714,4,2,7,80,0,0
121427,-71.4285714285714,4,2,5,80,0,0
121594,-71.4285714285714,4,2,7,80,0,0
121760,-71.4285714285714,4,2,5,80,0,0
121927,-71.4285714285714,4,2,7,80,0,0
122093,-71.4285714285714,4,2,5,80,0,0
122261,-71.4285714285714,4,2,7,80,0,0
122427,-71.4285714285714,4,2,5,80,0,0
122595,-71.4285714285714,4,2,7,80,0,0
122761,-71.4285714285714,4,2,5,80,0,0
122928,-71.4285714285714,4,2,7,80,0,0
123094,-71.4285714285714,4,2,5,80,0,0
123261,-71.4285714285714,4,2,7,80,0,0
123427,-71.4285714285714,4,2,5,80,0,0
123595,-71.4285714285714,4,2,7,80,0,0
123761,-71.4285714285714,4,2,5,80,0,0
123928,-71.4285714285714,4,2,7,80,0,0
124094,-71.4285714285714,4,2,5,80,0,0
124261,-71.4285714285714,4,2,7,80,0,0
124427,-71.4285714285714,4,2,5,80,0,0
124595,-71.4285714285714,4,2,7,80,0,0
124761,-71.4285714285714,4,2,5,80,0,0
124928,-71.4285714285714,4,2,6,80,0,0
125428,-71.4285714285714,4,2,5,80,0,0
125595,-71.4285714285714,4,2,7,80,0,0
125761,-71.4285714285714,4,2,5,80,0,0
125928,-71.4285714285714,4,2,7,80,0,0
126094,-71.4285714285714,4,2,5,80,0,0
126261,-71.4285714285714,4,2,7,80,0,0
126427,-71.4285714285714,4,2,5,80,0,0
126595,-71.4285714285714,4,2,7,80,0,0
126761,-71.4285714285714,4,2,5,80,0,0
126928,-71.4285714285714,4,2,7,80,0,0
127094,-71.4285714285714,4,2,5,80,0,0
127261,-71.4285714285714,4,2,7,80,0,0
127427,-71.4285714285714,4,2,5,80,0,0
127595,-71.4285714285714,4,2,7,80,0,0
127761,-71.4285714285714,4,2,5,80,0,0
128261,-71.4285714285714,4,2,7,80,0,0
128428,-71.4285714285714,4,2,5,80,0,0
128595,-71.4285714285714,4,2,7,80,0,0
128762,-71.4285714285714,4,2,5,80,0,0
128928,-71.4285714285714,4,2,7,80,0,0
129095,-71.4285714285714,4,2,5,80,0,0
129928,-71.4285714285714,4,2,7,80,0,0
130095,-71.4285714285714,4,2,5,80,0,0
130261,-71.4285714285714,4,2,7,80,0,0
130428,-71.4285714285714,4,2,5,80,0,0
133429,-80,4,2,5,70,0,0
139095,-66.6666666666667,4,2,5,70,0,0

[Colours]
Combo1 : 255,26,255
Combo2 : 255,128,255

[HitObjects]
31,106,96,6,0,B|12:51|12:51|32:1,1,112.5,4|0,3:2|0:0,0:0:0:0:
105,52,429,2,0,L|218:63,1,112.5,10|0,3:2|0:0,0:0:0:0:
307,109,762,1,0,3:0:0:0:
394,29,929,1,0,0:0:0:0:
394,191,1095,1,8,3:2:0:0:
394,191,1262,6,0,L|387:311,1,112.5,2|0,0:0|3:0,0:0:0:0:
316,353,1595,1,0,0:0:0:0:
453,360,1762,1,8,3:2:0:0:
387,303,1929,1,0,0:0:0:0:
191,344,2095,2,0,B|203:259|203:259|177:256,1,112.5,2|0,3:2|3:0,0:0:0:0:
55,184,2429,2,0,L|168:173,1,112.5,10|0,3:2|0:0,0:0:0:0:
289,57,2762,6,0,B|250:88|250:88|188:93,1,112.5,0|0,3:0|0:0,0:0:0:0:
371,185,3095,2,0,L|377:65,1,112.5,10|0,3:2|0:0,0:0:0:0:
451,222,3429,1,0,3:0:0:0:
376,72,3595,1,0,0:0:0:0:
285,207,3762,1,8,3:2:0:0:
285,207,3929,6,0,P|263:266|282:320,1,112.5,2|0,0:0|3:0,0:0:0:0:
359,342,4262,1,0,0:0:0:0:
176,259,4429,1,8,3:2:0:0:
176,259,4595,1,0,0:0:0:0:
77,303,4762,1,0,3:0:0:0:
40,198,4929,2,0,L|50:140,1,56.25,10|0,0:2|0:0,0:0:0:0:
101,32,5095,2,0,L|110:87,1,56.25,8|0,3:2|0:0,0:0:0:0:
201,104,5262,1,8,0:0:0:0:
201,104,5345,1,8,0:0:0:0:
201,104,5429,6,0,B|263:96|263:96|314:133,1,112.5,4|0,0:0|0:0,0:0:0:0:
406,10,5762,2,0,L|286:19,1,112.5,10|0,3:2|0:0,0:0:0:0:
391,100,6095,1,0,3:0:0:0:
498,17,6262,1,0,0:0:0:0:
512,158,6429,1,8,3:2:0:0:
512,158,6595,6,0,L|498:278,1,112.5,2|0,0:0|3:0,0:0:0:0:
413,214,6929,1,0,0:0:0:0:
477,366,7095,1,8,3:2:0:0:
374,323,7262,1,0,0:0:0:0:
177,369,7429,2,0,B|263:377|263:377|268:346,1,112.5,2|0,3:2|3:0,0:0:0:0:
144,291,7762,2,0,L|31:306,1,112.5,10|0,3:2|0:0,0:0:0:0:
171,207,8095,6,0,B|232:220|232:220|286:194,1,112.5,0|0,3:0|0:0,0:0:0:0:
347,337,8429,2,0,L|359:199,1,112.5,10|0,3:2|0:0,0:0:0:0:
436,286,8762,1,0,3:0:0:0:
504,364,8929,1,0,0:0:0:0:
500,203,9095,1,8,3:2:0:0:
500,203,9262,6,0,L|494:81,1,112.5,2|0,0:0|3:0,0:0:0:0:
344,141,9595,1,12,0:0:0:0:
260,216,9762,1,8,0:3:0:0:
242,104,9929,1,4,0:3:0:0:
157,179,10095,2,0,L|167:301,1,112.5,8|0,0:0|0:0,0:0:0:0:
191,335,10345,2,0,L|211:224,1,112.5,8|0,3:2|0:0,0:0:0:0:
244,278,10595,2,0,L|305:286,1,56.25,8|0,0:0|0:0,0:0:0:0:
426,301,10762,5,4,3:2:0:0:
426,301,11095,1,2,3:2:0:0:
426,301,11429,1,2,3:2:0:0:
426,301,11762,1,2,3:2:0:0:
307,248,12095,5,2,3:2:0:0:
307,248,12429,1,2,3:2:0:0:
307,248,12762,1,2,3:2:0:0:
307,248,13095,2,0,L|315:288,2,40.4999987640381,2|0|2,3:2|0:0|3:2,0:0:0:0:
202,325,13762,5,2,3:2:0:0:
202,325,14095,1,2,3:2:0:0:
202,325,14429,1,2,3:2:0:0:
202,325,14762,1,2,3:2:0:0:
83,272,15095,5,2,3:2:0:0:
83,272,15429,1,2,3:2:0:0:
128,85,15762,2,0,L|193:87,1,60.7499981460572,4|0,3:0|0:0,0:0:0:0:
280,136,16095,6,0,P|235:124|192:135,1,90,4|0,0:2|3:0,0:0:0:0:
202,325,16429,2,0,L|214:231,1,90,8|0,0:0|0:0,0:0:0:0:
235,212,16679,1,8,0:0:0:0:
356,272,16929,1,0,3:0:0:0:
356,272,17095,1,8,0:0:0:0:
427,190,17262,1,0,0:0:0:0:
427,190,17345,1,0,0:0:0:0:
427,190,17429,6,0,L|522:175,1,90,0|0,3:0|3:0,0:0:0:0:
344,74,17762,1,12,0:0:0:0:
344,74,17929,1,0,0:0:0:0:
250,24,18095,2,0,P|237:72|256:130,1,90,0|0,3:0|3:0,0:0:0:0:
136,70,18429,1,8,0:0:0:0:
101,60,18512,1,8,0:0:0:0:
65,65,18595,1,8,0:3:0:0:
97,238,18762,6,0,P|106:189|91:144,1,90,4|0,0:0|0:0,0:0:0:0:
243,238,19095,2,0,P|234:189|249:144,1,90,8|0,0:2|0:0,0:0:0:0:
97,238,19429,2,0,P|106:189|91:144,1,90,0|2,3:0|0:0,0:0:0:0:
243,238,19762,2,0,P|234:189|249:144,1,90,8|0,0:0|0:0,0:0:0:0:
169,307,20095,5,0,3:0:0:0:
85,357,20262,1,0,0:0:0:0:
14,291,20429,1,0,0:0:0:0:
169,307,20595,2,0,P|261:337|389:323,1,225,10|0,0:0|0:0,0:0:0:0:
396,319,21095,2,0,P|381:269|454:233,1,135,8|0,0:0|0:0,0:0:0:0:
452,231,21429,6,0,P|443:182|458:137,1,90,0|0,3:0|0:0,0:0:0:0:
284,233,21762,2,0,P|293:184|278:139,1,90,8|0,0:0|0:0,0:0:0:0:
452,231,22095,2,0,P|443:182|458:137,1,90,0|2,3:0|0:0,0:0:0:0:
284,233,22429,2,0,P|293:184|278:139,1,90,8|0,0:0|0:0,0:0:0:0:
371,86,22762,5,0,3:0:0:0:
227,69,22929,1,0,0:0:0:0:
371,86,23095,1,0,0:0:0:0:
182,157,23262,1,10,0:0:0:0:
70,66,23429,2,0,B|64:46|64:46|130:26,1,90,0|0,0:0|0:0,0:0:0:0:
7,22,23762,2,0,L|42:129,1,90,8|0,0:3|0:0,0:0:0:0:
73,248,24095,6,0,P|118:243|180:271,1,90,4|0,3:2|3:0,0:0:0:0:
202,353,24429,2,0,L|307:343,1,90,8|0,0:0|0:0,0:0:0:0:
327,342,24679,1,8,0:0:0:0:
448,369,24929,1,0,3:0:0:0:
454,195,25095,2,0,L|471:299,1,90,8|0,0:0|0:0,0:0:0:0:
504,122,25429,2,0,P|460:105|394:132,1,90,0|0,3:0|3:0,0:0:0:0:
275,176,25762,1,12,0:0:0:0:
275,176,25929,6,0,L|371:181,2,90,0|0|0,0:0|3:0|3:0,0:0:0:0:
195,236,26429,1,8,0:0:0:0:
148,251,26512,1,8,0:3:0:0:
110,234,26595,1,8,0:3:0:0:
20,173,26762,6,0,P|73:134|138:143,1,135,4|0,0:0|0:0,0:0:0:0:
156,112,27095,2,0,L|143:59,1,45,8|0,0:0|0:0,0:0:0:0:
139,32,27262,2,0,L|246:40,1,90,2|0,0:3|3:0,0:0:0:0:
328,82,27595,1,2,0:3:0:0:
416,135,27762,1,8,0:0:0:0:
478,53,27929,1,2,0:3:0:0:
483,229,28095,6,0,P|470:284|492:347,1,90,0|2,3:0|0:3,0:0:0:0:
357,259,28429,1,8,0:0:0:0:
329,358,28595,1,2,0:3:0:0:
329,358,28679,1,0,0:0:0:0:
329,358,28762,1,0,3:0:0:0:
252,283,28929,1,2,0:3:0:0:
151,335,29095,1,8,0:0:0:0:
68,264,29262,1,2,0:3:0:0:
68,264,29429,6,0,P|76:211|33:131,1,135,0|0,3:0|0:0,0:0:0:0:
86,135,29762,2,0,L|147:128,1,45,8|0,0:0|0:0,0:0:0:0:
175,124,29929,2,0,P|172:76|221:40,1,90,2|0,0:3|3:0,0:0:0:0:
282,100,30262,1,2,0:3:0:0:
389,123,30429,2,0,P|392:75|343:39,1,90,8|2,0:0|0:3,0:0:0:0:
314,197,30762,6,0,P|397:232|480:181,3,180,0|8|0|8,3:0|0:0|3:0|0:0,0:0:0:0:
391,322,31929,1,4,0:0:0:0:
212,365,32262,5,0,3:0:0:0:
110,263,32429,2,0,L|119:352,2,90,8|0|8,0:0|3:0|0:0,0:0:0:0:
29,201,32929,2,0,L|16:149,2,45,0|0|8,3:0|0:0|0:0,0:0:0:0:
107,104,33262,2,0,L|120:52,2,45,0|0|8,3:0|3:0|0:0,0:0:0:0:
193,162,33595,1,0,3:0:0:0:
217,16,33762,1,8,0:0:0:0:
291,107,33929,2,0,L|345:121,2,45,0|0|8,3:0|0:0|0:0,0:0:0:0:
413,47,34262,2,0,L|456:35,2,45,0|0|8,3:0|3:0|0:0,0:0:0:0:
428,145,34595,6,0,P|429:198|416:254,1,90,4|0,0:0|0:0,0:0:0:0:
380,365,34929,1,0,3:0:0:0:
380,365,35095,2,0,P|337:375|286:376,1,90,8|0,0:0|3:0,0:0:0:0:
190,365,35429,1,8,0:0:0:0:
100,321,35595,2,0,L|116:264,2,45,0|0|8,3:0|3:0|0:0,0:0:0:0:
21,221,35929,1,0,3:0:0:0:
21,221,36012,1,0,3:0:0:0:
21,221,36095,6,0,L|35:103,1,90,8|0,0:0|0:0,0:0:0:0:
42,19,36429,1,8,0:0:0:0:
125,77,36595,2,0,L|174:74,2,45,0|0|8,3:0|0:0|0:0,0:0:0:0:
186,185,36929,2,0,L|141:182,2,45,0|0|8,3:0|3:0|0:0,0:0:0:0:
260,116,37262,1,4,0:3:0:0:
260,116,37345,1,0,0:0:0:0:
260,116,37429,1,4,0:0:0:0:
281,210,37679,5,8,0:0:0:0:
281,210,37762,1,2,3:0:0:0:
302,306,37929,1,8,0:0:0:0:
371,168,38095,1,2,3:0:0:0:
281,210,38345,5,8,0:0:0:0:
281,210,38429,1,2,3:0:0:0:
308,310,38595,1,8,0:0:0:0:
384,158,38762,1,2,3:0:0:0:
281,210,39012,5,8,0:0:0:0:
281,210,39095,1,2,3:0:0:0:
315,314,39262,1,8,0:0:0:0:
398,147,39429,1,2,3:0:0:0:
281,210,39679,5,8,0:0:0:0:
281,210,39762,1,2,3:0:0:0:
157,234,39929,1,8,0:0:0:0:
108,50,40095,5,4,3:0:0:0:
65,193,40262,1,4,3:0:0:0:
208,141,40595,5,0,3:2:0:0:
5,102,40762,1,8,3:2:0:0:
208,141,41095,1,0,3:2:0:0:
5,102,41262,1,8,3:2:0:0:
14,280,41595,5,8,0:3:0:0:
124,249,41762,1,8,0:3:0:0:
228,320,41929,1,8,0:0:0:0:
228,320,42095,6,0,P|267:328|315:325,1,80.9999975280763,0|0,0:0|0:0,0:0:0:0:
315,294,42429,2,0,P|312:245|326:209,1,80.9999975280763,0|0,0:0|0:0,0:0:0:0:
404,146,42762,6,0,P|348:111|279:119,1,125.999996154785,4|2,3:2|0:3,0:0:0:0:
164,198,43095,1,8,0:0:0:0:
90,128,43262,1,2,0:3:0:0:
90,128,43429,2,0,L|99:0,1,125.999996154785,0|2,3:0|0:3,0:0:0:0:
0,160,43762,1,8,0:0:0:0:
3,71,43929,5,2,0:3:0:0:
75,213,44095,1,0,3:0:0:0:
0,160,44262,1,2,0:3:0:0:
159,182,44429,1,8,0:0:0:0:
75,213,44595,1,2,0:3:0:0:
224,121,44762,2,0,P|248:181|228:238,1,125.999996154785,0|2,3:0|0:3,0:0:0:0:
147,381,45095,2,0,P|128:322|152:265,1,125.999996154785,8|2,0:0|0:3,0:0:0:0:
295,287,45429,6,0,L|427:268,1,125.999996154785,0|2,3:0|0:3,0:0:0:0:
285,372,45762,1,8,0:0:0:0:
215,323,45929,1,2,0:3:0:0:
375,344,46095,2,0,P|389:284|349:202,1,125.999996154785,0|2,3:0|0:3,0:0:0:0:
277,192,46429,2,0,P|263:131|282:72,1,125.999996154785,8|2,0:0|0:3,0:0:0:0:
356,134,46762,5,0,3:0:0:0:
438,106,46929,1,2,0:3:0:0:
468,252,47095,1,8,0:0:0:0:
438,106,47262,1,2,0:3:0:0:
504,173,47429,1,0,3:0:0:0:
381,220,47595,1,4,0:3:0:0:
381,220,47762,2,0,L|245:238,1,125.999996154785,12|0,0:3|0:0,0:0:0:0:
73,317,48095,6,0,P|133:329|189:301,1,125.999996154785,4|2,3:2|0:3,0:0:0:0:
3,209,48429,1,8,0:0:0:0:
3,209,48595,2,0,L|19:72,2,125.999996154785,2|0|2,0:3|3:0|0:3,0:0:0:0:
102,159,49095,5,8,0:0:0:0:
173,230,49262,1,2,0:3:0:0:
204,134,49429,1,0,3:0:0:0:
173,230,49595,1,2,0:3:0:0:
140,77,49762,1,8,0:0:0:0:
268,71,49929,1,2,0:3:0:0:
268,71,50095,2,0,P|322:42|397:66,1,125.999996154785,0|2,3:0|0:3,0:0:0:0:
327,257,50429,2,0,L|332:131,1,125.999996154785,8|2,0:0|0:3,0:0:0:0:
464,108,50762,6,0,L|469:233,1,125.999996154785,4|2,3:2|0:3,0:0:0:0:
460,28,51095,1,8,0:0:0:0:
460,28,51262,1,2,0:3:0:0:
432,108,51429,2,0,L|437:233,1,125.999996154785,4|2,3:2|0:3,0:0:0:0:
460,28,51762,1,8,0:0:0:0:
460,28,51929,1,2,0:3:0:0:
290,0,52095,5,4,3:2:0:0:
366,63,52262,1,2,0:3:0:0:
207,46,52429,1,8,0:0:0:0:
283,93,52595,1,2,0:3:0:0:
290,0,52762,1,0,3:0:0:0:
201,138,52929,5,8,0:0:0:0:
192,146,53012,1,8,0:0:0:0:
181,161,53095,1,8,0:0:0:0:
169,183,53179,1,8,0:0:0:0:
163,213,53262,1,4,0:3:0:0:
169,250,53345,1,4,0:3:0:0:
194,286,53429,6,0,L|329:264,1,125.999996154785,4|2,3:2|0:3,0:0:0:0:
467,242,53762,1,8,0:0:0:0:
377,163,53929,1,2,0:3:0:0:
377,163,54095,2,0,L|395:35,1,125.999996154785,0|2,3:0|0:3,0:0:0:0:
467,155,54429,1,8,0:0:0:0:
467,242,54595,5,2,0:3:0:0:
392,289,54762,1,0,3:0:0:0:
470,327,54929,1,2,0:3:0:0:
316,336,55095,1,8,0:0:0:0:
313,251,55262,1,2,0:3:0:0:
230,357,55429,2,0,P|220:290|200:234,1,125.999996154785,0|2,3:0|0:3,0:0:0:0:
143,94,55762,2,0,P|119:155|113:216,1,125.999996154785,8|2,0:0|0:3,0:0:0:0:
223,148,56095,6,0,L|356:132,1,125.999996154785,0|2,3:0|0:3,0:0:0:0:
485,115,56429,1,8,0:0:0:0:
405,43,56595,1,2,0:3:0:0:
405,43,56762,2,0,P|369:26|270:22,1,125.999996154785,0|2,3:0|0:3,0:0:0:0:
193,58,57095,2,0,P|130:57|72:34,1,125.999996154785,8|2,0:0|0:3,0:0:0:0:
73,132,57429,5,0,3:0:0:0:
182,185,57595,1,2,0:3:0:0:
86,246,57762,1,8,0:0:0:0:
182,185,57929,1,2,0:3:0:0:
86,246,58095,1,0,3:0:0:0:
256,238,58262,1,12,0:3:0:0:
149,384,58429,2,0,P|148:308|192:256,1,125.999996154785,12|0,0:3|0:0,0:0:0:0:
321,302,58762,2,0,L|467:317,1,125.999996154785,4|2,3:2|0:3,0:0:0:0:
306,384,59095,5,8,0:0:0:0:
345,221,59262,1,2,0:3:0:0:
345,221,59429,2,0,L|366:89,1,125.999996154785,0|2,3:0|0:3,0:0:0:0:
436,193,59762,1,8,0:0:0:0:
364,96,59929,5,2,0:3:0:0:
452,67,60095,1,0,3:0:0:0:
382,14,60262,1,2,0:3:0:0:
510,135,60429,1,8,0:0:0:0:
510,135,60595,1,2,0:3:0:0:
364,96,60762,1,0,3:0:0:0:
294,149,60929,1,2,0:3:0:0:
253,15,61095,2,0,P|182:18|116:35,1,125.999996154785,8|0,0:0|0:0,0:0:0:0:
161,231,61429,6,0,P|174:168|183:92,1,125.999996154785,4|2,3:2|0:3,0:0:0:0:
248,229,61762,1,8,0:0:0:0:
92,166,61929,1,2,0:3:0:0:
92,166,62095,2,0,P|69:239|102:307,1,125.999996154785,4|2,3:2|0:3,0:0:0:0:
165,317,62429,5,8,0:0:0:0:
195,312,62512,1,8,0:0:0:0:
225,317,62595,1,8,0:0:0:0:
252,333,62679,1,8,0:0:0:0:
268,359,62762,2,0,P|339:358|416:369,1,125.999996154785,4|0,3:2|0:0,0:0:0:0:
294,254,63095,1,8,0:0:0:0:
195,312,63262,1,2,0:3:0:0:
234,171,63429,2,0,P|298:158|380:156,1,125.999996154785,0|2,3:0|0:3,0:0:0:0:
449,198,63762,5,8,0:0:0:0:
458,168,63845,1,8,0:0:0:0:
456,136,63929,1,8,0:0:0:0:
446,106,64012,1,8,0:0:0:0:
425,81,64095,2,0,P|362:64|295:60,1,125.999996154785,4|0,0:0|0:0,0:0:0:0:
207,76,64429,1,8,0:0:0:0:
173,93,64512,1,8,0:0:0:0:
149,122,64595,1,8,0:0:0:0:
138,158,64679,1,8,0:0:0:0:
142,195,64762,2,0,P|202:211|265:216,1,125.999996154785,0|0,3:0|3:0,0:0:0:0:
345,168,65095,5,8,0:0:0:0:
359,203,65179,1,8,0:0:0:0:
357,240,65262,1,8,0:0:0:0:
341,274,65345,1,8,0:0:0:0:
311,297,65429,5,4,0:0:0:0:
429,289,65595,1,0,0:0:0:0:
380,375,65762,1,0,0:0:0:0:
380,375,65929,1,0,0:0:0:0:
429,289,66095,1,0,0:0:0:0:
311,297,66262,1,0,0:0:0:0:
242,358,66429,1,0,0:0:0:0:
163,310,66595,1,0,0:0:0:0:
222,183,66762,1,4,3:2:0:0:
36,56,77762,5,8,0:0:0:0:
76,128,77929,1,0,0:0:0:0:
64,152,78012,1,8,0:0:0:0:
52,176,78095,1,0,0:0:0:0:
112,224,78262,1,2,3:2:0:0:
80,296,78429,1,8,0:0:0:0:
48,368,78595,1,0,0:0:0:0:
72,376,78679,1,0,0:0:0:0:
104,376,78762,2,0,L|231:368,1,90,0|0,3:0|0:0,0:0:0:0:
220,384,79012,1,0,3:0:0:0:
240,380,79095,5,8,0:0:0:0:
176,284,79262,1,2,0:0:0:0:
188,264,79345,1,8,0:0:0:0:
198,246,79429,1,0,0:0:0:0:
207,229,79512,1,8,0:0:0:0:
216,212,79595,1,0,3:0:0:0:
288,152,79762,1,8,0:0:0:0:
280,64,79929,1,0,0:0:0:0:
296,48,80012,1,8,0:0:0:0:
312,28,80095,2,0,L|402:22,1,90,0|0,3:0|0:0,0:0:0:0:
424,36,80345,1,0,3:0:0:0:
448,36,80429,5,8,0:0:0:0:
480,120,80595,1,0,0:0:0:0:
470,144,80679,1,8,0:0:0:0:
460,168,80762,1,0,0:0:0:0:
368,152,80929,1,2,3:2:0:0:
340,224,81095,1,8,0:0:0:0:
312,296,81262,1,0,0:0:0:0:
377,342,81429,6,0,L|431:332,1,45,4|0,0:3|0:0,0:0:0:0:
486,266,81595,2,0,L|441:257,1,45,8|0,0:0|0:0,0:0:0:0:
371,345,81762,2,0,L|430:334,1,45,8|0,0:0|0:0,0:0:0:0:
491,262,81929,2,0,L|442:253,1,45,8|0,0:0|0:0,0:0:0:0:
366,349,82095,2,0,L|430:337,1,45,8|0,0:0|0:0,0:0:0:0:
496,258,82262,2,0,L|443:248,1,45,0|0,3:0|0:0,0:0:0:0:
285,262,82429,6,0,P|328:256|354:260,1,67.5,4|0,0:3|0:0,0:0:0:0:
226,330,82762,6,0,P|200:291|200:230,1,90,4|0,0:0|3:0,0:0:0:0:
222,99,83095,2,0,P|247:135|252:180,1,90,10|0,0:0|0:0,0:0:0:0:
252,180,83345,1,8,0:0:0:0:
28,161,83595,1,0,3:0:0:0:
58,293,83762,1,8,0:0:0:0:
113,210,83929,1,0,0:0:0:0:
231,347,84095,6,0,P|187:343|125:357,1,90,0|0,3:0|3:0,0:0:0:0:
317,371,84429,2,0,P|319:331|268:269,1,90,14|0,0:0|0:0,0:0:0:0:
234,221,84762,1,0,3:0:0:0:
234,221,84929,1,0,3:0:0:0:
301,161,85095,1,10,0:0:0:0:
340,183,85179,1,8,0:0:0:0:
380,201,85262,1,8,0:3:0:0:
420,183,85345,1,0,0:0:0:0:
459,161,85429,6,0,P|458:113|449:72,1,90,4|0,0:0|3:0,0:0:0:0:
334,68,85762,1,8,0:0:0:0:
246,4,85929,1,0,0:0:0:0:
236,111,86095,1,0,3:0:0:0:
334,68,86262,1,2,3:2:0:0:
246,4,86429,1,8,0:0:0:0:
236,111,86595,1,0,0:0:0:0:
148,47,86762,2,0,L|54:36,1,90,0|0,3:0|3:0,0:0:0:0:
106,138,87095,5,8,0:0:0:0:
18,202,87262,1,2,0:0:0:0:
116,245,87429,1,0,3:0:0:0:
106,138,87595,1,0,3:0:0:0:
18,202,87762,1,8,0:0:0:0:
116,245,87929,1,0,0:0:0:0:
27,309,88095,2,0,P|57:341|76:387,1,90,0|0,3:0|3:0,0:0:0:0:
210,375,88429,5,8,0:0:0:0:
308,332,88595,1,0,3:0:0:0:
220,268,88762,1,0,3:0:0:0:
210,375,88929,1,2,3:2:0:0:
308,332,89095,1,8,0:0:0:0:
220,268,89262,1,0,0:0:0:0:
318,213,89429,6,0,L|328:158,1,45,4|8,0:3|0:0,0:0:0:0:
394,103,89595,2,0,L|403:148,1,45,8|4,0:0|0:3,0:0:0:0:
315,219,89762,2,0,L|326:160,1,45,4|4,0:3|0:3,0:0:0:0:
398,99,89929,2,0,L|407:148,1,45,8|0,0:0|0:0,0:0:0:0:
311,224,90095,2,0,L|323:160,1,45,4|4,0:3|0:3,0:0:0:0:
402,94,90262,2,0,L|412:147,1,45,4|4,0:3|0:3,0:0:0:0:
404,230,90429,6,0,P|402:266|419:310,1,67.5,12|0,0:3|0:0,0:0:0:0:
425,385,90762,6,0,P|466:368|494:333,1,90,4|0,0:0|3:0,0:0:0:0:
512,177,91095,2,0,P|510:127|489:72,1,90,10|0,0:0|0:0,0:0:0:0:
487,54,91345,1,8,0:0:0:0:
245,61,91595,1,0,3:0:0:0:
194,216,91762,1,8,0:0:0:0:
194,216,91929,2,0,P|190:170|161:117,1,90,0|0,0:0|3:0,0:0:0:0:
100,197,92262,1,8,0:0:0:0:
282,184,92429,1,10,0:0:0:0:
269,273,92595,1,0,0:0:0:0:
368,146,92762,6,0,L|438:140,1,45,0|0,3:0|0:0,0:0:0:0:
437,122,92929,1,8,0:0:0:0:
451,94,93012,1,8,0:0:0:0:
442,63,93095,1,2,3:2:0:0:
492,211,93262,1,4,0:3:0:0:
492,211,93429,6,0,P|439:250|374:241,1,135,4|0,0:0|0:0,0:0:0:0:
338,246,93762,2,0,L|351:299,1,45,8|0,0:0|0:0,0:0:0:0:
354,325,93929,2,0,P|305:328|264:370,1,90,2|0,0:3|3:0,0:0:0:0:
231,275,94262,1,2,0:3:0:0:
143,222,94429,1,8,0:0:0:0:
81,304,94595,1,2,0:3:0:0:
4,241,94762,6,0,L|-3:121,1,90,0|2,3:0|0:3,0:0:0:0:
70,81,95095,1,8,0:0:0:0:
167,30,95262,1,2,0:3:0:0:
167,30,95345,1,0,0:0:0:0:
167,30,95429,1,0,3:0:0:0:
249,97,95595,1,2,0:3:0:0:
352,63,95762,1,8,0:0:0:0:
444,120,95929,1,2,0:3:0:0:
444,120,96095,6,0,P|417:189|430:269,1,135,0|0,3:0|0:0,0:0:0:0:
439,279,96429,2,0,P|413:278|378:286,1,45,8|0,0:0|0:0,0:0:0:0:
359,289,96595,2,0,P|358:338|331:373,1,90,2|0,0:3|3:0,0:0:0:0:
232,347,96929,1,2,0:3:0:0:
139,206,97095,1,8,0:0:0:0:
130,309,97262,1,2,0:3:0:0:
240,243,97429,6,0,P|230:151|156:100,3,180,0|8|0|8,3:0|0:0|3:0|0:0,0:0:0:0:
318,74,98595,1,4,0:0:0:0:
415,151,98929,5,0,3:0:0:0:
415,151,99095,2,0,L|407:259,1,90,8|0,0:0|3:0,0:0:0:0:
401,373,99429,1,8,0:0:0:0:
325,309,99595,1,0,3:0:0:0:
240,360,99762,1,8,0:0:0:0:
163,297,99929,2,0,L|169:235,2,45,0|0|8,3:0|3:0|0:0,0:0:0:0:
85,359,100262,1,0,3:0:0:0:
15,288,100429,1,8,0:0:0:0:
86,220,100595,2,0,L|74:175,2,45,0|0|8,3:0|0:0|0:0,0:0:0:0:
2,123,100929,2,0,L|13:79,2,45,0|0|8,3:0|3:0|0:0,0:0:0:0:
153,134,101262,6,0,P|195:145|252:122,1,90,4|0,0:0|0:0,0:0:0:0:
297,38,101595,1,0,3:0:0:0:
336,199,101762,1,8,0:0:0:0:
336,199,101929,2,0,L|451:183,1,90,0|8,3:0|0:0,0:0:0:0:
450,276,102262,2,0,L|509:282,2,45,0|0|8,3:0|3:0|0:0,0:0:0:0:
351,360,102595,2,0,L|395:353,2,45,0|0|8,3:0|3:0|0:0,0:0:0:0:
280,289,102929,1,0,0:0:0:0:
212,358,103095,1,8,0:0:0:0:
142,256,103262,6,0,L|131:325,2,45,0|0|8,3:0|3:0|0:0,0:0:0:0:
42,212,103595,1,0,3:0:0:0:
131,142,103762,2,0,P|125:91|87:40,1,90,8|4,0:0|0:3,0:0:0:0:
229,75,104095,1,4,0:0:0:0:
276,163,104345,5,8,0:0:0:0:
276,163,104429,1,2,3:0:0:0:
370,137,104595,1,8,0:0:0:0:
229,75,104762,1,2,3:0:0:0:
276,163,105012,5,8,0:0:0:0:
276,163,105095,1,2,3:0:0:0:
374,130,105262,1,8,0:0:0:0:
218,62,105429,1,2,3:0:0:0:
276,163,105679,5,8,0:0:0:0:
276,163,105762,1,2,3:0:0:0:
378,123,105929,1,8,0:0:0:0:
206,49,106095,1,2,3:0:0:0:
276,163,106345,5,8,0:0:0:0:
276,163,106429,1,2,3:0:0:0:
385,113,106595,1,8,0:0:0:0:
382,334,106762,5,4,3:0:0:0:
492,175,106929,1,4,3:0:0:0:
295,58,107262,5,8,3:2:0:0:
492,48,107429,1,8,3:2:0:0:
295,58,107762,1,8,3:2:0:0:
492,48,107929,1,8,3:2:0:0:
486,313,108262,5,8,0:0:0:0:
342,290,108429,1,8,0:0:0:0:
200,267,108595,1,8,0:0:0:0:
179,363,108762,5,4,0:3:0:0:
142,344,108845,1,4,0:3:0:0:
115,312,108929,1,4,0:3:0:0:
104,272,109012,1,4,0:3:0:0:
111,232,109095,6,0,P|73:222|42:226,1,67.5,12|0,0:3|0:0,0:0:0:0:
23,146,109429,6,0,P|91:140|164:169,1,125.999996154785,4|2,3:2|0:3,0:0:0:0:
0,65,109762,1,8,0:0:0:0:
79,16,109929,1,2,0:3:0:0:
79,16,110095,2,0,L|219:31,1,125.999996154785,0|2,3:0|0:3,0:0:0:0:
377,50,110429,1,8,0:0:0:0:
419,155,110595,5,2,0:3:0:0:
308,132,110762,1,0,3:0:0:0:
419,155,110929,1,2,0:3:0:0:
291,49,111095,1,8,0:0:0:0:
308,132,111262,1,2,0:3:0:0:
216,221,111429,2,0,P|197:162|221:105,1,125.999996154785,0|2,3:0|0:3,0:0:0:0:
305,247,111762,2,0,P|262:299|185:313,1,125.999996154785,8|2,0:0|0:3,0:0:0:0:
11,251,112095,6,0,P|74:252|139:263,1,125.999996154785,0|2,3:0|0:3,0:0:0:0:
29,344,112429,1,8,0:0:0:0:
29,344,112595,1,2,0:3:0:0:
19,162,112762,2,0,P|13:99|-4:11,1,125.999996154785,0|2,3:0|0:3,0:0:0:0:
110,86,113095,2,0,P|172:75|235:74,1,125.999996154785,8|2,0:0|0:3,0:0:0:0:
340,109,113429,5,0,3:0:0:0:
257,183,113595,1,2,0:3:0:0:
311,26,113762,1,8,0:0:0:0:
424,83,113929,1,2,0:3:0:0:
400,1,114095,1,0,3:0:0:0:
409,178,114262,1,4,0:3:0:0:
409,178,114429,2,0,P|454:227|440:291,1,125.999996154785,12|0,0:3|0:0,0:0:0:0:
362,316,114762,6,0,P|413:366|477:366,1,125.999996154785,4|2,3:2|0:3,0:0:0:0:
332,239,115095,1,8,0:0:0:0:
332,239,115262,2,0,L|190:254,2,125.999996154785,2|0|2,0:3|3:0|0:3,0:0:0:0:
274,338,115762,1,8,0:0:0:0:
138,346,115929,5,2,0:3:0:0:
104,224,116095,1,0,3:0:0:0:
138,346,116262,1,2,0:3:0:0:
26,254,116429,1,8,0:0:0:0:
122,135,116595,1,2,0:3:0:0:
122,135,116762,2,0,P|180:146|259:134,1,125.999996154785,0|2,3:0|0:3,0:0:0:0:
365,42,117095,2,0,P|303:34|239:49,1,125.999996154785,8|2,0:0|0:3,0:0:0:0:
342,257,117429,6,0,P|341:192|337:132,1,125.999996154785,4|2,3:2|0:3,0:0:0:0:
416,316,117762,1,8,0:0:0:0:
416,316,117929,1,2,0:3:0:0:
331,348,118095,2,0,P|262:348|206:353,1,125.999996154785,4|2,3:2|0:3,0:0:0:0:
416,316,118429,1,8,0:0:0:0:
416,316,118595,1,2,0:3:0:0:
406,185,118762,5,4,3:2:0:0:
342,257,118929,1,2,0:3:0:0:
481,253,119095,1,8,0:0:0:0:
406,185,119262,1,2,0:3:0:0:
402,90,119429,1,0,3:0:0:0:
270,184,119595,5,8,0:0:0:0:
249,170,119679,1,8,0:0:0:0:
220,170,119762,1,8,0:0:0:0:
191,188,119845,1,8,0:0:0:0:
180,225,119929,1,4,0:3:0:0:
189,262,120012,1,4,0:3:0:0:
206,287,120095,6,0,P|136:289|81:307,1,125.999996154785,4|2,3:2|0:3,0:0:0:0:
274,346,120429,1,8,0:0:0:0:
186,375,120595,1,2,0:3:0:0:
83,306,120762,2,0,P|71:243|52:179,1,125.999996154785,0|2,3:0|0:3,0:0:0:0:
18,51,121095,1,8,0:0:0:0:
116,68,121262,5,2,0:3:0:0:
204,19,121429,1,0,3:0:0:0:
204,117,121595,1,2,0:3:0:0:
295,78,121762,1,8,0:0:0:0:
202,210,121929,1,2,0:3:0:0:
293,300,122095,2,0,P|309:213|289:163,1,125.999996154785,0|2,3:0|0:3,0:0:0:0:
202,210,122429,2,0,L|77:192,1,125.999996154785,8|2,0:0|0:3,0:0:0:0:
0,333,122762,2,0,L|125:315,1,125.999996154785,0|2,3:0|0:3,0:0:0:0:
293,300,123095,1,8,0:0:0:0:
215,377,123262,1,2,0:3:0:0:
363,355,123429,6,0,P|382:296|359:239,1,125.999996154785,0|2,3:0|0:3,0:0:0:0:
291,140,123762,2,0,P|353:145|414:132,1,125.999996154785,8|2,0:0|0:3,0:0:0:0:
500,68,124095,5,0,3:0:0:0:
503,165,124262,1,2,0:3:0:0:
398,42,124429,1,8,0:0:0:0:
414,132,124595,1,2,0:3:0:0:
319,12,124762,1,0,3:0:0:0:
358,190,124929,1,12,0:3:0:0:
202,121,125095,2,0,P|170:174|176:236,1,125.999996154785,12|0,0:3|0:0,0:0:0:0:
106,329,125429,6,0,L|232:342,1,125.999996154785,4|2,3:2|0:3,0:0:0:0:
85,244,125762,1,8,0:0:0:0:
0,269,125929,1,2,0:3:0:0:
0,269,126095,2,0,P|-5:217|15:129,1,125.999996154785,0|2,3:0|0:3,0:0:0:0:
83,16,126429,1,8,0:0:0:0:
122,122,126595,5,2,0:3:0:0:
196,35,126762,1,0,3:0:0:0:
122,122,126929,1,2,0:3:0:0:
285,118,127095,1,8,0:0:0:0:
207,173,127262,1,2,0:3:0:0:
213,278,127429,1,0,3:0:0:0:
207,173,127595,1,2,0:3:0:0:
282,365,127762,2,0,P|221:368|138:381,1,125.999996154785,8|0,0:0|0:0,0:0:0:0:
16,377,128095,6,0,P|30:315|28:233,1,125.999996154785,4|2,3:2|0:3,0:0:0:0:
16,101,128429,1,8,0:0:0:0:
95,174,128595,1,2,0:3:0:0:
166,98,128762,2,0,P|222:82|293:89,1,125.999996154785,4|2,3:2|0:3,0:0:0:0:
314,178,129095,5,8,0:0:0:0:
293,201,129179,1,8,0:0:0:0:
290,232,129262,1,8,0:0:0:0:
299,262,129345,1,8,0:0:0:0:
317,286,129429,2,0,P|373:283|444:320,1,125.999996154785,4|0,3:2|0:0,0:0:0:0:
255,376,129762,1,8,0:0:0:0:
196,290,129929,1,2,0:3:0:0:
196,290,130095,2,0,P|140:287|69:324,1,125.999996154785,0|2,3:0|0:3,0:0:0:0:
20,248,130429,5,8,0:0:0:0:
10,217,130512,1,8,0:0:0:0:
8,185,130595,1,8,0:0:0:0:
31,164,130679,1,8,0:0:0:0:
25,133,130762,2,0,P|79:108|166:108,1,125.999996154785,4|0,0:0|0:0,0:0:0:0:
256,128,131095,5,8,0:0:0:0:
256,159,131179,1,8,0:0:0:0:
256,190,131262,1,8,0:0:0:0:
256,221,131345,1,8,0:0:0:0:
256,252,131429,1,0,3:0:0:0:
380,319,131595,1,0,3:0:0:0:
492,248,131762,5,8,0:0:0:0:
502,217,131845,1,8,0:0:0:0:
504,185,131929,1,8,0:0:0:0:
481,164,132012,1,8,0:0:0:0:
487,133,132095,2,0,P|433:108|346:108,1,125.999996154785,4|0,0:0|0:0,0:0:0:0:
359,219,132429,1,0,0:0:0:0:
359,219,132595,1,0,0:0:0:0:
252,29,132762,2,0,P|268:94|266:160,1,125.999996154785,0|0,0:0|0:0,0:0:0:0:
254,257,133095,5,0,0:0:0:0:
359,219,133262,1,0,0:0:0:0:
473,381,133429,6,0,B|493:331|493:331|474:276,1,112.5,4|0,3:2|0:0,0:0:0:0:
400,330,133762,2,0,L|281:352,1,112.5,10|0,3:2|0:0,0:0:0:0:
124,372,134095,1,0,3:0:0:0:
168,278,134262,1,0,0:0:0:0:
109,194,134429,1,8,3:2:0:0:
109,194,134595,2,0,L|116:74,1,112.5,2|0,0:0|3:0,0:0:0:0:
187,32,134929,5,0,0:0:0:0:
50,25,135095,1,8,3:2:0:0:
116,82,135262,1,0,0:0:0:0:
312,41,135429,2,0,B|300:126|300:126|326:129,1,112.5,2|0,3:2|3:0,0:0:0:0:
448,201,135762,2,0,L|335:212,1,112.5,10|0,3:2|0:0,0:0:0:0:
214,328,136095,6,0,B|253:297|253:297|315:292,1,112.5,0|0,3:0|0:0,0:0:0:0:
132,200,136429,2,0,L|126:320,1,112.5,10|0,3:2|0:0,0:0:0:0:
52,163,136762,1,0,3:0:0:0:
127,313,136929,1,0,0:0:0:0:
218,178,137095,1,8,3:2:0:0:
218,178,137262,6,0,P|240:119|221:65,1,112.5,2|0,0:0|3:0,0:0:0:0:
144,43,137595,1,0,0:0:0:0:
327,126,137762,1,8,3:2:0:0:
327,126,137929,1,0,0:0:0:0:
426,82,138095,1,0,3:0:0:0:
463,187,138262,2,0,L|453:245,1,56.25,10|0,0:2|0:0,0:0:0:0:
402,353,138429,2,0,L|393:298,1,56.25,8|0,3:2|0:0,0:0:0:0:
302,281,138595,1,8,0:0:0:0:
302,281,138679,1,8,0:0:0:0:
302,281,138762,6,0,B|240:289|240:289|189:252,1,112.5,4|8,0:0|0:0,0:0:0:0:
97,168,139095,1,2,3:2:0:0:
76,316,139262,1,8,0:0:0:0:
76,188,139429,1,0,3:2:0:0:
55,336,139595,1,8,0:0:0:0:
55,336,139762,1,0,3:2:0:0:
170,378,139929,2,0,L|312:368,1,135.000005149842,10|0,0:0|3:2,0:0:0:0:
425,357,140262,5,8,0:0:0:0:
347,179,140429,1,0,3:2:0:0:
347,179,140595,2,0,L|495:193,1,135.000005149842,8|2,0:0|3:2,0:0:0:0:
267,282,140929,1,8,0:0:0:0:
267,282,141095,2,0,L|415:268,1,135.000005149842,2|8,3:2|0:0,0:0:0:0:
253,193,141429,2,0,P|239:121|190:86,1,135.000005149842,0|8,3:2|0:0,0:0:0:0:
33,72,141762,5,2,3:2:0:0:
54,220,141929,1,8,0:0:0:0:
54,92,142095,1,0,3:2:0:0:
75,240,142262,1,8,0:0:0:0:
75,240,142429,1,0,3:2:0:0:
254,280,142595,2,0,P|190:281|117:326,1,135.000005149842,10|0,0:0|3:2,0:0:0:0:
316,351,142929,1,8,0:0:0:0:
407,190,143095,2,0,L|403:334,1,135.000005149842,12|4,0:0|0:3,0:0:0:0:
494,154,143429,1,10,0:2:0:0:
404,96,143595,5,8,0:0:0:0:
404,96,143679,1,8,0:0:0:0:
404,96,143762,1,6,0:2:0:0:
315,151,143929,1,4,0:3:0:0:
305,51,144095,1,2,3:2:0:0:
