osu file format v14

[General]
AudioFilename: audio.mp3
AudioLeadIn: 0
PreviewTime: 42012
Countdown: 0
SampleSet: Soft
StackLeniency: 0.4
Mode: 0
LetterboxInBreaks: 0
WidescreenStoryboard: 1

[Editor]
DistanceSpacing: 1.1
BeatDivisor: 4
GridSize: 8
TimelineZoom: 2.1

[Metadata]
Title:ODOREmotion
TitleUnicode:ODOREmotion
Artist:SILENT SIREN
ArtistUnicode:SILENT SIREN
Creator:SquareTude
Version:Nelliel's Easy
Source:
Tags:サイレントサイレン Pop Japanese GIRLS POWER Seulgij Minorsonek Rin Desu RVMathew Acyl Nelliel jpop m2usonek
BeatmapID:2102148
BeatmapSetID:948734

[Difficulty]
HPDrainRate:2
CircleSize:3
OverallDifficulty:3
ApproachRate:3
SliderMultiplier:0.8
SliderTickRate:1

[Events]
//Background and Video events
0,0,"silent_siren.jpg",0,0
Video,0,"video.mp4"
//Break Periods
2,66762,75989
//Storyboard Layer 0 (Background)
//Storyboard Layer 1 (Fail)
//Storyboard Layer 2 (Pass)
//Storyboard Layer 3 (Foreground)
//Storyboard Layer 4 (Overlay)
//Storyboard Sound Samples

[TimingPoints]
96,333.333333333333,4,2,5,70,1,0
96,-100,4,2,5,70,0,0
10762,-100,4,2,5,50,0,0
15762,-100,4,2,6,70,0,0
16095,-100,4,2,5,70,0,0
18762,-100,4,2,5,60,0,0
26762,-100,4,2,5,70,0,0
26929,-100,4,2,6,70,0,0
27095,-100,4,2,5,70,0,0
27262,-100,4,2,6,70,0,0
27428,-100,4,2,5,70,0,0
27595,-100,4,2,6,70,0,0
27761,-100,4,2,5,70,0,0
27929,-100,4,2,6,70,0,0
28095,-100,4,2,5,70,0,0
28262,-100,4,2,6,70,0,0
28428,-100,4,2,5,70,0,0
28595,-100,4,2,6,70,0,0
28761,-100,4,2,5,70,0,0
28929,-100,4,2,6,70,0,0
29095,-100,4,2,5,70,0,0
29262,-100,4,2,6,70,0,0
29428,-100,4,2,5,70,0,0
29595,-100,4,2,6,70,0,0
29761,-100,4,2,5,70,0,0
29929,-100,4,2,6,70,0,0
30095,-100,4,2,5,70,0,0
30262,-100,4,2,6,70,0,0
30428,-100,4,2,5,70,0,0
30595,-100,4,2,6,70,0,0
30761,-100,4,2,5,70,0,0
30929,-100,4,2,6,70,0,0
31095,-100,4,2,5,70,0,0
31262,-100,4,2,6,70,0,0
31428,-100,4,2,5,70,0,0
31595,-100,4,2,6,70,0,0
31761,-100,4,2,5,70,0,0
31929,-100,4,2,5,70,0,0
37429,-100,4,2,5,70,0,0
37762,-100,4,2,8,70,0,0
37928,-100,4,2,5,70,0,0
38095,-100,4,2,8,70,0,0
38262,-100,4,2,5,70,0,0
38428,-100,4,2,8,70,0,0
38594,-100,4,2,5,70,0,0
38761,-100,4,2,8,70,0,0
38928,-100,4,2,5,70,0,0
39095,-100,4,2,8,70,0,0
39261,-100,4,2,5,70,0,0
39428,-100,4,2,8,70,0,0
39595,-100,4,2,5,70,0,0
39762,-100,4,2,8,70,0,0
39928,-100,4,2,5,70,0,0
40095,-100,4,2,6,70,0,0
40429,-100,4,2,5,70,0,0
42095,-100,4,2,5,50,0,0
42429,-100,4,2,5,60,0,0
42762,-100,4,2,5,80,0,1
42929,-100,4,2,7,80,0,1
43095,-100,4,2,5,80,0,1
43262,-100,4,2,7,80,0,1
43428,-100,4,2,5,80,0,1
43595,-100,4,2,7,80,0,1
43761,-100,4,2,5,80,0,1
43929,-100,4,2,7,80,0,1
44095,-100,4,2,5,80,0,1
44262,-100,4,2,7,80,0,1
44428,-100,4,2,5,80,0,1
44595,-100,4,2,7,80,0,1
44761,-100,4,2,5,80,0,1
44929,-100,4,2,7,80,0,1
45095,-100,4,2,5,80,0,1
45262,-100,4,2,7,80,0,1
45428,-100,4,2,5,80,0,1
45595,-100,4,2,7,80,0,1
45761,-100,4,2,5,80,0,1
45928,-100,4,2,7,80,0,1
46094,-100,4,2,5,80,0,1
46262,-100,4,2,7,80,0,1
46428,-100,4,2,5,80,0,1
46595,-100,4,2,7,80,0,1
46761,-100,4,2,5,80,0,1
46928,-100,4,2,7,80,0,1
47094,-100,4,2,5,80,0,1
47262,-100,4,2,7,80,0,1
47428,-100,4,2,5,80,0,1
47595,-100,4,2,6,80,0,1
48095,-100,4,2,5,80,0,1
48262,-100,4,2,7,80,0,1
48428,-100,4,2,5,80,0,1
48595,-100,4,2,7,80,0,1
48761,-100,4,2,5,80,0,1
48928,-100,4,2,7,80,0,1
49094,-100,4,2,5,80,0,1
49262,-100,4,2,7,80,0,1
49428,-100,4,2,5,80,0,1
49595,-100,4,2,7,80,0,1
49761,-100,4,2,5,80,0,1
49928,-100,4,2,7,80,0,1
50094,-100,4,2,5,80,0,1
50262,-100,4,2,7,80,0,1
50428,-100,4,2,5,80,0,1
50595,-100,4,2,7,80,0,1
50761,-100,4,2,5,80,0,1
50928,-100,4,2,7,80,0,1
51094,-100,4,2,5,80,0,1
51261,-100,4,2,7,80,0,1
51427,-100,4,2,5,80,0,1
51595,-100,4,2,7,80,0,1
51761,-100,4,2,5,80,0,1
51928,-100,4,2,7,80,0,1
52094,-100,4,2,5,80,0,1
52261,-100,4,2,7,80,0,1
52427,-100,4,2,5,80,0,1
52595,-100,4,2,7,80,0,1
52761,-100,4,2,5,80,0,1
53595,-100,4,2,7,80,0,1
53761,-100,4,2,5,80,0,1
53928,-100,4,2,7,80,0,1
54094,-100,4,2,5,80,0,1
54261,-100,4,2,7,80,0,1
54427,-100,4,2,5,80,0,1
54595,-100,4,2,7,80,0,1
54761,-100,4,2,5,80,0,1
54928,-100,4,2,7,80,0,1
55094,-100,4,2,5,80,0,1
55261,-100,4,2,7,80,0,1
55427,-100,4,2,5,80,0,1
55595,-100,4,2,7,80,0,1
55761,-100,4,2,5,80,0,1
55929,-100,4,2,7,80,0,1
56095,-100,4,2,5,80,0,1
56262,-100,4,2,7,80,0,1
56428,-100,4,2,5,80,0,1
56595,-100,4,2,7,80,0,1
56761,-100,4,2,5,80,0,1
56929,-100,4,2,7,80,0,1
57095,-100,4,2,5,80,0,1
57262,-100,4,2,7,80,0,1
57428,-100,4,2,5,80,0,1
57595,-100,4,2,7,80,0,1
57761,-100,4,2,5,80,0,1
57929,-100,4,2,7,80,0,1
58095,-100,4,2,5,80,0,1
58262,-100,4,2,6,80,0,1
58762,-100,4,2,5,80,0,1
58929,-100,4,2,7,80,0,1
59095,-100,4,2,5,80,0,1
59262,-100,4,2,7,80,0,1
59428,-100,4,2,5,80,0,1
59595,-100,4,2,7,80,0,1
59761,-100,4,2,5,80,0,1
59929,-100,4,2,7,80,0,1
60095,-100,4,2,5,80,0,1
60262,-100,4,2,7,80,0,1
60428,-100,4,2,5,80,0,1
60595,-100,4,2,7,80,0,1
60761,-100,4,2,5,80,0,1
60929,-100,4,2,7,80,0,1
61095,-100,4,2,5,80,0,1
61595,-100,4,2,7,80,0,1
61762,-100,4,2,5,80,0,1
61929,-100,4,2,7,80,0,1
62096,-100,4,2,5,80,0,1
62262,-100,4,2,7,80,0,1
62429,-100,4,2,5,80,0,1
63262,-100,4,2,7,80,0,1
63429,-100,4,2,5,80,0,1
63595,-100,4,2,7,80,0,1
63762,-100,4,2,5,80,0,1
65429,-100,4,2,5,80,0,0
66762,-100,4,2,5,70,0,0
77429,-100,4,2,5,55,0,0
81429,-100,4,2,6,70,0,0
81595,-100,4,2,5,70,0,0
82429,-100,4,2,5,70,0,0
82762,-100,4,2,5,70,0,0
85429,-100,4,2,5,55,0,0
89429,-100,4,2,6,70,0,0
89512,-100,4,2,5,70,0,0
90429,-100,4,2,6,70,0,0
90762,-100,4,2,5,70,0,0
93429,-100,4,2,5,70,0,0
93596,-100,4,2,6,70,0,0
93762,-100,4,2,5,70,0,0
93929,-100,4,2,6,70,0,0
94095,-100,4,2,5,70,0,0
94262,-100,4,2,6,70,0,0
94428,-100,4,2,5,70,0,0
94596,-100,4,2,6,70,0,0
94762,-100,4,2,5,70,0,0
94929,-100,4,2,6,70,0,0
95095,-100,4,2,5,70,0,0
95262,-100,4,2,6,70,0,0
95428,-100,4,2,5,70,0,0
95596,-100,4,2,6,70,0,0
95762,-100,4,2,5,70,0,0
95929,-100,4,2,6,70,0,0
96095,-100,4,2,5,70,0,0
96262,-100,4,2,6,70,0,0
96428,-100,4,2,5,70,0,0
96596,-100,4,2,6,70,0,0
96762,-100,4,2,5,70,0,0
96929,-100,4,2,6,70,0,0
97095,-100,4,2,5,70,0,0
97262,-100,4,2,6,70,0,0
97428,-100,4,2,5,70,0,0
97596,-100,4,2,6,70,0,0
97762,-100,4,2,5,70,0,0
97929,-100,4,2,6,70,0,0
98095,-100,4,2,5,70,0,0
98262,-100,4,2,6,70,0,0
98428,-100,4,2,5,70,0,0
98596,-100,4,2,5,70,0,0
104095,-100,4,2,5,70,0,0
104429,-100,4,2,8,70,0,0
104595,-100,4,2,5,70,0,0
104762,-100,4,2,8,70,0,0
104929,-100,4,2,5,70,0,0
105095,-100,4,2,8,70,0,0
105261,-100,4,2,5,70,0,0
105428,-100,4,2,8,70,0,0
105595,-100,4,2,5,70,0,0
105762,-100,4,2,8,70,0,0
105928,-100,4,2,5,70,0,0
106095,-100,4,2,8,70,0,0
106262,-100,4,2,5,70,0,0
106429,-100,4,2,8,70,0,0
106595,-100,4,2,5,70,0,0
106762,-100,4,2,6,70,0,0
107096,-100,4,2,5,70,0,0
109095,-100,4,2,6,70,0,0
109429,-100,4,2,5,80,0,1
109595,-100,4,2,7,80,0,1
109761,-100,4,2,5,80,0,1
109928,-100,4,2,7,80,0,1
110094,-100,4,2,5,80,0,1
110261,-100,4,2,7,80,0,1
110427,-100,4,2,5,80,0,1
110595,-100,4,2,7,80,0,1
110761,-100,4,2,5,80,0,1
110928,-100,4,2,7,80,0,1
111094,-100,4,2,5,80,0,1
111261,-100,4,2,7,80,0,1
111427,-100,4,2,5,80,0,1
111595,-100,4,2,7,80,0,1
111761,-100,4,2,5,80,0,1
111928,-100,4,2,7,80,0,1
112094,-100,4,2,5,80,0,1
112261,-100,4,2,7,80,0,1
112427,-100,4,2,5,80,0,1
112594,-100,4,2,7,80,0,1
112760,-100,4,2,5,80,0,1
112928,-100,4,2,7,80,0,1
113094,-100,4,2,5,80,0,1
113261,-100,4,2,7,80,0,1
113427,-100,4,2,5,80,0,1
113594,-100,4,2,7,80,0,1
113760,-100,4,2,5,80,0,1
113928,-100,4,2,7,80,0,1
114094,-100,4,2,5,80,0,1
114261,-100,4,2,6,80,0,1
114761,-100,4,2,5,80,0,1
114928,-100,4,2,7,80,0,1
115094,-100,4,2,5,80,0,1
115261,-100,4,2,7,80,0,1
115427,-100,4,2,5,80,0,1
115594,-100,4,2,7,80,0,1
115760,-100,4,2,5,80,0,1
115928,-100,4,2,7,80,0,1
116094,-100,4,2,5,80,0,1
116261,-100,4,2,7,80,0,1
116427,-100,4,2,5,80,0,1
116594,-100,4,2,7,80,0,1
116760,-100,4,2,5,80,0,1
116928,-100,4,2,7,80,0,1
117094,-100,4,2,5,80,0,1
117261,-100,4,2,7,80,0,1
117427,-100,4,2,5,80,0,1
117594,-100,4,2,7,80,0,1
117760,-100,4,2,5,80,0,1
117927,-100,4,2,7,80,0,1
118093,-100,4,2,5,80,0,1
118261,-100,4,2,7,80,0,1
118427,-100,4,2,5,80,0,1
118594,-100,4,2,7,80,0,1
118760,-100,4,2,5,80,0,1
118927,-100,4,2,7,80,0,1
119093,-100,4,2,5,80,0,1
119261,-100,4,2,7,80,0,1
119427,-100,4,2,5,80,0,1
120261,-100,4,2,7,80,0,1
120427,-100,4,2,5,80,0,1
120594,-100,4,2,7,80,0,1
120760,-100,4,2,5,80,0,1
120927,-100,4,2,7,80,0,1
121093,-100,4,2,5,80,0,1
121261,-100,4,2,7,80,0,1
121427,-100,4,2,5,80,0,1
121594,-100,4,2,7,80,0,1
121760,-100,4,2,5,80,0,1
121927,-100,4,2,7,80,0,1
122093,-100,4,2,5,80,0,1
122261,-100,4,2,7,80,0,1
122427,-100,4,2,5,80,0,1
122595,-100,4,2,7,80,0,1
122761,-100,4,2,5,80,0,1
122928,-100,4,2,7,80,0,1
123094,-100,4,2,5,80,0,1
123261,-100,4,2,7,80,0,1
123427,-100,4,2,5,80,0,1
123595,-100,4,2,7,80,0,1
123761,-100,4,2,5,80,0,1
123928,-100,4,2,7,80,0,1
124094,-100,4,2,5,80,0,1
124261,-100,4,2,7,80,0,1
124427,-100,4,2,5,80,0,1
124595,-100,4,2,7,80,0,1
124761,-100,4,2,5,80,0,1
124928,-100,4,2,6,80,0,1
125428,-100,4,2,5,80,0,1
125595,-100,4,2,7,80,0,1
125761,-100,4,2,5,80,0,1
125928,-100,4,2,7,80,0,1
126094,-100,4,2,5,80,0,1
126261,-100,4,2,7,80,0,1
126427,-100,4,2,5,80,0,1
126595,-100,4,2,7,80,0,1
126761,-100,4,2,5,80,0,1
126928,-100,4,2,7,80,0,1
127094,-100,4,2,5,80,0,1
127261,-100,4,2,7,80,0,1
127427,-100,4,2,5,80,0,1
127595,-100,4,2,7,80,0,1
127761,-100,4,2,5,80,0,1
128261,-100,4,2,7,80,0,1
128428,-100,4,2,5,80,0,1
128595,-100,4,2,7,80,0,1
128762,-100,4,2,5,80,0,1
128928,-100,4,2,7,80,0,1
129095,-100,4,2,5,80,0,1
129928,-100,4,2,7,80,0,1
130095,-100,4,2,5,80,0,1
130261,-100,4,2,7,80,0,1
130428,-100,4,2,5,80,0,1
132095,-100,4,2,5,80,0,0
133429,-100,4,2,5,70,0,0
138762,-100,4,2,5,70,0,0

[Colours]
Combo1 : 255,26,255
Combo2 : 255,128,255

[HitObjects]
79,106,96,6,0,B|161:112,1,80,4|10,3:2|3:2,0:0:0:0:
236,70,762,2,0,B|315:64,1,80,0|8,3:0|3:2,0:0:0:0:
347,94,1262,2,0,P|339:151|339:226,1,120,2|8,0:0|3:2,0:0:0:0:
353,300,2095,2,0,P|307:290|262:289,1,80,2|10,3:2|3:2,0:0:0:0:
200,337,2762,5,0,3:0:0:0:
123,292,3095,2,0,P|83:294|44:303,2,80,10|0|8,3:2|3:0|3:2,0:0:0:0:
145,253,3929,2,0,P|158:193|153:130,1,120,2|8,0:0|3:2,0:0:0:0:
125,51,4762,1,0,3:0:0:0:
300,40,5429,6,0,P|297:82|306:125,1,80,4|10,0:0|3:2,0:0:0:0:
359,187,6095,2,0,P|361:229|352:272,1,80,0|8,3:0|3:2,0:0:0:0:
326,300,6595,2,0,P|261:295|198:309,1,120,2|8,0:0|3:2,0:0:0:0:
129,348,7429,2,0,P|86:350|44:341,1,80,2|10,3:2|3:2,0:0:0:0:
12,263,8095,5,0,3:0:0:0:
60,189,8429,2,0,L|58:102,2,80,10|0|8,3:2|3:0|3:2,0:0:0:0:
99,209,9262,2,0,P|161:209|220:230,1,120,2|8,0:0|0:3,0:0:0:0:
281,285,10095,1,8,0:0:0:0:
436,202,10762,6,0,B|373:177|366:107|366:107|327:164|263:154,1,240,4|2,3:2|3:2,0:0:0:0:
246,69,12095,2,0,P|181:184|246:243,1,240,2|2,3:2|3:2,0:0:0:0:
325,281,13429,6,0,B|235:265|258:343|175:335,1,160,2|2,3:2|3:2,0:0:0:0:
123,271,14429,1,2,3:2:0:0:
41,307,14762,2,0,B|0:258|0:258|20:66,1,240,2|4,3:2|3:0,0:0:0:0:
89,31,16095,6,0,L|173:40,1,80,4|8,0:2|0:0,0:0:0:0:
239,92,16762,2,0,L|318:83,1,80,0|8,0:0|0:0,0:0:0:0:
398,121,17429,2,0,P|379:172|362:280,1,160,0|0,3:0|3:0,0:0:0:0:
197,338,18762,6,0,P|219:306|234:258,1,80,4|8,0:0|0:2,0:0:0:0:
214,181,19429,1,0,3:0:0:0:
168,105,19762,1,8,0:0:0:0:
87,69,20095,2,0,L|69:200,2,120,0|10|8,3:0|0:0|0:0,0:0:0:0:
174,46,21429,6,0,L|265:58,1,80,0|8,3:0|0:0,0:0:0:0:
293,134,22095,2,0,L|372:123,1,80,0|8,3:0|0:0,0:0:0:0:
458,140,22762,2,0,B|446:250|446:250|442:301,1,160,0|0,3:0|0:0,0:0:0:0:
366,342,23762,1,8,0:3:0:0:
309,274,24095,6,0,P|280:252|231:249,1,80,4|8,3:2|0:0,0:0:0:0:
178,313,24762,2,0,P|149:335|100:338,1,80,0|8,0:0|0:0,0:0:0:0:
118,252,25429,2,0,L|113:92,1,160,0|0,3:0|3:0,0:0:0:0:
284,50,26762,6,0,L|280:209,1,160,4|0,0:0|3:0,0:0:0:0:
279,298,27762,1,8,0:0:0:0:
366,303,28095,2,0,L|367:223,1,80,0|8,3:0|0:0,0:0:0:0:
368,134,28762,1,0,3:0:0:0:
281,287,29429,6,0,P|236:333|134:339,1,160,0|0,3:0|3:0,0:0:0:0:
109,261,30429,1,8,0:0:0:0:
29,299,30762,2,0,L|15:216,1,80,0|8,3:0|0:0,0:0:0:0:
5,132,31429,1,0,3:0:0:0:
136,134,31929,6,0,B|185:153|185:153|253:123,1,120,4|8,0:0|0:0,0:0:0:0:
239,38,32762,1,8,0:0:0:0:
325,25,33095,1,8,0:0:0:0:
410,55,33429,2,0,L|402:145,1,80,8|8,0:0|0:0,0:0:0:0:
462,199,34095,1,8,0:0:0:0:
383,305,34595,6,0,B|370:312|363:317|359:316|357:314|349:315|336:315|329:316|340:306|337:300|316:300|316:298|315:298|313:297|309:296|308:296|303:297|299:298|288:295|274:302|281:306|276:310|269:314|264:316|261:318|265:316,1,120,4|8,0:0|0:0,0:0:0:0:
214,377,35429,1,8,0:0:0:0:
126,368,35762,1,8,0:0:0:0:
53,319,36095,2,0,L|60:224,1,80,8|8,0:0|0:0,0:0:0:0:
109,166,36762,1,8,0:0:0:0:
97,78,37095,1,8,0:0:0:0:
167,25,37429,6,0,B|261:33|261:33|303:75|303:75|402:84,1,240,4|2,0:0|3:0,0:0:0:0:
476,101,38762,2,0,P|401:140|408:285,1,240,2|2,3:0|3:0,0:0:0:0:
478,328,40095,6,0,P|457:354|448:359,1,40,4|4,3:0|3:0,0:0:0:0:
363,353,40595,2,0,P|350:321|351:311,1,40,0|8,3:2|3:2,0:0:0:0:
399,240,41095,2,0,P|432:245|440:250,1,40,0|8,3:2|3:2,0:0:0:0:
466,164,41595,2,0,P|485:163|504:155,2,40,8|8|8,0:3|0:3|0:0,0:0:0:0:
274,52,42762,6,0,L|190:58,1,80,4|8,3:2|0:0,0:0:0:0:
157,137,43429,2,0,L|241:143,1,80,0|8,3:0|0:0,0:0:0:0:
312,187,44095,2,0,B|305:280,2,80,0|8|0,3:0|0:0|3:0,0:0:0:0:
382,134,45095,1,8,0:0:0:0:
439,200,45429,6,0,B|432:279,1,80,0|8,3:0|0:0,0:0:0:0:
393,358,46095,2,0,P|352:367|301:362,1,80,0|8,3:0|0:0,0:0:0:0:
249,304,46762,2,0,P|176:288|87:296,1,160,0|0,3:0|3:0,0:0:0:0:
75,208,47762,1,12,0:3:0:0:
59,121,48095,6,0,P|121:119|154:132,1,80,4|8,3:2|0:0,0:0:0:0:
216,172,48762,2,0,P|266:170|299:157,1,80,0|8,3:0|0:0,0:0:0:0:
348,90,49429,2,0,L|337:8,2,80,0|8|0,3:0|0:0|3:0,0:0:0:0:
428,126,50429,1,8,0:0:0:0:
503,170,50762,6,0,L|492:249,1,80,4|8,3:2|0:0,0:0:0:0:
450,327,51429,2,0,P|404:336|360:328,1,80,4|8,3:2|0:0,0:0:0:0:
293,290,52095,2,0,L|297:204,1,80,4|8,3:2|0:0,0:0:0:0:
303,122,52762,1,0,3:0:0:0:
134,69,53429,6,0,L|129:148,1,80,4|8,3:2|0:0,0:0:0:0:
69,213,54095,2,0,L|74:292,1,80,0|8,3:0|0:0,0:0:0:0:
145,344,54762,2,0,B|283:365|231:258|373:283,1,240,0|8,3:0|0:0,0:0:0:0:
445,317,56095,6,0,P|432:282|430:227,1,80,0|8,3:0|0:0,0:0:0:0:
472,162,56762,2,0,P|485:127|487:72,1,80,0|8,3:0|0:0,0:0:0:0:
421,27,57429,2,0,P|384:33|335:59,2,80,0|8|0,3:0|0:0|3:0,0:0:0:0:
405,113,58429,1,12,0:3:0:0:
346,178,58762,6,0,P|309:171|260:145,1,80,4|8,3:2|0:0,0:0:0:0:
188,116,59429,2,0,P|151:122|102:148,1,80,0|8,3:0|0:0,0:0:0:0:
67,215,60095,2,0,L|74:305,2,80,0|8|0,3:0|0:0|3:0,0:0:0:0:
112,140,61095,1,8,0:0:0:0:
181,194,61429,6,0,B|272:202|224:128|335:127,1,160,4|4,3:2|3:2,0:0:0:0:
404,144,62429,1,8,0:0:0:0:
467,204,62762,2,0,L|456:366,1,160,4|0,3:2|3:0,0:0:0:0:
368,353,63762,1,8,0:0:0:0:
280,363,64095,6,0,B|227:366|201:308|201:308|136:330,1,160,4|0,0:0|3:0,0:0:0:0:
31,193,65429,1,4,0:0:0:0:
88,135,77429,6,0,B|81:224,1,80,6|8,3:2|0:0,0:0:0:0:
142,278,78095,1,0,0:0:0:0:
149,365,78429,1,8,0:0:0:0:
236,364,78762,2,0,B|245:240,2,120,0|2|8,3:0|0:0|0:0,0:0:0:0:
322,381,80095,6,0,P|365:373|409:350,1,80,0|8,3:0|0:0,0:0:0:0:
431,276,80762,2,0,P|423:233|400:189,1,80,0|8,0:0|0:0,0:0:0:0:
357,127,81429,2,0,P|306:122|229:146,2,120,4|8|4,0:3|0:0|0:3,0:0:0:0:
350,214,82762,6,0,P|307:226|262:223,1,80,4|10,0:0|0:0,0:0:0:0:
188,197,83429,1,0,0:0:0:0:
180,284,83762,1,8,0:0:0:0:
94,264,84095,2,0,L|104:391,2,120,0|0|10,3:0|0:0|0:0,0:0:0:0:
158,203,85429,6,0,L|246:213,1,80,4|8,0:0|0:0,0:0:0:0:
302,271,86095,2,0,L|381:261,1,80,0|8,3:0|0:0,0:0:0:0:
453,312,86762,2,0,P|424:249|420:186,1,120,0|2,3:0|0:0,0:0:0:0:
453,71,87762,1,8,0:0:0:0:
377,25,88095,6,0,L|285:32,1,80,0|8,3:0|0:0,0:0:0:0:
219,76,88762,2,0,L|127:83,1,80,0|8,3:0|0:0,0:0:0:0:
63,126,89429,2,0,L|72:292,1,160,4|4,0:3|0:3,0:0:0:0:
101,368,90429,1,12,0:3:0:0:
159,302,90762,6,0,L|253:309,1,80,4|10,0:0|0:0,0:0:0:0:
312,250,91429,2,0,L|391:244,1,80,0|8,0:0|0:0,0:0:0:0:
458,187,92095,2,0,P|425:128|421:33,1,160,0|0,3:0|3:0,0:0:0:0:
243,36,93429,6,0,L|76:56,1,160,4|0,0:0|3:0,0:0:0:0:
42,132,94429,1,8,0:0:0:0:
105,192,94762,2,0,L|184:182,1,80,0|8,3:0|0:0,0:0:0:0:
271,169,95429,1,0,3:0:0:0:
237,341,96095,6,0,L|70:321,1,160,0|0,3:0|3:0,0:0:0:0:
34,245,97095,1,8,0:0:0:0:
105,192,97429,2,0,L|184:182,1,80,0|8,3:0|0:0,0:0:0:0:
271,167,98095,1,0,3:0:0:0:
375,247,98595,6,0,P|374:206|382:119,1,120,4|8,0:0|0:0,0:0:0:0:
416,45,99429,1,8,0:0:0:0:
327,20,99762,2,0,L|242:32,2,80,8|8|8,0:0|0:0|0:0,0:0:0:0:
416,45,100762,1,8,0:0:0:0:
331,146,101262,6,0,L|207:163,1,120,4|8,0:0|0:0,0:0:0:0:
168,238,102095,2,0,P|166:271|153:328,1,80,8|8,0:0|0:0,0:0:0:0:
74,338,102762,2,0,P|59:308|42:251,1,80,8|8,0:0|0:0,0:0:0:0:
78,182,103429,1,8,0:0:0:0:
29,108,103762,1,8,0:0:0:0:
42,21,104095,6,0,B|162:26|154:124|279:90,1,240,4|2,0:0|3:0,0:0:0:0:
339,49,105429,2,0,P|305:99|390:240,1,240,2|2,3:0|3:0,0:0:0:0:
465,210,106762,6,0,L|463:157,1,40,4|4,3:0|3:0,0:0:0:0:
462,81,107262,2,0,L|409:83,1,40,8|8,3:2|3:2,0:0:0:0:
333,80,107762,2,0,L|280:82,1,40,8|8,3:2|3:2,0:0:0:0:
204,83,108262,2,0,L|151:85,2,40,8|8|8,0:0|0:0|0:0,0:0:0:0:
42,229,109429,6,0,P|60:287|64:313,1,80,4|8,3:2|0:0,0:0:0:0:
142,343,110095,2,0,P|149:303|163:266,1,80,0|8,3:0|0:0,0:0:0:0:
234,213,110762,2,0,L|324:208,2,80,0|8|0,3:0|0:0|3:0,0:0:0:0:
163,266,111762,1,8,0:0:0:0:
78,291,112095,6,0,P|70:251|56:214,1,80,0|8,3:0|0:0,0:0:0:0:
3,143,112762,2,0,P|10:103|24:66,1,80,0|8,3:0|0:0,0:0:0:0:
111,62,113429,2,0,B|185:71|185:71|212:85|212:85|277:90,1,160,0|0,3:0|3:0,0:0:0:0:
348,121,114429,1,12,0:3:0:0:
388,199,114762,6,0,L|293:208,1,80,4|8,3:2|0:0,0:0:0:0:
254,276,115429,2,0,L|174:268,1,80,0|8,3:0|0:0,0:0:0:0:
93,233,116095,2,0,L|13:240,2,80,0|8|0,3:0|0:0|3:0,0:0:0:0:
180,258,117095,1,8,0:0:0:0:
255,211,117429,6,0,P|244:172|246:122,1,80,4|8,3:2|0:0,0:0:0:0:
331,124,118095,2,0,P|342:163|340:213,1,80,4|8,3:2|0:0,0:0:0:0:
301,280,118762,2,0,P|328:302|371:302,1,80,4|8,3:2|0:0,0:0:0:0:
450,263,119429,1,0,3:0:0:0:
462,87,120095,6,0,L|376:94,1,80,4|8,3:2|0:0,0:0:0:0:
304,51,120762,2,0,L|218:58,1,80,0|8,3:0|0:0,0:0:0:0:
145,97,121429,2,0,P|132:146|136:178,2,80,0|8|0,3:0|0:0|3:0,0:0:0:0:
224,57,122429,1,8,0:0:0:0:
287,117,122762,6,0,P|289:156|277:194,1,80,0|8,3:0|0:0,0:0:0:0:
244,276,123429,2,0,P|241:315|253:353,1,80,0|8,3:0|0:0,0:0:0:0:
341,344,124095,2,0,P|343:304|331:266,1,80,0|8,3:0|0:0,0:0:0:0:
277,194,124762,1,0,3:0:0:0:
200,150,125095,1,12,0:3:0:0:
130,204,125429,6,0,L|130:288,1,80,4|8,3:2|0:0,0:0:0:0:
46,308,126095,2,0,L|43:228,1,80,0|8,3:0|0:0,0:0:0:0:
58,139,126762,2,0,L|60:59,2,80,0|8|0,3:0|0:0|3:0,0:0:0:0:
102,214,127762,1,8,0:0:0:0:
185,185,128095,6,0,P|233:177|276:177,1,80,4|8,3:2|0:0,0:0:0:0:
322,242,128762,2,0,P|370:250|413:250,1,80,4|8,3:2|0:0,0:0:0:0:
466,191,129429,2,0,P|474:129|471:25,1,160,4|0,3:2|3:0,0:0:0:0:
383,29,130429,1,8,0:0:0:0:
295,30,130762,6,0,P|291:109|300:189,1,160,4|0,0:0|3:0,0:0:0:0:
143,110,132095,1,4,0:0:0:0:
432,311,133429,6,0,B|350:305,1,80,4|10,3:2|3:2,0:0:0:0:
275,347,134095,2,0,B|196:353,1,80,0|8,3:0|3:2,0:0:0:0:
164,323,134595,2,0,P|172:266|172:191,1,120,2|8,0:0|3:2,0:0:0:0:
158,117,135428,2,0,P|204:127|249:128,1,80,2|10,3:2|3:2,0:0:0:0:
311,80,136095,5,0,3:0:0:0:
388,125,136428,2,0,P|428:123|467:114,2,80,10|0|8,3:2|3:0|3:2,0:0:0:0:
366,164,137262,2,0,P|353:224|358:287,1,120,2|8,0:0|3:2,0:0:0:0:
401,358,138095,1,0,3:0:0:0:
225,372,138762,6,0,L|130:370,1,80,4|2,0:0|3:2,0:0:0:0:
115,287,139429,2,0,L|194:286,1,80,0|0,3:2|3:2,0:0:0:0:
226,254,139929,2,0,P|224:200|218:127,1,120,10|0,0:0|3:2,0:0:0:0:
139,96,140762,1,2,3:2:0:0:
144,8,141095,1,2,3:2:0:0:
231,2,141429,6,0,P|287:0|326:5,1,80,0|2,3:2|3:2,0:0:0:0:
364,71,142095,2,0,P|420:73|459:68,1,80,0|0,3:2|3:2,0:0:0:0:
474,102,142595,2,0,P|478:141|471:230,1,120,10|12,0:0|0:0,0:0:0:0:
406,280,143429,2,0,P|353:275|313:278,1,80,10|6,0:2|0:2,0:0:0:0:
241,298,144095,1,2,3:2:0:0:
