osu file format v14

[General]
AudioFilename: audio.mp3
AudioLeadIn: 0
PreviewTime: 42012
Countdown: 0
SampleSet: Soft
StackLeniency: 0.4
Mode: 0
LetterboxInBreaks: 0
WidescreenStoryboard: 1

[Editor]
DistanceSpacing: 1
BeatDivisor: 4
GridSize: 8
TimelineZoom: 2.1

[Metadata]
Title:ODOREmotion
TitleUnicode:ODOREmotion
Artist:SILENT SIREN
ArtistUnicode:SILENT SIREN
Creator:SquareTude
Version:Acyl's Normal
Source:
Tags:サイレントサイレン Pop Japanese GIRLS POWER Seulgij Minorsonek Rin Desu RVMathew Acyl Nelliel jpop m2usonek
BeatmapID:1986012
BeatmapSetID:948734

[Difficulty]
HPDrainRate:3
CircleSize:2.5
OverallDifficulty:4
ApproachRate:5
SliderMultiplier:1.1
SliderTickRate:1

[Events]
//Background and Video events
0,0,"silent_siren.jpg",0,0
Video,0,"video.mp4"
//Break Periods
//Storyboard Layer 0 (Background)
//Storyboard Layer 1 (Fail)
//Storyboard Layer 2 (Pass)
//Storyboard Layer 3 (Foreground)
//Storyboard Layer 4 (Overlay)
//Storyboard Sound Samples

[TimingPoints]
96,333.333333333333,4,2,5,70,1,0
96,-100,4,2,5,70,0,0
10762,-100,4,2,5,50,0,0
15762,-100,4,2,6,70,0,0
16095,-100,4,2,5,70,0,0
18762,-100,4,2,5,60,0,0
26762,-100,4,2,5,70,0,0
26929,-100,4,2,6,70,0,0
27095,-100,4,2,5,70,0,0
27262,-100,4,2,6,70,0,0
27428,-100,4,2,5,70,0,0
27595,-100,4,2,6,70,0,0
27761,-100,4,2,5,70,0,0
27929,-100,4,2,6,70,0,0
28095,-100,4,2,5,70,0,0
28262,-100,4,2,6,70,0,0
28428,-100,4,2,5,70,0,0
28595,-100,4,2,6,70,0,0
28761,-100,4,2,5,70,0,0
28929,-100,4,2,6,70,0,0
29095,-100,4,2,5,70,0,0
29262,-100,4,2,6,70,0,0
29428,-100,4,2,5,70,0,0
29595,-100,4,2,6,70,0,0
29761,-100,4,2,5,70,0,0
29929,-100,4,2,6,70,0,0
30095,-100,4,2,5,70,0,0
30262,-100,4,2,6,70,0,0
30428,-100,4,2,5,70,0,0
30595,-100,4,2,6,70,0,0
30761,-100,4,2,5,70,0,0
30929,-100,4,2,6,70,0,0
31095,-100,4,2,5,70,0,0
31262,-100,4,2,6,70,0,0
31428,-100,4,2,5,70,0,0
31595,-100,4,2,6,70,0,0
31761,-100,4,2,5,70,0,0
31929,-100,4,2,5,70,0,0
37429,-100,4,2,5,70,0,0
37762,-100,4,2,8,70,0,0
37928,-100,4,2,5,70,0,0
38095,-100,4,2,8,70,0,0
38262,-100,4,2,5,70,0,0
38428,-100,4,2,8,70,0,0
38594,-100,4,2,5,70,0,0
38761,-100,4,2,8,70,0,0
38928,-100,4,2,5,70,0,0
39095,-100,4,2,8,70,0,0
39261,-100,4,2,5,70,0,0
39428,-100,4,2,8,70,0,0
39595,-100,4,2,5,70,0,0
39762,-100,4,2,8,70,0,0
39928,-100,4,2,5,70,0,0
40095,-100,4,2,6,70,0,0
40429,-100,4,2,5,70,0,0
42095,-100,4,2,5,50,0,0
42429,-100,4,2,5,60,0,0
42762,-100,4,2,5,80,0,1
42929,-100,4,2,7,80,0,1
43095,-100,4,2,5,80,0,1
43262,-100,4,2,7,80,0,1
43428,-100,4,2,5,80,0,1
43595,-100,4,2,7,80,0,1
43761,-100,4,2,5,80,0,1
43929,-100,4,2,7,80,0,1
44095,-100,4,2,5,80,0,1
44262,-100,4,2,7,80,0,1
44428,-100,4,2,5,80,0,1
44595,-100,4,2,7,80,0,1
44761,-100,4,2,5,80,0,1
44929,-100,4,2,7,80,0,1
45095,-100,4,2,5,80,0,1
45262,-100,4,2,7,80,0,1
45428,-100,4,2,5,80,0,1
45595,-100,4,2,7,80,0,1
45761,-100,4,2,5,80,0,1
45928,-100,4,2,7,80,0,1
46094,-100,4,2,5,80,0,1
46262,-100,4,2,7,80,0,1
46428,-100,4,2,5,80,0,1
46595,-100,4,2,7,80,0,1
46761,-100,4,2,5,80,0,1
46928,-100,4,2,7,80,0,1
47094,-100,4,2,5,80,0,1
47262,-100,4,2,7,80,0,1
47428,-100,4,2,5,80,0,1
47595,-100,4,2,6,80,0,1
48095,-100,4,2,5,80,0,1
48262,-100,4,2,7,80,0,1
48428,-100,4,2,5,80,0,1
48595,-100,4,2,7,80,0,1
48761,-100,4,2,5,80,0,1
48928,-100,4,2,7,80,0,1
49094,-100,4,2,5,80,0,1
49262,-100,4,2,7,80,0,1
49428,-100,4,2,5,80,0,1
49595,-100,4,2,7,80,0,1
49761,-100,4,2,5,80,0,1
49928,-100,4,2,7,80,0,1
50094,-100,4,2,5,80,0,1
50262,-100,4,2,7,80,0,1
50428,-100,4,2,5,80,0,1
50595,-100,4,2,7,80,0,1
50761,-100,4,2,5,80,0,1
50928,-100,4,2,7,80,0,1
51094,-100,4,2,5,80,0,1
51261,-100,4,2,7,80,0,1
51427,-100,4,2,5,80,0,1
51595,-100,4,2,7,80,0,1
51761,-100,4,2,5,80,0,1
51928,-100,4,2,7,80,0,1
52094,-100,4,2,5,80,0,1
52261,-100,4,2,7,80,0,1
52427,-100,4,2,5,80,0,1
52595,-100,4,2,7,80,0,1
52761,-100,4,2,5,80,0,1
53595,-100,4,2,7,80,0,1
53761,-100,4,2,5,80,0,1
53928,-100,4,2,7,80,0,1
54094,-100,4,2,5,80,0,1
54261,-100,4,2,7,80,0,1
54427,-100,4,2,5,80,0,1
54595,-100,4,2,7,80,0,1
54761,-100,4,2,5,80,0,1
54928,-100,4,2,7,80,0,1
55094,-100,4,2,5,80,0,1
55261,-100,4,2,7,80,0,1
55427,-100,4,2,5,80,0,1
55595,-100,4,2,7,80,0,1
55761,-100,4,2,5,80,0,1
55929,-100,4,2,7,80,0,1
56095,-100,4,2,5,80,0,1
56262,-100,4,2,7,80,0,1
56428,-100,4,2,5,80,0,1
56595,-100,4,2,7,80,0,1
56761,-100,4,2,5,80,0,1
56929,-100,4,2,7,80,0,1
57095,-100,4,2,5,80,0,1
57262,-100,4,2,7,80,0,1
57428,-100,4,2,5,80,0,1
57595,-100,4,2,7,80,0,1
57761,-100,4,2,5,80,0,1
57929,-100,4,2,7,80,0,1
58095,-100,4,2,5,80,0,1
58262,-100,4,2,6,80,0,1
58762,-100,4,2,5,80,0,1
58929,-100,4,2,7,80,0,1
59095,-100,4,2,5,80,0,1
59262,-100,4,2,7,80,0,1
59428,-100,4,2,5,80,0,1
59595,-100,4,2,7,80,0,1
59761,-100,4,2,5,80,0,1
59929,-100,4,2,7,80,0,1
60095,-100,4,2,5,80,0,1
60262,-100,4,2,7,80,0,1
60428,-100,4,2,5,80,0,1
60595,-100,4,2,7,80,0,1
60761,-100,4,2,5,80,0,1
60929,-100,4,2,7,80,0,1
61095,-100,4,2,5,80,0,1
61595,-100,4,2,7,80,0,1
61762,-100,4,2,5,80,0,1
61929,-100,4,2,7,80,0,1
62096,-100,4,2,5,80,0,1
62262,-100,4,2,7,80,0,1
62429,-100,4,2,5,80,0,1
63262,-100,4,2,7,80,0,1
63429,-100,4,2,5,80,0,1
63595,-100,4,2,7,80,0,1
63762,-100,4,2,5,80,0,1
65429,-100,4,2,5,80,0,0
66762,-100,4,2,5,70,0,0
77429,-100,4,2,5,55,0,0
81429,-100,4,2,6,70,0,0
81595,-100,4,2,5,70,0,0
82429,-100,4,2,5,70,0,0
82762,-100,4,2,5,70,0,0
85429,-100,4,2,5,55,0,0
89429,-100,4,2,6,70,0,0
89512,-100,4,2,5,70,0,0
90429,-100,4,2,6,70,0,0
90762,-100,4,2,5,70,0,0
93429,-100,4,2,5,70,0,0
93596,-100,4,2,6,70,0,0
93762,-100,4,2,5,70,0,0
93929,-100,4,2,6,70,0,0
94095,-100,4,2,5,70,0,0
94262,-100,4,2,6,70,0,0
94428,-100,4,2,5,70,0,0
94596,-100,4,2,6,70,0,0
94762,-100,4,2,5,70,0,0
94929,-100,4,2,6,70,0,0
95095,-100,4,2,5,70,0,0
95262,-100,4,2,6,70,0,0
95428,-100,4,2,5,70,0,0
95596,-100,4,2,6,70,0,0
95762,-100,4,2,5,70,0,0
95929,-100,4,2,6,70,0,0
96095,-100,4,2,5,70,0,0
96262,-100,4,2,6,70,0,0
96428,-100,4,2,5,70,0,0
96596,-100,4,2,6,70,0,0
96762,-100,4,2,5,70,0,0
96929,-100,4,2,6,70,0,0
97095,-100,4,2,5,70,0,0
97262,-100,4,2,6,70,0,0
97428,-100,4,2,5,70,0,0
97596,-100,4,2,6,70,0,0
97762,-100,4,2,5,70,0,0
97929,-100,4,2,6,70,0,0
98095,-100,4,2,5,70,0,0
98262,-100,4,2,6,70,0,0
98428,-100,4,2,5,70,0,0
98596,-100,4,2,5,70,0,0
104095,-100,4,2,5,70,0,0
104429,-100,4,2,8,70,0,0
104595,-100,4,2,5,70,0,0
104762,-100,4,2,8,70,0,0
104929,-100,4,2,5,70,0,0
105095,-100,4,2,8,70,0,0
105261,-100,4,2,5,70,0,0
105428,-100,4,2,8,70,0,0
105595,-100,4,2,5,70,0,0
105762,-100,4,2,8,70,0,0
105928,-100,4,2,5,70,0,0
106095,-100,4,2,8,70,0,0
106262,-100,4,2,5,70,0,0
106429,-100,4,2,8,70,0,0
106595,-100,4,2,5,70,0,0
106762,-100,4,2,6,70,0,0
107096,-100,4,2,5,70,0,0
109095,-100,4,2,6,70,0,0
109429,-100,4,2,5,80,0,1
109595,-100,4,2,7,80,0,1
109761,-100,4,2,5,80,0,1
109928,-100,4,2,7,80,0,1
110094,-100,4,2,5,80,0,1
110261,-100,4,2,7,80,0,1
110427,-100,4,2,5,80,0,1
110595,-100,4,2,7,80,0,1
110761,-100,4,2,5,80,0,1
110928,-100,4,2,7,80,0,1
111094,-100,4,2,5,80,0,1
111261,-100,4,2,7,80,0,1
111427,-100,4,2,5,80,0,1
111595,-100,4,2,7,80,0,1
111761,-100,4,2,5,80,0,1
111928,-100,4,2,7,80,0,1
112094,-100,4,2,5,80,0,1
112261,-100,4,2,7,80,0,1
112427,-100,4,2,5,80,0,1
112594,-100,4,2,7,80,0,1
112760,-100,4,2,5,80,0,1
112928,-100,4,2,7,80,0,1
113094,-100,4,2,5,80,0,1
113261,-100,4,2,7,80,0,1
113427,-100,4,2,5,80,0,1
113594,-100,4,2,7,80,0,1
113760,-100,4,2,5,80,0,1
113928,-100,4,2,7,80,0,1
114094,-100,4,2,5,80,0,1
114261,-100,4,2,6,80,0,1
114761,-100,4,2,5,80,0,1
114928,-100,4,2,7,80,0,1
115094,-100,4,2,5,80,0,1
115261,-100,4,2,7,80,0,1
115427,-100,4,2,5,80,0,1
115594,-100,4,2,7,80,0,1
115760,-100,4,2,5,80,0,1
115928,-100,4,2,7,80,0,1
116094,-100,4,2,5,80,0,1
116261,-100,4,2,7,80,0,1
116427,-100,4,2,5,80,0,1
116594,-100,4,2,7,80,0,1
116760,-100,4,2,5,80,0,1
116928,-100,4,2,7,80,0,1
117094,-100,4,2,5,80,0,1
117261,-100,4,2,7,80,0,1
117427,-100,4,2,5,80,0,1
117594,-100,4,2,7,80,0,1
117760,-100,4,2,5,80,0,1
117927,-100,4,2,7,80,0,1
118093,-100,4,2,5,80,0,1
118261,-100,4,2,7,80,0,1
118427,-100,4,2,5,80,0,1
118594,-100,4,2,7,80,0,1
118760,-100,4,2,5,80,0,1
118927,-100,4,2,7,80,0,1
119093,-100,4,2,5,80,0,1
119261,-100,4,2,7,80,0,1
119427,-100,4,2,5,80,0,1
120261,-100,4,2,7,80,0,1
120427,-100,4,2,5,80,0,1
120594,-100,4,2,7,80,0,1
120760,-100,4,2,5,80,0,1
120927,-100,4,2,7,80,0,1
121093,-100,4,2,5,80,0,1
121261,-100,4,2,7,80,0,1
121427,-100,4,2,5,80,0,1
121594,-100,4,2,7,80,0,1
121760,-100,4,2,5,80,0,1
121927,-100,4,2,7,80,0,1
122093,-100,4,2,5,80,0,1
122261,-100,4,2,7,80,0,1
122427,-100,4,2,5,80,0,1
122595,-100,4,2,7,80,0,1
122761,-100,4,2,5,80,0,1
122928,-100,4,2,7,80,0,1
123094,-100,4,2,5,80,0,1
123261,-100,4,2,7,80,0,1
123427,-100,4,2,5,80,0,1
123595,-100,4,2,7,80,0,1
123761,-100,4,2,5,80,0,1
123928,-100,4,2,7,80,0,1
124094,-100,4,2,5,80,0,1
124261,-100,4,2,7,80,0,1
124427,-100,4,2,5,80,0,1
124595,-100,4,2,7,80,0,1
124761,-100,4,2,5,80,0,1
124928,-100,4,2,6,80,0,1
125428,-100,4,2,5,80,0,1
125595,-100,4,2,7,80,0,1
125761,-100,4,2,5,80,0,1
125928,-100,4,2,7,80,0,1
126094,-100,4,2,5,80,0,1
126261,-100,4,2,7,80,0,1
126427,-100,4,2,5,80,0,1
126595,-100,4,2,7,80,0,1
126761,-100,4,2,5,80,0,1
126928,-100,4,2,7,80,0,1
127094,-100,4,2,5,80,0,1
127261,-100,4,2,7,80,0,1
127427,-100,4,2,5,80,0,1
127595,-100,4,2,7,80,0,1
127761,-100,4,2,5,80,0,1
128261,-100,4,2,7,80,0,1
128428,-100,4,2,5,80,0,1
128595,-100,4,2,7,80,0,1
128762,-100,4,2,5,80,0,1
128928,-100,4,2,7,80,0,1
129095,-100,4,2,5,80,0,1
129928,-100,4,2,7,80,0,1
130095,-100,4,2,5,80,0,1
130261,-100,4,2,7,80,0,1
130428,-100,4,2,5,80,0,1
132095,-100,4,2,5,80,0,0
133429,-100,4,2,5,70,0,0
138762,-100,4,2,5,70,0,0

[Colours]
Combo1 : 255,26,255
Combo2 : 255,128,255

[HitObjects]
448,64,96,6,0,L|432:176,1,110,4|10,3:2|3:2,0:0:0:0:
356,252,762,1,0,3:0:0:0:
356,252,929,2,0,P|299:231|278:187,1,110,0|2,0:0|0:0,0:0:0:0:
237,86,1595,2,0,P|255:56|264:25,2,55,0|8|0,0:0|3:2|0:0,0:0:0:0:
186,108,2095,2,0,B|76:107,1,110,2|10,3:2|3:2,0:0:0:0:
38,210,2762,6,0,P|22:264|46:331,1,110,0|10,3:0|3:2,0:0:0:0:
143,329,3429,1,0,3:0:0:0:
143,329,3595,2,0,L|275:332,1,110,0|2,0:0|0:0,0:0:0:0:
358,299,4262,2,0,P|388:317|419:326,2,55,0|8|0,0:0|3:2|0:0,0:0:0:0:
340,246,4762,2,0,B|341:136,1,110,0|8,3:0|3:2,0:0:0:0:
286,40,5429,6,0,P|232:24|165:48,1,110,4|10,0:0|3:2,0:0:0:0:
126,132,6095,1,0,3:0:0:0:
126,132,6262,2,0,L|123:264,1,110,0|2,0:0|0:0,0:0:0:0:
233,251,6929,2,0,L|235:177,2,55,0|8|0,0:0|3:2|0:0,0:0:0:0:
231,306,7429,2,0,B|341:307,1,110,2|10,3:2|3:2,0:0:0:0:
434,248,8095,6,0,P|456:188|441:132,1,110,0|10,3:0|3:2,0:0:0:0:
365,70,8762,1,0,3:0:0:0:
365,70,8929,2,0,L|243:62,1,110,0|2,0:0|0:0,0:0:0:0:
175,138,9595,2,0,L|101:145,2,55,12|8|4,0:0|0:3|0:3,0:0:0:0:
226,157,10095,2,0,P|249:210|233:283,1,110,8|0,0:0|0:0,0:0:0:0:
178,349,10762,6,0,L|66:341,1,110,4|2,3:2|3:2,0:0:0:0:
42,234,11429,1,2,3:2:0:0:
42,234,11595,2,0,P|31:168|63:120,1,110,0|0,0:0|0:0,0:0:0:0:
92,96,12095,2,0,B|148:77|148:77|208:88,1,110,2|2,3:2|3:2,0:0:0:0:
248,108,12595,2,0,P|262:49|349:83,1,165,0|2,0:0|3:2,0:0:0:0:
411,157,13429,6,0,L|403:269,1,110,2|2,3:2|3:2,0:0:0:0:
351,352,14095,1,2,3:2:0:0:
351,352,14262,2,0,P|285:363|237:331,1,110,0|0,0:0|0:0,0:0:0:0:
204,376,14762,2,0,L|203:237,1,110,2|2,3:2|3:2,0:0:0:0:
163,226,15262,1,0,0:0:0:0:
108,234,15429,2,0,P|80:151|108:104,1,110,2|4,3:2|3:0,0:0:0:0:
179,76,16095,6,0,L|311:83,1,110,4|8,0:2|0:0,0:0:0:0:
330,183,16762,2,0,L|198:176,1,110,0|8,0:0|0:0,0:0:0:0:
181,216,17262,1,0,0:0:0:0:
196,268,17429,2,0,B|296:270|258:316|357:318,1,165,0|0,3:0|0:0,0:0:0:0:
396,345,18095,2,0,P|426:332|423:186,1,165,0|8,3:0|0:3,0:0:0:0:
399,194,18762,6,0,L|407:82,1,110,4|8,0:0|0:2,0:0:0:0:
303,46,19429,1,0,3:0:0:0:
303,46,19595,2,0,P|253:24|200:37,1,110,2|0,0:0|0:0,0:0:0:0:
151,59,20095,1,0,3:0:0:0:
126,108,20262,2,0,P|136:146|157:173,1,55,0|0,0:0|0:0,0:0:0:0:
192,184,20595,2,0,P|210:211|164:363,1,165,10|8,0:0|0:0,0:0:0:0:
82,333,21429,6,0,L|90:221,1,110,0|8,3:0|0:0,0:0:0:0:
37,126,22095,1,0,3:0:0:0:
37,126,22262,2,0,P|26:60|58:12,1,110,2|0,0:0|0:0,0:0:0:0:
99,24,22762,2,0,L|242:29,1,110,0|0,3:0|0:0,0:0:0:0:
247,67,23262,1,10,0:0:0:0:
300,52,23429,2,0,P|328:135|300:182,1,110,0|8,0:0|0:3,0:0:0:0:
230,212,24095,6,0,L|277:351,1,110,4|8,3:2|0:0,0:0:0:0:
375,318,24762,2,0,L|422:179,1,110,0|8,0:0|0:0,0:0:0:0:
377,169,25262,1,0,0:0:0:0:
403,120,25429,2,0,B|303:118|341:72|242:70,1,165,0|0,3:0|0:0,0:0:0:0:
206,35,26095,2,0,B|134:75|134:75|110:201,1,165,0|8,3:0|0:3,0:0:0:0:
144,204,26762,6,0,P|194:214|238:210,2,82.5,4|0|2,0:0|0:0|0:3,0:0:0:0:
96,303,27595,2,0,L|30:313,2,55,2|8|2,0:3|0:0|0:3,0:0:0:0:
140,334,28095,2,0,L|271:341,1,110,0|8,3:0|0:0,0:0:0:0:
301,320,28595,1,2,0:3:0:0:
351,342,28762,2,0,P|405:328|443:257,1,110,0|8,3:0|0:0,0:0:0:0:
371,198,29429,6,0,P|361:148|365:104,2,82.5,0|0|2,3:0|0:0|0:3,0:0:0:0:
277,256,30262,2,0,L|267:322,2,55,2|8|2,0:3|0:0|0:3,0:0:0:0:
246,210,30762,2,0,L|115:203,1,110,0|8,3:0|0:0,0:0:0:0:
94,168,31262,2,0,P|77:142|80:96,1,55,2|0,0:3|3:0,0:0:0:0:
160,48,31762,1,8,0:0:0:0:
160,48,31929,6,0,L|287:53,1,110,4|0,0:0|3:0,0:0:0:0:
313,86,32429,2,0,B|328:140|328:140|304:201,2,110,8|8|8,0:0|0:0|0:0,0:0:0:0:
362,62,33262,1,0,3:0:0:0:
362,62,33429,2,0,L|448:67,1,55,8|0,0:0|3:0,0:0:0:0:
456,103,33762,2,0,L|451:189,1,55,8|0,0:0|3:0,0:0:0:0:
472,209,34095,1,8,0:0:0:0:
385,345,34595,6,0,L|258:340,1,110,4|0,0:0|3:0,0:0:0:0:
235,302,35095,2,0,B|250:248|250:248|226:187,2,110,8|8|8,0:0|0:0|0:0,0:0:0:0:
187,330,35929,1,0,3:0:0:0:
187,330,36095,2,0,L|101:325,1,55,8|0,0:0|0:0,0:0:0:0:
89,290,36429,2,0,L|94:204,1,55,8|0,0:0|3:0,0:0:0:0:
137,203,36762,2,0,B|122:149|122:149|146:88,1,110,8|8,0:0|0:0,0:0:0:0:
256,192,37429,12,4,40095,3:0:0:0:
209,303,42095,6,0,L|342:292,1,110,0|0,0:0|0:0,0:0:0:0:
404,362,42762,6,0,P|428:303|411:232,1,110,4|8,3:2|0:0,0:0:0:0:
382,220,43262,1,2,0:3:0:0:
382,220,43429,2,0,P|365:157|390:78,1,110,0|8,3:0|0:0,0:0:0:0:
331,76,43929,1,2,0:3:0:0:
331,76,44095,2,0,P|287:93|243:99,1,55,0|2,3:0|0:3,0:0:0:0:
232,124,44429,2,0,P|198:113|173:93,1,55,8|2,0:0|0:3,0:0:0:0:
165,49,44762,1,0,3:0:0:0:
66,97,45095,2,0,P|81:133|84:173,1,55,8|2,0:0|0:3,0:0:0:0:
58,196,45429,6,0,P|44:249|79:315,1,110,0|8,3:0|0:0,0:0:0:0:
110,327,45929,1,2,0:3:0:0:
110,327,46095,2,0,P|162:312|202:249,1,110,0|8,3:0|0:0,0:0:0:0:
193,159,46762,2,0,P|186:125|194:95,1,55,0|2,3:0|0:3,0:0:0:0:
244,99,47095,2,0,P|272:85|297:54,1,55,8|2,0:0|0:3,0:0:0:0:
290,12,47429,1,0,3:0:0:0:
180,19,47762,1,12,0:3:0:0:
70,25,48095,6,0,L|79:170,1,110,4|8,3:2|0:0,0:0:0:0:
38,174,48595,1,2,0:3:0:0:
38,174,48762,2,0,L|45:306,1,110,0|8,3:0|0:0,0:0:0:0:
85,320,49262,1,2,0:3:0:0:
85,320,49429,2,0,P|119:318|146:300,1,55,0|2,3:0|0:3,0:0:0:0:
190,321,49762,2,0,P|216:299|238:255,1,55,8|2,0:0|0:3,0:0:0:0:
228,226,50095,1,0,3:0:0:0:
328,270,50429,1,8,0:0:0:0:
427,222,50762,5,4,3:2:0:0:
427,222,50929,2,0,L|434:81,1,110,2|2,0:3|0:3,0:0:0:0:
400,67,51429,2,0,P|349:39|282:64,1,110,4|8,3:2|0:0,0:0:0:0:
267,93,51929,1,2,0:3:0:0:
267,93,52095,2,0,P|278:125|278:168,1,55,4|2,3:2|0:3,0:0:0:0:
248,191,52429,2,0,P|245:221|250:270,1,55,8|2,0:0|0:3,0:0:0:0:
281,287,52762,1,0,3:0:0:0:
171,284,53095,1,8,0:0:0:0:
66,248,53429,6,0,L|70:105,1,110,4|8,3:2|0:0,0:0:0:0:
107,99,53929,1,2,0:3:0:0:
107,99,54095,2,0,P|176:89|230:119,1,110,0|8,3:0|0:0,0:0:0:0:
231,155,54595,1,2,0:3:0:0:
231,155,54762,2,0,L|234:217,1,55,0|2,3:0|0:3,0:0:0:0:
268,252,55095,2,0,L|271:314,1,55,8|2,0:0|0:3,0:0:0:0:
245,356,55429,1,0,3:0:0:0:
354,347,55762,1,8,0:0:0:0:
462,331,56095,6,0,L|473:205,1,110,0|8,3:0|0:0,0:0:0:0:
433,181,56595,1,2,0:3:0:0:
433,181,56762,2,0,P|407:128|414:65,1,110,0|8,3:0|0:0,0:0:0:0:
309,33,57429,2,0,L|251:38,1,55,0|2,3:0|0:3,0:0:0:0:
216,79,57762,2,0,L|143:85,1,55,8|2,0:0|0:3,0:0:0:0:
115,52,58095,1,0,3:0:0:0:
55,144,58429,1,12,0:3:0:0:
108,239,58762,6,0,P|162:230|204:188,1,110,4|8,3:2|0:0,0:0:0:0:
234,237,59262,1,2,0:3:0:0:
234,237,59429,2,0,L|238:356,1,110,0|8,3:0|0:0,0:0:0:0:
284,375,59929,1,2,0:3:0:0:
284,375,60095,2,0,L|354:369,1,55,0|2,3:0|0:3,0:0:0:0:
378,331,60429,2,0,L|372:261,1,55,8|2,0:0|0:3,0:0:0:0:
338,233,60762,1,0,3:0:0:0:
234,263,61095,1,8,0:0:0:0:
217,378,61429,5,4,3:2:0:0:
217,378,61595,2,0,P|170:334|109:341,1,110,2|2,0:3|0:3,0:0:0:0:
93,289,62095,2,0,L|106:178,1,110,4|8,3:2|0:0,0:0:0:0:
72,136,62595,1,8,0:0:0:0:
72,136,62762,2,0,P|42:102|44:54,1,55,4|0,3:2|0:0,0:0:0:0:
46,38,63095,2,0,P|70:36|111:23,1,55,8|2,0:0|0:3,0:0:0:0:
149,52,63429,2,0,B|209:73|209:73|253:58,1,110,0|8,3:0|0:0,0:0:0:0:
360,82,64095,6,0,B|378:134|378:134|358:198,1,110,4|8,0:0|0:0,0:0:0:0:
317,219,64595,1,8,0:0:0:0:
264,201,64762,2,0,B|250:264|250:264|270:313,1,110,0|8,3:0|0:0,0:0:0:0:
315,331,65262,1,8,0:0:0:0:
315,331,65429,5,4,0:0:0:0:
197,353,66762,6,0,L|85:337,1,110,4|10,3:2|3:2,0:0:0:0:
48,235,67429,1,0,3:0:0:0:
48,235,67595,2,0,P|69:178|113:157,1,110,0|2,0:0|0:0,0:0:0:0:
212,115,68262,2,0,P|230:85|239:54,2,55,0|8|0,0:0|3:2|0:0,0:0:0:0:
241,161,68762,2,0,B|351:160,1,110,2|10,3:2|3:2,0:0:0:0:
445,216,69429,6,0,P|461:270|437:337,1,110,0|10,3:0|3:2,0:0:0:0:
349,368,70095,1,0,3:0:0:0:
349,368,70262,2,0,L|352:236,1,110,0|2,0:0|0:0,0:0:0:0:
243,276,70929,2,0,P|225:306|216:337,2,55,0|8|0,0:0|3:2|0:0,0:0:0:0:
215,228,71429,2,0,B|105:227,1,110,0|8,3:0|3:2,0:0:0:0:
49,229,71929,1,8,0:0:0:0:
49,229,72095,6,0,P|33:175|57:108,1,110,4|10,0:0|3:2,0:0:0:0:
18,17,72762,1,0,3:0:0:0:
18,17,72929,2,0,L|150:20,1,110,0|2,0:0|0:0,0:0:0:0:
164,123,73595,2,0,L|86:123,2,55,0|8|0,0:0|3:2|0:0,0:0:0:0:
185,173,74095,2,0,B|297:173,1,110,2|10,3:2|3:2,0:0:0:0:
381,100,74762,6,0,P|403:160|388:216,1,110,0|10,3:0|3:2,0:0:0:0:
336,297,75429,1,0,3:0:0:0:
336,297,75595,2,0,L|214:289,1,110,0|2,0:0|0:0,0:0:0:0:
132,348,76262,2,0,P|84:347|63:330,2,55,4|8|8,0:3|0:0|0:3,0:0:0:0:
107,300,76762,2,0,P|84:247|100:174,1,110,4|4,0:3|0:0,0:0:0:0:
197,175,77429,6,0,L|205:63,1,110,6|8,3:2|0:0,0:0:0:0:
309,30,78095,1,0,0:0:0:0:
309,30,78262,2,0,P|375:19|423:51,1,110,2|0,3:2|0:0,0:0:0:0:
433,88,78762,2,0,P|471:78|498:57,2,55,0|0|8,3:0|0:0|0:0,0:0:0:0:
416,140,79262,2,0,P|306:142|257:187,1,165,2|8,0:0|0:0,0:0:0:0:
220,273,80095,6,0,L|339:274,1,110,0|8,3:0|0:0,0:0:0:0:
431,315,80762,1,0,0:0:0:0:
431,315,80929,2,0,P|442:249|410:201,1,110,2|0,3:2|0:0,0:0:0:0:
381,176,81429,2,0,B|403:120|403:120|373:40,1,110,4|8,0:3|0:0,0:0:0:0:
337,46,81929,1,8,0:0:0:0:
282,46,82095,2,0,B|260:102|260:102|290:182,1,110,8|4,0:0|0:3,0:0:0:0:
199,226,82762,6,0,L|67:233,1,110,4|10,0:0|0:0,0:0:0:0:
22,143,83429,2,0,P|14:80|40:17,1,110,0|8,0:0|0:0,0:0:0:0:
83,21,83929,1,0,0:0:0:0:
83,21,84095,2,0,P|160:49|257:54,1,165,0|0,3:0|0:0,0:0:0:0:
291,29,84762,2,0,B|267:124|321:95|291:223,1,165,0|8,3:0|0:3,0:0:0:0:
257,229,85429,6,0,L|145:221,1,110,4|8,0:0|0:0,0:0:0:0:
44,262,86095,1,0,3:0:0:0:
44,262,86262,2,0,P|22:312|35:365,1,110,2|0,3:2|0:0,0:0:0:0:
89,370,86762,1,0,3:0:0:0:
89,370,86929,2,0,P|127:360|154:339,1,55,0|8,3:0|0:0,0:0:0:0:
195,353,87262,2,0,P|222:335|374:381,1,165,2|8,0:0|0:0,0:0:0:0:
456,357,88095,6,0,L|464:245,1,110,0|8,3:0|0:0,0:0:0:0:
422,145,88762,1,0,3:0:0:0:
422,145,88929,2,0,P|356:134|308:166,1,110,2|0,3:2|0:0,0:0:0:0:
282,193,89429,2,0,L|270:42,1,110,4|4,0:3|0:3,0:0:0:0:
221,64,89929,1,8,0:0:0:0:
167,76,90095,2,0,B|138:128|138:128|167:206,1,110,4|12,0:3|0:3,0:0:0:0:
162,284,90762,6,0,B|0:285,1,110,4|10,0:0|0:0,0:0:0:0:
45,176,91429,2,0,B|206:174,1,110,0|8,0:0|0:0,0:0:0:0:
199,141,91929,1,0,0:0:0:0:
250,158,92095,2,0,P|327:160|401:73,1,165,0|0,3:0|0:0,0:0:0:0:
401,50,92762,2,0,B|352:9|352:9|297:13,1,110,0|2,3:0|3:2,0:0:0:0:
207,59,93429,6,0,P|197:109|201:153,2,82.5,4|0|2,0:0|0:0|0:3,0:0:0:0:
104,19,94262,2,0,L|38:29,2,55,2|8|2,0:3|0:0|0:3,0:0:0:0:
101,74,94762,2,0,L|94:205,1,110,0|8,3:0|0:0,0:0:0:0:
62,228,95262,1,2,0:3:0:0:
82,278,95429,2,0,P|177:270|215:199,1,165,0|2,3:0|0:3,0:0:0:0:
264,199,96095,6,0,P|254:149|258:105,2,82.5,0|0|2,3:0|0:0|0:3,0:0:0:0:
334,283,96929,2,0,L|324:349,2,55,2|8|2,0:3|0:0|0:3,0:0:0:0:
361,235,97429,2,0,L|492:242,1,110,0|8,3:0|0:0,0:0:0:0:
500,194,97929,2,0,P|510:163|501:126,1,55,2|0,0:3|3:0,0:0:0:0:
444,56,98429,1,8,0:0:0:0:
444,56,98595,6,0,L|317:51,1,110,4|0,0:0|3:0,0:0:0:0:
293,89,99095,2,0,B|308:143|308:143|284:204,2,110,8|8|8,0:0|0:0|0:0,0:0:0:0:
245,60,99929,1,0,3:0:0:0:
245,60,100095,2,0,L|159:65,1,55,8|0,0:0|3:0,0:0:0:0:
149,100,100429,2,0,L|154:186,1,55,8|0,0:0|3:0,0:0:0:0:
188,196,100762,1,8,0:0:0:0:
157,354,101262,6,0,L|284:349,1,110,4|0,0:0|3:0,0:0:0:0:
307,311,101762,2,0,B|292:257|292:257|316:196,2,110,8|8|8,0:0|0:0|0:0,0:0:0:0:
359,340,102595,1,0,3:0:0:0:
359,340,102762,2,0,L|445:335,1,55,8|0,0:0|0:0,0:0:0:0:
453,299,103095,2,0,L|448:213,1,55,8|0,0:0|3:0,0:0:0:0:
405,212,103429,2,0,B|420:158|420:158|396:97,1,110,8|8,0:0|0:0,0:0:0:0:
256,192,104095,12,4,106762,3:0:0:0:
303,303,108762,6,0,B|265:291|265:291|226:295|226:295|175:282,1,110,4|12,0:3|0:3,0:0:0:0:
108,362,109429,6,0,P|84:303|101:232,1,110,4|8,3:2|0:0,0:0:0:0:
130,220,109929,1,2,0:3:0:0:
130,220,110095,2,0,P|147:157|122:78,1,110,0|8,3:0|0:0,0:0:0:0:
100,75,110595,1,2,0:3:0:0:
100,75,110762,2,0,L|224:56,1,110,0|8,3:0|0:0,0:0:0:0:
259,78,111262,1,2,0:3:0:0:
259,78,111429,1,0,3:0:0:0:
352,19,111762,2,0,L|424:21,1,55,8|2,0:0|0:3,0:0:0:0:
452,52,112095,6,0,P|466:105|431:171,1,110,0|8,3:0|0:0,0:0:0:0:
393,167,112595,1,2,0:3:0:0:
393,167,112762,2,0,P|341:182|301:245,1,110,0|8,3:0|0:0,0:0:0:0:
200,253,113429,2,0,L|193:124,1,110,0|8,3:0|0:0,0:0:0:0:
161,98,113929,1,2,0:3:0:0:
161,98,114095,1,0,3:0:0:0:
243,24,114429,1,12,0:3:0:0:
308,112,114762,6,0,P|372:128|453:103,1,110,4|8,3:2|0:0,0:0:0:0:
452,81,115262,1,2,0:3:0:0:
452,81,115429,2,0,P|481:122|459:213,1,110,0|8,3:0|0:0,0:0:0:0:
449,226,115929,1,2,0:3:0:0:
449,226,116095,2,0,L|457:341,1,110,0|8,3:0|0:0,0:0:0:0:
408,362,116595,1,2,0:3:0:0:
408,362,116762,1,0,3:0:0:0:
331,283,117095,1,8,0:0:0:0:
239,343,117429,5,4,3:2:0:0:
239,343,117595,2,0,L|246:202,1,110,2|2,0:3|0:3,0:0:0:0:
274,186,118095,2,0,P|223:158|156:183,1,110,4|8,3:2|0:0,0:0:0:0:
140,211,118595,1,2,0:3:0:0:
140,211,118762,2,0,P|129:179|129:136,1,55,4|2,3:2|0:3,0:0:0:0:
131,103,119095,2,0,P|139:68|128:29,1,55,8|2,0:0|0:3,0:0:0:0:
102,5,119429,1,0,3:0:0:0:
211,7,119762,1,8,0:0:0:0:
320,11,120095,6,0,L|324:154,1,110,4|8,3:2|0:0,0:0:0:0:
334,174,120595,1,2,0:3:0:0:
334,174,120762,2,0,P|403:184|457:154,1,110,0|8,3:0|0:0,0:0:0:0:
473,211,121262,1,2,0:3:0:0:
473,211,121429,2,0,L|465:330,1,110,0|8,3:0|0:0,0:0:0:0:
415,342,121929,1,2,0:3:0:0:
415,342,122095,1,0,3:0:0:0:
321,278,122429,1,8,0:0:0:0:
244,354,122762,6,0,L|110:358,1,110,0|8,3:0|0:0,0:0:0:0:
88,326,123262,1,2,0:3:0:0:
88,326,123429,2,0,P|74:268|95:209,1,110,0|8,3:0|0:0,0:0:0:0:
176,154,124095,6,0,L|182:287,1,110,0|8,3:0|0:0,0:0:0:0:
235,264,124595,1,2,0:3:0:0:
235,264,124762,1,0,3:0:0:0:
299,174,125095,1,12,0:3:0:0:
359,266,125429,6,0,P|414:257|467:284,1,110,4|8,3:2|0:0,0:0:0:0:
504,313,125929,1,2,0:3:0:0:
504,313,126095,2,0,L|494:185,1,110,0|8,3:0|0:0,0:0:0:0:
459,161,126595,1,2,0:3:0:0:
459,161,126762,6,0,L|497:101,1,55,0|2,3:0|0:3,0:0:0:0:
467,63,127095,2,0,L|408:25,1,55,8|2,0:0|0:3,0:0:0:0:
366,24,127429,2,0,L|329:83,1,55,0|2,3:0|0:3,0:0:0:0:
338,125,127762,1,8,0:0:0:0:
241,70,128095,5,4,3:2:0:0:
241,70,128262,2,0,P|193:39|136:55,1,110,2|2,0:3|0:3,0:0:0:0:
121,90,128762,2,0,L|134:199,1,110,4|8,3:2|0:0,0:0:0:0:
119,252,129262,1,8,0:0:0:0:
119,252,129429,2,0,L|251:241,1,110,4|8,3:2|0:0,0:0:0:0:
283,249,129929,1,2,0:3:0:0:
326,216,130095,2,0,B|347:156|347:156|321:78,1,110,0|8,3:0|0:0,0:0:0:0:
241,48,130762,6,0,B|223:100|223:100|243:164,1,110,4|8,0:0|0:0,0:0:0:0:
188,173,131262,1,8,0:0:0:0:
137,194,131429,2,0,B|154:151|154:151|136:90,1,110,0|8,3:0|0:0,0:0:0:0:
90,64,131929,1,8,0:0:0:0:
90,64,132095,5,4,0:0:0:0:
446,63,133429,6,0,L|430:175,1,110,4|10,3:2|3:2,0:0:0:0:
356,252,134095,1,0,3:0:0:0:
356,252,134262,2,0,B|299:231|299:231|278:187,1,110,0|2,0:0|0:0,0:0:0:0:
237,86,134929,2,0,B|256:58|256:58|264:25,2,55,0|8|0,0:0|3:2|0:0,0:0:0:0:
186,108,135429,2,0,B|76:107,1,110,2|10,3:2|3:2,0:0:0:0:
36,210,136095,6,0,B|20:264|20:264|44:331,1,110,0|10,3:0|3:2,0:0:0:0:
147,326,136762,1,0,3:0:0:0:
147,326,136929,2,0,L|279:329,1,110,0|2,0:0|0:0,0:0:0:0:
362,297,137595,2,0,B|393:317|393:317|423:324,2,55,0|8|0,0:0|3:2|0:0,0:0:0:0:
348,243,138095,2,0,B|349:133,1,110,0|8,3:0|3:2,0:0:0:0:
286,40,138762,6,0,B|232:24|232:24|165:48,1,110,4|2,0:0|3:2,0:0:0:0:
71,44,139429,1,0,3:2:0:0:
71,44,139595,2,0,B|54:101|54:101|68:176,1,110,8|10,0:0|0:0,0:0:0:0:
162,198,140262,2,0,L|164:124,2,55,8|0|8,0:0|3:2|0:0,0:0:0:0:
157,252,140762,2,0,B|267:253,1,110,2|2,3:2|3:2,0:0:0:0:
377,256,141429,6,0,B|399:196|399:196|384:140,1,110,0|2,3:2|3:2,0:0:0:0:
365,43,142095,1,0,3:2:0:0:
365,43,142262,2,0,L|243:35,1,110,8|10,0:0|0:0,0:0:0:0:
203,132,142929,2,0,B|170:142|170:142|129:139,2,55,8|12|4,0:0|0:0|0:3,0:0:0:0:
257,136,143429,2,0,B|282:159|282:159|300:196,2,55,10|8|6,0:2|0:0|0:2,0:0:0:0:
235,86,143929,6,0,B|242:52|242:52|265:18,1,55,4|2,0:3|3:2,0:0:0:0:
