osu file format v14

[General]
AudioFilename: audio.mp3
AudioLeadIn: 0
PreviewTime: 239592
Countdown: 0
SampleSet: Soft
StackLeniency: 0.7
Mode: 0
LetterboxInBreaks: 0
WidescreenStoryboard: 0

[Editor]
Bookmarks: 12154,23933,35712,47491,59270,91663,97552,115221,127000,138779,171172,188841,194730,218289,235957,240374,263933
DistanceSpacing: 0.6
BeatDivisor: 4
GridSize: 16
TimelineZoom: 1.4

[Metadata]
Title:Days.
TitleUnicode:Days.
Artist:SILENT SIREN
ArtistUnicode:SILENT SIREN
Creator:anna apple
Version:Spring Reminiscence
Source:
Tags:Japanese Jrock pop Jpop rock Fujiyama Disco
BeatmapID:1617945
BeatmapSetID:769492

[Difficulty]
HPDrainRate:5
CircleSize:4
OverallDifficulty:8.2
ApproachRate:8.8
SliderMultiplier:1.8
SliderTickRate:1

[Events]
//Background and Video events
0,0,"1229643646-huge.jpg",0,0
//Break Periods
2,91836,96896
//Storyboard Layer 0 (Background)
//Storyboard Layer 1 (Fail)
//Storyboard Layer 2 (Pass)
//Storyboard Layer 3 (Foreground)
//Storyboard Layer 4 (Overlay)
//Storyboard Sound Samples

[TimingPoints]
348,368.098159509202,4,2,1,50,1,0
6237,-133.333333333333,4,2,1,50,0,0
11759,-100,4,2,1,60,0,0
47464,-133.333333333333,4,2,1,70,0,0
50409,-117.647058823529,4,2,1,70,0,0
53354,-100,4,2,1,70,0,0
59243,-83.3333333333333,4,2,1,80,0,0
91636,-117.647058823529,4,2,1,50,0,0
103415,-100,4,2,1,60,0,0
126973,-117.647058823529,4,2,1,70,0,0
132863,-100,4,2,1,70,0,0
138752,-83.3333333333333,4,2,1,80,0,0
171145,-100,4,2,1,65,0,0
194703,-83.3333333333333,4,2,1,80,0,0
235930,-100,4,2,1,70,0,0
239611,-83.3333333333333,4,2,1,70,0,0
240347,-83.3333333333333,4,2,1,85,0,1
263906,-100,4,2,1,70,0,0
269795,-100,4,2,1,60,0,0
274397,-100,4,2,1,70,0,0
274949,-100,4,2,1,80,0,0
275317,-100,4,2,1,90,0,0

[Colours]
Combo1 : 236,185,232
Combo2 : 232,232,168
Combo3 : 116,162,218
Combo4 : 160,226,163

[HitObjects]
117,140,6237,6,0,P|147:172|176:214,2,67.5000025749208,4|0|0,3:2|0:0|3:0,0:0:0:0:
82,58,6789,1,0,0:0:0:0:
82,58,6973,2,0,L|173:49,1,67.5000025749208,2|0,3:2|0:0,0:0:0:0:
225,124,7341,2,0,L|314:129,1,67.5000025749208,0|2,3:0|0:0,0:0:0:0:
383,67,7709,2,0,P|423:43|463:9,2,67.5000025749208,2|0|0,3:2|0:0|3:0,0:0:0:0:
400,159,8262,1,0,0:0:0:0:
400,159,8446,2,0,L|422:247,1,67.5000025749208,0|0,3:0|0:0,0:0:0:0:
342,293,8814,2,0,L|332:391,1,67.5000025749208,0|0,3:0|0:0,0:0:0:0:
437,335,9182,6,0,L|348:324,1,67.5000025749208,2|0,3:2|0:0,0:0:0:0:
262,320,9550,1,0,3:0:0:0:
262,320,9734,1,0,0:0:0:0:
262,320,9918,2,0,P|234:355|189:380,1,67.5000025749208,0|0,3:0|0:0,0:0:0:0:
150,301,10286,2,0,P|174:277|204:261,1,67.5000025749208,0|0,3:0|0:0,0:0:0:0:
292,242,10654,2,0,P|346:206|382:125,2,135.000005149842,4|0|0,3:2|3:0|3:0,0:0:0:0:
88,123,11759,1,8,0:0:0:0:
84,106,11851,1,8,0:0:0:0:
80,89,11943,1,8,0:0:0:0:
76,72,12035,1,8,0:0:0:0:
71,55,12127,6,0,P|158:79|263:82,1,180,4|0,1:2|3:0,0:0:0:0:
371,65,12679,1,0,0:0:0:0:
329,172,12863,2,0,P|251:217|150:247,1,180,2|0,3:2|3:0,0:0:0:0:
48,242,13415,1,0,0:0:0:0:
98,343,13599,6,0,L|202:359,1,90,2|0,3:2|0:0,0:0:0:0:
274,287,13967,2,0,L|285:382,1,90,0|0,3:0|0:0,0:0:0:0:
384,270,14335,2,0,L|373:365,1,90,0|0,3:0|0:0,0:0:0:0:
487,245,14703,1,0,3:0:0:0:
469,334,14887,1,2,0:0:0:0:
487,245,15071,6,0,P|487:167|422:73,1,180,2|0,3:2|3:0,0:0:0:0:
326,37,15624,1,0,0:0:0:0:
307,128,15808,2,0,L|286:32,1,90,2|0,3:2|0:0,0:0:0:0:
189,12,16176,1,0,3:0:0:0:
187,115,16360,1,0,0:0:0:0:
135,203,16544,6,0,L|37:219,1,90,2|0,3:2|0:0,0:0:0:0:
60,320,16912,2,0,P|93:283|113:220,1,90,0|0,3:0|0:0,0:0:0:0:
184,314,17280,2,0,P|198:266|189:200,1,90,0|0,3:0|0:0,0:0:0:0:
285,289,17648,1,8,0:0:0:0:
285,197,17832,1,0,3:0:0:0:
285,289,18016,6,0,P|335:347|435:370,1,180,4|0,0:0|3:0,0:0:0:0:
478,277,18568,1,2,0:0:0:0:
403,206,18752,2,0,L|459:117,1,90,0|0,3:0|0:0,0:0:0:0:
463,32,19121,1,2,3:2:0:0:
349,17,19305,6,0,L|356:112,1,90,2|0,0:0|3:0,0:0:0:0:
275,166,19673,1,2,0:0:0:0:
189,125,19857,2,0,L|87:137,1,90,2|0,3:2|0:0,0:0:0:0:
33,47,20225,2,0,P|54:87|71:143,1,90,0|0,3:0|0:0,0:0:0:0:
159,60,20593,2,0,P|161:105|152:163,1,90,0|0,3:0|0:0,0:0:0:0:
212,242,20961,6,0,P|278:288|384:302,2,180,4|0|2,3:2|3:0|3:2,0:0:0:0:
108,236,21881,1,0,0:0:0:0:
43,302,22065,2,0,L|-12:228,1,90,0|0,3:0|0:0,0:0:0:0:
46,123,22433,6,0,L|178:100,1,90,2|0,3:2|0:0,0:0:0:0:
217,153,22801,2,0,L|260:58,1,90,0|0,3:0|0:0,0:0:0:0:
176,12,23170,1,0,3:0:0:0:
176,12,23354,1,0,3:0:0:0:
130,138,23538,1,8,0:0:0:0:
232,181,23722,1,2,0:3:0:0:
232,181,23814,1,2,0:3:0:0:
232,181,23906,6,0,P|300:129|343:43,1,180,4|8,0:0|0:0,0:0:0:0:
472,13,24458,1,2,0:0:0:0:
401,128,24642,2,0,L|507:147,1,90,0|0,3:0|0:0,0:0:0:0:
448,255,25010,1,8,0:0:0:0:
418,153,25194,1,0,3:0:0:0:
330,263,25378,6,0,P|288:231|253:187,2,90,2|0|8,0:0|3:0|0:0,0:0:0:0:
403,343,25930,1,2,0:3:0:0:
403,343,26022,1,2,0:3:0:0:
403,343,26114,2,0,L|459:357,2,45,8|8|0,0:0|0:0|0:0,0:0:0:0:
304,368,26482,1,8,0:0:0:0:
224,318,26667,1,0,3:0:0:0:
136,358,26851,6,0,P|65:367|-14:383,1,135,6|0,3:2|0:0,0:0:0:0:
0,347,27219,2,0,P|38:315|48:255,1,90,8|0,0:0|0:0,0:0:0:0:
14,176,27587,1,0,3:0:0:0:
14,176,27771,1,0,3:0:0:0:
122,185,27955,2,0,L|17:153,1,90,8|0,0:0|0:0,0:0:0:0:
66,7,28323,6,0,L|98:98,1,90,2|0,3:2|0:0,0:0:0:0:
184,39,28691,1,8,0:0:0:0:
234,130,28875,1,2,0:3:0:0:
234,130,28967,1,2,0:3:0:0:
234,130,29059,2,0,L|294:146,2,45,8|8|0,0:0|0:0|0:0,0:0:0:0:
154,207,29427,1,8,0:0:0:0:
249,267,29611,1,0,3:0:0:0:
341,184,29795,6,0,P|379:255|402:362,1,180,4|8,3:2|0:0,0:0:0:0:
509,279,30347,1,2,0:3:0:0:
509,279,30440,1,2,0:3:0:0:
509,279,30532,2,0,L|496:183,1,90,2|0,3:2|3:0,0:0:0:0:
483,73,30900,1,8,0:0:0:0:
404,172,31084,6,0,L|369:78,1,90,2|0,3:2|0:0,0:0:0:0:
252,73,31452,1,0,3:0:0:0:
352,15,31636,1,8,0:0:0:0:
294,266,32004,1,8,0:0:0:0:
294,266,32096,1,8,0:0:0:0:
294,266,32188,1,0,3:0:0:0:
294,266,32372,2,0,L|170:289,1,90,8|0,0:0|3:0,0:0:0:0:
120,351,32740,6,0,P|41:307|26:217,2,180,4|8|0,3:2|0:0|3:0,0:0:0:0:
226,297,33660,1,0,3:0:0:0:
312,358,33844,2,0,L|411:373,1,90,8|0,0:0|0:0,0:0:0:0:
400,371,34397,1,0,3:0:0:0:
491,307,34581,1,8,0:0:0:0:
491,307,34673,1,8,0:0:0:0:
491,307,34765,1,0,3:0:0:0:
393,266,34949,2,0,L|350:226,2,45,2|0|0,0:3|0:0|3:0,0:0:0:0:
473,213,35317,2,0,P|494:156|498:104,1,90,8|0,0:0|0:0,0:0:0:0:
453,16,35685,6,0,P|414:36|386:99,1,90,2|0,3:2|0:0,0:0:0:0:
388,177,36053,1,8,0:0:0:0:
305,33,36237,1,8,0:0:0:0:
305,33,36329,1,8,0:0:0:0:
305,33,36421,2,0,L|203:53,1,90,2|0,3:2|3:0,0:0:0:0:
253,151,36789,1,8,0:0:0:0:
360,175,36973,1,0,3:0:0:0:
296,256,37157,6,0,L|308:352,2,90,2|0|8,3:2|3:0|0:0,0:0:0:0:
82,344,37894,2,0,L|21:310,2,45,8|8|0,0:0|0:0|3:0,0:0:0:0:
178,345,38262,1,8,0:0:0:0:
112,250,38446,1,0,3:2:0:0:
239,224,38630,6,0,P|232:142|163:72,1,180,4|8,0:0|0:0,0:0:0:0:
45,58,39182,1,2,0:3:0:0:
45,58,39274,1,2,0:3:0:0:
45,58,39366,2,0,L|149:50,1,90,2|0,3:2|3:0,0:0:0:0:
246,43,39734,1,8,0:0:0:0:
175,132,39918,1,0,3:0:0:0:
270,193,40102,6,0,P|322:180|371:123,1,90,2|0,0:0|3:0,0:0:0:0:
410,80,40470,1,8,0:0:0:0:
335,296,40838,2,0,L|275:305,2,45,8|8|0,0:0|0:0|3:0,0:0:0:0:
389,376,41206,1,8,0:0:0:0:
447,297,41390,1,0,3:0:0:0:
511,214,41574,6,0,P|457:208|410:176,1,90,2|0,3:2|0:0,0:0:0:0:
394,85,41942,1,8,0:0:0:0:
268,213,42126,1,8,0:0:0:0:
268,213,42218,1,8,0:0:0:0:
268,213,42310,2,0,L|288:111,1,90,2|0,3:2|3:0,0:0:0:0:
329,24,42678,1,8,0:0:0:0:
230,36,42862,1,0,3:0:0:0:
127,0,43046,6,0,L|139:96,2,90,2|0|8,3:2|3:0|0:0,0:0:0:0:
39,172,43783,2,0,L|-22:138,2,45,8|8|0,0:0|0:0|3:0,0:0:0:0:
125,248,44151,1,8,0:0:0:0:
41,320,44335,1,0,3:2:0:0:
143,384,44519,6,0,P|207:333|229:237,1,180,4|8,0:0|0:0,0:0:0:0:
332,170,45071,1,2,0:3:0:0:
332,170,45163,1,2,0:3:0:0:
332,170,45255,2,0,L|340:274,1,90,2|0,3:2|3:0,0:0:0:0:
349,367,45623,1,8,0:0:0:0:
458,320,45807,1,0,3:0:0:0:
458,320,45992,5,2,0:0:0:0:
457,232,46176,2,0,L|482:135,1,90,2|8,3:1|0:0,0:0:0:0:
363,243,46544,2,0,L|308:150,1,90,2|2,0:2|3:0,0:0:0:0:
281,300,46912,1,8,0:0:0:0:
177,243,47096,1,4,3:0:0:0:
177,243,47280,1,4,3:0:0:0:
158,361,47464,6,0,L|14:338,1,135.000005149842,4|2,1:0|0:3,0:0:0:0:
101,267,48016,1,0,3:0:0:0:
101,267,48200,2,0,L|87:184,1,67.5000025749208,8|10,0:0|0:0,0:0:0:0:
144,124,48568,1,2,0:3:0:0:
56,69,48752,2,0,L|194:52,1,135.000005149842,4|0,3:0|0:0,0:0:0:0:
288,13,49305,2,0,L|285:91,1,67.5000025749208,2|0,0:0|3:0,0:0:0:0:
336,170,49673,2,0,L|378:109,1,67.5000025749208,12|8,0:0|0:0,0:0:0:0:
506,145,50041,1,4,3:0:0:0:
423,227,50225,1,8,3:0:0:0:
423,227,50317,1,4,3:0:0:0:
423,227,50409,5,4,1:0:0:0:
363,318,50593,2,0,P|402:328|459:350,1,76.5000014591217,2|0,0:0|0:0,0:0:0:0:
270,384,50961,2,0,L|250:302,1,76.5000014591217,2|0,0:0|3:0,0:0:0:0:
235,222,51329,1,0,3:0:0:0:
147,325,51513,1,8,0:0:0:0:
147,325,51697,2,0,L|-11:297,1,153.000002918243,4|0,0:0|0:0,0:0:0:0:
63,197,52249,2,0,L|80:283,1,76.5000014591217,8|0,0:0|0:0,0:0:0:0:
183,322,52617,1,0,3:0:0:0:
183,322,52801,1,4,3:0:0:0:
292,219,52986,1,8,0:0:0:0:
297,200,53078,1,8,3:2:0:0:
303,181,53170,1,8,3:0:0:0:
309,163,53262,1,4,3:0:0:0:
316,144,53354,6,0,P|296:69|209:21,1,180,4|8,1:2|0:0,0:0:0:0:
88,93,53906,1,2,0:0:0:0:
168,180,54090,2,0,L|259:198,1,90,8|0,0:0|3:0,0:0:0:0:
90,271,54458,2,0,L|1:253,1,90,8|0,0:0|3:0,0:0:0:0:
134,357,54826,6,0,L|100:239,1,90,12|0,0:0|0:0,0:0:0:0:
257,255,55194,2,0,L|257:143,1,90,8|0,0:0|3:0,0:0:0:0:
358,364,55562,1,8,0:0:0:0:
398,247,55746,1,4,3:0:0:0:
358,364,55930,1,8,0:0:0:0:
486,117,56298,5,4,1:3:0:0:
333,97,56482,1,8,0:0:0:0:
450,36,56667,1,4,0:0:0:0:
450,36,56851,2,0,L|431:106,1,45,2|0,0:0|0:0,0:0:0:0:
431,210,57035,1,8,0:0:0:0:
268,232,57219,1,4,3:0:0:0:
301,141,57403,2,0,L|306:95,1,45,2|0,0:0|0:0,0:0:0:0:
353,211,57587,1,0,3:0:0:0:
418,318,57771,5,8,3:0:0:0:
389,305,57863,1,8,3:0:0:0:
357,300,57955,1,8,3:0:0:0:
326,306,58047,1,8,3:0:0:0:
300,324,58139,1,4,3:0:0:0:
281,349,58231,1,4,3:0:0:0:
249,354,58323,1,4,3:0:0:0:
218,347,58415,1,4,3:0:0:0:
191,329,58507,1,8,1:2:0:0:
32,223,59243,6,0,P|71:259|139:285,1,107.999996704102,4|2,1:0|0:0,0:0:0:0:
270,220,59611,1,8,0:0:0:0:
199,68,59795,2,0,L|88:78,1,107.999996704102,2|0,0:0|0:0,0:0:0:0:
325,132,60163,2,0,P|358:86|341:19,1,107.999996704102,2|8,3:2|0:0,0:0:0:0:
275,21,60532,6,0,L|287:170,1,107.999996704102,2|0,0:0|0:0,0:0:0:0:
301,286,60900,1,4,3:0:0:0:
436,184,61084,1,8,0:0:0:0:
269,142,61268,1,2,0:0:0:0:
413,57,61452,2,0,P|444:105|450:176,1,107.999996704102,2|0,3:2|3:0,0:0:0:0:
406,332,61820,1,8,0:0:0:0:
406,332,62188,6,0,L|264:345,1,107.999996704102,4|2,0:0|0:0,0:0:0:0:
145,355,62556,1,8,0:0:0:0:
262,252,62740,2,0,P|188:209|160:179,1,107.999996704102,2|0,0:0|3:0,0:0:0:0:
104,27,63108,2,0,P|108:85|99:139,1,107.999996704102,2|8,0:0|0:0,0:0:0:0:
17,269,63476,1,0,3:0:0:0:
17,269,63844,5,2,0:1:0:0:
66,109,64028,1,8,0:0:0:0:
212,141,64213,2,0,P|244:69|234:20,1,107.999996704102,2|0,0:0|3:0,0:0:0:0:
155,36,64581,2,0,L|291:25,1,107.999996704102,2|8,0:0|0:0,0:0:0:0:
371,164,64949,1,2,0:3:0:0:
371,164,65041,1,2,0:3:0:0:
371,164,65133,6,0,P|465:133|465:24,1,215.999993408203,4|8,0:0|0:0,0:0:0:0:
257,350,65869,1,0,3:0:0:0:
257,350,66053,1,4,3:0:0:0:
397,382,66237,2,0,P|433:305|420:255,1,107.999996704102,8|0,0:0|0:0,0:0:0:0:
269,171,66605,6,0,P|325:155|377:150,1,107.999996704102,2|0,0:0|3:0,0:0:0:0:
512,187,66973,1,8,0:0:0:0:
436,27,67157,2,0,P|413:74|388:145,1,107.999996704102,2|0,0:0|3:0,0:0:0:0:
284,234,67525,2,0,P|270:182|235:120,1,107.999996704102,2|8,0:0|0:0,0:0:0:0:
109,57,67894,1,0,0:0:0:0:
109,57,68078,6,0,L|217:44,1,107.999996704102,4|0,0:0|0:0,0:0:0:0:
366,27,68446,1,8,0:0:0:0:
245,134,68630,2,0,P|269:181|284:234,1,107.999996704102,2|0,0:0|3:0,0:0:0:0:
180,333,68998,1,0,3:0:0:0:
316,371,69182,1,8,0:0:0:0:
180,333,69366,1,0,3:0:0:0:
57,373,69550,6,0,L|35:234,1,107.999996704102,4|0,0:0|3:0,0:0:0:0:
19,122,69918,1,8,0:0:0:0:
141,205,70102,2,0,P|193:176|238:136,1,107.999996704102,2|0,0:0|3:0,0:0:0:0:
238,15,70470,1,2,0:0:0:0:
310,142,70654,1,8,0:0:0:0:
168,79,70838,1,2,0:3:0:0:
168,79,70930,1,2,0:3:0:0:
168,79,71022,6,0,L|322:59,1,107.999996704102,4|0,1:0|0:0,0:0:0:0:
418,25,71390,1,8,0:0:0:0:
460,189,71574,2,0,P|490:117|494:70,1,107.999996704102,2|0,0:0|3:0,0:0:0:0:
327,235,71943,2,0,P|275:239|211:272,1,107.999996704102,2|8,0:0|0:0,0:0:0:0:
480,266,72311,6,0,P|452:355|309:360,1,215.999993408203,4|0,0:0|3:0,0:0:0:0:
357,163,72863,1,8,0:0:0:0:
504,194,73047,1,2,0:0:0:0:
474,47,73231,2,0,P|425:66|355:81,1,107.999996704102,0|0,3:0|3:0,0:0:0:0:
239,22,73599,1,8,0:0:0:0:
239,22,73783,1,2,0:0:0:0:
239,177,73967,6,0,P|185:195|124:239,1,107.999996704102,2|4,3:2|3:0,0:0:0:0:
27,325,74335,1,8,0:0:0:0:
27,325,74703,2,0,L|160:333,1,107.999996704102,2|0,3:2|0:0,0:0:0:0:
285,282,75071,1,8,0:0:0:0:
397,312,75255,1,2,0:0:0:0:
315,169,75440,5,4,3:0:0:0:
259,291,75624,2,0,P|301:329|348:359,1,107.999996704102,2|8,0:1|0:0,0:0:0:0:
489,370,75992,1,2,0:0:0:0:
391,65,76360,2,0,P|431:24|499:-7,1,107.999996704102,2|8,0:0|0:0,0:0:0:0:
403,220,76728,1,2,0:3:0:0:
371,198,76820,1,2,0:3:0:0:
336,183,76912,6,0,P|284:170|143:251,1,215.999993408203,4|8,0:0|0:0,0:0:0:0:
49,7,77648,2,0,P|26:55|18:135,1,107.999996704102,2|0,3:2|0:0,0:0:0:0:
134,143,78016,2,0,P|157:95|165:15,1,107.999996704102,8|0,0:0|0:0,0:0:0:0:
9,188,78384,6,0,P|64:188|148:212,1,107.999996704102,2|0,3:2|0:0,0:0:0:0:
246,282,78752,1,8,0:0:0:0:
121,384,78936,2,0,P|135:313|161:262,1,107.999996704102,2|0,0:0|3:0,0:0:0:0:
198,66,79305,2,0,P|158:104|100:146,1,107.999996704102,2|8,0:0|0:0,0:0:0:0:
0,200,79673,1,0,3:0:0:0:
18,69,79857,6,0,P|127:98|231:137,1,215.999993408203,4|0,0:0|0:0,0:0:0:0:
399,113,80409,1,2,0:3:0:0:
399,113,80501,1,2,0:3:0:0:
399,113,80593,2,0,P|416:60|408:2,1,107.999996704102,4|0,3:0|3:0,0:0:0:0:
310,150,80961,1,8,0:0:0:0:
477,186,81145,6,0,P|469:257|391:381,1,215.999993408203,4|0,0:0|3:0,0:0:0:0:
206,358,81697,2,0,P|260:348|325:342,1,107.999996704102,4|0,1:2|0:0,0:0:0:0:
126,305,82065,1,2,0:3:0:0:
99,286,82157,1,2,0:3:0:0:
86,255,82249,1,2,0:3:0:0:
83,222,82341,1,2,0:3:0:0:
95,192,82433,1,2,0:3:0:0:
109,163,82525,1,2,0:3:0:0:
106,130,82617,1,2,0:3:0:0:
85,104,82709,1,2,0:3:0:0:
53,95,82801,6,0,P|35:150|27:221,1,107.999996704102,4|0,1:0|0:0,0:0:0:0:
195,61,83170,2,0,P|215:108|227:166,1,107.999996704102,0|0,1:0|0:0,0:0:0:0:
159,283,83538,6,0,P|194:208|221:181,1,107.999996704102,8|4,1:2|3:0,0:0:0:0:
283,384,83906,2,0,P|324:349|352:303,1,107.999996704102,8|0,1:2|3:0,0:0:0:0:
402,156,84274,5,2,1:2:0:0:
442,284,84458,1,2,0:0:0:0:
497,166,84642,1,0,1:0:0:0:
334,210,84826,2,0,P|306:163|289:106,1,107.999996704102,2|0,0:0|1:0,0:0:0:0:
401,21,85194,1,2,0:0:0:0:
255,0,85378,2,0,P|228:43|203:133,1,107.999996704102,0|0,1:0|0:0,0:0:0:0:
275,253,85746,5,4,1:2:0:0:
275,253,86114,2,0,L|155:263,1,107.999996704102,0|0,1:0|0:0,0:0:0:0:
21,154,86482,2,0,P|50:195|76:283,1,107.999996704102,8|4,1:2|3:0,0:0:0:0:
223,82,86851,2,0,P|205:130|189:204,1,107.999996704102,8|0,1:2|3:0,0:0:0:0:
65,57,87219,5,2,1:2:0:0:
212,37,87403,1,2,0:0:0:0:
150,174,87587,1,0,1:0:0:0:
299,87,87771,2,0,P|320:134|331:207,1,107.999996704102,2|0,0:0|1:0,0:0:0:0:
282,332,88139,1,2,0:0:0:0:
415,258,88323,1,0,1:0:0:0:
415,258,88507,1,0,0:0:0:0:
495,365,88691,5,4,0:2:0:0:
495,365,89059,2,0,P|500:314|501:243,1,107.999996704102,0|0,1:0|0:0,0:0:0:0:
353,347,89427,1,0,1:0:0:0:
308,200,89611,1,0,3:0:0:0:
213,315,89795,1,0,1:0:0:0:
373,267,89979,1,0,3:0:0:0:
254,119,90163,5,8,0:0:0:0:
258,122,90347,1,8,0:0:0:0:
48,79,91084,1,8,3:0:0:0:
184,25,91268,1,8,0:0:0:0:
236,143,91452,1,2,0:0:0:0:
236,143,91544,1,2,0:0:0:0:
236,143,91636,5,4,0:0:0:0:
438,306,97525,6,0,P|465:270|480:218,1,76.5000014591217,4|0,0:1|0:0,0:0:0:0:
362,290,97894,2,0,P|348:246|352:192,1,76.5000014591217,0|0,3:0|0:0,0:0:0:0:
387,372,98262,1,2,0:0:0:0:
387,372,98446,1,0,0:0:0:0:
244,297,98630,2,0,P|257:339|255:384,1,76.5000014591217,0|0,3:0|0:0,0:0:0:0:
167,281,98999,2,0,P|141:316|127:359,1,76.5000014591217,0|0,3:0|0:0,0:0:0:0:
228,220,99367,1,2,0:0:0:0:
228,220,99551,1,0,0:0:0:0:
51,237,99734,1,2,0:0:0:0:
169,130,100102,1,0,3:0:0:0:
140,57,100286,1,0,0:0:0:0:
69,18,100470,6,0,L|170:9,1,76.5000014591217,2|0,3:2|0:0,0:0:0:0:
210,82,100838,1,0,3:0:0:0:
210,82,101022,2,0,L|302:119,1,76.5000014591217,2|0,0:0|3:0,0:0:0:0:
359,47,101390,1,2,0:0:0:0:
359,47,101574,2,0,L|359:140,1,76.5000014591217,2|0,3:2|0:0,0:0:0:0:
403,195,101943,2,0,P|454:130|520:88,2,153.000002918243,0|0|0,3:0|3:0|3:0,0:0:0:0:
330,382,103047,1,2,0:3:0:0:
305,384,103139,1,2,0:3:0:0:
280,379,103231,1,2,0:3:0:0:
257,370,103323,1,2,0:3:0:0:
238,356,103415,6,0,P|184:287|149:199,1,180,4|0,0:1|3:0,0:0:0:0:
182,88,103967,1,0,0:0:0:0:
274,16,104151,2,0,P|303:101|313:216,1,180,2|0,3:2|3:0,0:0:0:0:
282,283,104703,1,0,0:0:0:0:
350,357,104887,6,0,P|399:350|446:327,1,90,2|0,3:2|0:0,0:0:0:0:
488,234,105255,2,0,L|470:332,1,90,0|0,3:0|0:0,0:0:0:0:
362,185,105624,2,0,L|375:283,1,90,0|0,3:0|0:0,0:0:0:0:
468,145,105992,1,0,3:0:0:0:
344,172,106176,1,2,0:0:0:0:
468,145,106360,6,0,P|474:47|400:5,1,180,2|0,3:2|3:0,0:0:0:0:
319,36,106912,1,0,0:0:0:0:
273,120,107096,2,0,P|155:79|103:45,1,180,2|0,3:2|3:0,0:0:0:0:
0,16,107648,1,0,0:0:0:0:
9,131,107832,6,0,P|92:83|207:56,1,180,2|0,3:2|3:0,0:0:0:0:
270,151,108384,2,0,L|171:145,1,90,0|0,0:0|3:0,0:0:0:0:
249,242,108752,1,0,0:0:0:0:
249,242,108936,2,0,L|129:263,1,90,8|0,0:0|3:0,0:0:0:0:
39,233,109305,6,0,P|127:264|208:307,1,180,4|0,0:0|3:0,0:0:0:0:
286,384,109857,1,2,0:0:0:0:
279,274,110041,2,0,L|385:303,1,90,0|0,3:0|0:0,0:0:0:0:
458,361,110409,1,2,3:2:0:0:
461,268,110593,6,0,P|456:227|436:175,1,90,2|0,0:0|3:0,0:0:0:0:
335,137,110961,1,2,0:0:0:0:
335,137,111145,2,0,L|443:113,1,90,2|0,3:2|0:0,0:0:0:0:
504,37,111513,2,0,P|479:73|457:129,1,90,0|0,3:0|0:0,0:0:0:0:
383,8,111881,2,0,P|377:49|383:102,1,90,0|0,3:0|0:0,0:0:0:0:
303,178,112249,6,0,P|286:137|249:84,1,90,4|0,3:2|0:0,0:0:0:0:
138,47,112617,2,0,P|187:43|242:22,1,90,0|0,3:0|0:0,0:0:0:0:
187,140,112986,1,2,3:2:0:0:
87,169,113170,1,0,0:0:0:0:
160,238,113354,2,0,P|150:281|127:333,1,90,0|0,3:0|0:0,0:0:0:0:
10,356,113722,5,2,3:2:0:0:
10,356,114090,1,0,3:0:0:0:
85,260,114458,2,0,P|209:304|275:316,1,180,0|8,3:0|0:0,0:0:0:0:
358,268,115010,1,2,0:3:0:0:
358,268,115102,1,2,0:3:0:0:
358,268,115194,6,0,L|322:170,1,90,4|0,0:0|0:0,0:0:0:0:
282,99,115562,1,8,0:0:0:0:
203,200,115746,1,2,0:3:0:0:
203,200,115838,1,2,0:3:0:0:
203,200,115930,2,0,P|153:179|114:158,1,90,4|0,3:0|0:0,0:0:0:0:
186,80,116298,1,8,0:0:0:0:
100,47,116482,1,0,3:0:0:0:
186,80,116667,6,0,P|239:65|293:44,1,90,2|0,0:0|3:0,0:0:0:0:
371,12,117035,1,8,0:0:0:0:
426,104,117219,1,2,0:3:0:0:
426,104,117311,1,2,0:3:0:0:
426,104,117403,2,0,L|488:88,2,45,8|2|2,0:0|0:3|0:3,0:0:0:0:
345,166,117771,1,8,0:0:0:0:
434,219,117955,1,0,3:0:0:0:
463,318,118139,6,0,P|406:375|300:364,1,180,4|8,0:0|0:0,0:0:0:0:
236,286,118691,1,2,0:0:0:0:
145,260,118875,2,0,P|129:301|123:355,1,90,2|0,3:2|3:0,0:0:0:0:
2,369,119243,1,8,0:0:0:0:
94,299,119427,1,0,3:0:0:0:
17,236,119611,6,0,L|30:132,1,90,2|0,0:0|3:0,0:0:0:0:
57,58,119979,1,8,0:0:0:0:
57,58,120347,1,8,0:0:0:0:
57,58,120440,1,2,0:3:0:0:
57,58,120532,1,0,3:0:0:0:
151,22,120716,2,0,P|203:70|239:93,1,90,8|0,0:0|3:0,0:0:0:0:
330,62,121084,6,0,P|372:37|429:23,2,90,4|0|8,0:0|0:0|0:0,0:0:0:0:
285,146,121636,1,2,0:3:0:0:
285,146,121728,1,2,0:3:0:0:
285,146,121820,2,0,L|377:169,1,90,0|0,3:0|3:0,0:0:0:0:
492,179,122188,1,8,0:0:0:0:
382,198,122372,1,2,3:2:0:0:
444,264,122556,6,0,P|393:282|356:311,1,90,2|0,0:0|3:0,0:0:0:0:
335,384,122924,1,8,0:0:0:0:
335,384,123292,1,8,0:0:0:0:
335,384,123384,1,2,0:3:0:0:
335,384,123476,1,0,3:0:0:0:
237,356,123660,2,0,P|210:312|199:260,1,90,8|0,0:0|3:0,0:0:0:0:
172,175,124028,6,0,P|264:208|355:219,1,180,4|8,0:0|0:0,0:0:0:0:
411,143,124581,1,2,0:3:0:0:
411,143,124673,1,2,0:3:0:0:
411,143,124765,2,0,P|368:122|333:85,1,90,0|0,3:0|3:0,0:0:0:0:
329,0,125133,1,8,0:0:0:0:
306,114,125317,1,0,3:0:0:0:
256,36,125501,6,0,L|155:53,1,90,2|0,0:0|3:0,0:0:0:0:
71,38,125869,1,8,0:0:0:0:
25,229,126145,1,2,0:3:0:0:
42,224,126237,1,0,3:0:0:0:
118,271,126421,1,8,0:0:0:0:
34,338,126605,2,0,L|129:359,1,90,8|0,3:0|0:0,0:0:0:0:
244,384,126973,6,0,P|301:313|315:226,2,153.000002918243,4|2|2,1:0|0:3|0:3,0:0:0:0:
170,337,127894,2,0,L|70:350,1,76.5000014591217,2|0,0:0|0:0,0:0:0:0:
14,309,128262,1,2,0:0:0:0:
110,25,129182,1,0,3:0:0:0:
225,49,129366,1,8,0:0:0:0:
154,124,129550,1,8,0:0:0:0:
154,124,129734,1,8,0:0:0:0:
235,179,129918,5,4,0:0:0:0:
235,179,130102,2,0,L|322:172,1,76.5000014591217,2|0,0:0|0:0,0:0:0:0:
392,116,130470,2,0,L|481:108,1,76.5000014591217,2|8,0:3|0:0,0:0:0:0:
338,29,130838,1,8,0:0:0:0:
338,29,131022,1,8,0:0:0:0:
338,29,131206,1,8,0:0:0:0:
345,167,131390,6,0,P|388:219|482:232,1,153.000002918243,4|8,0:0|0:0,0:0:0:0:
492,334,131943,1,8,0:0:0:0:
492,334,132127,2,0,L|411:377,1,76.5000014591217,0|0,3:0|0:0,0:0:0:0:
302,327,132495,2,0,L|281:244,1,76.5000014591217,8|0,0:0|3:0,0:0:0:0:
251,222,132771,1,0,3:0:0:0:
251,222,132863,6,0,L|243:339,1,90,4|0,0:0|0:0,0:0:0:0:
125,232,133231,2,0,L|154:347,1,90,8|0,0:0|0:0,0:0:0:0:
174,158,133599,1,0,3:0:0:0:
174,158,133783,1,0,3:0:0:0:
0,295,134151,1,8,0:0:0:0:
101,211,134335,6,0,L|154:127,1,90,4|0,0:0|0:0,0:0:0:0:
0,152,134703,2,0,L|7:54,1,90,8|0,0:0|3:0,0:0:0:0:
152,10,135071,1,0,3:0:0:0:
51,43,135255,1,0,3:0:0:0:
115,121,135440,2,0,L|226:117,1,90,8|0,0:0|0:0,0:0:0:0:
295,53,135808,5,4,3:0:0:0:
261,193,135992,1,8,0:0:0:0:
261,193,136176,2,0,L|213:219,1,45,4|0,3:0|0:0,0:0:0:0:
364,237,136360,2,0,L|364:124,1,90,8|0,1:2|3:0,0:0:0:0:
473,65,136728,1,8,0:0:0:0:
462,89,136820,1,8,3:0:0:0:
457,115,136912,1,8,3:0:0:0:
487,192,137096,1,4,3:0:0:0:
393,238,137280,6,0,L|485:217,1,90,8|8,0:0|0:0,0:0:0:0:
450,376,138384,1,8,0:0:0:0:
419,368,138476,1,4,3:0:0:0:
388,360,138568,1,4,3:0:0:0:
357,352,138660,1,4,3:0:0:0:
326,344,138752,6,0,P|298:302|278:240,1,107.999996704102,4|2,1:0|0:0,0:0:0:0:
320,90,139121,1,8,0:0:0:0:
470,196,139305,2,0,L|336:211,1,107.999996704102,2|0,0:0|0:0,0:0:0:0:
238,12,139673,2,0,P|277:72|276:129,1,107.999996704102,2|8,3:2|0:0,0:0:0:0:
139,247,140041,6,0,L|279:276,1,107.999996704102,2|0,0:0|0:0,0:0:0:0:
395,299,140409,1,4,3:0:0:0:
260,384,140593,1,8,0:0:0:0:
333,230,140777,1,2,0:0:0:0:
199,151,140961,2,0,L|174:262,1,107.999996704102,2|0,3:2|3:0,0:0:0:0:
63,367,141329,1,8,0:0:0:0:
63,367,141513,1,2,0:0:0:0:
7,228,141697,6,0,P|59:223|137:205,1,107.999996704102,4|2,0:0|0:0,0:0:0:0:
252,141,142065,1,8,0:0:0:0:
147,21,142249,2,0,L|130:136,1,107.999996704102,2|0,0:0|3:0,0:0:0:0:
294,226,142617,2,0,L|312:111,1,107.999996704102,2|8,0:0|0:0,0:0:0:0:
148,4,142986,6,0,P|205:27|288:41,1,107.999996704102,0|0,3:0|0:0,0:0:0:0:
416,38,143354,1,2,0:1:0:0:
314,169,143538,1,8,0:0:0:0:
416,38,143722,2,0,P|439:82|455:150,1,107.999996704102,2|0,0:0|3:0,0:0:0:0:
419,278,144090,1,2,0:0:0:0:
419,278,144274,2,0,L|301:293,1,107.999996704102,8|2,0:0|0:3,0:0:0:0:
248,353,144550,1,2,0:3:0:0:
248,353,144642,6,0,P|130:335|47:393,1,215.999993408203,4|8,0:0|0:0,0:0:0:0:
50,117,145378,2,0,P|41:174|3:232,1,107.999996704102,0|4,3:0|3:0,0:0:0:0:
52,30,145746,2,0,L|186:23,1,107.999996704102,8|0,0:0|0:0,0:0:0:0:
285,82,146114,6,0,P|247:122|186:165,1,107.999996704102,2|0,0:0|3:0,0:0:0:0:
55,211,146482,1,8,0:0:0:0:
236,230,146667,2,0,P|262:276|281:341,1,107.999996704102,2|0,0:0|3:0,0:0:0:0:
138,205,147035,1,2,0:0:0:0:
42,325,147219,2,0,L|159:346,1,107.999996704102,8|0,0:0|0:0,0:0:0:0:
297,359,147587,6,0,P|329:283|354:248,1,107.999996704102,4|0,0:0|0:0,0:0:0:0:
448,134,147955,1,8,0:0:0:0:
259,185,148139,2,0,P|333:171|383:146,1,107.999996704102,2|0,0:0|3:0,0:0:0:0:
213,68,148507,2,0,P|164:42|113:-5,1,107.999996704102,0|8,3:0|0:0,0:0:0:0:
342,5,148875,1,0,3:0:0:0:
266,144,149059,6,0,P|253:185|248:287,1,107.999996704102,4|0,0:0|3:0,0:0:0:0:
348,379,149427,1,8,0:0:0:0:
489,244,149611,2,0,L|335:207,1,107.999996704102,2|0,0:0|3:0,0:0:0:0:
237,152,149979,1,2,0:0:0:0:
376,59,150163,1,8,0:0:0:0:
376,59,150347,1,2,0:3:0:0:
376,59,150440,1,2,0:3:0:0:
376,59,150532,6,0,P|307:48|235:41,1,107.999996704102,4|0,1:0|0:0,0:0:0:0:
108,24,150900,1,8,0:0:0:0:
203,143,151084,2,0,P|167:191|137:251,1,107.999996704102,2|0,0:0|3:0,0:0:0:0:
380,284,151452,2,0,P|340:320|289:351,1,107.999996704102,2|8,0:0|0:0,0:0:0:0:
88,314,151820,6,0,L|239:331,1,107.999996704102,0|0,3:0|0:0,0:0:0:0:
369,342,152188,1,0,3:0:0:0:
236,229,152372,1,8,0:0:0:0:
392,189,152556,1,2,0:0:0:0:
262,329,152740,1,2,3:2:0:0:
262,329,153108,2,0,P|289:275|302:220,1,107.999996704102,8|2,0:0|0:0,0:0:0:0:
233,80,153476,6,0,L|370:43,1,107.999996704102,2|4,3:2|3:0,0:0:0:0:
494,9,153844,1,8,0:0:0:0:
494,9,154213,2,0,L|465:132,1,107.999996704102,2|0,3:2|0:0,0:0:0:0:
407,258,154581,1,8,0:0:0:0:
336,118,154765,1,2,0:0:0:0:
249,262,154949,6,0,L|138:279,1,107.999996704102,4|2,3:0|0:1,0:0:0:0:
44,138,155317,1,8,0:0:0:0:
185,175,155501,2,0,P|143:135|123:83,1,107.999996704102,2|0,0:0|0:0,0:0:0:0:
293,25,155869,2,0,L|160:32,1,107.999996704102,2|8,0:0|0:0,0:0:0:0:
16,78,156237,1,2,0:3:0:0:
11,107,156329,1,2,0:3:0:0:
5,136,156421,6,0,P|66:244|175:265,1,215.999993408203,4|8,0:0|0:0,0:0:0:0:
437,347,157157,2,0,P|384:361|322:362,1,107.999996704102,2|0,3:2|0:0,0:0:0:0:
315,234,157525,2,0,P|368:220|430:219,1,107.999996704102,8|0,0:0|0:0,0:0:0:0:
228,305,157894,6,0,P|203:263|181:170,1,107.999996704102,2|0,3:2|0:0,0:0:0:0:
214,62,158262,1,8,0:0:0:0:
319,145,158446,2,0,P|392:128|452:102,1,107.999996704102,2|0,0:0|3:0,0:0:0:0:
203,83,158814,2,0,P|142:60|102:32,1,107.999996704102,2|8,0:0|0:0,0:0:0:0:
14,118,159182,1,0,3:0:0:0:
116,193,159366,6,0,P|133:245|-5:312,1,215.999993408203,4|0,0:0|0:0,0:0:0:0:
197,365,159918,1,2,0:3:0:0:
197,365,160010,1,2,0:3:0:0:
197,365,160102,2,0,P|246:349|310:343,1,107.999996704102,4|0,3:0|3:0,0:0:0:0:
442,380,160470,1,8,0:0:0:0:
436,221,160654,6,0,P|339:276|314:378,1,215.999993408203,4|0,0:0|3:0,0:0:0:0:
206,226,161206,2,0,L|83:261,1,107.999996704102,4|0,1:2|0:0,0:0:0:0:
160,47,161574,1,2,0:3:0:0:
128,55,161667,1,2,0:3:0:0:
101,73,161759,1,2,0:3:0:0:
82,99,161851,1,2,0:3:0:0:
70,129,161943,1,2,0:3:0:0:
73,161,162035,1,2,0:3:0:0:
61,191,162127,1,2,0:3:0:0:
38,214,162219,1,2,0:3:0:0:
14,236,162311,6,0,P|42:283|100:330,1,107.999996704102,4|0,1:0|0:0,0:0:0:0:
140,132,162679,2,0,P|179:168|207:214,1,107.999996704102,0|0,1:0|0:0,0:0:0:0:
304,306,163047,6,0,P|329:253|400:200,1,107.999996704102,8|4,1:2|3:0,0:0:0:0:
452,384,163415,2,0,P|484:339|500:274,1,107.999996704102,8|0,1:2|3:0,0:0:0:0:
491,115,163783,6,0,P|467:168|449:235,1,107.999996704102,2|2,1:2|0:0,0:0:0:0:
467,375,164151,1,0,1:0:0:0:
347,157,164335,2,0,P|327:211|330:273,1,107.999996704102,2|0,0:0|1:0,0:0:0:0:
442,372,164703,1,2,0:0:0:0:
256,327,164887,2,0,P|227:283|208:211,1,107.999996704102,0|0,1:0|0:0,0:0:0:0:
252,80,165255,5,4,1:2:0:0:
252,80,165624,2,0,L|376:44,1,107.999996704102,0|0,1:0|0:0,0:0:0:0:
218,207,165992,2,0,L|360:222,1,107.999996704102,8|4,1:2|3:0,0:0:0:0:
167,74,166360,1,8,1:2:0:0:
108,217,166544,1,0,3:0:0:0:
174,358,166728,6,0,P|227:362|301:349,1,107.999996704102,2|2,1:2|0:0,0:0:0:0:
431,284,167096,1,0,1:0:0:0:
259,260,167280,2,0,P|199:225|160:167,1,107.999996704102,2|0,0:0|1:0,0:0:0:0:
391,200,167648,1,2,0:0:0:0:
243,120,167832,1,0,1:0:0:0:
379,39,168016,1,0,0:0:0:0:
243,120,168200,5,4,0:2:0:0:
243,120,168568,2,0,P|189:96|133:83,1,107.999996704102,0|0,1:0|0:0,0:0:0:0:
207,266,168936,2,0,P|153:275|100:276,1,107.999996704102,0|0,1:0|3:0,0:0:0:0:
326,182,169305,1,0,1:0:0:0:
289,329,169489,1,0,3:0:0:0:
436,224,169673,5,8,0:0:0:0:
436,224,169857,1,8,0:0:0:0:
365,12,170225,1,8,0:0:0:0:
332,207,170593,1,8,3:0:0:0:
258,152,170777,1,8,0:0:0:0:
223,70,170961,1,2,0:0:0:0:
223,70,171145,6,0,P|127:68|33:47,1,180,4|2,0:0|0:0,0:0:0:0:
72,158,171697,1,0,3:0:0:0:
72,158,171881,2,0,P|88:200|99:263,1,90,8|10,0:0|0:0,0:0:0:0:
66,340,172249,1,0,0:0:0:0:
167,376,172433,2,0,P|213:370|265:365,1,90,2|2,3:2|0:3,0:0:0:0:
162,271,172801,2,0,P|198:240|248:206,1,90,2|2,3:2|0:3,0:0:0:0:
45,240,173170,2,0,P|52:195|58:127,1,90,2|8,0:0|0:0,0:0:0:0:
46,50,173538,1,2,0:0:0:0:
144,26,173722,1,2,0:3:0:0:
144,26,173906,1,8,0:0:0:0:
196,140,174090,5,4,0:0:0:0:
196,140,174274,2,0,P|292:152|387:182,1,180,2|0,0:0|3:0,0:0:0:0:
408,289,174826,2,0,L|305:312,1,90,10|8,0:0|0:0,0:0:0:0:
224,328,175194,1,2,0:0:0:0:
224,328,175378,2,0,L|237:227,1,90,0|2,3:0|0:3,0:0:0:0:
138,176,175746,2,0,L|124:269,1,90,2|2,3:2|0:3,0:0:0:0:
68,348,176114,2,0,L|3:233,1,90,0|8,3:0|0:0,0:0:0:0:
181,376,176482,2,0,L|290:342,1,90,2|2,0:0|0:3,0:0:0:0:
388,365,176851,1,8,0:0:0:0:
477,279,177035,5,4,0:0:0:0:
477,279,177219,2,0,P|495:223|501:155,1,90,2|0,3:2|0:0,0:0:0:0:
388,138,177587,2,0,L|272:181,1,90,2|0,3:2|3:0,0:0:0:0:
350,43,177955,2,0,L|254:30,1,90,10|0,0:0|0:0,0:0:0:0:
458,62,178323,1,0,3:0:0:0:
458,62,178507,2,0,P|465:152|468:246,1,180,2|2,0:0|0:3,0:0:0:0:
425,330,179059,1,0,3:0:0:0:
325,372,179243,2,0,L|232:370,2,90,8|2|2,0:0|0:3|0:3,0:0:0:0:
428,333,179795,1,8,0:0:0:0:
359,250,179979,5,0,3:0:0:0:
359,250,180163,2,0,P|344:206|332:146,1,90,2|0,3:2|0:0,0:0:0:0:
246,279,180532,2,0,P|201:278|140:284,1,90,2|8,0:0|0:0,0:0:0:0:
236,164,180900,1,8,0:0:0:0:
236,164,181084,1,2,0:0:0:0:
134,193,181268,2,0,P|58:156|12:57,1,180,2|0,3:2|3:0,0:0:0:0:
144,16,181820,2,0,P|134:64|120:109,1,90,2|0,0:0|3:0,0:0:0:0:
251,74,182188,1,8,0:0:0:0:
129,4,182372,2,0,P|137:95|143:196,1,180,4|0,0:0|0:0,0:0:0:0:
60,328,182924,5,2,1:2:0:0:
60,328,183292,2,0,L|176:351,1,90,2|0,0:0|3:0,0:0:0:0:
245,285,183660,2,0,P|304:272|345:269,2,90,8|8|2,0:0|0:0|0:3,0:0:0:0:
146,237,184213,2,0,P|125:181|127:136,1,90,0|0,3:0|3:3,0:0:0:0:
196,69,184581,1,0,3:0:0:0:
227,166,184765,1,2,0:3:0:0:
196,69,184949,2,0,P|240:54|307:41,1,90,2|8,3:2|0:0,0:0:0:0:
333,144,185317,2,0,P|288:158|222:172,1,90,2|0,0:0|0:0,0:0:0:0:
228,269,185685,1,8,0:0:0:0:
317,335,185869,5,4,3:0:0:0:
417,280,186053,1,2,0:0:0:0:
417,280,186237,2,0,P|437:238|457:190,1,90,2|0,3:2|3:0,0:0:0:0:
371,98,186605,2,0,P|321:106|254:113,2,90,8|8|2,0:0|0:0|0:3,0:0:0:0:
498,51,187157,2,0,L|518:155,1,90,0|2,3:0|0:3,0:0:0:0:
405,27,187525,2,0,L|326:69,1,90,2|0,3:2|0:0,0:0:0:0:
260,177,187894,2,0,L|233:69,1,90,0|8,3:0|0:0,0:0:0:0:
211,0,188262,1,8,0:0:0:0:
210,101,188446,1,2,3:2:0:0:
113,66,188630,1,2,0:3:0:0:
113,66,188722,1,2,0:3:0:0:
113,66,188814,6,0,P|80:122|58:179,2,90,4|0|8,0:0|3:0|0:0,0:0:0:0:
163,245,189550,2,0,L|269:253,1,90,0|0,3:0|3:0,0:0:0:0:
369,262,189918,1,8,0:0:0:0:
170,374,190286,2,0,P|126:322|100:305,1,90,0|0,1:0|3:0,0:0:0:0:
7,275,190654,2,0,L|39:376,1,90,10|0,0:0|0:0,0:0:0:0:
82,205,191022,2,0,L|199:223,1,90,2|0,3:2|3:0,0:0:0:0:
66,108,191390,2,0,L|99:18,1,90,8|0,0:0|0:0,0:0:0:0:
233,63,191759,5,4,1:2:0:0:
233,63,192127,2,0,L|196:167,1,90,8|0,0:0|0:0,0:0:0:0:
332,109,192495,1,8,0:0:0:0:
300,221,192679,1,0,3:0:0:0:
300,221,192863,2,0,P|359:169|431:83,1,180,8|4,0:0|3:0,0:0:0:0:
434,218,193415,1,4,0:0:0:0:
329,294,193599,1,8,3:2:0:0:
352,306,193691,1,4,3:0:0:0:
376,317,193783,1,4,3:0:0:0:
399,329,193875,1,4,3:0:0:0:
422,341,193967,1,8,1:2:0:0:
422,341,194703,6,0,P|374:325|290:317,1,107.999996704102,4|2,1:0|0:0,0:0:0:0:
161,332,195071,1,8,0:0:0:0:
288,236,195255,2,0,P|271:172|268:128,1,107.999996704102,2|0,0:0|0:0,0:0:0:0:
424,47,195624,2,0,L|310:32,1,107.999996704102,2|8,3:2|0:0,0:0:0:0:
143,27,195992,6,0,P|160:79|168:143,1,107.999996704102,2|0,0:0|0:0,0:0:0:0:
115,281,196360,1,4,3:0:0:0:
17,159,196544,1,8,0:0:0:0:
184,140,196728,1,2,0:0:0:0:
34,183,196912,1,2,3:2:0:0:
34,183,197280,2,0,P|91:204|157:218,1,107.999996704102,8|0,0:0|0:0,0:0:0:0:
331,124,197648,6,0,P|291:155|245:219,1,107.999996704102,4|2,0:0|0:0,0:0:0:0:
218,351,198016,1,8,0:0:0:0:
285,223,198200,2,0,P|346:247|397:288,1,107.999996704102,2|0,0:0|3:0,0:0:0:0:
221,98,198568,2,0,P|166:102|104:118,1,107.999996704102,2|8,0:0|0:0,0:0:0:0:
354,39,198936,1,0,3:0:0:0:
466,302,199305,6,0,P|494:228|504:173,1,107.999996704102,2|8,0:1|0:0,0:0:0:0:
463,53,199673,1,2,0:0:0:0:
363,167,199857,1,0,3:0:0:0:
278,48,200041,2,0,P|339:35|397:12,1,107.999996704102,2|8,0:0|0:0,0:0:0:0:
334,175,200409,1,2,0:3:0:0:
325,206,200501,1,2,0:3:0:0:
309,234,200593,6,0,P|273:266|206:293,1,107.999996704102,4|0,0:0|0:0,0:0:0:0:
60,330,200961,1,8,0:0:0:0:
60,330,201329,2,0,P|114:337|190:342,1,107.999996704102,0|4,3:0|3:0,0:0:0:0:
100,193,201697,2,0,P|150:173|212:158,1,107.999996704102,8|0,0:0|0:0,0:0:0:0:
63,35,202065,6,0,P|47:86|36:149,1,107.999996704102,2|0,0:0|3:0,0:0:0:0:
158,252,202433,1,8,0:0:0:0:
154,91,202617,2,0,P|210:70|280:30,1,107.999996704102,2|0,0:0|3:0,0:0:0:0:
358,156,202986,1,2,0:0:0:0:
489,70,203170,2,0,P|506:122|512:175,1,107.999996704102,8|0,0:0|0:0,0:0:0:0:
447,316,203538,6,0,L|336:327,1,107.999996704102,4|0,0:0|0:0,0:0:0:0:
203,244,203906,1,8,0:0:0:0:
329,152,204090,2,0,P|359:199|376:260,1,107.999996704102,2|0,0:0|3:0,0:0:0:0:
195,291,204458,2,0,P|165:244|148:183,1,107.999996704102,0|8,3:0|0:0,0:0:0:0:
194,45,204826,1,0,3:0:0:0:
55,140,205010,6,0,P|118:187|142:223,1,107.999996704102,4|0,0:0|3:0,0:0:0:0:
126,370,205378,1,8,0:0:0:0:
62,225,205562,2,0,L|70:101,1,107.999996704102,2|0,0:0|3:0,0:0:0:0:
191,271,205930,2,0,L|284:198,1,107.999996704102,2|8,0:0|0:0,0:0:0:0:
155,44,206298,1,2,0:3:0:0:
186,52,206390,1,2,0:3:0:0:
217,58,206482,6,0,P|273:43|339:16,1,107.999996704102,4|0,1:0|0:0,0:0:0:0:
462,117,206851,1,8,0:0:0:0:
312,147,207035,2,0,P|290:203|280:263,1,107.999996704102,2|0,0:0|3:0,0:0:0:0:
157,369,207403,2,0,P|113:299|71:253,1,107.999996704102,2|8,0:0|0:0,0:0:0:0:
20,133,207771,6,0,P|91:120|156:95,1,107.999996704102,4|0,0:0|0:0,0:0:0:0:
249,13,208139,1,0,3:0:0:0:
233,169,208323,2,0,P|293:183|352:211,1,107.999996704102,8|2,0:0|0:0,0:0:0:0:
487,95,208691,2,0,L|403:-7,1,107.999996704102,0|0,3:0|3:0,0:0:0:0:
424,186,209059,1,8,0:0:0:0:
424,186,209243,1,2,0:0:0:0:
411,309,209427,6,0,P|358:252|330:210,1,107.999996704102,2|4,3:2|3:0,0:0:0:0:
314,75,209795,1,8,0:0:0:0:
122,353,210163,2,0,P|154:307|174:242,1,107.999996704102,2|0,3:2|0:0,0:0:0:0:
146,106,210532,1,8,0:0:0:0:
146,106,210716,1,2,0:0:0:0:
271,7,210900,6,0,P|319:6|406:21,2,107.999996704102,4|2|8,3:0|0:1|0:0,0:0:0:0:
131,85,211452,2,0,P|141:140|166:212,1,107.999996704102,2|0,0:0|0:0,0:0:0:0:
315,219,211820,1,2,0:0:0:0:
252,338,212004,1,8,0:0:0:0:
252,338,212188,1,2,0:3:0:0:
252,338,212280,1,2,0:3:0:0:
252,338,212372,6,0,P|190:360|123:373,1,107.999996704102,4|0,0:0|0:0,0:0:0:0:
24,334,212740,2,0,P|110:336|159:329,1,107.999996704102,8|0,0:0|0:0,0:0:0:0:
195,203,213108,2,0,P|215:260|224:327,1,107.999996704102,2|0,3:2|0:0,0:0:0:0:
52,186,213476,2,0,P|42:136|40:74,1,107.999996704102,8|0,0:0|0:0,0:0:0:0:
212,52,213844,6,0,L|97:27,1,107.999996704102,2|0,3:2|0:0,0:0:0:0:
125,188,214213,1,8,0:0:0:0:
295,161,214397,2,0,P|318:224|327:291,1,107.999996704102,2|0,0:0|3:0,0:0:0:0:
220,384,214765,1,2,0:0:0:0:
385,348,214949,1,8,0:0:0:0:
297,263,215133,1,0,3:0:0:0:
407,190,215317,6,0,P|313:207|199:263,1,215.999993408203,4|8,0:0|0:0,0:0:0:0:
58,31,216053,1,4,3:0:0:0:
33,130,216237,1,0,3:0:0:0:
161,47,216421,1,8,0:0:0:0:
154,174,216605,6,0,P|221:96|340:18,1,215.999993408203,4|0,0:0|3:0,0:0:0:0:
459,72,217157,2,0,L|335:44,1,107.999996704102,4|0,1:2|0:0,0:0:0:0:
474,189,217525,1,2,0:3:0:0:
441,191,217617,1,2,0:3:0:0:
412,205,217709,1,2,0:3:0:0:
389,228,217801,1,2,0:3:0:0:
370,254,217894,1,2,0:3:0:0:
340,268,217986,1,2,0:3:0:0:
308,274,218078,1,2,0:3:0:0:
276,268,218170,1,2,0:3:0:0:
251,247,218262,6,0,P|230:204|226:127,1,107.999996704102,4|0,1:0|0:0,0:0:0:0:
376,297,218630,2,0,P|415:270|457:205,1,107.999996704102,0|0,1:0|0:0,0:0:0:0:
448,26,218998,6,0,P|428:86|425:153,1,107.999996704102,8|4,1:2|3:0,0:0:0:0:
213,69,219366,2,0,P|255:115|285:175,1,107.999996704102,8|0,1:2|3:0,0:0:0:0:
285,325,219734,6,0,P|231:303|179:265,1,107.999996704102,2|2,1:2|0:0,0:0:0:0:
105,140,220102,1,0,1:0:0:0:
117,310,220286,2,0,P|68:261|41:194,1,107.999996704102,2|0,0:0|1:0,0:0:0:0:
78,67,220654,1,2,0:0:0:0:
214,146,220838,1,0,1:0:0:0:
78,67,221022,1,0,0:0:0:0:
189,23,221206,5,4,1:2:0:0:
189,23,221574,2,0,P|150:62|121:113,1,107.999996704102,0|0,1:0|0:0,0:0:0:0:
336,86,221943,2,0,P|345:140|340:198,1,107.999996704102,8|4,1:2|3:0,0:0:0:0:
437,29,222311,1,8,1:2:0:0:
512,163,222495,1,0,3:0:0:0:
340,109,222679,6,0,P|277:122|231:148,1,107.999996704102,2|2,1:2|0:0,0:0:0:0:
429,207,223047,1,0,1:0:0:0:
265,238,223231,2,0,P|221:312|207:355,1,107.999996704102,2|0,0:0|1:0,0:0:0:0:
397,295,223599,1,2,0:0:0:0:
328,144,223783,1,0,1:0:0:0:
177,213,223967,1,0,0:0:0:0:
328,144,224151,5,4,0:2:0:0:
328,144,224519,2,0,P|418:113|443:96,1,107.999996704102,0|0,1:0|0:0,0:0:0:0:
283,257,224887,2,0,P|337:297|372:341,1,107.999996704102,8|4,1:2|3:0,0:0:0:0:
232,114,225255,2,0,P|173:182|137:210,1,107.999996704102,8|0,1:2|3:0,0:0:0:0:
0,245,225624,5,2,1:2:0:0:
74,109,225808,2,0,P|132:124|194:158,1,107.999996704102,2|0,0:0|1:0,0:0:0:0:
308,279,226176,2,0,L|286:390,1,107.999996704102,2|0,0:0|1:0,0:0:0:0:
179,248,226544,1,2,0:0:0:0:
329,205,226728,2,0,P|374:167|405:121,1,107.999996704102,0|0,1:0|0:0,0:0:0:0:
452,0,227096,5,4,0:2:0:0:
452,0,227464,2,0,L|332:15,1,107.999996704102,0|0,1:0|0:0,0:0:0:0:
241,164,227832,2,0,L|206:42,1,107.999996704102,8|4,1:2|3:0,0:0:0:0:
57,19,228200,1,8,0:0:0:0:
39,184,228384,6,0,P|103:197|162:223,1,107.999996704102,2|8,3:2|0:0,0:0:0:0:
284,318,228752,2,0,P|200:339|165:357,1,107.999996704102,2|8,0:0|0:0,0:0:0:0:
37,200,229121,2,0,P|65:249|83:323,1,107.999996704102,2|8,3:2|0:0,0:0:0:0:
181,159,229489,1,0,3:0:0:0:
278,289,229673,1,2,0:3:0:0:
309,295,229765,1,2,0:3:0:0:
340,286,229857,1,2,0:3:0:0:
366,267,229949,1,2,0:3:0:0:
386,242,230041,5,8,0:0:0:0:
386,242,230409,2,0,L|408:128,1,107.999996704102,0|0,1:0|0:0,0:0:0:0:
263,269,230777,2,0,L|202:157,1,107.999996704102,8|4,1:2|3:0,0:0:0:0:
158,325,231145,1,8,1:2:0:0:
158,325,231329,1,0,3:0:0:0:
15,263,231513,6,0,P|69:212|114:189,1,107.999996704102,2|2,1:2|0:0,0:0:0:0:
257,174,231881,1,0,1:0:0:0:
211,19,232065,2,0,P|183:71|140:111,1,107.999996704102,2|0,0:0|1:0,0:0:0:0:
0,151,232433,1,2,0:0:0:0:
58,4,232617,2,0,P|115:14|171:38,1,107.999996704102,0|0,1:0|0:0,0:0:0:0:
288,127,232986,5,4,1:2:0:0:
288,127,233354,2,0,P|343:99|407:82,1,107.999996704102,0|0,1:0|0:0,0:0:0:0:
246,262,233722,2,0,P|185:277|137:297,1,107.999996704102,8|4,1:2|3:0,0:0:0:0:
346,318,234090,1,8,1:2:0:0:
387,168,234274,1,0,3:0:0:0:
217,184,234458,6,0,P|172:135|144:85,1,107.999996704102,2|2,1:2|0:0,0:0:0:0:
136,260,234826,1,0,1:0:0:0:
262,365,235010,2,0,P|324:331|363:286,1,107.999996704102,2|0,0:0|1:0,0:0:0:0:
457,184,235378,1,2,0:0:0:0:
481,340,235562,1,0,1:0:0:0:
481,340,235746,1,4,3:0:0:0:
341,260,235930,6,0,P|320:174|335:65,1,180,4|2,0:1|0:0,0:0:0:0:
440,21,236482,1,0,3:0:0:0:
440,21,236667,2,0,P|348:51|239:59,1,180,8|2,0:0|0:0,0:0:0:0:
37,9,237403,1,8,0:0:0:0:
37,9,237587,1,8,0:0:0:0:
37,9,239611,5,2,0:3:0:0:
59,31,239703,1,8,0:0:0:0:
70,61,239795,1,2,0:3:0:0:
75,92,239887,1,2,0:3:0:0:
62,121,239979,1,2,3:0:0:0:
40,144,240071,1,8,3:0:0:0:
31,175,240163,1,4,3:0:0:0:
41,205,240255,1,4,3:0:0:0:
62,229,240347,6,0,P|96:274|124:345,2,107.999996704102,4|2|8,1:0|0:0|0:0,0:0:0:0:
152,135,240900,1,2,0:0:0:0:
152,135,241084,2,0,P|173:68|179:13,1,107.999996704102,0|2,3:0|0:0,0:0:0:0:
364,6,241452,1,8,0:0:0:0:
259,141,241636,6,2,P|364:161|476:187,1,215.999993408203,4|0,0:0|3:0,0:1:0:0:
363,344,242188,2,0,P|347:294|342:222,1,107.999996704102,10|2,0:0|0:0,0:0:0:0:
214,342,242556,1,0,3:0:0:0:
214,342,242740,1,0,3:0:0:0:
90,237,242924,2,0,P|139:215|199:198,1,107.999996704102,10|2,0:0|0:0,0:0:0:0:
328,65,243292,6,0,P|384:82|436:113,2,107.999996704102,4|0|8,3:2|3:0|0:0,0:0:0:0:
176,129,243844,2,0,P|151:68|146:21,1,107.999996704102,2|0,0:0|3:0,0:0:0:0:
111,229,244213,2,0,P|39:249|0:270,1,107.999996704102,2|8,0:0|0:0,0:0:0:0:
62,35,244581,6,2,P|113:130|148:259,1,215.999993408203,4|0,2:0|3:0,0:1:0:0:
293,365,245133,2,0,P|222:349|174:328,1,107.999996704102,10|0,0:0|0:0,0:0:0:0:
401,300,245501,2,0,P|464:267|504:226,1,107.999996704102,2|2,3:2|0:0,0:0:0:0:
287,237,245869,1,8,0:0:0:0:
439,155,246053,1,2,0:3:0:0:
459,130,246145,1,2,0:3:0:0:
472,100,246237,6,2,P|450:37|309:11,1,215.999993408203,4|8,0:0|0:0,0:1:0:0:
131,264,246973,1,0,3:0:0:0:
131,264,247157,1,0,3:0:0:0:
64,189,247341,1,8,0:0:0:0:
32,286,247525,1,0,3:0:0:0:
64,189,247709,5,4,1:3:0:0:
202,111,247894,2,0,P|189:62|158:-11,1,107.999996704102,2|8,0:0|0:0,0:0:0:0:
262,237,248262,2,0,P|260:301|244:362,1,107.999996704102,2|0,0:0|3:0,0:0:0:0:
350,167,248630,1,4,3:0:0:0:
489,88,248814,2,0,P|466:23|402:-15,1,107.999996704102,2|0,0:1|3:0,0:0:0:0:
304,128,249182,6,0,P|311:184|357:257,1,107.999996704102,4|0,0:0|0:0,0:0:0:0:
474,316,249550,1,8,0:0:0:0:
285,300,249734,2,0,P|348:349|386:365,1,107.999996704102,2|0,0:1|3:0,0:0:0:0:
152,323,250102,2,0,P|78:346|27:350,1,107.999996704102,2|8,0:1|0:0,0:0:0:0:
167,185,250470,1,4,3:0:0:0:
36,99,250654,6,0,P|81:49|137:20,2,107.999996704102,2|0|8,1:0|3:0|0:0,0:0:0:0:
176,194,251206,2,0,P|181:256|167:306,1,107.999996704102,2|0,0:1|3:0,0:0:0:0:
289,91,251574,2,0,P|331:31|379:-3,1,107.999996704102,2|8,0:1|0:0,0:0:0:0:
278,248,251943,1,2,0:3:0:0:
296,274,252035,1,2,0:3:0:0:
319,296,252127,6,0,P|363:324|430:354,1,107.999996704102,4|2,1:0|0:0,0:0:0:0:
504,201,252495,1,8,0:0:0:0:
351,209,252679,2,0,P|322:168|304:97,1,107.999996704102,2|0,0:0|3:0,0:0:0:0:
159,11,253047,2,0,P|131:103|116:121,1,107.999996704102,2|8,0:0|0:0,0:0:0:0:
34,237,253415,6,2,P|139:189|252:182,1,215.999993408203,4|0,0:0|3:0,2:1:0:0:
465,99,253967,2,0,P|401:64|363:25,1,107.999996704102,10|0,0:0|0:0,0:0:0:0:
429,216,254335,1,2,3:2:0:0:
271,170,254519,1,0,3:0:0:0:
174,296,254703,2,0,P|218:328|285:352,1,107.999996704102,10|0,0:0|0:0,0:0:0:0:
400,208,255071,6,0,P|424:259|435:315,2,107.999996704102,2|0|8,3:2|0:2|0:0,0:0:0:0:
257,89,255624,2,0,P|282:39|330:1,1,107.999996704102,2|0,0:0|3:0,0:0:0:0:
182,208,255992,2,0,P|134:183|34:170,1,107.999996704102,2|8,0:0|0:0,0:0:0:0:
275,296,256360,6,2,P|162:312|61:336,1,215.999993408203,4|0,2:0|3:0,0:1:0:0:
35,146,256912,2,0,P|77:216|84:244,1,107.999996704102,10|2,0:0|0:0,0:0:0:0:
198,120,257280,1,4,3:0:0:0:
287,250,257464,1,2,3:2:0:0:
436,189,257648,1,8,0:0:0:0:
359,52,257832,1,2,0:3:0:0:
359,52,257924,1,2,0:3:0:0:
359,52,258016,6,0,P|415:107|472:243,1,215.999993408203,4|8,1:0|0:0,0:0:0:0:
148,384,258752,1,0,3:0:0:0:
148,384,258936,1,0,3:0:0:0:
305,335,259121,1,2,1:0:0:0:
137,278,259305,1,2,3:1:0:0:
33,159,259489,6,0,P|60:82|95:37,1,107.999996704102,2|0,1:0|0:0,0:0:0:0:
207,225,259857,2,0,P|260:155|278:117,1,107.999996704102,8|0,0:0|0:0,0:0:0:0:
421,0,260225,6,0,P|458:45|477:94,1,107.999996704102,4|0,1:3|0:0,0:0:0:0:
227,82,260593,2,0,P|248:131|283:173,1,107.999996704102,8|0,0:0|0:0,0:0:0:0:
479,254,260961,6,2,P|381:257|304:352,2,215.999993408203,4|8|4,0:0|0:0|3:0,0:1:0:0:
437,87,261881,1,0,3:0:0:0:
312,177,262065,1,8,0:0:0:0:
312,177,262249,6,0,P|281:128|265:70,1,107.999996704102,2|0,1:0|3:0,0:0:0:0:
104,9,262617,2,0,P|94:81|63:128,1,107.999996704102,2|8,1:0|0:0,0:0:0:0:
121,295,262986,2,0,P|165:261|225:235,1,107.999996704102,2|8,1:0|0:0,0:0:0:0:
246,254,263262,1,2,0:3:0:0:
277,259,263354,1,2,0:3:0:0:
309,255,263446,1,2,0:3:0:0:
337,240,263538,1,2,0:3:0:0:
359,217,263630,1,2,0:3:0:0:
389,205,263722,1,2,0:3:0:0:
421,209,263814,1,2,0:3:0:0:
449,224,263906,6,0,L|469:326,2,90,4|0|0,0:0|0:0|3:0,0:0:0:0:
392,120,264458,1,2,0:0:0:0:
392,120,264642,2,0,L|483:80,1,90,2|0,3:2|0:0,0:0:0:0:
338,45,265010,2,0,L|255:81,1,90,0|2,3:0|0:0,0:0:0:0:
114,108,265378,2,0,L|71:22,2,90,0|0|0,1:0|0:0|3:0,0:0:0:0:
173,213,265930,1,2,0:0:0:0:
173,213,266114,2,0,L|62:231,1,90,2|0,0:0|0:0,0:0:0:0:
59,303,266482,2,0,L|162:324,1,90,0|2,3:0|0:0,0:0:0:0:
275,296,266851,6,0,L|319:384,2,90,4|0|0,0:0|0:0|3:0,0:0:0:0:
328,226,267403,1,2,0:0:0:0:
328,226,267587,2,0,L|427:250,1,90,2|0,0:0|0:0,0:0:0:0:
460,181,267955,2,0,L|365:143,1,90,0|2,3:0|0:0,0:0:0:0:
284,56,268323,2,0,L|210:142,2,90,0|0|0,1:0|0:0|3:0,0:0:0:0:
412,29,268875,1,8,0:0:0:0:
363,139,269059,2,0,L|453:169,1,90,8|4,3:0|0:3,0:0:0:0:
492,278,269427,1,0,3:0:0:0:
380,297,269611,1,0,3:0:0:0:
268,316,269795,6,0,L|168:369,2,90,4|0|0,0:0|0:0|3:0,0:0:0:0:
292,224,270347,1,2,0:0:0:0:
292,224,270532,2,0,L|276:130,1,90,2|0,3:2|0:0,0:0:0:0:
191,120,270900,1,2,0:3:0:0:
178,143,270992,1,2,0:3:0:0:
165,167,271084,2,0,L|138:235,1,45,2|2,0:3|0:3,0:3:0:0:
137,196,271268,2,0,L|20:218,1,90,0|0,1:0|0:0,0:0:0:0:
45,297,271636,2,0,L|160:318,1,90,0|2,3:0|0:0,0:0:0:0:
212,273,272004,2,0,L|269:357,1,90,0|0,3:0|0:0,0:0:0:0:
347,344,272372,1,2,0:3:0:0:
356,318,272464,1,2,0:3:0:0:
365,292,272556,2,0,L|389:218,1,45,2|2,0:3|0:3,0:0:0:0:
399,276,272740,6,0,L|507:262,1,90,4|0,0:0|0:0,0:0:0:0:
477,145,273108,1,2,0:3:0:0:
443,149,273200,1,2,0:3:0:0:
410,153,273292,2,0,L|333:166,1,45,2|2,0:3|0:3,0:3:0:0:
383,148,273476,2,0,L|305:94,1,90,0|0,1:0|0:0,0:0:0:0:
247,8,273844,1,2,0:3:0:0:
247,8,273936,1,2,0:3:0:0:
247,8,274028,2,0,L|181:14,2,45,2|2|4,0:3|0:3|0:0,0:0:0:0:
216,103,274397,5,2,0:3:0:0:
106,99,274581,1,2,0:3:0:0:
173,183,274765,1,8,0:0:0:0:
39,206,274949,1,8,3:2:0:0:
179,273,275133,1,8,3:2:0:0:
51,332,275317,1,8,0:0:0:0:
219,356,275501,1,8,1:2:0:0:
