osu file format v14

[General]
AudioFilename: audio.mp3
AudioLeadIn: 0
PreviewTime: 61416
Countdown: 0
SampleSet: Soft
StackLeniency: 0.5
Mode: 0
LetterboxInBreaks: 0
WidescreenStoryboard: 0

[Editor]
Bookmarks: 28625
DistanceSpacing: 1.1
BeatDivisor: 4
GridSize: 4
TimelineZoom: 1

[Metadata]
Title:DanceMusiQ
TitleUnicode:DanceMusiQ
Artist:SILENT SIREN
ArtistUnicode:SILENT SIREN
Creator:Janpai
Version:Hard
Source:
Tags:サイレントサイレン 吉田菫 Sumire Yoshida 梅村妃奈子 Hinako Umemura 山内あいな Aina Yamauchi 黒坂優香子 Yukako Kurosaka -Akito Shishou
BeatmapID:1658039
BeatmapSetID:790104

[Difficulty]
HPDrainRate:5
CircleSize:3.7
OverallDifficulty:6
ApproachRate:7.7
SliderMultiplier:1.4
SliderTickRate:1

[Events]
//Background and Video events
0,0,"BG.png",0,0
//Break Periods
//Storyboard Layer 0 (Background)
//Storyboard Layer 1 (Fail)
//Storyboard Layer 2 (Pass)
//Storyboard Layer 3 (Foreground)
//Storyboard Sound Samples

[TimingPoints]
719,348.837209302326,4,2,1,60,1,0
6300,-100,4,2,1,70,0,0
28625,-100,4,2,1,60,0,0
50951,-125,4,2,1,50,0,0
59323,-83.3333333333333,4,2,1,70,0,0
61416,-125,4,2,1,60,0,0
62114,-100,4,2,1,80,0,1
83742,-125,4,2,1,50,0,0
84439,-100,4,2,1,70,0,0
95951,-142.857142857143,4,2,1,50,0,0

[Colours]
Combo1 : 0,128,255
Combo2 : 0,87,174
Combo3 : 121,182,255
Combo4 : 192,192,192

[HitObjects]
256,192,719,5,6,0:0:0:0:
256,192,1067,12,0,4556,0:0:0:0:
64,63,4905,6,0,L|74:153,1,70,8|0,0:0|0:0,0:0:0:0:
91,173,5166,2,0,L|81:263,1,70,8|0,0:0|0:0,0:0:0:0:
76,288,5428,2,0,L|164:287,1,70,8|8,0:0|0:0,0:0:0:0:
237,286,5777,2,0,P|276:230|258:159,1,140,0|8,0:0|0:0,0:0:0:0:
261,163,6300,6,0,L|362:162,1,70,6|2,0:0|0:3,0:0:0:0:
422,164,6649,2,0,P|439:202|426:253,1,70,8|2,0:0|0:3,0:0:0:0:
381,301,6998,2,0,B|316:270|316:342|220:286,1,140,2|8,0:0|0:0,0:0:0:0:
178,237,7521,6,0,P|153:209|55:259,1,140,2|2,0:3|0:3,0:0:0:0:
13,306,8044,1,8,0:0:0:0:
64,231,8219,2,0,L|56:80,1,140,2|2,0:3|0:3,0:0:0:0:
120,25,8742,2,0,L|216:20,1,70,8|2,0:0|0:3,0:0:0:0:
280,32,9091,6,0,P|296:81|304:117,1,70,2|2,0:0|0:3,0:0:0:0:
236,162,9439,1,8,0:0:0:0:
308,217,9614,2,0,P|349:187|448:225,1,140,2|2,0:3|0:3,0:0:0:0:
482,279,10137,1,8,0:0:0:0:
511,192,10312,6,0,L|504:116,1,70,2|2,0:3|0:0,0:0:0:0:
482,34,10660,1,2,0:3:0:0:
411,91,10835,2,0,P|379:105|331:95,1,70,8|2,0:0|0:3,0:0:0:0:
267,54,11184,2,0,L|253:7,2,35,2|2|2,0:0|0:3|0:3,0:0:0:0:
199,115,11532,2,0,P|189:152|204:200,1,70,8|2,0:0|0:3,0:0:0:0:
270,233,11881,6,0,L|274:311,1,70,6|2,0:0|0:3,0:0:0:0:
195,350,12230,2,0,L|109:343,1,70,8|2,0:0|0:3,0:0:0:0:
43,303,12579,2,0,P|11:255|40:172,1,140,2|8,0:0|0:0,0:0:0:0:
104,125,13102,6,0,L|257:112,1,140,2|2,0:3|0:3,0:0:0:0:
319,62,13625,1,8,0:0:0:0:
409,69,13800,2,0,P|433:98|403:206,1,140,2|2,0:3|0:3,0:0:0:0:
379,274,14323,2,0,L|468:277,1,70,8|2,0:0|0:3,0:0:0:0:
402,354,14672,6,0,L|332:351,1,70,2|2,0:0|0:3,0:0:0:0:
240,345,15021,1,8,0:0:0:0:
149,343,15195,2,0,P|147:285|133:195,1,140,2|2,0:3|0:3,0:0:0:0:
69,140,15719,1,8,0:0:0:0:
135,203,15893,6,0,P|193:240|261:211,1,140,2|2,0:3|0:3,0:0:0:0:
302,139,16416,2,0,L|296:56,1,70,8|2,0:0|0:0,0:0:0:0:
371,16,16765,1,2,0:0:0:0:
453,53,16939,2,0,L|456:95,2,35,8|8|8,0:0|0:0|0:0,0:0:0:0:
382,111,17288,1,8,0:0:0:0:
382,111,17375,1,8,0:0:0:0:
382,111,17463,6,0,L|389:196,1,70,6|2,0:0|0:3,0:0:0:0:
463,231,17812,2,0,L|470:316,1,70,8|2,0:0|0:3,0:0:0:0:
395,354,18160,2,0,B|348:360|348:360|311:341|311:341|251:344,1,140,2|8,0:0|0:0,0:0:0:0:
169,359,18684,6,0,P|104:353|64:275,1,140,2|2,0:3|0:3,0:0:0:0:
62,203,19207,1,8,0:0:0:0:
22,121,19381,2,0,B|90:89|90:153|182:117,1,140,2|2,0:3|0:3,0:0:0:0:
233,73,19905,2,0,P|276:64|311:76,1,70,8|0,0:0|0:0,0:0:0:0:
364,134,20253,6,0,P|373:177|361:212,1,70,2|2,0:0|0:3,0:0:0:0:
305,269,20602,1,8,0:0:0:0:
232,214,20777,2,0,L|89:219,1,140,2|2,0:3|0:3,0:0:0:0:
21,276,21300,2,0,P|15:310|24:343,1,70,8|2,0:0|0:3,0:0:0:0:
112,364,21649,5,2,0:0:0:0:
199,340,21823,2,0,L|281:348,1,70,2|8,0:3|0:0,0:0:0:0:
349,304,22172,1,2,0:3:0:0:
418,362,22346,2,0,L|467:352,2,35,2|8|2,0:0|0:0|0:3,0:0:0:0:
438,273,22695,1,8,0:0:0:0:
363,219,22870,1,2,0:3:0:0:
363,219,22957,1,8,0:0:0:0:
363,219,23044,6,0,P|344:178|355:132,1,70,6|2,0:0|0:3,0:0:0:0:
427,112,23393,2,0,P|446:71|435:25,1,70,8|2,0:0|0:3,0:0:0:0:
355,27,23742,2,0,P|291:31|206:41,1,140,2|8,0:0|0:0,0:0:0:0:
127,61,24265,6,0,P|106:93|139:187,1,140,2|2,0:3|0:3,0:0:0:0:
212,229,24788,1,8,0:0:0:0:
148,294,24963,2,0,P|207:261|270:287,1,140,2|2,0:3|0:3,0:0:0:0:
350,331,25486,2,0,P|389:335|425:316,1,70,8|2,0:0|0:3,0:0:0:0:
479,256,25835,6,0,P|483:217|464:181,1,70,2|2,0:0|0:3,0:0:0:0:
392,143,26184,1,8,0:0:0:0:
470,96,26358,2,0,L|321:82,1,140,2|2,0:3|0:3,0:0:0:0:
269,15,26881,1,8,0:0:0:0:
197,71,27056,1,0,0:0:0:0:
262,134,27230,6,0,L|269:186,2,35,2|2|2,0:0|0:3|0:3,0:0:0:0:
197,71,27579,1,8,0:0:0:0:
197,71,27753,1,2,0:3:0:0:
110,42,27928,1,8,0:0:0:0:
110,42,28015,1,0,0:0:0:0:
110,42,28102,2,0,L|103:2,2,35,8|8|2,0:3|0:0|0:0,0:0:0:0:
38,98,28451,1,4,0:3:0:0:
115,144,28625,6,0,L|110:231,1,70,6|0,0:0|0:0,0:0:0:0:
69,295,28974,2,0,L|156:300,1,70,8|2,0:0|0:3,0:0:0:0:
215,249,29323,2,0,P|254:223|344:272,1,140,2|8,0:0|0:0,0:0:0:0:
397,319,29846,6,0,L|385:177,1,140,2|2,0:3|0:3,0:0:0:0:
444,109,30370,1,8,0:0:0:0:
385,179,30544,2,0,L|287:170,1,70,2|0,0:3|0:0,0:0:0:0:
240,120,30893,2,0,P|248:71|250:35,2,70,2|8|2,0:3|0:0|0:3,0:0:0:0:
175,184,31416,6,0,P|178:218|184:253,1,70,2|2,0:0|0:3,0:0:0:0:
259,305,31765,1,8,0:0:0:0:
259,305,31939,1,2,0:3:0:0:
337,258,32114,2,0,P|377:255|420:264,1,70,2|2,0:0|0:3,0:0:0:0:
406,351,32463,2,0,P|366:354|323:345,1,70,8|2,0:0|0:3,0:0:0:0:
259,305,32812,6,0,P|219:302|176:311,1,70,2|2,0:0|0:3,0:0:0:0:
115,358,33160,2,0,P|151:311|122:223,1,140,8|2,0:0|0:0,0:0:0:0:
65,176,33684,1,2,0:3:0:0:
124,107,33858,2,0,L|202:106,1,70,8|0,0:0|0:0,0:0:0:0:
269,54,34207,5,2,0:0:0:0:
269,54,34381,1,2,0:3:0:0:
349,97,34556,2,0,L|338:205,1,105,8|0,0:0|0:0,0:0:0:0:
298,223,34905,2,0,L|309:331,1,105,2|0,0:0|0:0,0:0:0:0:
337,362,35253,1,8,0:0:0:0:
407,303,35428,1,2,0:3:0:0:
485,348,35602,6,0,L|494:272,2,70,2|2|8,0:0|0:3|0:0,0:0:0:0:
407,303,36125,2,0,L|384:146,1,140,2|2,0:3|0:3,0:0:0:0:
448,96,36649,2,0,P|451:56|418:22,1,70,8|2,0:0|0:3,0:0:0:0:
343,30,36998,6,0,P|282:32|260:34,1,70,2|2,0:0|0:3,0:0:0:0:
187,62,37346,1,8,0:0:0:0:
187,62,37521,1,2,0:3:0:0:
105,21,37695,2,0,L|96:107,1,70,2|2,0:0|0:3,0:0:0:0:
35,157,38044,2,0,L|44:243,1,70,8|2,0:0|0:3,0:0:0:0:
20,315,38393,6,0,B|58:309|58:309|89:319|89:319|149:310,1,105,2|0,0:0|0:0,0:0:0:0:
167,304,38742,2,0,P|201:278|211:245,1,70,8|2,0:0|0:3,0:0:0:0:
159,177,39091,2,0,L|110:185,2,35,2|8|2,0:0|0:0|0:3,0:0:0:0:
213,104,39439,1,8,0:0:0:0:
282,162,39614,1,8,0:0:0:0:
282,162,39701,1,8,0:0:0:0:
282,162,39788,6,0,L|377:164,1,70,6|2,0:0|0:3,0:0:0:0:
427,111,40137,2,0,L|522:113,1,70,8|2,0:0|0:3,0:0:0:0:
510,202,40486,2,0,L|493:349,1,140,2|8,0:0|0:0,0:0:0:0:
403,350,41009,6,0,P|377:322|267:338,1,140,2|2,0:3|0:3,0:0:0:0:
195,354,41532,1,8,0:0:0:0:
114,311,41707,2,0,P|107:274|120:233,1,70,2|0,0:3|0:0,0:0:0:0:
142,156,42056,2,0,L|58:158,2,70,2|8|2,0:3|0:0|0:3,0:0:0:0:
233,158,42579,6,0,L|238:248,1,70,2|2,0:0|0:3,0:0:0:0:
188,305,42928,1,8,0:0:0:0:
188,305,43102,1,2,0:3:0:0:
260,360,43277,2,0,P|295:357|331:324,1,70,2|2,0:0|0:3,0:0:0:0:
396,283,43625,2,0,P|416:254|418:220,1,70,8|2,0:0|0:3,0:0:0:0:
455,136,43974,6,0,L|353:138,1,70,2|2,0:0|0:3,0:0:0:0:
300,171,44323,2,0,L|198:169,1,70,8|0,0:0|0:0,0:0:0:0:
148,128,44672,2,0,P|156:90|133:44,1,70,2|2,0:0|0:3,0:0:0:0:
55,65,45021,2,0,P|45:98|53:132,1,70,8|0,0:0|0:0,0:0:0:0:
105,207,45370,5,2,0:0:0:0:
47,276,45544,1,2,0:3:0:0:
105,207,45719,2,0,L|199:216,1,70,8|2,0:0|0:3,0:0:0:0:
264,228,46067,2,0,P|299:187|275:101,1,140,2|8,0:0|0:0,0:0:0:0:
200,66,46591,6,0,L|371:48,1,140,2|2,0:3|0:3,0:0:0:0:
426,24,47114,1,8,0:0:0:0:
480,96,47288,2,0,B|469:148|469:148|481:183|481:183|462:250,1,140,2|2,0:3|0:3,0:0:0:0:
412,304,47812,2,0,P|373:286|324:296,1,70,8|2,0:0|0:3,0:0:0:0:
276,344,48160,6,0,L|189:345,1,70,2|2,0:0|0:3,0:0:0:0:
126,300,48509,2,0,L|39:301,1,70,8|2,0:0|0:3,0:0:0:0:
5,224,48858,2,0,P|4:177|78:116,1,140,2|8,0:0|0:0,0:0:0:0:
158,103,49381,1,2,0:3:0:0:
234,152,49556,6,0,P|244:188|227:234,1,70,2|2,0:0|0:3,0:0:0:0:
182,292,49905,1,8,0:0:0:0:
182,292,50079,1,2,0:3:0:0:
110,235,50253,1,2,0:0:0:0:
110,235,50341,1,0,0:0:0:0:
110,235,50428,2,0,L|113:185,2,35,8|8|4,0:0|0:0|0:3,0:0:0:0:
27,273,50777,1,8,0:3:0:0:
27,273,50951,6,0,L|32:143,1,112,6|8,0:0|0:0,0:0:0:0:
31,161,51649,2,0,P|76:185|149:163,1,112,2|8,0:0|0:0,0:0:0:0:
205,130,52172,6,0,P|250:106|323:128,1,112,0|0,0:0|0:0,0:0:0:0:
373,169,52695,2,0,L|366:300,1,112,8|2,0:0|0:0,0:0:0:0:
208,336,53393,1,8,0:0:0:0:
367,282,53742,6,0,L|487:265,1,112,2|8,0:0|0:0,0:0:0:0:
477,266,54439,2,0,L|467:192,1,56,2|0,0:0|0:0,0:0:0:0:
406,154,54788,1,8,0:0:0:0:
448,81,54963,6,0,P|406:111|341:94,1,112,0|0,0:0|0:0,0:0:0:0:
279,54,55486,2,0,P|241:52|208:67,1,56,8|0,0:0|0:0,0:0:0:0:
151,99,55835,1,0,0:0:0:0:
81,52,56009,2,0,L|70:13,2,28,8|8|8,0:0|0:0|0:0,0:0:0:0:
15,105,56358,1,4,0:3:0:0:
15,105,56445,1,4,0:3:0:0:
15,105,56532,6,0,L|22:219,1,112,6|8,0:0|0:0,0:0:0:0:
3,299,57056,1,0,0:0:0:0:
66,353,57230,2,0,P|122:355|173:300,1,112,2|8,0:0|0:0,0:0:0:0:
207,249,57753,6,0,L|326:234,1,112,8|0,0:0|0:0,0:0:0:0:
401,218,58277,2,0,P|418:188|416:151,1,56,8|0,0:0|0:0,0:0:0:0:
494,129,58625,2,0,P|497:156|512:179,1,56,0|0,0:0|0:0,0:0:0:0:
480,257,58974,2,0,L|482:301,2,28,8|8|8,0:0|0:0|0:3,0:0:0:0:
405,336,59323,6,0,L|309:336,1,83.9999974365235,10|0,0:0|0:0,0:0:0:0:
272,309,59585,2,0,P|238:296|188:316,1,83.9999974365235,10|0,0:0|0:0,0:0:0:0:
151,343,59846,1,10,0:0:0:0:
42,329,60021,6,0,P|18:286|38:230,1,83.9999974365235,10|0,0:0|0:0,0:0:0:0:
63,217,60282,2,0,L|62:103,1,83.9999974365235,10|0,0:0|0:0,0:0:0:0:
62,77,60544,1,10,0:0:0:0:
160,29,60719,6,0,L|164:135,1,83.9999974365235,10|0,0:0|0:0,0:0:0:0:
194,157,60980,2,0,L|198:263,1,83.9999974365235,10|0,0:0|0:0,0:0:0:0:
169,288,61242,1,10,0:0:0:0:
169,288,61416,6,0,L|287:275,1,112,2|0,0:3|0:0,0:0:0:0:
459,240,62114,6,0,P|415:226|368:246,1,70,6|0,0:0|0:0,0:0:0:0:
312,186,62463,2,0,L|312:99,1,70,8|0,0:0|0:0,0:0:0:0:
220,116,62812,2,0,L|220:186,1,70,2|0,0:0|0:0,0:0:0:0:
134,217,63160,2,0,P|90:203|43:223,1,70,8|0,0:0|0:0,0:0:0:0:
3,272,63509,5,2,0:0:0:0:
3,272,63684,1,0,0:0:0:0:
66,336,63858,2,0,L|142:332,1,70,8|0,0:0|0:0,0:0:0:0:
208,276,64207,2,0,P|253:272|311:321,1,105,2|0,0:0|0:0,0:0:0:0:
330,339,64556,2,0,L|447:328,1,105,8|0,0:0|0:0,0:0:0:0:
476,311,64905,6,0,L|485:229,1,70,2|0,0:0|0:0,0:0:0:0:
432,166,65253,2,0,L|423:84,1,70,8|0,0:0|0:0,0:0:0:0:
357,33,65602,2,0,P|314:27|280:45,1,70,2|0,0:0|0:0,0:0:0:0:
227,102,65951,2,0,P|221:145|239:179,1,70,8|0,0:0|0:0,0:0:0:0:
300,227,66300,5,2,0:0:0:0:
300,227,66474,1,0,0:0:0:0:
373,280,66649,2,0,L|378:357,1,70,8|0,0:0|0:0,0:0:0:0:
286,359,66998,2,0,P|233:355|157:348,1,105,2|0,0:0|0:0,0:0:0:0:
135,348,67346,2,0,P|100:339|68:266,1,105,8|0,0:0|0:0,0:0:0:0:
85,240,67695,6,0,L|80:153,1,70,6|0,0:0|0:0,0:0:0:0:
42,87,68044,2,0,L|129:80,1,70,8|0,0:0|0:0,0:0:0:0:
187,29,68393,2,0,L|274:36,1,70,2|0,0:0|0:0,0:0:0:0:
320,100,68742,2,0,L|407:93,1,70,8|0,0:0|0:0,0:0:0:0:
461,38,69091,5,2,0:0:0:0:
461,38,69265,1,0,0:0:0:0:
511,113,69439,2,0,P|513:154|495:187,1,70,8|0,0:0|0:0,0:0:0:0:
409,177,69788,2,0,L|425:307,1,105,2|0,0:0|0:0,0:0:0:0:
425,326,70137,2,0,P|382:309|324:338,1,105,8|0,0:0|0:0,0:0:0:0:
293,358,70486,6,0,P|247:368|206:355,1,70,2|0,0:0|0:0,0:0:0:0:
163,295,70835,2,0,P|117:285|76:298,1,70,8|0,0:0|0:0,0:0:0:0:
25,347,71184,2,0,L|13:268,1,70,2|0,0:0|0:0,0:0:0:0:
62,200,71532,2,0,L|74:121,1,70,8|0,0:0|0:0,0:0:0:0:
135,64,71881,5,2,0:0:0:0:
135,64,72056,1,0,0:0:0:0:
208,117,72230,1,8,0:0:0:0:
208,117,72405,1,0,0:0:0:0:
275,56,72579,1,2,0:0:0:0:
275,56,72666,1,8,0:0:0:0:
275,56,72753,2,0,L|273:8,2,35,8|8|2,0:0|0:0|0:0,0:0:0:0:
343,116,73102,1,4,0:3:0:0:
343,116,73189,1,8,0:3:0:0:
343,116,73277,6,0,P|364:157|318:236,1,140,6|8,0:0|0:0,0:0:0:0:
232,243,73800,1,0,0:0:0:0:
147,208,73974,2,0,L|142:58,1,140,2|8,0:0|0:0,0:0:0:0:
50,73,74498,6,0,L|54:212,1,140,0|0,0:0|0:0,0:0:0:0:
105,288,75021,1,8,0:0:0:0:
147,208,75195,2,0,P|185:188|274:232,1,140,0|0,0:0|0:0,0:0:0:0:
323,296,75719,2,0,P|360:303|408:281,1,70,8|0,0:0|0:0,0:0:0:0:
465,243,76067,6,0,B|485:175|428:176|465:83,1,140,2|8,0:0|0:0,0:0:0:0:
402,32,76591,1,0,0:0:0:0:
338,96,76765,2,0,P|304:113|214:69,1,140,2|8,0:0|0:0,0:0:0:0:
132,40,77288,6,0,L|145:209,1,140,0|0,0:0|0:0,0:0:0:0:
216,234,77812,1,8,0:0:0:0:
164,308,77986,2,0,L|89:299,1,70,0|2,0:0|0:0,0:0:0:0:
15,253,78335,2,0,L|-28:260,2,35,2|8|8,0:0|0:0|0:0,0:0:0:0:
74,183,78684,1,8,0:0:0:0:
74,183,78771,1,8,0:0:0:0:
74,183,78858,6,0,P|109:141|96:51,1,140,6|8,0:0|0:0,0:0:0:0:
21,103,79381,1,0,0:0:0:0:
102,59,79556,2,0,L|253:54,1,140,2|8,0:0|0:0,0:0:0:0:
306,118,80079,6,0,L|457:123,1,140,0|0,0:0|0:0,0:0:0:0:
500,195,80602,1,8,0:0:0:0:
457,275,80777,2,0,P|427:306|327:292,1,140,0|0,0:0|0:0,0:0:0:0:
262,246,81300,2,0,L|172:239,1,70,8|0,0:0|0:0,0:0:0:0:
133,310,81649,6,0,L|142:166,1,140,2|8,0:0|0:0,0:0:0:0:
74,108,82172,1,0,0:0:0:0:
145,52,82346,2,0,B|192:44|192:44|238:59|238:59|297:47,1,140,2|8,0:0|0:0,0:0:0:0:
370,30,82870,1,0,0:0:0:0:
439,87,83044,5,8,0:0:0:0:
439,87,83131,1,8,0:0:0:0:
439,87,83219,2,0,L|453:53,2,35,8|0|0,0:3|0:0|0:0,0:0:0:0:
403,155,83567,1,8,0:0:0:0:
507,146,83742,6,0,L|497:212,1,56
440,262,84091,2,0,L|450:328,1,56,0|0,0:0|0:0,0:0:0:0:
369,361,84439,6,0,P|340:317|238:321,1,140,6|8,0:0|0:0,0:0:0:0:
179,355,84963,1,2,0:3:0:0:
258,307,85137,2,0,L|268:163,1,140,2|8,0:0|0:0,0:0:0:0:
304,84,85660,6,0,B|240:56|240:120|136:80,1,140,2|2,0:3|0:3,0:0:0:0:
89,41,86184,1,8,0:0:0:0:
167,89,86358,2,0,P|175:147|118:207,1,140,2|2,0:3|0:3,0:0:0:0:
33,214,86881,2,0,L|36:308,1,70,8|2,0:0|0:3,0:0:0:0:
88,358,87230,6,0,B|137:336|137:336|218:343,1,105,2|0,0:0|0:0,0:0:0:0:
232,350,87579,2,0,L|235:270,1,70,8|2,0:0|0:3,0:0:0:0:
186,202,87928,2,0,L|302:190,1,105,2|0,0:0|0:0,0:0:0:0:
335,184,88277,2,0,B|340:148|340:148|325:99,1,70,8|2,0:0|0:3,0:0:0:0:
293,32,88625,6,0,L|395:30,1,70,2|2,0:0|0:3,0:0:0:0:
429,93,88974,2,0,L|531:91,1,70,8|2,0:0|0:3,0:0:0:0:
501,182,89323,2,0,L|431:183,1,70,2|2,0:0|0:3,0:0:0:0:
372,253,89672,2,0,L|302:254,1,70,8|2,0:0|0:3,0:0:0:0:
210,255,90021,6,0,P|176:246|149:199,1,70,2|0,0:0|0:0,0:0:0:0:
124,133,90370,2,0,L|130:60,1,70,8|2,0:0|0:3,0:0:0:0:
42,36,90719,2,0,L|22:189,1,140,2|8,0:0|0:0,0:0:0:0:
13,265,91242,6,0,P|59:250|134:308,1,140,2|2,0:3|0:3,0:0:0:0:
190,366,91765,1,8,0:0:0:0:
267,318,91939,2,0,B|317:312|317:312|356:334|356:334|411:325,1,140,2|2,0:3|0:3,0:0:0:0:
471,268,92463,2,0,L|457:179,1,70,8|2,0:0|0:3,0:0:0:0:
484,110,92812,6,0,P|450:143|379:134,1,105,2|0,0:0|0:0,0:0:0:0:
357,118,93160,2,0,L|344:47,1,70,8|2,0:0|0:3,0:0:0:0:
256,24,93509,2,0,L|246:148,1,105,2|0,0:0|0:0,0:0:0:0:
241,174,93858,2,0,P|201:161|151:176,1,70,8|2,0:0|0:3,0:0:0:0:
89,198,94207,6,0,P|76:238|91:288,1,70,2|2,0:0|0:3,0:0:0:0:
130,340,94556,2,0,P|170:353|220:338,1,70,8|2,0:0|0:3,0:0:0:0:
279,309,94905,1,2,0:0:0:0:
279,309,94992,1,8,0:0:0:0:
279,309,95079,2,0,L|274:247,2,35,8|8|2,0:0|0:0|0:0,0:0:0:0:
357,355,95428,2,0,L|433:329,1,70,8|2,0:0|0:3,0:0:0:0:
476,216,95951,6,0,P|440:231|374:210,1,97.9999970092774,0|0,0:0|0:0,0:0:0:0:
292,220,96823,2,0,P|338:233|384:218,1,97.9999970092774
384,120,97521,2,0,L|384:218,1,97.9999970092774
