osu file format v14

[General]
AudioFilename: audio.mp3
AudioLeadIn: 0
PreviewTime: 127767
Countdown: 0
SampleSet: Normal
StackLeniency: 0.7
Mode: 0
LetterboxInBreaks: 1
WidescreenStoryboard: 0

[Editor]
DistanceSpacing: 0.8
BeatDivisor: 4
GridSize: 4
TimelineZoom: 1.3

[Metadata]
Title:Cream Soda
TitleUnicode:クリームソーダ
Artist:SILENT SIREN
ArtistUnicode:SILENT SIREN
Creator:october
Version:Sweet
Source:Go Way!
Tags:
BeatmapID:1882608
BeatmapSetID:901643

[Difficulty]
HPDrainRate:7
CircleSize:4
OverallDifficulty:8.7
ApproachRate:9.5
SliderMultiplier:2
SliderTickRate:1

[Events]
//Background and Video events
0,0,"bg.jpg",0,0
//Break Periods
//Storyboard Layer 0 (Background)
//Storyboard Layer 1 (Fail)
//Storyboard Layer 2 (Pass)
//Storyboard Layer 3 (Foreground)
//Storyboard Sound Samples

[TimingPoints]
67,320.855614973262,4,1,1,75,1,0
708,-1000,4,1,1,75,0,0
1992,-500,4,1,1,75,0,0
2633,-250,4,1,1,75,0,0
3275,-500,4,1,1,75,0,0
5200,-100,4,1,1,75,0,0
24933,-200,4,1,1,75,0,0
25414,-100,4,1,1,75,0,0
33435,-133.333333333333,4,1,1,75,0,0
33756,-100,4,1,1,75,0,0
36002,-133.333333333333,4,1,1,75,0,0
36243,-100,4,1,1,75,0,0
38569,-133.333333333333,4,1,1,75,0,0
38890,-100,4,1,1,75,0,0
39211,-200,4,1,1,75,0,0
39692,-133.333333333333,4,1,1,75,0,0
40173,-200,4,1,1,75,0,0
40815,-100,4,1,1,75,0,0
41136,-133.333333333333,4,1,1,75,0,0
43382,-181.818181818181,4,1,1,75,0,0
43703,-133.333333333333,4,1,1,75,0,0
44665,-250,4,1,1,75,0,0
45307,-133.333333333333,4,1,1,75,0,0
46591,-100,4,1,1,75,0,0
48516,-133.333333333333,4,1,1,75,0,0
48997,-100,4,1,1,75,0,0
50120,-133.333333333333,4,1,1,75,0,0
50441,-100,4,1,1,75,0,0
63596,-166.666666666667,4,1,1,75,0,0
63917,-133.333333333333,4,1,1,75,0,0
65361,-200,4,1,1,75,0,0
65842,-100,4,1,1,75,0,0
66804,-71.4285714285714,4,1,1,75,0,1
70334,-100,4,1,1,75,0,1
70655,-66.6666666666667,4,1,1,75,0,1
79639,-100,4,1,1,75,0,1
80601,-71.4285714285714,4,1,1,75,0,1
83489,-58.8235294117647,4,1,1,75,0,1
83810,-76.9230769230769,4,1,1,75,0,1
84772,-222.222222222221,4,1,1,75,0,0
85254,-666.666666666658,4,1,1,75,0,0
85735,-188.679245283019,4,1,1,75,0,0
86377,-117.647058823529,4,1,1,75,0,0

[Colours]
Combo1 : 255,242,253
Combo2 : 255,170,247
Combo3 : 255,43,48

[HitObjects]
187,162,708,6,0,B|243:154|243:154|256:158,1,70
321,236,1992,2,0,L|248:257,1,70
253,255,2633,2,0,B|178:237|178:237|106:249,1,140
256,192,3275,12,0,4558,0:0:0:0:
251,165,5200,6,0,B|223:155|223:155|141:160,1,100,8|0,0:2|0:2,0:2:0:0:
273,280,5521,1,8,0:2:0:0:
261,82,5681,1,0,0:2:0:0:
103,233,5842,2,0,B|133:242|133:242|226:230,1,100,8|0,0:2|0:2,0:2:0:0:
374,179,6163,5,8,0:2:0:0:
156,108,6323,1,0,0:2:0:0:
374,196,6484,5,8,0:2:0:0:
230,259,6644,1,0,0:2:0:0:
320,99,6804,2,0,P|396:88|452:117,1,100,8|0,0:2|0:2,0:2:0:0:
470,256,7125,2,0,P|414:250|375:217,1,100,8|0,0:2|0:2,0:2:0:0:
310,13,7446,2,0,P|248:53|241:137,1,150,8|0,0:2|0:2,0:2:0:0:
251,213,7767,6,0,P|315:168|319:110,1,100,8|0,0:2|0:2,0:2:0:0:
135,73,8088,1,8,0:2:0:0:
187,273,8248,1,0,0:2:0:0:
125,175,8409,2,0,B|102:186|102:186|41:258,1,100,8|0,0:2|0:2,0:2:0:0:
96,345,8730,5,8,0:2:0:0:
21,135,8890,1,0,0:2:0:0:
44,260,9050,1,8,0:2:0:0:
141,89,9211,1,0,0:2:0:0:
264,253,9371,2,0,B|242:266|242:266|181:275|181:275|156:285,1,100,8|0,0:2|0:2,0:2:0:0:
184,174,9692,2,0,B|195:169|195:169|256:160|256:160|278:147,1,100,8|0,0:2|0:2,0:2:0:0:
386,283,10013,5,0,0:2:0:0:
360,255,10093,1,0,0:2:0:0:
326,240,10173,1,0,0:2:0:0:
289,240,10253,1,0,0:2:0:0:
255,255,10334,2,0,B|233:278|184:298|128:267|128:267|94:292,1,150,4|0,0:2|0:2,0:2:0:0:
71,343,10655,6,0,P|37:249|118:191,1,200,0|0,0:2|0:2,0:2:0:0:
221,176,11136,5,0,0:2:0:0:
221,176,11296,2,0,P|188:134|203:61,2,100,0|0|0,0:2|0:2|0:2,0:2:0:0:
354,249,11778,1,0,0:2:0:0:
368,108,11938,2,0,P|311:98|264:111,1,100,0|0,0:2|0:2,0:2:0:0:
134,172,12259,5,0,0:2:0:0:
202,252,12419,1,0,0:2:0:0:
277,188,12580,2,0,P|336:211|360:271,1,100,0|0,0:2|0:2,0:2:0:0:
172,350,12901,6,0,P|100:293|123:166,1,200,0|0,0:2|0:2,0:2:0:0:
191,248,13382,5,0,0:2:0:0:
191,248,13462,1,0,0:2:0:0:
191,248,13542,2,0,P|276:247|324:219,1,100,0|0,0:2|0:2,0:2:0:0:
245,124,13863,5,0,0:2:0:0:
228,107,14024,2,0,B|201:102|201:102|120:131,1,100,0|0,0:2|0:2,0:2:0:0:
40,220,14345,1,0,0:2:0:0:
48,235,14505,2,0,B|75:260|75:260|132:240|195:263,1,150,0|0,0:2|0:2,0:2:0:0:
199,348,14826,6,0,P|265:299|268:246,1,100,0|0,0:2|0:2,0:2:0:0:
192,92,15147,1,0,0:2:0:0:
205,190,15307,1,0,0:2:0:0:
205,190,15387,1,0,0:2:0:0:
205,190,15468,2,0,B|234:196|234:196|286:182|327:219,1,100,8|0,0:2|0:2,0:2:0:0:
390,296,15788,2,0,L|270:328,1,100,0|0,0:2|0:2,0:2:0:0:
302,123,16109,2,0,L|398:148,1,100,0|0,0:2|0:2,0:2:0:0:
214,210,16430,5,8,0:2:0:0:
171,37,16591,1,0,0:2:0:0:
207,182,16751,1,8,0:2:0:0:
312,87,16911,1,0,0:2:0:0:
72,132,17072,1,0,0:2:0:0:
308,182,17232,1,0,0:2:0:0:
55,165,17393,2,0,B|39:195|39:195|35:272,1,100,0|0,0:2|0:2,0:2:0:0:
204,234,17714,2,0,B|220:204|220:204|224:127,1,100,0|0,0:2|0:2,0:2:0:0:
122,295,18034,5,0,0:2:0:0:
343,252,18195,1,0,0:2:0:0:
153,126,18355,1,0,0:2:0:0:
243,320,18516,1,0,0:2:0:0:
267,103,18676,2,0,L|163:124,1,100,0|0,0:2|0:2,0:2:0:0:
106,243,18997,6,0,L|235:223,1,100,0|0,0:2|0:2,0:2:0:0:
339,197,19318,1,0,0:2:0:0:
226,119,19478,1,0,0:2:0:0:
272,298,19639,1,0,0:2:0:0:
330,78,19799,1,0,0:2:0:0:
119,136,19960,2,0,B|119:176|119:176|158:233,1,100,0|0,0:2|0:2,0:2:0:0:
302,295,20280,5,0,0:2:0:0:
336,281,20360,1,0,0:2:0:0:
373,276,20440,1,0,0:2:0:0:
410,281,20520,1,0,0:2:0:0:
445,295,20601,2,0,P|493:249|477:154,1,150,0|0,0:2|0:2,0:2:0:0:
477,154,20922,5,0,0:2:0:0:
364,167,21083,1,0,0:2:0:0:
306,61,21243,2,0,P|237:76|196:62,1,100,0|0,0:2|0:2,0:2:0:0:
100,150,21564,6,0,P|171:149|221:178,2,100,0|0|0,0:2|0:2|0:2,0:2:0:0:
46,255,22045,1,0,0:2:0:0:
195,252,22206,2,0,P|262:233|291:188,1,100,0|0,0:2|0:2,0:2:0:0:
272,49,22526,5,0,0:2:0:0:
191,136,22687,1,0,0:2:0:0:
370,107,22847,2,0,B|400:118|400:118|465:170,1,100,0|0,0:2|0:2,0:2:0:0:
431,254,23168,6,0,B|365:201|365:201|313:196,1,100,0|0,0:2|0:2,0:2:0:0:
247,129,23489,2,0,P|224:175|233:241,1,100,0|0,0:2|0:2,0:2:0:0:
319,338,23810,5,0,0:2:0:0:
332,207,23970,1,0,0:2:0:0:
187,327,24131,1,0,0:2:0:0:
187,327,24291,2,0,B|154:331|154:331|108:313|108:313|69:316,1,100,0|0,0:2|0:2,0:2:0:0:
183,163,24612,2,0,B|216:159|216:159|262:177|262:177|301:174,1,100,0|0,0:2|0:2,0:2:0:0:
372,262,24933,2,0,B|354:260|354:260|308:278|308:278|275:274,1,100,0|0,0:2|0:2,0:2:0:0:
349,111,25414,5,0,0:2:0:0:
385,105,25494,1,0,0:2:0:0:
422,111,25574,1,0,0:2:0:0:
455,129,25654,1,0,0:2:0:0:
479,157,25735,2,0,B|510:205|510:205|466:234|443:337|396:239|356:282,1,200,0|0,0:2|0:2,0:2:0:0:
293,178,26216,5,0,0:2:0:0:
202,264,26377,2,0,L|317:268,1,100,0|0,0:2|0:2,0:2:0:0:
465,274,26698,5,0,0:2:0:0:
388,116,26858,1,0,0:2:0:0:
383,212,27018,2,0,L|481:166,1,100,0|0,0:2|0:2,0:2:0:0:
364,37,27339,2,0,L|266:83,1,100,0|0,0:2|0:2,0:2:0:0:
161,92,27660,2,0,P|172:139|222:178,1,100,0|0,0:2|0:2,0:2:0:0:
306,167,27981,1,0,0:2:0:0:
306,167,28302,6,0,P|329:261|285:185,1,200,0|0,0:2|0:2,0:2:0:0:
213,122,28783,1,0,0:2:0:0:
213,122,28944,2,0,P|174:153|218:169,1,100,0|0,0:2|0:2,0:2:0:0:
307,86,29264,5,0,0:2:0:0:
405,122,29425,2,0,P|402:172|461:230,1,100,0|0,0:2|0:2,0:2:0:0:
323,287,29746,1,0,0:2:0:0:
286,178,29906,2,0,L|205:240,1,100,0|0,0:2|0:2,0:2:0:0:
107,313,30227,5,0,0:2:0:0:
124,174,30387,1,0,0:2:0:0:
224,330,30548,2,0,P|285:338|338:313,1,100,0|0,0:2|0:2,0:2:0:0:
419,293,30869,2,0,P|347:226|254:245,1,200,0|0,0:2|0:2,0:2:0:0:
112,256,31350,5,0,0:2:0:0:
189,168,31510,2,0,L|268:257,1,100,0|0,0:2|0:2,0:2:0:0:
365,79,31831,2,0,L|286:168,1,100,0|0,0:2|0:2,0:2:0:0:
126,92,32152,6,0,P|176:71|255:90,1,100,0|0,0:2|0:2,0:2:0:0:
299,230,32473,2,0,P|249:251|170:232,1,100,0|0,0:2|0:2,0:2:0:0:
241,151,32794,5,0,0:2:0:0:
384,203,32954,1,0,0:2:0:0:
384,203,33034,1,0,0:2:0:0:
384,203,33115,2,0,P|386:264|303:319,1,150,0|0,0:2|0:2,0:2:0:0:
322,317,33435,2,0,P|238:296|151:317,1,150,0|0,0:2|0:2,0:2:0:0:
74,202,33917,5,0,0:2:0:0:
74,202,34077,2,0,P|150:199|187:227,1,100,0|0,0:2|0:2,0:2:0:0:
286,308,34398,5,0,0:2:0:0:
172,323,34558,1,0,0:2:0:0:
172,323,34639,1,0,0:2:0:0:
172,323,34719,1,0,0:2:0:0:
286,187,34879,1,0,0:2:0:0:
404,291,35040,2,0,P|353:309|286:307,1,100,0|0,0:2|0:2,0:2:0:0:
406,125,35361,5,0,0:2:0:0:
374,207,35521,1,0,0:2:0:0:
287,74,35681,1,0,0:2:0:0:
250,66,35761,1,0,0:2:0:0:
213,69,35841,1,0,0:2:0:0:
178,82,35921,1,0,0:2:0:0:
147,104,36002,2,0,P|107:157|121:257,1,150.000005722046,0|0,0:2|0:2,0:2:0:0:
275,252,36484,5,0,0:2:0:0:
275,252,36644,2,0,P|233:203|194:189,1,100,0|0,0:2|0:2,0:2:0:0:
213,325,36965,2,0,P|293:349|342:332,1,100,0|0,0:2|0:2,0:2:0:0:
405,214,37286,2,0,L|471:298,1,100,0|0,0:2|0:2,0:2:0:0:
256,203,37607,2,0,L|329:121,1,100,0|0,0:2|0:2,0:2:0:0:
317,294,37927,2,0,P|262:311|198:299,1,100,0|0,0:2|0:2,0:2:0:0:
170,136,38248,1,0,0:2:0:0:
170,136,38569,6,0,P|231:101|316:114,1,150.000005722046,0|0,0:2|0:2,0:2:0:0:
383,187,39050,1,0,0:2:0:0:
268,218,39211,2,0,P|300:228|380:201,1,100,0|0,0:2|0:2,0:2:0:0:
311,112,39692,2,0,P|246:106|176:149,1,150.000005722046,0|0,0:2|0:2,0:2:0:0:
85,179,40173,2,0,P|116:223|176:242,1,100,0|0,0:2|0:2,0:2:0:0:
258,214,40655,5,0,0:2:0:0:
231,118,40815,2,0,B|185:115|185:115|104:78,1,100,0|0,0:2|0:2,0:2:0:0:
334,42,41136,2,0,P|379:105|352:176,1,150,0|0,0:2|0:2,0:2:0:0:
253,255,41617,5,0,0:2:0:0:
208,120,41778,2,0,L|301:114,1,75.0000028610231
450,202,42099,1,0,0:0:0:0:
338,201,42259,1,0,0:0:0:0:
437,87,42419,5,0,0:0:0:0:
351,180,42580,1,0,0:0:0:0:
304,68,42740,2,0,L|200:99,1,75.0000028610231
138,159,43061,2,0,L|220:188,1,75.0000028610231
323,194,43382,2,0,L|298:257,1,55.0000016784668
350,319,43703,6,0,P|267:324|217:264,1,150.000005722046
238,154,44184,1,0,0:0:0:0:
259,137,44345,2,0,P|303:129|347:146,1,75.0000028610231
377,235,44665,2,0,P|333:243|286:225,1,80
344,70,45147,5,0,0:0:0:0:
341,153,45307,2,0,P|291:140|215:156,1,112.500004291535
205,162,45628,2,0,L|161:193,2,37.5000014305115
273,71,45949,1,0,0:0:0:0:
247,59,46029,1,0,0:0:0:0:
219,53,46109,1,0,0:0:0:0:
191,54,46189,1,0,0:0:0:0:
164,60,46270,2,0,B|129:89|129:89|81:99,1,75.0000028610231
216,199,46591,6,0,P|269:186|309:154,1,100
106,123,46911,1,0,0:0:0:0:
162,300,47072,5,0,0:0:0:0:
213,201,47232,1,0,0:0:0:0:
51,227,47393,2,0,P|26:273|21:331,1,100
162,284,47714,5,0,0:0:0:0:
136,131,47874,2,0,P|85:109|8:122,1,100
66,222,48195,1,0,0:0:0:0:
241,179,48355,1,0,0:0:0:0:
241,179,48435,1,0,0:0:0:0:
241,179,48516,2,0,P|287:179|330:156,2,75.0000028610231
79,115,48997,5,0,0:0:0:0:
169,276,49157,2,0,P|226:276|276:309,1,100
269,154,49478,2,0,P|221:179|163:178,1,100
51,229,49799,5,0,0:0:0:0:
222,231,49960,1,0,0:0:0:0:
55,206,50120,2,0,L|75:113,1,75.0000028610231
157,160,50441,6,0,B|205:139|205:139|269:132,1,100
412,200,50762,1,0,0:0:0:0:
264,145,50922,1,0,0:0:0:0:
417,244,51083,1,0,0:0:0:0:
226,176,51243,1,0,0:0:0:0:
226,176,51323,1,0,0:0:0:0:
226,176,51403,2,0,P|192:213|129:246,1,100
265,274,51724,6,0,P|299:232|346:215,1,100
449,136,52045,1,0,0:0:0:0:
318,72,52206,1,0,0:0:0:0:
411,147,52366,5,0,0:0:0:0:
309,221,52526,1,0,0:0:0:0:
309,221,52607,1,0,0:0:0:0:
309,221,52687,2,0,P|249:193|216:149,1,100
194,45,53008,6,0,P|170:81|112:103,1,100
10,183,53329,1,0,0:0:0:0:
141,247,53490,1,0,0:0:0:0:
48,172,53650,5,0,0:0:0:0:
150,98,53810,1,0,0:0:0:0:
150,98,53891,1,0,0:0:0:0:
150,98,53971,2,0,B|195:117|195:117|250:167,1,100
336,295,54291,6,0,P|281:299|227:267,1,100
357,151,54612,2,0,P|411:159|458:202,1,100
441,315,54933,1,0,0:0:0:0:
340,226,55093,1,0,0:0:0:0:
340,226,55173,1,0,0:0:0:0:
340,226,55254,1,0,0:0:0:0:
440,81,55414,1,0,0:0:0:0:
456,190,55575,6,0,B|405:172|405:172|358:138,1,100
220,34,55895,2,0,P|273:34|334:57,1,100
272,186,56216,1,0,0:0:0:0:
236,197,56296,1,0,0:0:0:0:
198,199,56376,1,0,0:0:0:0:
162,191,56456,1,0,0:0:0:0:
128,175,56537,2,0,P|81:139|63:73,1,100
171,87,56858,6,0,B|222:92|222:92|276:59,1,100
339,182,57179,2,0,B|288:177|288:177|246:202,1,100
137,318,57500,1,0,0:0:0:0:
287,313,57660,1,0,0:0:0:0:
287,313,57740,1,0,0:0:0:0:
287,313,57821,2,0,B|317:299|317:299|402:294,1,100
385,199,58141,6,0,L|265:205,1,100
135,168,58462,2,0,B|184:138|184:138|257:117,1,100
334,84,58783,1,0,0:0:0:0:
195,32,58944,1,0,0:0:0:0:
195,32,59024,1,0,0:0:0:0:
195,32,59104,2,0,L|102:70,1,100
195,239,59425,6,0,B|195:146|195:146|180:126,1,100
89,171,59746,2,0,B|88:263|88:263|104:284,1,100
177,347,60066,1,0,0:0:0:0:
280,309,60227,1,0,0:0:0:0:
280,309,60307,1,0,0:0:0:0:
280,309,60387,2,0,B|281:238|281:238|273:207,1,100
285,103,60708,6,0,P|231:112|180:154,1,100
290,213,61029,2,0,P|339:205|380:179,1,100
373,23,61350,1,0,0:0:0:0:
282,106,61510,1,0,0:0:0:0:
282,106,61591,1,0,0:0:0:0:
282,106,61671,2,0,P|226:91|173:48,1,100
195,180,61992,6,0,P|247:195|283:226,1,100
444,127,62312,2,0,L|355:173,1,100
281,224,62633,1,0,0:0:0:0:
288,52,62794,1,0,0:0:0:0:
288,52,62874,1,0,0:0:0:0:
288,52,62954,2,0,B|346:56|346:56|408:26,1,100
462,150,63275,6,0,P|387:168|304:146,1,150
317,152,63596,2,0,P|288:177|246:182,1,59.9999981689454
184,127,63917,6,0,P|171:217|200:258,1,112.500004291535
205,261,64238,1,0,0:0:0:0:
372,199,64398,5,0,0:0:0:0:
226,252,64558,1,0,0:0:0:0:
323,87,64719,5,0,0:0:0:0:
317,291,64879,1,0,0:0:0:0:
472,191,65040,1,0,0:0:0:0:
472,191,65120,1,0,0:0:0:0:
472,191,65200,1,0,0:0:0:0:
283,186,65361,2,0,B|231:196|231:196|172:186,1,100
74,54,65842,5,8,0:2:0:0:
230,107,66002,1,8,0:2:0:0:
100,219,66163,1,4,0:2:0:0:
150,129,66804,6,0,P|236:106|302:136,1,139.999995727539
352,271,67125,2,0,P|266:294|200:264,1,139.999995727539
358,49,67446,6,0,P|392:119|360:201,1,139.999995727539
142,330,67767,2,0,P|139:234|208:190,1,139.999995727539
200,98,68088,2,0,P|289:148|216:285,1,279.999991455078
93,184,68569,5,0,0:0:0:0:
218,189,68730,2,0,P|306:205|361:180,1,139.999995727539
288,90,69050,2,0,P|200:74|145:99,1,139.999995727539
218,262,69371,6,0,P|306:278|361:253,1,139.999995727539
420,82,69692,2,0,P|352:66|287:89,1,139.999995727539
145,214,70013,1,0,0:0:0:0:
367,186,70173,1,0,0:0:0:0:
173,36,70334,2,0,P|97:112|161:214,1,200
247,271,70815,1,0,0:0:0:0:
278,96,70976,5,0,0:0:0:0:
278,96,71056,1,0,0:0:0:0:
278,96,71136,1,0,0:0:0:0:
133,301,71296,1,0,0:0:0:0:
377,223,71457,1,0,0:0:0:0:
127,142,71617,1,0,0:0:0:0:
293,335,71778,1,0,0:0:0:0:
247,197,71938,6,0,B|161:218|161:218|76:220,1,150.000005722046
214,90,72259,1,0,0:0:0:0:
215,313,72419,1,0,0:0:0:0:
107,107,72580,5,0,0:0:0:0:
298,272,72740,1,0,0:0:0:0:
336,112,72901,2,0,B|217:89|217:89|161:98,1,150.000005722046
103,203,73222,6,0,P|178:221|246:178,1,150.000005722046
156,91,73542,2,0,P|69:98|7:151,1,150.000005722046
122,332,73863,1,0,0:0:0:0:
230,182,74024,1,0,0:0:0:0:
43,205,74184,6,0,B|126:218|126:218|189:261,1,150.000005722046
253,375,74505,2,0,P|321:311|323:238,1,150.000005722046
231,47,74826,2,0,P|187:116|201:207,1,150.000005722046
431,169,75147,5,0,0:0:0:0:
326,107,75307,1,0,0:0:0:0:
317,229,75468,1,0,0:0:0:0:
317,229,75548,1,0,0:0:0:0:
317,229,75628,1,0,0:0:0:0:
407,52,75788,6,0,P|320:19|238:50,1,150.000005722046
180,119,76109,2,0,P|259:151|350:122,1,150.000005722046
101,33,76430,5,0,0:0:0:0:
151,232,76591,1,0,0:0:0:0:
297,167,76751,1,0,0:0:0:0:
257,136,76831,1,0,0:0:0:0:
210,122,76911,1,0,0:0:0:0:
160,127,76991,1,0,0:0:0:0:
115,139,77072,2,0,P|64:178|71:277,1,150.000005722046
245,242,77393,1,0,0:0:0:0:
159,339,77553,5,0,0:0:0:0:
358,271,77714,1,0,0:0:0:0:
190,320,77874,1,0,0:0:0:0:
283,113,78034,1,0,0:0:0:0:
167,197,78195,2,0,B|242:208|242:208|321:193,1,150.000005722046
225,61,78516,5,0,0:0:0:0:
225,305,78676,1,0,0:0:0:0:
194,88,78837,5,0,0:0:0:0:
310,268,78997,2,0,P|403:296|473:254,1,150.000005722046
381,118,79318,1,0,0:0:0:0:
385,205,79478,5,0,0:0:0:0:
385,205,79558,1,0,0:0:0:0:
385,205,79639,2,0,P|440:191|491:203,1,100
263,114,79960,1,0,0:0:0:0:
245,245,80120,5,0,0:0:0:0:
381,97,80280,1,0,0:0:0:0:
277,216,80441,5,0,0:0:0:0:
416,226,80601,1,0,0:0:0:0:
249,60,80762,2,0,P|160:62|108:117,1,139.999995727539
127,288,81083,1,0,0:0:0:0:
277,199,81243,6,0,L|138:139,1,139.999995727539
246,324,81564,2,0,L|406:274,1,139.999995727539
381,120,81885,6,0,P|288:150|182:103,1,209.999993591309
188,109,82206,6,0,P|167:191|226:262,1,139.999995727539
348,298,82526,1,0,0:0:0:0:
261,169,82687,1,0,0:0:0:0:
111,273,82847,2,0,P|186:323|250:307,1,139.999995727539
344,130,83168,2,0,P|269:80|205:96,1,139.999995727539
110,155,83489,6,0,P|185:205|276:176,1,170.000003242493
449,158,83810,2,0,P|421:214|466:301,1,129.999994049073
309,358,84131,2,0,P|337:302|292:215,1,129.999994049073
200,111,84452,5,0,0:0:0:0:
252,188,84612,1,0,0:0:0:0:
335,155,84772,2,0,P|384:139|432:155,1,89.9999972534181
384,228,85254,6,0,L|384:258,1,29.9999990844727
439,327,85735,6,0,P|390:345|299:273,1,159.000000242615
407,163,86377,6,0,L|323:119,1,85.0000016212464
331,211,86698,2,0,L|237:223,2,85.0000016212464
