osu file format v14

[General]
AudioFilename: audio.ogg
AudioLeadIn: 0
PreviewTime: 15847
Countdown: 0
SampleSet: Soft
StackLeniency: 0.7
Mode: 3
LetterboxInBreaks: 0
SpecialStyle: 0
WidescreenStoryboard: 0

[Editor]
Bookmarks: 5742,15847,33531,46163,56268,66373,76478,94163,106794,127005,137110,154794,164899,185110,195215,228057,233110,245742
DistanceSpacing: 1
BeatDivisor: 8
GridSize: 16
TimelineZoom: 1.950003

[Metadata]
Title:Cherry Bomb
TitleUnicode:チェリボム
Artist:Silent Siren
ArtistUnicode:Silent Siren
Creator:PP_Aika
Version:Insane
Source:
Tags:サイレント・サイレン サイレントサイレン あいにゃん すぅ ゆかるん ひなんちゅ aina yamauchi yukako kurosaka hinako umemura sumire yoshida japanese pop j pop j-pop jrock j-rock rock
BeatmapID:1207033
BeatmapSetID:569405

[Difficulty]
HPDrainRate:8
CircleSize:7
OverallDifficulty:7.5
ApproachRate:5
SliderMultiplier:1.4
SliderTickRate:1

[Events]
//Background and Video events
0,0,"BG.jpg",0,0
//Break Periods
//Storyboard Layer 0 (Background)
//Storyboard Layer 1 (Fail)
//Storyboard Layer 2 (Pass)
//Storyboard Layer 3 (Foreground)
//Storyboard Layer 4 (Overlay)
//Storyboard Sound Samples

[TimingPoints]
5742,315.789473684211,4,2,0,40,1,0
15847,-100,4,2,0,40,0,1
25636,-66.6666666666667,4,2,0,40,0,1
25656,-133.333333333333,4,2,0,40,0,1
25893,-66.6666666666667,4,2,0,40,0,1
25952,-100,4,2,0,40,0,1
32268,-57.1428571428571,4,2,0,40,0,0
32347,-400,4,2,0,40,0,0
32426,-100,4,2,0,40,0,0
32584,-57.1428571428571,4,2,0,40,0,0
32663,-400,4,2,0,40,0,0
32742,-100,4,2,0,40,0,0
33531,-100,4,2,0,30,0,0
43636,-100,4,2,0,40,0,0
71268,-66.6666666666667,4,2,0,40,0,0
71347,-114.942528735632,4,2,0,40,0,0
71584,-66.6666666666667,4,2,0,40,0,0
71663,-200,4,2,0,40,0,0
71742,-66.6666666666667,4,2,0,40,0,0
71820,-120.481927710843,4,2,0,40,0,0
72057,-66.6666666666667,4,2,0,40,0,0
72136,-200,4,2,0,40,0,0
72215,-66.6666666666667,4,2,0,40,0,0
72294,-200,4,2,0,40,0,0
72373,-66.6666666666667,4,2,0,40,0,0
72452,-200,4,2,0,40,0,0
72531,-66.6666666666667,4,2,0,40,0,0
72610,-200,4,2,0,40,0,0
72689,-66.6666666666667,4,2,0,40,0,0
72768,-120.481927710843,4,2,0,40,0,0
73005,-66.6666666666667,4,2,0,40,0,0
73084,-200,4,2,0,40,0,0
73163,-66.6666666666667,4,2,0,40,0,0
73242,-200,4,2,0,40,0,0
73320,-66.6666666666667,4,2,0,40,0,0
73399,-200,4,2,0,40,0,0
73478,-66.6666666666667,4,2,0,40,0,0
73557,-200,4,2,0,40,0,0
73636,-66.6666666666667,4,2,0,40,0,0
73715,-200,4,2,0,40,0,0
73794,-50,4,2,0,40,0,0
73873,-125,4,2,0,40,0,0
74268,-66.6666666666667,4,2,0,40,0,0
74347,-200,4,2,0,40,0,0
74426,-66.6666666666667,4,2,0,40,0,0
74505,-200,4,2,0,40,0,0
74584,-66.6666666666667,4,2,0,40,0,0
74663,-200,4,2,0,40,0,0
74742,-66.6666666666667,4,2,0,40,0,0
74820,-200,4,2,0,40,0,0
74899,-66.6666666666667,4,2,0,40,0,0
74978,-200,4,2,0,40,0,0
75057,-57.1428571428571,4,2,0,40,0,0
75136,-133.333333333333,4,2,0,40,0,0
75373,-57.1428571428571,4,2,0,40,0,0
75452,-133.333333333333,4,2,0,40,0,0
75689,-57.1428571428571,4,2,0,40,0,0
75768,-400,4,2,0,40,0,0
75847,-100,4,2,0,40,0,0
76163,-66.6666666666667,4,2,0,40,0,0
76182,-133.333333333333,4,2,0,40,0,0
76419,-66.6666666666667,4,2,0,40,0,0
76478,-100,4,2,0,40,0,1
86268,-66.6666666666667,4,2,0,40,0,1
86288,-133.333333333333,4,2,0,40,0,1
86505,-66.6666666666667,4,2,0,40,0,1
86584,-100,4,2,0,40,0,1
92899,-57.1428571428571,4,2,0,40,0,0
92978,-400,4,2,0,40,0,0
93057,-100,4,2,0,40,0,0
93215,-57.1428571428571,4,2,0,40,0,0
93294,-400,4,2,0,40,0,0
93373,-100,4,2,0,40,0,0
94163,-100,4,2,0,30,0,0
104268,-100,4,2,0,40,0,0
116899,-100,4,2,0,30,0,0
121952,-100,4,2,0,20,0,0
124478,-100,4,2,0,40,0,0
131899,-66.6666666666667,4,2,0,40,0,0
131978,-114.942528735632,4,2,0,40,0,0
132215,-66.6666666666667,4,2,0,40,0,0
132294,-200,4,2,0,40,0,0
132373,-66.6666666666667,4,2,0,40,0,0
132452,-120.481927710843,4,2,0,40,0,0
132689,-66.6666666666667,4,2,0,40,0,0
132768,-200,4,2,0,40,0,0
132847,-66.6666666666667,4,2,0,40,0,0
132926,-200,4,2,0,40,0,0
133005,-66.6666666666667,4,2,0,40,0,0
133084,-200,4,2,0,40,0,0
133163,-66.6666666666667,4,2,0,40,0,0
133242,-200,4,2,0,40,0,0
133320,-66.6666666666667,4,2,0,40,0,0
133399,-120.481927710843,4,2,0,40,0,0
133636,-66.6666666666667,4,2,0,40,0,0
133715,-200,4,2,0,40,0,0
133794,-66.6666666666667,4,2,0,40,0,0
133873,-200,4,2,0,40,0,0
133952,-66.6666666666667,4,2,0,40,0,0
134031,-200,4,2,0,40,0,0
134110,-66.6666666666667,4,2,0,40,0,0
134189,-200,4,2,0,40,0,0
134268,-66.6666666666667,4,2,0,40,0,0
134347,-200,4,2,0,40,0,0
134426,-50,4,2,0,40,0,0
134505,-125,4,2,0,40,0,0
134899,-66.6666666666667,4,2,0,40,0,0
134978,-200,4,2,0,40,0,0
135057,-66.6666666666667,4,2,0,40,0,0
135136,-200,4,2,0,40,0,0
135215,-66.6666666666667,4,2,0,40,0,0
135294,-200,4,2,0,40,0,0
135373,-66.6666666666667,4,2,0,40,0,0
135452,-200,4,2,0,40,0,0
135531,-66.6666666666667,4,2,0,40,0,0
135610,-200,4,2,0,40,0,0
135689,-57.1428571428571,4,2,0,40,0,0
135768,-133.333333333333,4,2,0,40,0,0
136005,-57.1428571428571,4,2,0,40,0,0
136084,-133.333333333333,4,2,0,40,0,0
136320,-57.1428571428571,4,2,0,40,0,0
136399,-400,4,2,0,40,0,0
136478,-100,4,2,0,40,0,0
136794,-66.6666666666667,4,2,0,40,0,0
136814,-133.333333333333,4,2,0,40,0,0
137051,-66.6666666666667,4,2,0,40,0,0
137110,-100,4,2,0,40,0,1
146899,-66.6666666666667,4,2,0,40,0,1
146919,-133.333333333333,4,2,0,40,0,1
147136,-66.6666666666667,4,2,0,40,0,1
147215,-100,4,2,0,40,0,1
153531,-57.1428571428571,4,2,0,40,0,0
153610,-400,4,2,0,40,0,0
153689,-100,4,2,0,40,0,0
153847,-57.1428571428571,4,2,0,40,0,0
153926,-400,4,2,0,40,0,0
154005,-100,4,2,0,40,0,0
154794,-100,4,2,0,30,0,0
164899,-100,4,2,0,40,0,0
180057,-83.3333333333333,4,2,0,40,0,0
180215,-90.9090909090909,4,2,0,40,0,0
180373,-100,4,2,0,40,0,0
180689,-83.3333333333333,4,2,0,40,0,0
180847,-90.9090909090909,4,2,0,40,0,0
181005,-100,4,2,0,40,0,0
181320,-83.3333333333333,4,2,0,40,0,0
181478,-90.9090909090909,4,2,0,40,0,0
181636,-100,4,2,0,40,0,0
181952,-83.3333333333333,4,2,0,40,0,0
182110,-90.9090909090909,4,2,0,40,0,0
182268,-100,4,2,0,40,0,0
192689,-57.1428571428571,4,2,0,40,0,0
192768,-400,4,2,0,40,0,0
192847,-100,4,2,0,40,0,0
193163,-57.1428571428571,4,2,0,40,0,0
193242,-400,4,2,0,40,0,0
193320,-100,4,2,0,40,0,0
193636,-57.1428571428571,4,2,0,40,0,0
193715,-400,4,2,0,40,0,0
193794,-100,4,2,0,40,0,0
194110,-66.6666666666667,4,2,0,40,0,0
194189,-200,4,2,0,40,0,0
194268,-66.6666666666667,4,2,0,40,0,0
194347,-200,4,2,0,40,0,0
194426,-66.6666666666667,4,2,0,40,0,0
194505,-200,4,2,0,40,0,0
194584,-100,4,2,0,40,0,0
195215,-100,4,2,0,40,0,1
205005,-66.6666666666667,4,2,0,40,0,1
205024,-133.333333333333,4,2,0,40,0,1
205242,-66.6666666666667,4,2,0,40,0,1
205320,-100,4,2,0,40,0,1
211636,-57.1428571428571,4,2,0,40,0,0
211715,-400,4,2,0,40,0,0
211794,-100,4,2,0,40,0,0
211952,-57.1428571428571,4,2,0,40,0,0
212031,-400,4,2,0,40,0,0
212110,-100,4,2,0,40,0,0
212899,-100,4,2,0,40,0,1
222689,-66.6666666666667,4,2,0,40,0,1
222709,-133.333333333333,4,2,0,40,0,1
222926,-66.6666666666667,4,2,0,40,0,1
223005,-100,4,2,0,40,0,1
228057,-100,4,2,0,40,0,0
233110,-100,4,2,0,30,0,0
243215,-100,4,2,0,40,0,0

[HitObjects]
36,192,5742,5,4,3:0:0:0:
402,192,5742,1,4,3:0:0:0:
109,192,5742,1,4,3:0:0:0:
256,192,5742,1,4,2:0:0:0:
329,192,6057,1,8,3:0:0:0:
475,192,6057,1,8,3:0:0:0:
402,192,6057,1,8,3:0:0:0:
329,192,6215,1,8,3:0:0:0:
475,192,6215,1,8,3:0:0:0:
402,192,6215,1,8,3:0:0:0:
182,192,6373,1,0,3:0:0:0:
329,192,6531,1,4,3:0:0:0:
402,192,6531,1,4,3:0:0:0:
36,192,6689,1,8,3:0:0:0:
256,192,6689,1,8,3:0:0:0:
109,192,6689,1,8,3:0:0:0:
475,192,6847,1,4,3:0:0:0:
329,192,6926,1,4,3:0:0:0:
182,192,7005,1,4,3:0:0:0:
36,192,7005,1,4,3:0:0:0:
402,192,7320,1,8,3:0:0:0:
109,192,7320,1,8,3:0:0:0:
256,192,7320,1,8,3:0:0:0:
402,192,7478,1,8,3:0:0:0:
109,192,7478,1,8,3:0:0:0:
256,192,7478,1,8,3:0:0:0:
182,192,7636,1,0,3:0:0:0:
329,192,7794,1,4,3:0:0:0:
475,192,7794,1,4,3:0:0:0:
36,192,7952,1,8,3:0:0:0:
256,192,7952,1,8,3:0:0:0:
109,192,7952,1,8,3:0:0:0:
402,192,8110,1,4,3:0:0:0:
329,192,8189,1,4,3:0:0:0:
256,192,8268,1,4,3:0:0:0:
36,192,8268,1,4,3:0:0:0:
182,192,8268,1,4,3:0:0:0:
475,192,8426,1,0,3:0:0:0:
182,192,8584,1,8,3:0:0:0:
109,192,8584,1,8,3:0:0:0:
36,192,8584,1,8,3:0:0:0:
182,192,8742,1,8,3:0:0:0:
109,192,8742,1,8,3:0:0:0:
36,192,8742,1,8,3:0:0:0:
329,192,8899,1,0,3:0:0:0:
182,192,9057,1,4,3:0:0:0:
36,192,9057,1,4,3:0:0:0:
256,192,9215,1,8,3:0:0:0:
329,192,9215,1,8,3:0:0:0:
475,192,9215,1,8,3:0:0:0:
109,192,9373,1,4,3:0:0:0:
182,192,9452,1,4,3:0:0:0:
256,192,9531,1,4,3:0:0:0:
402,192,9531,1,4,3:0:0:0:
109,192,9689,1,0,3:0:0:0:
329,192,9847,1,8,3:0:0:0:
475,192,9847,1,8,3:0:0:0:
402,192,9847,1,8,3:0:0:0:
329,192,10005,1,8,3:0:0:0:
475,192,10005,1,8,3:0:0:0:
402,192,10005,1,8,3:0:0:0:
182,192,10163,1,0,3:0:0:0:
402,192,10320,1,4,3:0:0:0:
329,192,10320,1,4,3:0:0:0:
36,192,10478,1,8,3:0:0:0:
109,192,10478,1,8,3:0:0:0:
256,192,10478,1,8,3:0:0:0:
36,192,10794,1,4,3:0:0:0:
182,192,10794,1,4,3:0:0:0:
475,192,10794,1,4,3:0:0:0:
329,192,10794,128,4,13320:2:0:0:0:
256,192,10952,1,0,3:0:0:0:
109,192,11110,1,8,3:0:0:0:
182,192,11110,1,8,3:0:0:0:
36,192,11110,1,8,3:0:0:0:
109,192,11268,1,8,3:0:0:0:
182,192,11268,1,8,3:0:0:0:
36,192,11268,1,8,3:0:0:0:
402,192,11426,1,0,3:0:0:0:
36,192,11584,1,4,3:0:0:0:
182,192,11584,1,4,3:0:0:0:
256,192,11742,1,8,3:0:0:0:
109,192,11742,1,8,3:0:0:0:
402,192,11742,1,8,3:0:0:0:
475,192,11899,1,0,3:0:0:0:
182,192,12057,1,4,3:0:0:0:
36,192,12057,1,4,3:0:0:0:
475,192,12215,1,0,3:0:0:0:
256,192,12373,1,8,3:0:0:0:
109,192,12373,1,8,3:0:0:0:
182,192,12373,1,8,3:0:0:0:
109,192,12531,1,8,3:0:0:0:
256,192,12531,1,8,3:0:0:0:
182,192,12531,1,8,3:0:0:0:
402,192,12689,1,0,3:0:0:0:
36,192,12847,1,4,3:0:0:0:
109,192,12847,1,4,3:0:0:0:
475,192,13005,1,8,3:0:0:0:
256,192,13005,1,8,3:0:0:0:
402,192,13005,1,8,3:0:0:0:
109,192,13163,1,0,3:0:0:0:
36,192,13320,128,0,13794:2:0:0:0:
475,192,13320,1,4,3:0:0:0:
256,192,13320,1,4,3:0:0:0:
182,192,13478,1,0,3:0:0:0:
329,192,13636,1,8,3:0:0:0:
109,192,13636,1,8,3:0:0:0:
256,192,13636,1,8,3:0:0:0:
475,192,13794,128,0,14584:2:0:0:0:
182,192,13794,1,8,3:0:0:0:
402,192,13794,1,8,3:0:0:0:
256,192,13794,1,8,3:0:0:0:
329,192,13952,1,0,3:0:0:0:
36,192,14110,1,4,3:0:0:0:
256,192,14110,1,4,3:0:0:0:
109,192,14268,1,8,3:0:0:0:
329,192,14268,1,8,3:0:0:0:
402,192,14268,1,8,3:0:0:0:
182,192,14426,1,0,3:0:0:0:
402,192,14584,1,4,3:0:0:0:
36,192,14584,128,4,14899:3:0:0:0:
256,192,14584,128,4,14899:2:0:0:0:
109,192,14742,128,0,14899:2:0:0:0:
329,192,14742,128,0,14899:2:0:0:0:
475,192,14899,1,4,3:0:0:0:
182,192,14899,128,4,15215:2:0:0:0:
402,192,14899,128,4,15215:3:0:0:0:
109,192,15057,128,0,15215:2:0:0:0:
329,192,15057,128,0,15215:2:0:0:0:
36,192,15215,1,4,3:0:0:0:
256,192,15215,1,4,2:0:0:0:
475,192,15215,1,4,3:0:0:0:
256,192,15373,1,8,0:0:0:0:
256,192,15531,1,8,0:0:0:0:
256,192,15689,1,8,0:0:0:0:
109,192,15847,128,0,16320:2:0:0:0:
36,192,15847,1,4,3:0:0:0:
475,192,15847,1,4,3:0:0:0:
329,192,15847,1,4,2:0:0:0:
182,192,16005,128,0,16163:3:0:0:0:
329,192,16163,128,0,16636:2:0:0:0:
475,192,16163,1,8,3:0:0:0:
402,192,16163,1,8,3:0:0:0:
256,192,16320,128,0,16478:3:0:0:0:
36,192,16478,128,0,16952:2:0:0:0:
182,192,16478,1,4,3:0:0:0:
475,192,16478,1,4,3:0:0:0:
109,192,16636,128,0,16794:3:0:0:0:
402,192,16794,128,0,17268:2:0:0:0:
256,192,16794,1,8,3:0:0:0:
475,192,16794,1,8,3:0:0:0:
329,192,16952,128,0,17110:3:0:0:0:
182,192,17110,1,4,3:0:0:0:
36,192,17110,1,4,3:0:0:0:
109,192,17268,128,2,17426:2:0:0:0:
256,192,17268,1,0,3:0:0:0:
329,192,17426,128,2,17584:2:0:0:0:
475,192,17426,1,8,3:0:0:0:
402,192,17426,1,8,3:0:0:0:
36,192,17584,128,2,17742:2:0:0:0:
256,192,17584,1,0,3:0:0:0:
182,192,17742,128,2,17899:2:0:0:0:
109,192,17742,1,4,3:0:0:0:
402,192,17742,1,4,3:0:0:0:
475,192,17899,128,2,18057:2:0:0:0:
256,192,17899,1,0,3:0:0:0:
109,192,18057,128,2,18215:2:0:0:0:
36,192,18057,1,8,3:0:0:0:
402,192,18057,1,8,3:0:0:0:
256,192,18215,128,2,18373:2:0:0:0:
329,192,18215,1,0,3:0:0:0:
475,192,18373,1,4,3:0:0:0:
182,192,18373,1,4,3:0:0:0:
36,192,18373,128,0,18847:2:0:0:0:
109,192,18531,128,0,18689:3:0:0:0:
402,192,18689,128,0,19163:2:0:0:0:
475,192,18689,1,8,3:0:0:0:
256,192,18689,1,8,3:0:0:0:
329,192,18847,128,0,19005:3:0:0:0:
109,192,19005,128,0,19478:2:0:0:0:
36,192,19005,1,4,3:0:0:0:
256,192,19005,1,4,3:0:0:0:
182,192,19163,128,0,19320:3:0:0:0:
475,192,19320,128,0,19794:2:0:0:0:
36,192,19320,1,8,3:0:0:0:
329,192,19320,1,8,3:0:0:0:
402,192,19478,128,0,19636:3:0:0:0:
256,192,19636,1,4,3:0:0:0:
36,192,19636,1,4,3:0:0:0:
109,192,19794,128,2,19952:2:0:0:0:
329,192,19794,1,0,3:0:0:0:
402,192,19952,128,2,20110:2:0:0:0:
182,192,19952,1,8,3:0:0:0:
475,192,19952,1,8,3:0:0:0:
256,192,20110,128,2,20268:2:0:0:0:
109,192,20110,1,0,3:0:0:0:
36,192,20268,128,2,20426:2:0:0:0:
402,192,20268,1,4,3:0:0:0:
329,192,20268,1,4,3:0:0:0:
475,192,20426,128,2,20584:2:0:0:0:
256,192,20426,1,0,3:0:0:0:
182,192,20584,128,2,20742:2:0:0:0:
402,192,20584,1,8,3:0:0:0:
36,192,20584,1,8,3:0:0:0:
329,192,20742,128,2,20899:2:0:0:0:
109,192,20742,1,0,3:0:0:0:
182,192,20899,1,4,3:0:0:0:
475,192,20899,1,4,3:0:0:0:
256,192,20899,128,0,21215:2:0:0:0:
402,192,21057,128,0,21215:3:0:0:0:
182,192,21215,128,0,21531:2:0:0:0:
475,192,21215,1,8,3:0:0:0:
109,192,21215,1,8,3:0:0:0:
329,192,21373,128,0,21531:3:0:0:0:
109,192,21531,128,0,21847:2:0:0:0:
36,192,21531,1,4,3:0:0:0:
402,192,21531,1,4,3:0:0:0:
256,192,21689,128,0,21847:3:0:0:0:
36,192,21847,128,0,22163:2:0:0:0:
329,192,21847,1,8,3:0:0:0:
475,192,21847,1,8,3:0:0:0:
182,192,22005,128,0,22163:3:0:0:0:
256,192,22163,128,0,22478:2:0:0:0:
329,192,22163,1,4,3:0:0:0:
475,192,22163,1,4,3:0:0:0:
109,192,22320,128,0,22478:3:0:0:0:
329,192,22478,128,0,22794:2:0:0:0:
36,192,22478,1,8,3:0:0:0:
402,192,22478,1,8,3:0:0:0:
182,192,22636,128,0,22794:3:0:0:0:
402,192,22794,128,0,23110:2:0:0:0:
475,192,22794,1,4,3:0:0:0:
109,192,22794,1,4,3:0:0:0:
256,192,22952,128,0,23110:3:0:0:0:
475,192,23110,128,0,23426:2:0:0:0:
182,192,23110,1,8,3:0:0:0:
36,192,23110,1,8,3:0:0:0:
329,192,23268,128,0,23426:3:0:0:0:
256,192,23426,1,4,3:0:0:0:
109,192,23426,128,2,23584:2:0:0:0:
182,192,23426,1,4,3:0:0:0:
402,192,23584,128,2,23742:2:0:0:0:
36,192,23584,1,0,3:0:0:0:
182,192,23742,128,2,23899:2:0:0:0:
329,192,23742,1,8,3:0:0:0:
256,192,23742,1,8,3:0:0:0:
475,192,23899,128,2,24057:2:0:0:0:
109,192,23899,1,0,3:0:0:0:
256,192,24057,128,2,24215:2:0:0:0:
402,192,24057,1,4,3:0:0:0:
329,192,24057,1,4,3:0:0:0:
182,192,24215,1,0,3:0:0:0:
109,192,24373,128,2,24531:2:0:0:0:
475,192,24373,1,8,3:0:0:0:
329,192,24373,1,8,3:0:0:0:
402,192,24531,128,2,24689:2:0:0:0:
256,192,24531,1,0,3:0:0:0:
36,192,24689,1,4,3:0:0:0:
182,192,24689,1,4,3:0:0:0:
256,192,24847,1,8,3:0:0:0:
329,192,24847,1,8,3:0:0:0:
475,192,24847,1,8,3:0:0:0:
182,192,25005,1,4,3:0:0:0:
109,192,25005,1,4,3:0:0:0:
36,192,25005,1,4,3:0:0:0:
402,192,25163,1,0,3:0:0:0:
329,192,25163,1,0,3:0:0:0:
36,192,25320,1,4,3:0:0:0:
256,192,25320,1,4,3:0:0:0:
109,192,25399,1,4,3:0:0:0:
329,192,25399,1,4,3:0:0:0:
182,192,25478,1,4,3:0:0:0:
402,192,25478,1,4,3:0:0:0:
36,192,25636,128,8,25952:3:0:0:0:
256,192,25636,128,8,25952:3:0:0:0:
475,192,25636,128,8,25952:3:0:0:0:
329,192,25952,1,4,3:0:0:0:
109,192,25952,128,0,26426:2:0:0:0:
402,192,25952,1,4,3:0:0:0:
182,192,26110,128,0,26268:3:0:0:0:
329,192,26268,128,0,26742:2:0:0:0:
36,192,26268,1,8,3:0:0:0:
475,192,26268,1,8,3:0:0:0:
256,192,26426,128,0,26584:3:0:0:0:
36,192,26584,128,0,27057:2:0:0:0:
182,192,26584,1,4,3:0:0:0:
402,192,26584,1,4,3:0:0:0:
109,192,26742,128,0,26899:3:0:0:0:
475,192,26899,128,0,27373:2:0:0:0:
329,192,26899,1,8,3:0:0:0:
256,192,26899,1,8,3:0:0:0:
402,192,27057,128,0,27215:3:0:0:0:
109,192,27215,1,4,3:0:0:0:
256,192,27215,1,4,3:0:0:0:
182,192,27373,128,2,27531:2:0:0:0:
329,192,27373,1,0,3:0:0:0:
402,192,27531,128,2,27689:2:0:0:0:
36,192,27531,1,8,3:0:0:0:
475,192,27531,1,8,3:0:0:0:
109,192,27689,128,2,27847:2:0:0:0:
256,192,27689,1,0,3:0:0:0:
329,192,27847,128,2,28005:2:0:0:0:
182,192,27847,1,4,3:0:0:0:
475,192,27847,1,4,3:0:0:0:
36,192,28005,128,2,28163:2:0:0:0:
402,192,28005,1,0,3:0:0:0:
256,192,28163,128,2,28320:2:0:0:0:
109,192,28163,1,8,3:0:0:0:
329,192,28163,1,8,3:0:0:0:
475,192,28320,128,2,28478:2:0:0:0:
182,192,28320,1,0,3:0:0:0:
256,192,28478,1,4,3:0:0:0:
36,192,28478,1,4,3:0:0:0:
402,192,28478,128,0,28952:2:0:0:0:
329,192,28636,128,0,28794:3:0:0:0:
109,192,28794,128,0,29268:2:0:0:0:
475,192,28794,1,8,3:0:0:0:
36,192,28794,1,8,3:0:0:0:
182,192,28952,128,0,29110:3:0:0:0:
475,192,29110,128,0,29584:2:0:0:0:
329,192,29110,1,4,3:0:0:0:
256,192,29110,1,4,3:0:0:0:
402,192,29268,128,0,29426:3:0:0:0:
36,192,29426,128,0,29899:2:0:0:0:
182,192,29426,1,8,3:0:0:0:
256,192,29426,1,8,3:0:0:0:
109,192,29584,128,0,29742:3:0:0:0:
475,192,29742,1,4,3:0:0:0:
182,192,29742,1,4,3:0:0:0:
256,192,29742,128,0,30057:2:0:0:0:
329,192,29899,1,0,3:0:0:0:
402,192,29899,128,0,30215:2:0:0:0:
109,192,30057,1,8,3:0:0:0:
475,192,30057,1,8,3:0:0:0:
256,192,30215,1,0,3:0:0:0:
36,192,30215,128,0,30531:2:0:0:0:
402,192,30373,1,4,3:0:0:0:
109,192,30373,1,4,3:0:0:0:
182,192,30373,128,0,30689:2:0:0:0:
256,192,30531,1,0,3:0:0:0:
329,192,30531,128,0,30847:2:0:0:0:
36,192,30689,1,8,3:0:0:0:
402,192,30689,1,8,3:0:0:0:
475,192,30689,128,0,30847:2:0:0:0:
182,192,30847,1,0,3:0:0:0:
475,192,31005,1,4,3:0:0:0:
329,192,31005,1,4,3:0:0:0:
109,192,31005,128,0,31478:2:0:0:0:
256,192,31163,128,0,31320:3:0:0:0:
402,192,31320,128,0,31794:2:0:0:0:
36,192,31320,1,8,3:0:0:0:
329,192,31320,1,8,3:0:0:0:
256,192,31478,128,0,31636:3:0:0:0:
109,192,31636,128,0,32110:2:0:0:0:
475,192,31636,1,4,3:0:0:0:
182,192,31636,1,4,3:0:0:0:
256,192,31794,128,0,31952:3:0:0:0:
402,192,31952,128,0,32268:2:0:0:0:
329,192,31952,1,8,3:0:0:0:
36,192,31952,1,8,3:0:0:0:
256,192,32110,128,0,32268:3:0:0:0:
182,192,32268,1,4,3:0:0:0:
329,192,32268,1,4,3:0:0:0:
36,192,32268,1,4,3:0:0:0:
475,192,32268,1,4,3:0:0:0:
329,192,32584,1,4,3:0:0:0:
475,192,32584,1,4,3:0:0:0:
182,192,32584,1,4,3:0:0:0:
36,192,32584,1,4,3:0:0:0:
36,192,33531,1,8,3:0:0:0:
475,192,33531,1,8,3:0:0:0:
256,192,33531,1,4,2:0:0:0:
329,192,33531,128,0,34478:2:0:0:0:
109,192,33531,1,8,3:0:0:0:
36,192,33847,1,8,3:0:0:0:
402,192,33847,1,8,3:0:0:0:
182,192,33847,1,8,3:0:0:0:
109,192,34163,1,8,3:0:0:0:
475,192,34163,1,8,3:0:0:0:
256,192,34163,1,8,3:0:0:0:
182,192,34320,1,4,3:0:0:0:
402,192,34320,1,4,3:0:0:0:
36,192,34478,1,8,3:0:0:0:
475,192,34478,1,8,3:0:0:0:
256,192,34478,1,8,3:0:0:0:
182,192,34636,128,0,35742:2:0:0:0:
329,192,34636,1,4,3:0:0:0:
109,192,34636,1,4,3:0:0:0:
402,192,34794,1,8,3:0:0:0:
36,192,34794,1,8,3:0:0:0:
256,192,34794,1,8,3:0:0:0:
475,192,34952,1,4,3:0:0:0:
329,192,34952,1,4,3:0:0:0:
402,192,35110,1,8,3:0:0:0:
256,192,35110,1,8,3:0:0:0:
109,192,35110,1,8,3:0:0:0:
329,192,35268,1,0,3:0:0:0:
36,192,35426,1,8,3:0:0:0:
256,192,35426,1,8,3:0:0:0:
402,192,35426,1,8,3:0:0:0:
109,192,35584,1,4,3:0:0:0:
329,192,35584,1,4,3:0:0:0:
256,192,35742,1,8,3:0:0:0:
36,192,35742,1,8,3:0:0:0:
475,192,35742,1,8,3:0:0:0:
402,192,35899,1,4,3:0:0:0:
182,192,35899,1,4,3:0:0:0:
475,192,36057,128,0,36373:2:0:0:0:
256,192,36057,1,8,3:0:0:0:
109,192,36057,1,8,3:0:0:0:
329,192,36057,1,8,3:0:0:0:
256,192,36373,1,8,3:0:0:0:
36,192,36373,1,8,3:0:0:0:
402,192,36373,1,8,3:0:0:0:
109,192,36531,128,0,37005:2:0:0:0:
182,192,36531,1,4,3:0:0:0:
329,192,36531,1,4,3:0:0:0:
256,192,36689,1,8,3:0:0:0:
36,192,36689,1,8,3:0:0:0:
475,192,36689,1,8,3:0:0:0:
182,192,36847,1,4,3:0:0:0:
402,192,36847,1,4,3:0:0:0:
256,192,37005,1,8,3:0:0:0:
36,192,37005,1,8,3:0:0:0:
475,192,37005,1,8,3:0:0:0:
329,192,37163,128,0,38268:2:0:0:0:
402,192,37163,1,4,3:0:0:0:
182,192,37163,1,4,3:0:0:0:
256,192,37320,1,8,3:0:0:0:
475,192,37320,1,8,3:0:0:0:
109,192,37320,1,8,3:0:0:0:
182,192,37478,1,4,3:0:0:0:
36,192,37478,1,4,3:0:0:0:
256,192,37636,1,8,3:0:0:0:
109,192,37636,1,8,3:0:0:0:
402,192,37636,1,8,3:0:0:0:
182,192,37794,1,0,3:0:0:0:
256,192,37952,1,8,3:0:0:0:
475,192,37952,1,8,3:0:0:0:
36,192,37952,1,8,3:0:0:0:
109,192,38110,1,4,3:0:0:0:
402,192,38110,1,4,3:0:0:0:
256,192,38268,1,8,3:0:0:0:
36,192,38268,1,8,3:0:0:0:
475,192,38268,1,8,3:0:0:0:
182,192,38426,1,4,3:0:0:0:
329,192,38426,1,4,3:0:0:0:
475,192,38584,1,8,3:0:0:0:
36,192,38584,1,8,3:0:0:0:
256,192,38584,1,4,2:0:0:0:
109,192,38584,128,0,39531:2:0:0:0:
402,192,38584,1,8,3:0:0:0:
402,192,38899,1,8,3:0:0:0:
36,192,38899,1,8,3:0:0:0:
256,192,38899,1,8,3:0:0:0:
329,192,39057,1,4,3:0:0:0:
475,192,39057,1,4,3:0:0:0:
402,192,39215,1,8,3:0:0:0:
36,192,39215,1,8,3:0:0:0:
256,192,39215,1,8,3:0:0:0:
329,192,39373,1,4,3:0:0:0:
182,192,39373,1,4,3:0:0:0:
475,192,39531,1,8,3:0:0:0:
36,192,39531,1,8,3:0:0:0:
256,192,39531,1,8,3:0:0:0:
329,192,39689,128,0,40794:2:0:0:0:
182,192,39689,1,4,3:0:0:0:
402,192,39689,1,4,3:0:0:0:
109,192,39847,1,8,3:0:0:0:
475,192,39847,1,8,3:0:0:0:
256,192,39847,1,8,3:0:0:0:
36,192,40005,1,4,3:0:0:0:
182,192,40005,1,4,3:0:0:0:
109,192,40163,1,8,3:0:0:0:
256,192,40163,1,8,3:0:0:0:
402,192,40163,1,8,3:0:0:0:
182,192,40320,1,0,3:0:0:0:
475,192,40478,1,8,3:0:0:0:
256,192,40478,1,8,3:0:0:0:
109,192,40478,1,8,3:0:0:0:
402,192,40636,1,4,3:0:0:0:
182,192,40636,1,4,3:0:0:0:
256,192,40794,1,8,3:0:0:0:
475,192,40794,1,8,3:0:0:0:
36,192,40794,1,8,3:0:0:0:
109,192,40952,1,4,3:0:0:0:
329,192,40952,1,4,3:0:0:0:
36,192,41110,128,0,41426:2:0:0:0:
402,192,41110,1,8,3:0:0:0:
475,192,41110,1,8,3:0:0:0:
182,192,41110,1,8,3:0:0:0:
329,192,41426,1,8,3:0:0:0:
475,192,41426,1,8,3:0:0:0:
182,192,41426,1,8,3:0:0:0:
402,192,41584,128,0,42057:2:0:0:0:
256,192,41584,1,4,3:0:0:0:
109,192,41584,1,4,3:0:0:0:
182,192,41742,1,8,3:0:0:0:
475,192,41742,1,8,3:0:0:0:
36,192,41742,1,8,3:0:0:0:
256,192,41899,1,4,3:0:0:0:
109,192,41899,1,4,3:0:0:0:
182,192,42057,1,8,3:0:0:0:
475,192,42057,1,8,3:0:0:0:
329,192,42057,1,8,3:0:0:0:
256,192,42215,128,0,43320:2:0:0:0:
109,192,42215,1,4,3:0:0:0:
402,192,42215,1,4,3:0:0:0:
36,192,42373,1,8,3:0:0:0:
182,192,42373,1,8,3:0:0:0:
329,192,42373,1,8,3:0:0:0:
109,192,42531,1,4,3:0:0:0:
475,192,42531,1,4,3:0:0:0:
36,192,42689,1,8,3:0:0:0:
402,192,42689,1,8,3:0:0:0:
182,192,42689,1,8,3:0:0:0:
329,192,42847,1,4,3:0:0:0:
109,192,42847,1,4,3:0:0:0:
182,192,43005,1,8,3:0:0:0:
36,192,43005,1,8,3:0:0:0:
402,192,43005,1,8,3:0:0:0:
475,192,43163,1,8,3:0:0:0:
109,192,43163,1,8,3:0:0:0:
329,192,43163,1,8,3:0:0:0:
402,192,43320,1,8,3:0:0:0:
475,192,43320,1,8,3:0:0:0:
182,192,43320,1,8,3:0:0:0:
109,192,43478,1,8,3:0:0:0:
329,192,43478,1,8,3:0:0:0:
475,192,43478,1,8,3:0:0:0:
475,192,43636,1,8,3:0:0:0:
36,192,43636,1,8,3:0:0:0:
256,192,43636,1,4,2:0:0:0:
182,192,43636,128,0,44031:2:0:0:0:
329,192,43952,1,4,3:0:0:0:
402,192,43952,1,4,3:0:0:0:
182,192,44110,1,8,3:0:0:0:
109,192,44110,128,0,44505:2:0:0:0:
256,192,44110,1,8,3:0:0:0:
256,192,44426,1,4,3:0:0:0:
329,192,44426,1,4,3:0:0:0:
109,192,44584,1,8,3:0:0:0:
475,192,44584,128,0,44820:2:0:0:0:
182,192,44584,1,8,3:0:0:0:
36,192,44584,128,0,44820:2:0:0:0:
475,192,44899,1,4,3:0:0:0:
36,192,44899,1,4,3:0:0:0:
256,192,44899,1,4,3:0:0:0:
109,192,44899,128,4,45531:2:0:0:0:
402,192,44899,128,4,45531:2:0:0:0:
475,192,45531,1,0,3:0:0:0:
36,192,45531,1,0,3:0:0:0:
402,192,45610,1,0,3:0:0:0:
109,192,45610,1,0,3:0:0:0:
329,192,45689,1,0,3:0:0:0:
182,192,45689,1,0,3:0:0:0:
256,192,45768,1,0,3:0:0:0:
109,192,45847,1,2,3:0:0:0:
402,192,45847,1,2,3:0:0:0:
182,192,46163,1,4,2:0:0:0:
475,192,46163,1,4,3:0:0:0:
36,192,46163,1,4,3:0:0:0:
475,192,46478,1,8,3:0:0:0:
256,192,46478,1,8,3:0:0:0:
36,192,46478,1,8,3:0:0:0:
329,192,46636,1,0,3:0:0:0:
475,192,46794,1,0,3:0:0:0:
329,192,46952,1,4,3:0:0:0:
182,192,46952,1,4,3:0:0:0:
475,192,47110,1,8,3:0:0:0:
36,192,47110,1,8,3:0:0:0:
256,192,47110,1,8,3:0:0:0:
329,192,47268,1,0,3:0:0:0:
475,192,47426,1,4,3:0:0:0:
182,192,47426,1,4,3:0:0:0:
329,192,47584,1,0,3:0:0:0:
475,192,47742,1,8,3:0:0:0:
256,192,47742,1,8,3:0:0:0:
36,192,47742,1,0,3:0:0:0:
329,192,47899,1,4,3:0:0:0:
182,192,47899,1,4,3:0:0:0:
475,192,48057,1,0,3:0:0:0:
329,192,48215,1,4,3:0:0:0:
182,192,48215,1,4,3:0:0:0:
475,192,48373,1,8,3:0:0:0:
36,192,48373,1,8,3:0:0:0:
256,192,48373,1,8,3:0:0:0:
329,192,48531,1,0,3:0:0:0:
475,192,48689,1,4,3:0:0:0:
36,192,48689,1,4,3:0:0:0:
182,192,48689,1,4,3:0:0:0:
36,192,49005,1,8,3:0:0:0:
256,192,49005,1,8,3:0:0:0:
475,192,49005,1,8,3:0:0:0:
182,192,49163,1,0,3:0:0:0:
36,192,49320,1,0,3:0:0:0:
182,192,49478,1,4,3:0:0:0:
329,192,49478,1,4,3:0:0:0:
36,192,49636,1,8,3:0:0:0:
475,192,49636,1,8,3:0:0:0:
256,192,49636,1,8,3:0:0:0:
182,192,49794,1,0,3:0:0:0:
36,192,49952,1,4,3:0:0:0:
329,192,49952,1,4,3:0:0:0:
182,192,50110,1,0,3:0:0:0:
36,192,50268,1,8,3:0:0:0:
256,192,50268,1,8,3:0:0:0:
475,192,50268,1,8,3:0:0:0:
182,192,50426,1,4,3:0:0:0:
329,192,50426,1,4,3:0:0:0:
36,192,50584,1,0,3:0:0:0:
182,192,50742,1,4,3:0:0:0:
329,192,50742,1,4,3:0:0:0:
36,192,50899,1,8,3:0:0:0:
475,192,50899,1,8,3:0:0:0:
256,192,50899,1,8,3:0:0:0:
182,192,51057,1,0,3:0:0:0:
36,192,51215,1,4,3:0:0:0:
475,192,51215,1,4,3:0:0:0:
329,192,51215,1,4,3:0:0:0:
182,192,51531,128,0,51847:2:0:0:0:
475,192,51531,1,8,3:0:0:0:
36,192,51531,1,8,3:0:0:0:
329,192,51689,1,0,3:0:0:0:
109,192,51847,128,0,52163:2:0:0:0:
475,192,51847,1,0,3:0:0:0:
256,192,52005,1,4,3:0:0:0:
36,192,52163,128,0,52478:2:0:0:0:
475,192,52163,1,8,3:0:0:0:
329,192,52163,1,8,3:0:0:0:
182,192,52320,1,0,3:0:0:0:
256,192,52478,128,0,52794:2:0:0:0:
475,192,52478,1,4,3:0:0:0:
402,192,52478,1,4,3:0:0:0:
109,192,52636,1,0,3:0:0:0:
329,192,52794,128,0,53110:2:0:0:0:
36,192,52794,1,8,3:0:0:0:
475,192,52794,1,8,3:0:0:0:
182,192,52952,1,4,3:0:0:0:
402,192,53110,128,0,53426:2:0:0:0:
36,192,53110,1,0,3:0:0:0:
256,192,53268,1,4,3:0:0:0:
475,192,53426,128,0,53742:2:0:0:0:
36,192,53426,1,8,3:0:0:0:
182,192,53426,1,8,3:0:0:0:
329,192,53584,1,0,3:0:0:0:
36,192,53742,1,4,3:0:0:0:
256,192,53742,1,4,3:0:0:0:
182,192,53742,128,0,54057:2:0:0:0:
109,192,54057,1,8,3:0:0:0:
329,192,54057,1,8,3:0:0:0:
475,192,54057,1,8,3:0:0:0:
256,192,54215,1,0,3:0:0:0:
402,192,54215,128,0,54531:2:0:0:0:
182,192,54373,1,0,3:0:0:0:
256,192,54531,1,4,3:0:0:0:
109,192,54531,1,4,3:0:0:0:
36,192,54689,1,8,3:0:0:0:
329,192,54689,1,8,3:0:0:0:
475,192,54689,1,8,3:0:0:0:
182,192,54689,128,0,55005:2:0:0:0:
402,192,54847,1,0,3:0:0:0:
36,192,55005,1,4,3:0:0:0:
256,192,55005,1,4,3:0:0:0:
475,192,55005,1,4,3:0:0:0:
402,192,55320,1,8,3:0:0:0:
36,192,55320,1,8,3:0:0:0:
182,192,55320,1,8,3:0:0:0:
256,192,55478,1,4,3:0:0:0:
109,192,55478,1,4,3:0:0:0:
402,192,55636,1,0,3:0:0:0:
256,192,55794,1,4,3:0:0:0:
109,192,55794,1,4,3:0:0:0:
329,192,55952,1,8,3:0:0:0:
182,192,55952,1,8,3:0:0:0:
36,192,55952,1,8,3:0:0:0:
256,192,56110,1,0,3:0:0:0:
402,192,56110,1,4,3:0:0:0:
329,192,56189,1,4,3:0:0:0:
182,192,56189,1,0,3:0:0:0:
36,192,56268,1,4,3:0:0:0:
256,192,56268,1,4,3:0:0:0:
109,192,56268,1,0,3:0:0:0:
475,192,56268,1,4,3:0:0:0:
182,192,56584,128,2,56742:2:0:0:0:
36,192,56584,1,8,3:0:0:0:
475,192,56584,1,8,3:0:0:0:
256,192,56584,1,8,3:0:0:0:
402,192,56742,128,2,56899:2:0:0:0:
109,192,56899,128,2,57057:2:0:0:0:
329,192,57057,128,2,57215:2:0:0:0:
256,192,57057,1,4,3:0:0:0:
475,192,57215,128,2,57373:2:0:0:0:
36,192,57215,1,8,3:0:0:0:
402,192,57215,1,8,3:0:0:0:
256,192,57373,128,2,57531:2:0:0:0:
402,192,57531,128,2,57689:2:0:0:0:
36,192,57531,1,4,3:0:0:0:
329,192,57531,1,4,3:0:0:0:
182,192,57689,128,2,57847:2:0:0:0:
329,192,57847,128,2,58005:2:0:0:0:
36,192,57847,1,8,3:0:0:0:
475,192,57847,1,8,3:0:0:0:
109,192,58005,128,2,58163:2:0:0:0:
256,192,58005,1,4,3:0:0:0:
402,192,58163,128,2,58320:2:0:0:0:
182,192,58320,128,2,58478:2:0:0:0:
256,192,58320,1,4,3:0:0:0:
475,192,58478,128,2,58636:2:0:0:0:
36,192,58478,1,8,3:0:0:0:
402,192,58478,1,8,3:0:0:0:
256,192,58636,128,2,58794:2:0:0:0:
36,192,58794,1,4,3:0:0:0:
329,192,58794,1,4,3:0:0:0:
329,192,59110,128,2,59268:2:0:0:0:
36,192,59110,1,8,3:0:0:0:
475,192,59110,1,8,3:0:0:0:
109,192,59268,128,2,59426:2:0:0:0:
402,192,59426,128,2,59584:2:0:0:0:
182,192,59584,128,2,59742:2:0:0:0:
256,192,59584,1,4,3:0:0:0:
36,192,59742,128,2,59899:2:0:0:0:
109,192,59742,1,8,3:0:0:0:
475,192,59742,1,8,3:0:0:0:
256,192,59899,128,2,60057:2:0:0:0:
109,192,60057,128,2,60215:2:0:0:0:
182,192,60057,1,4,3:0:0:0:
475,192,60057,1,4,3:0:0:0:
329,192,60215,128,2,60373:2:0:0:0:
182,192,60373,128,2,60531:2:0:0:0:
36,192,60373,1,8,3:0:0:0:
475,192,60373,1,8,3:0:0:0:
402,192,60531,128,2,60689:2:0:0:0:
256,192,60531,1,4,3:0:0:0:
109,192,60689,128,2,60847:2:0:0:0:
329,192,60847,128,2,61005:2:0:0:0:
256,192,60847,1,4,3:0:0:0:
182,192,61005,128,2,61163:2:0:0:0:
36,192,61005,1,8,3:0:0:0:
475,192,61005,1,8,3:0:0:0:
402,192,61163,128,2,61320:2:0:0:0:
109,192,61320,128,0,61636:2:0:0:0:
256,192,61320,1,4,3:0:0:0:
36,192,61320,1,4,3:0:0:0:
329,192,61478,128,0,61636:3:0:0:0:
36,192,61636,128,0,61952:2:0:0:0:
182,192,61636,1,8,3:0:0:0:
475,192,61636,1,8,3:0:0:0:
256,192,61794,128,0,61952:3:0:0:0:
402,192,61952,128,0,62268:2:0:0:0:
182,192,62110,128,0,62268:3:0:0:0:
256,192,62110,1,4,3:0:0:0:
329,192,62268,128,0,62426:2:0:0:0:
36,192,62268,1,8,3:0:0:0:
475,192,62268,1,8,3:0:0:0:
109,192,62426,128,0,62584:3:0:0:0:
402,192,62584,128,0,62899:2:0:0:0:
256,192,62584,1,4,3:0:0:0:
475,192,62584,1,4,3:0:0:0:
182,192,62742,128,0,62899:3:0:0:0:
36,192,62899,128,0,63215:2:0:0:0:
109,192,62899,1,8,3:0:0:0:
475,192,62899,1,8,3:0:0:0:
256,192,63057,128,0,63215:3:0:0:0:
329,192,63057,1,4,3:0:0:0:
109,192,63215,128,0,63531:2:0:0:0:
329,192,63373,128,0,63531:3:0:0:0:
402,192,63373,1,4,3:0:0:0:
182,192,63531,128,0,63847:2:0:0:0:
36,192,63531,1,8,3:0:0:0:
475,192,63531,1,8,3:0:0:0:
402,192,63689,128,0,63847:3:0:0:0:
36,192,63847,128,2,64005:2:0:0:0:
256,192,63847,1,4,3:0:0:0:
475,192,63847,1,4,3:0:0:0:
329,192,64005,128,2,64163:2:0:0:0:
182,192,64163,128,2,64320:2:0:0:0:
36,192,64163,1,8,3:0:0:0:
402,192,64163,1,8,3:0:0:0:
475,192,64320,128,2,64478:2:0:0:0:
109,192,64478,128,2,64636:2:0:0:0:
36,192,64478,1,4,3:0:0:0:
329,192,64478,1,4,3:0:0:0:
402,192,64636,128,2,64794:2:0:0:0:
256,192,64636,1,4,3:0:0:0:
109,192,64794,1,8,3:0:0:0:
475,192,64794,1,8,3:0:0:0:
329,192,64952,128,4,65268:3:0:0:0:
182,192,64952,128,4,65426:3:0:0:0:
36,192,64952,128,4,65584:2:0:0:0:
402,192,65268,1,4,3:0:0:0:
475,192,65268,1,4,3:0:0:0:
256,192,65426,1,8,3:0:0:0:
329,192,65426,1,8,3:0:0:0:
109,192,65584,1,8,3:0:0:0:
475,192,65584,1,8,3:0:0:0:
182,192,65584,1,8,3:0:0:0:
402,192,65623,1,8,3:0:0:0:
329,192,65663,1,8,3:0:0:0:
256,192,65702,1,8,3:0:0:0:
182,192,65742,1,4,3:0:0:0:
36,192,65742,128,4,66373:3:0:0:0:
109,192,65899,128,4,66373:3:0:0:0:
256,192,65899,1,4,3:0:0:0:
182,192,66057,128,4,66373:3:0:0:0:
329,192,66057,1,4,3:0:0:0:
256,192,66215,128,4,66373:3:0:0:0:
402,192,66215,1,4,3:0:0:0:
329,192,66373,1,4,3:0:0:0:
475,192,66373,1,4,3:0:0:0:
329,192,66531,1,4,3:0:0:0:
475,192,66531,1,4,3:0:0:0:
36,192,66689,1,8,3:0:0:0:
182,192,66689,1,8,3:0:0:0:
109,192,66689,1,8,3:0:0:0:
109,192,66847,1,4,3:0:0:0:
182,192,66926,1,4,3:0:0:0:
256,192,67005,1,4,3:0:0:0:
402,192,67005,1,4,3:0:0:0:
256,192,67163,1,4,3:0:0:0:
402,192,67163,1,4,3:0:0:0:
36,192,67320,1,8,3:0:0:0:
182,192,67320,1,8,3:0:0:0:
109,192,67320,1,8,3:0:0:0:
329,192,67478,1,4,3:0:0:0:
256,192,67557,1,4,3:0:0:0:
182,192,67636,1,4,3:0:0:0:
36,192,67636,1,4,3:0:0:0:
182,192,67794,1,4,3:0:0:0:
36,192,67794,1,4,3:0:0:0:
329,192,67952,1,8,3:0:0:0:
402,192,67952,1,8,3:0:0:0:
475,192,67952,1,8,3:0:0:0:
402,192,68110,1,4,3:0:0:0:
329,192,68189,1,4,3:0:0:0:
256,192,68268,1,4,3:0:0:0:
109,192,68268,1,4,3:0:0:0:
256,192,68426,1,4,3:0:0:0:
109,192,68426,1,4,3:0:0:0:
329,192,68584,1,8,3:0:0:0:
402,192,68584,1,8,3:0:0:0:
475,192,68584,1,8,3:0:0:0:
109,192,68742,1,4,3:0:0:0:
182,192,68820,1,4,3:0:0:0:
256,192,68899,1,4,3:0:0:0:
402,192,68899,1,4,3:0:0:0:
256,192,69057,1,4,3:0:0:0:
402,192,69057,1,4,3:0:0:0:
36,192,69215,1,8,3:0:0:0:
109,192,69215,1,8,3:0:0:0:
329,192,69215,1,8,3:0:0:0:
402,192,69373,1,4,3:0:0:0:
329,192,69452,1,4,3:0:0:0:
256,192,69531,1,4,3:0:0:0:
109,192,69531,1,4,3:0:0:0:
109,192,69689,1,4,3:0:0:0:
256,192,69689,1,4,3:0:0:0:
182,192,69847,1,8,3:0:0:0:
402,192,69847,1,8,3:0:0:0:
475,192,69847,1,8,3:0:0:0:
329,192,70005,1,4,3:0:0:0:
256,192,70084,1,4,3:0:0:0:
182,192,70163,1,4,3:0:0:0:
36,192,70163,1,4,3:0:0:0:
36,192,70320,1,4,3:0:0:0:
182,192,70320,1,4,3:0:0:0:
109,192,70478,1,8,3:0:0:0:
402,192,70478,1,8,3:0:0:0:
329,192,70478,1,8,3:0:0:0:
182,192,70636,1,4,3:0:0:0:
256,192,70715,1,4,3:0:0:0:
329,192,70794,1,4,3:0:0:0:
475,192,70794,1,4,3:0:0:0:
329,192,70952,1,4,3:0:0:0:
475,192,70952,1,4,3:0:0:0:
256,192,71110,1,8,3:0:0:0:
402,192,71110,1,8,3:0:0:0:
109,192,71110,1,8,3:0:0:0:
475,192,71268,128,4,71742:2:0:0:0:
36,192,71268,128,4,71742:2:0:0:0:
182,192,71268,1,4,3:0:0:0:
329,192,71268,1,4,3:0:0:0:
182,192,71584,1,4,3:0:0:0:
329,192,71584,1,4,3:0:0:0:
109,192,71742,1,8,3:0:0:0:
256,192,71742,1,8,3:0:0:0:
402,192,71742,1,8,3:0:0:0:
256,192,72057,1,8,3:0:0:0:
36,192,72057,1,8,3:0:0:0:
475,192,72057,1,8,3:0:0:0:
329,192,72215,1,4,3:0:0:0:
182,192,72215,1,4,3:0:0:0:
256,192,72373,1,8,3:0:0:0:
475,192,72373,1,8,3:0:0:0:
36,192,72373,1,8,3:0:0:0:
109,192,72531,1,4,3:0:0:0:
402,192,72531,1,4,3:0:0:0:
256,192,72689,1,8,3:0:0:0:
36,192,72689,1,8,3:0:0:0:
475,192,72689,1,8,3:0:0:0:
256,192,73005,1,8,3:0:0:0:
402,192,73005,1,8,3:0:0:0:
109,192,73005,1,8,3:0:0:0:
182,192,73163,1,4,3:0:0:0:
329,192,73163,1,4,3:0:0:0:
256,192,73320,1,8,3:0:0:0:
36,192,73320,1,8,3:0:0:0:
475,192,73320,1,8,3:0:0:0:
109,192,73478,1,8,3:0:0:0:
402,192,73478,1,8,3:0:0:0:
109,192,73636,1,8,3:0:0:0:
402,192,73636,1,8,3:0:0:0:
36,192,73794,1,4,3:0:0:0:
182,192,73794,1,0,3:0:0:0:
475,192,73794,1,4,3:0:0:0:
329,192,73794,1,0,3:0:0:0:
256,192,73794,128,4,74268:2:0:0:0:
109,192,74268,1,0,3:0:0:0:
402,192,74268,1,0,3:0:0:0:
182,192,74426,1,4,3:0:0:0:
329,192,74426,1,4,3:0:0:0:
256,192,74584,1,8,3:0:0:0:
36,192,74584,1,8,3:0:0:0:
475,192,74584,1,8,3:0:0:0:
36,192,74742,1,8,3:0:0:0:
256,192,74742,1,8,3:0:0:0:
475,192,74742,1,8,3:0:0:0:
36,192,74899,1,8,3:0:0:0:
256,192,74899,1,8,3:0:0:0:
475,192,74899,1,8,3:0:0:0:
109,192,75057,1,0,3:0:0:0:
329,192,75057,1,4,3:0:0:0:
182,192,75057,1,4,3:0:0:0:
402,192,75057,1,0,3:0:0:0:
109,192,75373,1,0,3:0:0:0:
182,192,75373,1,4,3:0:0:0:
329,192,75373,1,4,3:0:0:0:
402,192,75373,1,0,3:0:0:0:
109,192,75689,1,0,3:0:0:0:
329,192,75689,1,4,3:0:0:0:
402,192,75689,1,0,3:0:0:0:
182,192,75689,1,4,3:0:0:0:
36,192,75847,1,8,3:0:0:0:
475,192,75847,1,8,3:0:0:0:
109,192,75926,1,8,3:0:0:0:
402,192,75926,1,8,3:0:0:0:
182,192,76005,1,8,3:0:0:0:
329,192,76005,1,8,3:0:0:0:
36,192,76163,1,4,3:0:0:0:
109,192,76163,1,4,3:0:0:0:
256,192,76163,1,4,2:0:0:0:
402,192,76163,1,4,3:0:0:0:
475,192,76163,1,4,3:0:0:0:
402,192,76478,128,0,76952:2:0:0:0:
475,192,76478,1,4,3:0:0:0:
36,192,76478,1,4,3:0:0:0:
182,192,76478,1,4,2:0:0:0:
329,192,76636,128,0,76794:3:0:0:0:
182,192,76794,128,0,77268:2:0:0:0:
36,192,76794,1,8,3:0:0:0:
109,192,76794,1,8,3:0:0:0:
256,192,76952,128,0,77110:3:0:0:0:
475,192,77110,128,0,77584:2:0:0:0:
329,192,77110,1,4,3:0:0:0:
36,192,77110,1,4,3:0:0:0:
402,192,77268,128,0,77426:3:0:0:0:
109,192,77426,128,0,77899:2:0:0:0:
256,192,77426,1,8,3:0:0:0:
36,192,77426,1,8,3:0:0:0:
182,192,77584,128,0,77742:3:0:0:0:
329,192,77742,1,4,3:0:0:0:
475,192,77742,1,4,3:0:0:0:
402,192,77899,128,2,78057:2:0:0:0:
256,192,77899,1,0,3:0:0:0:
182,192,78057,128,2,78215:2:0:0:0:
36,192,78057,1,8,3:0:0:0:
109,192,78057,1,8,3:0:0:0:
475,192,78215,128,2,78373:2:0:0:0:
256,192,78215,1,0,3:0:0:0:
329,192,78373,128,2,78531:2:0:0:0:
402,192,78373,1,4,3:0:0:0:
109,192,78373,1,4,3:0:0:0:
36,192,78531,128,2,78689:2:0:0:0:
256,192,78531,1,0,3:0:0:0:
402,192,78689,128,2,78847:2:0:0:0:
475,192,78689,1,8,3:0:0:0:
109,192,78689,1,8,3:0:0:0:
256,192,78847,128,2,79005:2:0:0:0:
182,192,78847,1,0,3:0:0:0:
36,192,79005,1,4,3:0:0:0:
329,192,79005,1,4,3:0:0:0:
475,192,79005,128,0,79478:2:0:0:0:
402,192,79163,128,0,79320:3:0:0:0:
109,192,79320,128,0,79794:2:0:0:0:
36,192,79320,1,8,3:0:0:0:
256,192,79320,1,8,3:0:0:0:
182,192,79478,128,0,79636:3:0:0:0:
402,192,79636,128,0,80110:2:0:0:0:
475,192,79636,1,4,3:0:0:0:
256,192,79636,1,4,3:0:0:0:
329,192,79794,128,0,79952:3:0:0:0:
36,192,79952,128,0,80426:2:0:0:0:
475,192,79952,1,8,3:0:0:0:
182,192,79952,1,8,3:0:0:0:
109,192,80110,128,0,80268:3:0:0:0:
256,192,80268,1,4,3:0:0:0:
475,192,80268,1,4,3:0:0:0:
402,192,80426,128,2,80584:2:0:0:0:
182,192,80426,1,0,3:0:0:0:
109,192,80584,128,2,80742:2:0:0:0:
329,192,80584,1,8,3:0:0:0:
36,192,80584,1,8,3:0:0:0:
256,192,80742,128,2,80899:2:0:0:0:
402,192,80742,1,0,3:0:0:0:
475,192,80899,128,2,81057:2:0:0:0:
109,192,80899,1,4,3:0:0:0:
182,192,80899,1,4,3:0:0:0:
36,192,81057,128,2,81215:2:0:0:0:
256,192,81057,1,0,3:0:0:0:
329,192,81215,128,2,81373:2:0:0:0:
109,192,81215,1,8,3:0:0:0:
475,192,81215,1,8,3:0:0:0:
182,192,81373,128,2,81531:2:0:0:0:
402,192,81373,1,0,3:0:0:0:
329,192,81531,1,4,3:0:0:0:
36,192,81531,1,4,3:0:0:0:
256,192,81531,128,0,81847:2:0:0:0:
109,192,81689,128,0,81847:3:0:0:0:
329,192,81847,128,0,82163:2:0:0:0:
36,192,81847,1,8,3:0:0:0:
402,192,81847,1,8,3:0:0:0:
182,192,82005,128,0,82163:3:0:0:0:
402,192,82163,128,0,82478:2:0:0:0:
475,192,82163,1,4,3:0:0:0:
109,192,82163,1,4,3:0:0:0:
256,192,82320,128,0,82478:3:0:0:0:
475,192,82478,128,0,82794:2:0:0:0:
182,192,82478,1,8,3:0:0:0:
36,192,82478,1,8,3:0:0:0:
329,192,82636,128,0,82794:3:0:0:0:
256,192,82794,128,0,83110:2:0:0:0:
182,192,82794,1,4,3:0:0:0:
36,192,82794,1,4,3:0:0:0:
402,192,82952,128,0,83110:3:0:0:0:
182,192,83110,128,0,83426:2:0:0:0:
475,192,83110,1,8,3:0:0:0:
109,192,83110,1,8,3:0:0:0:
329,192,83268,128,0,83426:3:0:0:0:
109,192,83426,128,0,83742:2:0:0:0:
36,192,83426,1,4,3:0:0:0:
402,192,83426,1,4,3:0:0:0:
256,192,83584,128,0,83742:3:0:0:0:
36,192,83742,128,0,84057:2:0:0:0:
329,192,83742,1,8,3:0:0:0:
475,192,83742,1,8,3:0:0:0:
182,192,83899,128,0,84057:3:0:0:0:
256,192,84057,1,4,3:0:0:0:
402,192,84057,128,2,84215:2:0:0:0:
329,192,84057,1,4,3:0:0:0:
109,192,84215,128,2,84373:2:0:0:0:
475,192,84215,1,0,3:0:0:0:
329,192,84373,128,2,84531:2:0:0:0:
182,192,84373,1,8,3:0:0:0:
256,192,84373,1,8,3:0:0:0:
36,192,84531,128,2,84689:2:0:0:0:
402,192,84531,1,0,3:0:0:0:
256,192,84689,128,2,84847:2:0:0:0:
109,192,84689,1,4,3:0:0:0:
182,192,84689,1,4,3:0:0:0:
329,192,84847,1,0,3:0:0:0:
402,192,85005,128,2,85163:2:0:0:0:
36,192,85005,1,8,3:0:0:0:
182,192,85005,1,8,3:0:0:0:
109,192,85163,128,2,85320:2:0:0:0:
256,192,85163,1,0,3:0:0:0:
329,192,85320,1,4,3:0:0:0:
475,192,85320,1,4,3:0:0:0:
182,192,85478,1,8,3:0:0:0:
36,192,85478,1,8,3:0:0:0:
256,192,85478,1,8,3:0:0:0:
402,192,85636,1,4,3:0:0:0:
329,192,85636,1,4,3:0:0:0:
475,192,85636,1,4,3:0:0:0:
109,192,85794,1,0,3:0:0:0:
182,192,85794,1,0,3:0:0:0:
475,192,85952,1,4,3:0:0:0:
256,192,85952,1,4,3:0:0:0:
402,192,86031,1,4,3:0:0:0:
182,192,86031,1,4,3:0:0:0:
329,192,86110,1,4,3:0:0:0:
109,192,86110,1,4,3:0:0:0:
475,192,86268,128,8,86584:3:0:0:0:
256,192,86268,128,8,86584:3:0:0:0:
36,192,86268,128,8,86584:3:0:0:0:
182,192,86584,1,4,3:0:0:0:
402,192,86584,128,0,87057:2:0:0:0:
109,192,86584,1,4,3:0:0:0:
329,192,86742,128,0,86899:3:0:0:0:
182,192,86899,128,0,87373:2:0:0:0:
475,192,86899,1,8,3:0:0:0:
36,192,86899,1,8,3:0:0:0:
256,192,87057,128,0,87215:3:0:0:0:
475,192,87215,128,0,87689:2:0:0:0:
329,192,87215,1,4,3:0:0:0:
109,192,87215,1,4,3:0:0:0:
402,192,87373,128,0,87531:3:0:0:0:
36,192,87531,128,0,88005:2:0:0:0:
182,192,87531,1,8,3:0:0:0:
256,192,87531,1,8,3:0:0:0:
109,192,87689,128,0,87847:3:0:0:0:
402,192,87847,1,4,3:0:0:0:
256,192,87847,1,4,3:0:0:0:
329,192,88005,128,2,88163:2:0:0:0:
182,192,88005,1,0,3:0:0:0:
109,192,88163,128,2,88320:2:0:0:0:
475,192,88163,1,8,3:0:0:0:
36,192,88163,1,8,3:0:0:0:
402,192,88320,128,2,88478:2:0:0:0:
256,192,88320,1,0,3:0:0:0:
182,192,88478,128,2,88636:2:0:0:0:
329,192,88478,1,4,3:0:0:0:
36,192,88478,1,4,3:0:0:0:
475,192,88636,128,2,88794:2:0:0:0:
109,192,88636,1,0,3:0:0:0:
256,192,88794,128,2,88952:2:0:0:0:
402,192,88794,1,8,3:0:0:0:
182,192,88794,1,8,3:0:0:0:
36,192,88952,128,2,89110:2:0:0:0:
329,192,88952,1,0,3:0:0:0:
256,192,89110,1,4,3:0:0:0:
475,192,89110,1,4,3:0:0:0:
109,192,89110,128,0,89584:2:0:0:0:
182,192,89268,128,0,89426:3:0:0:0:
402,192,89426,128,0,89899:2:0:0:0:
36,192,89426,1,8,3:0:0:0:
475,192,89426,1,8,3:0:0:0:
329,192,89584,128,0,89742:3:0:0:0:
36,192,89742,128,0,90215:2:0:0:0:
182,192,89742,1,4,3:0:0:0:
256,192,89742,1,4,3:0:0:0:
109,192,89899,128,0,90057:3:0:0:0:
475,192,90057,128,0,90531:2:0:0:0:
329,192,90057,1,8,3:0:0:0:
256,192,90057,1,8,3:0:0:0:
402,192,90215,128,0,90373:3:0:0:0:
36,192,90373,1,4,3:0:0:0:
329,192,90373,1,4,3:0:0:0:
256,192,90373,128,0,90689:2:0:0:0:
182,192,90531,1,0,3:0:0:0:
109,192,90531,128,0,90847:2:0:0:0:
402,192,90689,1,8,3:0:0:0:
36,192,90689,1,8,3:0:0:0:
256,192,90847,1,0,3:0:0:0:
475,192,90847,128,0,91163:2:0:0:0:
109,192,91005,1,4,3:0:0:0:
402,192,91005,1,4,3:0:0:0:
329,192,91005,128,0,91320:2:0:0:0:
256,192,91163,1,0,3:0:0:0:
182,192,91163,128,0,91478:2:0:0:0:
475,192,91320,1,8,3:0:0:0:
109,192,91320,1,8,3:0:0:0:
36,192,91320,128,0,91478:2:0:0:0:
329,192,91478,1,0,3:0:0:0:
36,192,91636,1,4,3:0:0:0:
182,192,91636,1,4,3:0:0:0:
402,192,91636,128,0,92110:2:0:0:0:
256,192,91794,128,0,91952:3:0:0:0:
109,192,91952,128,0,92426:2:0:0:0:
329,192,91952,1,8,3:0:0:0:
36,192,91952,1,8,3:0:0:0:
256,192,92110,128,0,92268:3:0:0:0:
402,192,92268,128,0,92742:2:0:0:0:
475,192,92268,1,4,3:0:0:0:
182,192,92268,1,4,3:0:0:0:
256,192,92426,128,0,92584:3:0:0:0:
109,192,92584,128,0,92899:2:0:0:0:
36,192,92584,1,8,3:0:0:0:
329,192,92584,1,8,3:0:0:0:
256,192,92742,128,0,92899:3:0:0:0:
36,192,92899,1,4,3:0:0:0:
182,192,92899,1,4,3:0:0:0:
475,192,92899,1,4,3:0:0:0:
329,192,92899,1,4,3:0:0:0:
182,192,93215,1,4,3:0:0:0:
36,192,93215,1,4,3:0:0:0:
329,192,93215,1,4,3:0:0:0:
475,192,93215,1,4,3:0:0:0:
475,192,94163,1,8,3:0:0:0:
36,192,94163,1,8,3:0:0:0:
256,192,94163,1,4,2:0:0:0:
182,192,94163,128,0,95110:2:0:0:0:
402,192,94163,1,8,3:0:0:0:
475,192,94478,1,8,3:0:0:0:
109,192,94478,1,8,3:0:0:0:
256,192,94478,1,8,3:0:0:0:
329,192,94636,1,0,3:0:0:0:
402,192,94794,1,8,3:0:0:0:
36,192,94794,1,8,3:0:0:0:
256,192,94794,1,8,3:0:0:0:
329,192,94952,1,4,3:0:0:0:
109,192,94952,1,4,3:0:0:0:
475,192,95110,1,8,3:0:0:0:
36,192,95110,1,8,3:0:0:0:
256,192,95110,1,8,3:0:0:0:
329,192,95268,128,0,96373:2:0:0:0:
182,192,95268,1,4,3:0:0:0:
402,192,95268,1,4,3:0:0:0:
109,192,95426,1,8,3:0:0:0:
475,192,95426,1,8,3:0:0:0:
256,192,95426,1,8,3:0:0:0:
36,192,95584,1,4,3:0:0:0:
182,192,95584,1,4,3:0:0:0:
109,192,95742,1,8,3:0:0:0:
256,192,95742,1,8,3:0:0:0:
402,192,95742,1,8,3:0:0:0:
182,192,95899,1,0,3:0:0:0:
475,192,96057,1,8,3:0:0:0:
256,192,96057,1,8,3:0:0:0:
109,192,96057,1,8,3:0:0:0:
402,192,96215,1,4,3:0:0:0:
182,192,96215,1,4,3:0:0:0:
256,192,96373,1,8,3:0:0:0:
475,192,96373,1,8,3:0:0:0:
36,192,96373,1,8,3:0:0:0:
109,192,96531,1,4,3:0:0:0:
329,192,96531,1,4,3:0:0:0:
36,192,96689,128,0,97005:2:0:0:0:
402,192,96689,1,8,3:0:0:0:
475,192,96689,1,8,3:0:0:0:
182,192,96689,1,8,3:0:0:0:
256,192,97005,1,8,3:0:0:0:
475,192,97005,1,8,3:0:0:0:
109,192,97005,1,8,3:0:0:0:
402,192,97163,128,0,97636:2:0:0:0:
329,192,97163,1,4,3:0:0:0:
182,192,97163,1,4,3:0:0:0:
256,192,97320,1,8,3:0:0:0:
475,192,97320,1,8,3:0:0:0:
36,192,97320,1,8,3:0:0:0:
329,192,97478,1,4,3:0:0:0:
109,192,97478,1,4,3:0:0:0:
256,192,97636,1,8,3:0:0:0:
475,192,97636,1,8,3:0:0:0:
36,192,97636,1,8,3:0:0:0:
182,192,97794,128,0,98899:2:0:0:0:
109,192,97794,1,4,3:0:0:0:
329,192,97794,1,4,3:0:0:0:
256,192,97952,1,8,3:0:0:0:
36,192,97952,1,8,3:0:0:0:
402,192,97952,1,8,3:0:0:0:
329,192,98110,1,4,3:0:0:0:
475,192,98110,1,4,3:0:0:0:
256,192,98268,1,8,3:0:0:0:
402,192,98268,1,8,3:0:0:0:
109,192,98268,1,8,3:0:0:0:
329,192,98426,1,0,3:0:0:0:
256,192,98584,1,8,3:0:0:0:
36,192,98584,1,8,3:0:0:0:
475,192,98584,1,8,3:0:0:0:
402,192,98742,1,4,3:0:0:0:
109,192,98742,1,4,3:0:0:0:
256,192,98899,1,8,3:0:0:0:
475,192,98899,1,8,3:0:0:0:
36,192,98899,1,8,3:0:0:0:
329,192,99057,1,4,3:0:0:0:
182,192,99057,1,4,3:0:0:0:
36,192,99215,1,8,3:0:0:0:
475,192,99215,1,8,3:0:0:0:
256,192,99215,1,4,2:0:0:0:
402,192,99215,128,0,100163:2:0:0:0:
109,192,99215,1,8,3:0:0:0:
109,192,99531,1,8,3:0:0:0:
475,192,99531,1,8,3:0:0:0:
256,192,99531,1,8,3:0:0:0:
182,192,99689,1,4,3:0:0:0:
36,192,99689,1,4,3:0:0:0:
109,192,99847,1,8,3:0:0:0:
475,192,99847,1,8,3:0:0:0:
256,192,99847,1,8,3:0:0:0:
182,192,100005,1,4,3:0:0:0:
329,192,100005,1,4,3:0:0:0:
36,192,100163,1,8,3:0:0:0:
475,192,100163,1,8,3:0:0:0:
256,192,100163,1,8,3:0:0:0:
182,192,100320,128,0,101426:2:0:0:0:
329,192,100320,1,4,3:0:0:0:
109,192,100320,1,4,3:0:0:0:
475,192,100478,1,8,3:0:0:0:
36,192,100478,1,8,3:0:0:0:
256,192,100478,1,8,3:0:0:0:
402,192,100636,1,4,3:0:0:0:
329,192,100636,1,4,3:0:0:0:
475,192,100794,1,8,3:0:0:0:
256,192,100794,1,8,3:0:0:0:
109,192,100794,1,8,3:0:0:0:
329,192,100952,1,0,3:0:0:0:
36,192,101110,1,8,3:0:0:0:
256,192,101110,1,8,3:0:0:0:
402,192,101110,1,8,3:0:0:0:
109,192,101268,1,4,3:0:0:0:
329,192,101268,1,4,3:0:0:0:
256,192,101426,1,8,3:0:0:0:
36,192,101426,1,8,3:0:0:0:
475,192,101426,1,8,3:0:0:0:
402,192,101584,1,4,3:0:0:0:
182,192,101584,1,4,3:0:0:0:
475,192,101742,128,0,102057:2:0:0:0:
109,192,101742,1,8,3:0:0:0:
36,192,101742,1,8,3:0:0:0:
329,192,101742,1,8,3:0:0:0:
256,192,102057,1,8,3:0:0:0:
36,192,102057,1,8,3:0:0:0:
402,192,102057,1,8,3:0:0:0:
109,192,102215,128,0,102689:2:0:0:0:
182,192,102215,1,4,3:0:0:0:
329,192,102215,1,4,3:0:0:0:
256,192,102373,1,8,3:0:0:0:
36,192,102373,1,8,3:0:0:0:
475,192,102373,1,8,3:0:0:0:
182,192,102531,1,4,3:0:0:0:
402,192,102531,1,4,3:0:0:0:
329,192,102689,1,8,3:0:0:0:
36,192,102689,1,8,3:0:0:0:
475,192,102689,1,8,3:0:0:0:
256,192,102847,128,0,103952:2:0:0:0:
402,192,102847,1,4,3:0:0:0:
109,192,102847,1,4,3:0:0:0:
329,192,103005,1,8,3:0:0:0:
475,192,103005,1,8,3:0:0:0:
182,192,103005,1,8,3:0:0:0:
402,192,103163,1,4,3:0:0:0:
36,192,103163,1,4,3:0:0:0:
329,192,103320,1,8,3:0:0:0:
109,192,103320,1,8,3:0:0:0:
475,192,103320,1,8,3:0:0:0:
182,192,103478,1,4,3:0:0:0:
402,192,103478,1,4,3:0:0:0:
329,192,103636,1,8,3:0:0:0:
475,192,103636,1,8,3:0:0:0:
109,192,103636,1,8,3:0:0:0:
36,192,103794,1,8,3:0:0:0:
402,192,103794,1,8,3:0:0:0:
182,192,103794,1,8,3:0:0:0:
109,192,103952,1,8,3:0:0:0:
36,192,103952,1,8,3:0:0:0:
329,192,103952,1,8,3:0:0:0:
402,192,104110,1,8,3:0:0:0:
182,192,104110,1,8,3:0:0:0:
36,192,104110,1,8,3:0:0:0:
36,192,104268,1,8,3:0:0:0:
475,192,104268,1,8,3:0:0:0:
256,192,104268,1,4,2:0:0:0:
329,192,104268,128,0,104663:2:0:0:0:
182,192,104584,1,4,3:0:0:0:
109,192,104584,1,4,3:0:0:0:
329,192,104742,1,8,3:0:0:0:
402,192,104742,128,0,105136:2:0:0:0:
256,192,104742,1,8,3:0:0:0:
256,192,105057,1,4,3:0:0:0:
182,192,105057,1,4,3:0:0:0:
402,192,105215,1,8,3:0:0:0:
36,192,105215,128,0,105452:2:0:0:0:
329,192,105215,1,8,3:0:0:0:
475,192,105215,128,0,105452:2:0:0:0:
36,192,105531,1,4,3:0:0:0:
475,192,105531,1,4,3:0:0:0:
256,192,105531,1,4,3:0:0:0:
402,192,105531,128,4,106005:2:0:0:0:
109,192,105531,128,4,106005:2:0:0:0:
329,192,106005,1,4,3:0:0:0:
475,192,106005,1,4,3:0:0:0:
182,192,106005,1,4,3:0:0:0:
36,192,106005,1,4,3:0:0:0:
109,192,106320,1,4,3:0:0:0:
402,192,106320,1,4,3:0:0:0:
402,192,106478,1,4,3:0:0:0:
109,192,106478,1,4,3:0:0:0:
329,192,106636,1,4,3:0:0:0:
182,192,106636,1,4,3:0:0:0:
402,192,106715,1,4,3:0:0:0:
109,192,106715,1,4,3:0:0:0:
36,192,106794,1,4,3:0:0:0:
475,192,106794,1,4,3:0:0:0:
256,192,106794,1,4,2:0:0:0:
182,192,106952,1,4,3:0:0:0:
329,192,106952,1,4,3:0:0:0:
256,192,107110,1,0,3:0:0:0:
36,192,107268,1,8,3:0:0:0:
475,192,107268,1,8,3:0:0:0:
329,192,107268,1,8,3:0:0:0:
256,192,107426,1,0,3:0:0:0:
182,192,107584,1,4,3:0:0:0:
402,192,107584,1,4,3:0:0:0:
109,192,107742,1,8,3:0:0:0:
475,192,107742,1,8,3:0:0:0:
329,192,107742,1,8,3:0:0:0:
256,192,107899,1,0,3:0:0:0:
182,192,108057,1,4,3:0:0:0:
402,192,108057,1,4,3:0:0:0:
36,192,108215,1,4,3:0:0:0:
329,192,108215,1,4,3:0:0:0:
182,192,108373,1,0,3:0:0:0:
109,192,108531,1,8,3:0:0:0:
256,192,108531,1,8,3:0:0:0:
402,192,108531,1,8,3:0:0:0:
329,192,108689,1,0,3:0:0:0:
36,192,108847,1,8,3:0:0:0:
256,192,108847,1,8,2:0:0:0:
475,192,108847,1,8,3:0:0:0:
36,192,109005,1,8,3:0:0:0:
256,192,109005,1,8,2:0:0:0:
475,192,109005,1,8,3:0:0:0:
182,192,109320,1,4,3:0:0:0:
402,192,109320,1,4,3:0:0:0:
329,192,109478,1,4,3:0:0:0:
109,192,109478,1,4,3:0:0:0:
256,192,109636,1,0,3:0:0:0:
475,192,109794,1,8,3:0:0:0:
36,192,109794,1,8,3:0:0:0:
329,192,109794,1,8,3:0:0:0:
256,192,109952,1,0,3:0:0:0:
182,192,110110,1,4,3:0:0:0:
402,192,110110,1,4,3:0:0:0:
36,192,110268,1,8,3:0:0:0:
329,192,110268,1,8,3:0:0:0:
475,192,110268,1,8,3:0:0:0:
256,192,110426,1,0,3:0:0:0:
109,192,110584,1,4,3:0:0:0:
329,192,110584,1,4,3:0:0:0:
475,192,110742,1,4,3:0:0:0:
182,192,110742,1,4,3:0:0:0:
329,192,110899,1,0,3:0:0:0:
109,192,111057,1,8,3:0:0:0:
256,192,111057,1,8,3:0:0:0:
402,192,111057,1,8,3:0:0:0:
182,192,111215,1,0,3:0:0:0:
36,192,111373,1,8,3:0:0:0:
256,192,111373,1,8,2:0:0:0:
475,192,111373,1,8,3:0:0:0:
36,192,111531,1,8,3:0:0:0:
256,192,111531,1,8,2:0:0:0:
475,192,111531,1,8,3:0:0:0:
182,192,111847,1,4,3:0:0:0:
402,192,111847,1,4,3:0:0:0:
109,192,112005,1,4,3:0:0:0:
329,192,112005,1,4,3:0:0:0:
256,192,112163,1,0,3:0:0:0:
475,192,112320,1,8,3:0:0:0:
36,192,112320,1,8,3:0:0:0:
329,192,112320,1,8,3:0:0:0:
256,192,112478,1,0,3:0:0:0:
402,192,112636,1,4,3:0:0:0:
182,192,112636,1,4,3:0:0:0:
475,192,112794,1,8,3:0:0:0:
329,192,112794,1,8,3:0:0:0:
109,192,112794,1,8,3:0:0:0:
182,192,113110,1,4,3:0:0:0:
402,192,113110,1,4,3:0:0:0:
109,192,113268,1,4,3:0:0:0:
329,192,113268,1,4,3:0:0:0:
256,192,113426,1,0,3:0:0:0:
182,192,113584,1,8,3:0:0:0:
475,192,113584,1,8,3:0:0:0:
36,192,113584,1,8,3:0:0:0:
256,192,113742,1,0,3:0:0:0:
109,192,113899,1,4,3:0:0:0:
329,192,113899,1,4,3:0:0:0:
36,192,114057,1,8,3:0:0:0:
182,192,114057,1,8,3:0:0:0:
402,192,114057,1,8,3:0:0:0:
109,192,114373,1,4,3:0:0:0:
256,192,114373,1,4,3:0:0:0:
182,192,114531,1,4,3:0:0:0:
402,192,114531,1,4,3:0:0:0:
36,192,114847,1,8,3:0:0:0:
329,192,114847,1,8,3:0:0:0:
475,192,114847,1,8,3:0:0:0:
256,192,115005,1,0,3:0:0:0:
182,192,115163,1,4,3:0:0:0:
402,192,115163,1,4,3:0:0:0:
329,192,115320,1,8,3:0:0:0:
475,192,115320,1,8,3:0:0:0:
109,192,115320,1,8,3:0:0:0:
36,192,115636,1,4,3:0:0:0:
329,192,115636,1,4,3:0:0:0:
182,192,115794,1,4,3:0:0:0:
402,192,115794,1,4,3:0:0:0:
256,192,115952,1,0,3:0:0:0:
109,192,116110,1,8,3:0:0:0:
475,192,116110,1,8,3:0:0:0:
329,192,116110,1,8,3:0:0:0:
256,192,116268,1,0,3:0:0:0:
329,192,116426,1,4,3:0:0:0:
109,192,116426,1,4,3:0:0:0:
256,192,116584,1,8,3:0:0:0:
475,192,116584,1,8,3:0:0:0:
36,192,116584,1,8,3:0:0:0:
109,192,116663,1,8,3:0:0:0:
402,192,116663,1,8,3:0:0:0:
182,192,116742,1,8,3:0:0:0:
329,192,116742,1,8,3:0:0:0:
256,192,116820,1,8,3:0:0:0:
475,192,116899,1,4,3:0:0:0:
402,192,116899,1,4,3:0:0:0:
109,192,116899,1,4,2:0:0:0:
36,192,116899,128,0,117057:2:0:0:0:
182,192,117057,128,0,117215:2:0:0:0:
256,192,117057,1,0,3:0:0:0:
36,192,117215,128,0,117373:2:0:0:0:
475,192,117215,1,8,3:0:0:0:
329,192,117215,1,8,3:0:0:0:
182,192,117373,128,0,117531:2:0:0:0:
256,192,117373,1,0,3:0:0:0:
36,192,117531,128,0,117689:2:0:0:0:
475,192,117531,1,0,3:0:0:0:
182,192,117689,128,0,117847:2:0:0:0:
256,192,117689,1,4,3:0:0:0:
402,192,117689,1,4,3:0:0:0:
36,192,117847,128,0,118005:2:0:0:0:
475,192,117847,1,8,3:0:0:0:
329,192,117847,1,8,3:0:0:0:
182,192,118005,128,0,118163:2:0:0:0:
256,192,118005,1,0,3:0:0:0:
36,192,118163,128,0,118320:2:0:0:0:
402,192,118163,1,4,3:0:0:0:
475,192,118163,1,4,3:0:0:0:
182,192,118320,128,0,118478:2:0:0:0:
256,192,118320,1,0,3:0:0:0:
329,192,118478,128,0,118636:2:0:0:0:
402,192,118478,1,8,3:0:0:0:
36,192,118478,1,8,3:0:0:0:
475,192,118636,128,0,118794:2:0:0:0:
182,192,118636,1,4,3:0:0:0:
329,192,118794,1,0,3:0:0:0:
475,192,118952,1,8,3:0:0:0:
36,192,118952,1,8,3:0:0:0:
256,192,118952,1,8,2:0:0:0:
36,192,119110,1,8,3:0:0:0:
475,192,119110,1,8,3:0:0:0:
256,192,119110,1,8,2:0:0:0:
36,192,119426,1,4,3:0:0:0:
182,192,119426,1,4,3:0:0:0:
402,192,119426,1,4,3:0:0:0:
475,192,119426,128,0,119584:2:0:0:0:
329,192,119584,128,0,119742:2:0:0:0:
256,192,119584,1,0,3:0:0:0:
475,192,119742,128,0,119899:2:0:0:0:
36,192,119742,1,8,3:0:0:0:
109,192,119742,1,8,3:0:0:0:
329,192,119899,128,0,120057:2:0:0:0:
256,192,119899,1,0,3:0:0:0:
475,192,120057,128,0,120215:2:0:0:0:
36,192,120057,1,0,3:0:0:0:
329,192,120215,128,0,120373:2:0:0:0:
256,192,120215,1,4,3:0:0:0:
109,192,120215,1,4,3:0:0:0:
475,192,120373,128,0,120531:2:0:0:0:
36,192,120373,1,8,3:0:0:0:
182,192,120373,1,8,3:0:0:0:
329,192,120531,128,0,120689:2:0:0:0:
256,192,120531,1,0,3:0:0:0:
475,192,120689,128,0,120847:2:0:0:0:
109,192,120689,1,4,3:0:0:0:
36,192,120689,1,4,3:0:0:0:
329,192,120847,128,0,121005:2:0:0:0:
256,192,120847,1,0,3:0:0:0:
182,192,121005,128,0,121163:2:0:0:0:
109,192,121005,1,8,3:0:0:0:
475,192,121005,1,8,3:0:0:0:
36,192,121163,128,0,121320:2:0:0:0:
329,192,121163,1,4,3:0:0:0:
182,192,121320,1,0,3:0:0:0:
36,192,121478,1,8,3:0:0:0:
475,192,121478,1,8,3:0:0:0:
256,192,121478,1,8,2:0:0:0:
475,192,121636,1,8,3:0:0:0:
36,192,121636,1,8,3:0:0:0:
256,192,121636,1,8,2:0:0:0:
475,192,121952,128,0,122110:2:0:0:0:
182,192,121952,128,0,122268:2:0:0:0:
36,192,121952,1,4,3:0:0:0:
256,192,121952,1,4,3:0:0:0:
329,192,122110,128,0,122268:2:0:0:0:
475,192,122268,128,0,122584:2:0:0:0:
36,192,122268,128,0,122426:2:0:0:0:
256,192,122268,1,8,3:0:0:0:
182,192,122426,128,0,122584:2:0:0:0:
329,192,122426,1,0,3:0:0:0:
36,192,122584,128,0,122899:2:0:0:0:
402,192,122584,128,0,122742:2:0:0:0:
256,192,122584,1,4,3:0:0:0:
329,192,122742,128,0,122899:2:0:0:0:
182,192,122742,1,4,3:0:0:0:
475,192,122899,128,0,123057:2:0:0:0:
256,192,122899,128,0,123057:2:0:0:0:
109,192,122899,1,8,3:0:0:0:
402,192,123057,128,0,123215:2:0:0:0:
182,192,123057,128,0,123215:2:0:0:0:
36,192,123057,1,0,3:0:0:0:
109,192,123215,128,0,123531:2:0:0:0:
329,192,123215,128,0,123373:2:0:0:0:
256,192,123215,1,4,3:0:0:0:
402,192,123373,128,0,123531:2:0:0:0:
36,192,123531,128,0,123847:2:0:0:0:
256,192,123531,128,0,123689:2:0:0:0:
475,192,123531,1,8,3:0:0:0:
329,192,123689,128,0,123847:2:0:0:0:
182,192,123689,1,0,3:0:0:0:
402,192,123847,128,0,124163:2:0:0:0:
109,192,123847,128,0,124005:2:0:0:0:
256,192,123847,1,4,3:0:0:0:
182,192,124005,128,0,124163:2:0:0:0:
329,192,124005,1,4,3:0:0:0:
36,192,124163,128,0,124478:2:0:0:0:
475,192,124163,128,0,124320:2:0:0:0:
256,192,124163,1,8,3:0:0:0:
402,192,124320,128,0,124478:2:0:0:0:
182,192,124320,1,0,3:0:0:0:
109,192,124478,1,4,3:0:0:0:
256,192,124478,1,4,3:0:0:0:
329,192,124478,128,2,124636:2:0:0:0:
182,192,124636,128,2,124794:2:0:0:0:
475,192,124794,128,2,124952:2:0:0:0:
256,192,124794,1,8,3:0:0:0:
36,192,124794,1,8,3:0:0:0:
109,192,124952,128,2,125110:2:0:0:0:
402,192,125110,128,2,125268:2:0:0:0:
329,192,125110,1,4,3:0:0:0:
182,192,125110,1,4,3:0:0:0:
36,192,125268,128,2,125426:2:0:0:0:
256,192,125268,1,8,3:0:0:0:
475,192,125268,1,8,3:0:0:0:
402,192,125426,1,8,3:0:0:0:
182,192,125426,1,8,3:0:0:0:
475,192,125584,128,4,126057:3:0:0:0:
109,192,125584,128,4,126215:3:0:0:0:
256,192,125584,128,4,125899:2:0:0:0:
182,192,125899,1,4,3:0:0:0:
329,192,125899,1,4,3:0:0:0:
402,192,126057,1,8,3:0:0:0:
256,192,126057,1,8,3:0:0:0:
36,192,126057,1,8,3:0:0:0:
475,192,126215,1,8,3:0:0:0:
329,192,126215,1,8,3:0:0:0:
402,192,126294,1,8,3:0:0:0:
256,192,126294,1,8,3:0:0:0:
182,192,126373,1,4,3:0:0:0:
36,192,126373,128,4,127005:3:0:0:0:
329,192,126373,1,8,3:0:0:0:
109,192,126531,128,4,127005:3:0:0:0:
256,192,126531,1,4,3:0:0:0:
182,192,126689,128,4,127005:3:0:0:0:
329,192,126689,1,4,3:0:0:0:
256,192,126847,128,4,127005:3:0:0:0:
402,192,126847,1,4,3:0:0:0:
475,192,127005,1,4,3:0:0:0:
329,192,127005,1,4,3:0:0:0:
475,192,127163,1,4,3:0:0:0:
329,192,127163,1,4,3:0:0:0:
182,192,127320,1,8,3:0:0:0:
109,192,127320,1,8,3:0:0:0:
36,192,127320,1,8,3:0:0:0:
402,192,127478,1,4,3:0:0:0:
329,192,127557,1,4,3:0:0:0:
109,192,127636,1,4,3:0:0:0:
256,192,127636,1,4,3:0:0:0:
109,192,127794,1,4,3:0:0:0:
256,192,127794,1,4,3:0:0:0:
402,192,127952,1,8,3:0:0:0:
329,192,127952,1,8,3:0:0:0:
475,192,127952,1,8,3:0:0:0:
182,192,128110,1,4,3:0:0:0:
256,192,128189,1,4,3:0:0:0:
475,192,128268,1,4,3:0:0:0:
329,192,128268,1,4,3:0:0:0:
475,192,128426,1,4,3:0:0:0:
329,192,128426,1,4,3:0:0:0:
36,192,128584,1,8,3:0:0:0:
109,192,128584,1,8,3:0:0:0:
182,192,128584,1,8,3:0:0:0:
109,192,128742,1,4,3:0:0:0:
182,192,128820,1,4,3:0:0:0:
402,192,128899,1,4,3:0:0:0:
256,192,128899,1,4,3:0:0:0:
402,192,129057,1,4,3:0:0:0:
256,192,129057,1,4,3:0:0:0:
36,192,129215,1,8,3:0:0:0:
109,192,129215,1,8,3:0:0:0:
182,192,129215,1,8,3:0:0:0:
402,192,129373,1,4,3:0:0:0:
329,192,129452,1,4,3:0:0:0:
109,192,129531,1,4,3:0:0:0:
256,192,129531,1,4,3:0:0:0:
109,192,129689,1,4,3:0:0:0:
256,192,129689,1,4,3:0:0:0:
182,192,129847,1,8,3:0:0:0:
402,192,129847,1,8,3:0:0:0:
475,192,129847,1,8,3:0:0:0:
109,192,130005,1,4,3:0:0:0:
182,192,130084,1,4,3:0:0:0:
402,192,130163,1,4,3:0:0:0:
256,192,130163,1,4,3:0:0:0:
256,192,130320,1,4,3:0:0:0:
402,192,130320,1,4,3:0:0:0:
36,192,130478,1,8,3:0:0:0:
109,192,130478,1,8,3:0:0:0:
329,192,130478,1,8,3:0:0:0:
182,192,130636,1,4,3:0:0:0:
256,192,130715,1,4,3:0:0:0:
475,192,130794,1,4,3:0:0:0:
329,192,130794,1,4,3:0:0:0:
329,192,130952,1,4,3:0:0:0:
475,192,130952,1,4,3:0:0:0:
182,192,131110,1,8,3:0:0:0:
109,192,131110,1,8,3:0:0:0:
402,192,131110,1,8,3:0:0:0:
329,192,131268,1,4,3:0:0:0:
256,192,131347,1,4,3:0:0:0:
36,192,131426,1,4,3:0:0:0:
182,192,131426,1,4,3:0:0:0:
36,192,131584,1,4,3:0:0:0:
182,192,131584,1,4,3:0:0:0:
402,192,131742,1,8,3:0:0:0:
109,192,131742,1,8,3:0:0:0:
256,192,131742,1,8,3:0:0:0:
329,192,131899,1,4,3:0:0:0:
182,192,131899,1,4,3:0:0:0:
36,192,131899,128,4,132373:2:0:0:0:
475,192,131899,128,4,132373:2:0:0:0:
182,192,132215,1,4,3:0:0:0:
329,192,132215,1,4,3:0:0:0:
109,192,132373,1,8,3:0:0:0:
256,192,132373,1,8,3:0:0:0:
402,192,132373,1,8,3:0:0:0:
36,192,132689,1,8,3:0:0:0:
256,192,132689,1,8,3:0:0:0:
475,192,132689,1,8,3:0:0:0:
329,192,132847,1,4,3:0:0:0:
182,192,132847,1,4,3:0:0:0:
256,192,133005,1,8,3:0:0:0:
36,192,133005,1,8,3:0:0:0:
475,192,133005,1,8,3:0:0:0:
109,192,133163,1,4,3:0:0:0:
402,192,133163,1,4,3:0:0:0:
36,192,133320,1,8,3:0:0:0:
256,192,133320,1,8,3:0:0:0:
475,192,133320,1,8,3:0:0:0:
109,192,133636,1,8,3:0:0:0:
256,192,133636,1,8,3:0:0:0:
402,192,133636,1,8,3:0:0:0:
182,192,133794,1,4,3:0:0:0:
329,192,133794,1,4,3:0:0:0:
36,192,133952,1,8,3:0:0:0:
475,192,133952,1,8,3:0:0:0:
256,192,133952,1,8,3:0:0:0:
109,192,134110,1,8,3:0:0:0:
402,192,134110,1,8,3:0:0:0:
109,192,134268,1,8,3:0:0:0:
402,192,134268,1,8,3:0:0:0:
182,192,134426,1,0,3:0:0:0:
256,192,134426,128,4,134899:2:0:0:0:
36,192,134426,1,4,3:0:0:0:
475,192,134426,1,4,3:0:0:0:
329,192,134426,1,0,3:0:0:0:
109,192,134899,1,0,3:0:0:0:
402,192,134899,1,0,3:0:0:0:
182,192,135057,1,4,3:0:0:0:
329,192,135057,1,4,3:0:0:0:
36,192,135215,1,8,3:0:0:0:
475,192,135215,1,8,3:0:0:0:
256,192,135215,1,8,3:0:0:0:
36,192,135373,1,8,3:0:0:0:
256,192,135373,1,8,3:0:0:0:
475,192,135373,1,8,3:0:0:0:
36,192,135531,1,8,3:0:0:0:
256,192,135531,1,8,3:0:0:0:
475,192,135531,1,8,3:0:0:0:
329,192,135689,1,4,3:0:0:0:
109,192,135689,1,0,3:0:0:0:
402,192,135689,1,0,3:0:0:0:
182,192,135689,1,4,3:0:0:0:
182,192,136005,5,4,3:0:0:0:
109,192,136005,1,0,3:0:0:0:
402,192,136005,1,0,3:0:0:0:
329,192,136005,1,4,3:0:0:0:
109,192,136320,1,0,3:0:0:0:
329,192,136320,1,4,3:0:0:0:
402,192,136320,1,0,3:0:0:0:
182,192,136320,1,4,3:0:0:0:
36,192,136478,1,8,3:0:0:0:
475,192,136478,1,8,3:0:0:0:
109,192,136557,1,8,3:0:0:0:
402,192,136557,1,8,3:0:0:0:
182,192,136636,1,8,3:0:0:0:
329,192,136636,1,8,3:0:0:0:
109,192,136794,1,4,3:0:0:0:
36,192,136794,1,4,3:0:0:0:
256,192,136794,1,4,2:0:0:0:
475,192,136794,1,4,3:0:0:0:
402,192,136794,1,4,3:0:0:0:
475,192,137110,5,4,3:0:0:0:
329,192,137110,1,4,2:0:0:0:
109,192,137110,128,0,137584:2:0:0:0:
36,192,137110,1,4,3:0:0:0:
182,192,137268,128,0,137426:3:0:0:0:
402,192,137426,1,8,3:0:0:0:
475,192,137426,1,8,3:0:0:0:
329,192,137426,128,0,137899:2:0:0:0:
256,192,137584,128,0,137742:3:0:0:0:
475,192,137742,1,4,3:0:0:0:
182,192,137742,1,4,3:0:0:0:
36,192,137742,128,0,138215:2:0:0:0:
109,192,137899,128,0,138057:3:0:0:0:
475,192,138057,1,8,3:0:0:0:
256,192,138057,1,8,3:0:0:0:
402,192,138057,128,0,138531:2:0:0:0:
329,192,138215,128,0,138373:3:0:0:0:
36,192,138373,1,4,3:0:0:0:
182,192,138373,1,4,3:0:0:0:
256,192,138531,1,0,3:0:0:0:
109,192,138531,128,2,138689:2:0:0:0:
402,192,138689,1,8,3:0:0:0:
475,192,138689,1,8,3:0:0:0:
329,192,138689,128,2,138847:2:0:0:0:
256,192,138847,1,0,3:0:0:0:
36,192,138847,128,2,139005:2:0:0:0:
402,192,139005,1,4,3:0:0:0:
109,192,139005,1,4,3:0:0:0:
182,192,139005,128,2,139163:2:0:0:0:
256,192,139163,1,0,3:0:0:0:
475,192,139163,128,2,139320:2:0:0:0:
402,192,139320,1,8,3:0:0:0:
36,192,139320,1,8,3:0:0:0:
109,192,139320,128,2,139478:2:0:0:0:
329,192,139478,1,0,3:0:0:0:
256,192,139478,128,2,139636:2:0:0:0:
36,192,139636,128,0,140110:2:0:0:0:
182,192,139636,1,4,3:0:0:0:
475,192,139636,1,4,3:0:0:0:
109,192,139794,128,0,139952:3:0:0:0:
256,192,139952,1,8,3:0:0:0:
475,192,139952,1,8,3:0:0:0:
402,192,139952,128,0,140426:2:0:0:0:
329,192,140110,128,0,140268:3:0:0:0:
256,192,140268,1,4,3:0:0:0:
36,192,140268,1,4,3:0:0:0:
109,192,140268,128,0,140742:2:0:0:0:
182,192,140426,128,0,140584:3:0:0:0:
329,192,140584,1,8,3:0:0:0:
36,192,140584,1,8,3:0:0:0:
475,192,140584,128,0,141057:2:0:0:0:
402,192,140742,128,0,140899:3:0:0:0:
36,192,140899,1,4,3:0:0:0:
256,192,140899,1,4,3:0:0:0:
329,192,141057,1,0,3:0:0:0:
109,192,141057,128,2,141215:2:0:0:0:
475,192,141215,1,8,3:0:0:0:
182,192,141215,1,8,3:0:0:0:
402,192,141215,128,2,141373:2:0:0:0:
109,192,141373,1,0,3:0:0:0:
256,192,141373,128,2,141531:2:0:0:0:
329,192,141531,1,4,3:0:0:0:
402,192,141531,1,4,3:0:0:0:
36,192,141531,128,2,141689:2:0:0:0:
256,192,141689,1,0,3:0:0:0:
475,192,141689,128,2,141847:2:0:0:0:
36,192,141847,1,8,3:0:0:0:
402,192,141847,1,8,3:0:0:0:
182,192,141847,128,2,142005:2:0:0:0:
109,192,142005,1,0,3:0:0:0:
329,192,142005,128,2,142163:2:0:0:0:
256,192,142163,128,0,142478:2:0:0:0:
475,192,142163,1,4,3:0:0:0:
182,192,142163,1,4,3:0:0:0:
402,192,142320,128,0,142478:3:0:0:0:
109,192,142478,1,8,3:0:0:0:
475,192,142478,1,8,3:0:0:0:
182,192,142478,128,0,142794:2:0:0:0:
329,192,142636,128,0,142794:3:0:0:0:
402,192,142794,1,4,3:0:0:0:
36,192,142794,1,4,3:0:0:0:
109,192,142794,128,0,143110:2:0:0:0:
256,192,142952,128,0,143110:3:0:0:0:
475,192,143110,1,8,3:0:0:0:
329,192,143110,1,8,3:0:0:0:
36,192,143110,128,0,143426:2:0:0:0:
182,192,143268,128,0,143426:3:0:0:0:
329,192,143426,1,4,3:0:0:0:
256,192,143426,128,0,143742:2:0:0:0:
475,192,143426,1,4,3:0:0:0:
109,192,143584,128,0,143742:3:0:0:0:
402,192,143742,1,8,3:0:0:0:
36,192,143742,1,8,3:0:0:0:
329,192,143742,128,0,144057:2:0:0:0:
182,192,143899,128,0,144057:3:0:0:0:
109,192,144057,1,4,3:0:0:0:
475,192,144057,1,4,3:0:0:0:
402,192,144057,128,0,144373:2:0:0:0:
256,192,144215,128,0,144373:3:0:0:0:
36,192,144373,1,8,3:0:0:0:
182,192,144373,1,8,3:0:0:0:
475,192,144373,128,0,144689:2:0:0:0:
329,192,144531,128,0,144689:3:0:0:0:
109,192,144689,128,2,144847:2:0:0:0:
256,192,144689,1,4,3:0:0:0:
182,192,144689,1,4,3:0:0:0:
36,192,144847,1,0,3:0:0:0:
402,192,144847,128,2,145005:2:0:0:0:
329,192,145005,1,8,3:0:0:0:
182,192,145005,128,2,145163:2:0:0:0:
256,192,145005,1,8,3:0:0:0:
109,192,145163,1,0,3:0:0:0:
475,192,145163,128,2,145320:2:0:0:0:
402,192,145320,1,4,3:0:0:0:
256,192,145320,128,2,145478:2:0:0:0:
329,192,145320,1,4,3:0:0:0:
182,192,145478,1,0,3:0:0:0:
475,192,145636,1,8,3:0:0:0:
109,192,145636,128,2,145794:2:0:0:0:
329,192,145636,1,8,3:0:0:0:
256,192,145794,1,0,3:0:0:0:
402,192,145794,128,2,145952:2:0:0:0:
36,192,145952,1,4,3:0:0:0:
182,192,145952,1,4,3:0:0:0:
475,192,146110,1,8,3:0:0:0:
329,192,146110,1,8,3:0:0:0:
256,192,146110,1,8,3:0:0:0:
182,192,146268,1,4,3:0:0:0:
109,192,146268,1,4,3:0:0:0:
36,192,146268,1,4,3:0:0:0:
402,192,146426,1,0,3:0:0:0:
329,192,146426,1,0,3:0:0:0:
256,192,146584,1,4,3:0:0:0:
36,192,146584,1,4,3:0:0:0:
329,192,146663,1,4,3:0:0:0:
109,192,146663,1,4,3:0:0:0:
402,192,146742,1,4,3:0:0:0:
182,192,146742,1,4,3:0:0:0:
475,192,146899,128,8,147215:3:0:0:0:
256,192,146899,128,8,147215:3:0:0:0:
36,192,146899,128,8,147215:3:0:0:0:
402,192,147215,1,4,3:0:0:0:
109,192,147215,128,0,147689:2:0:0:0:
329,192,147215,1,4,3:0:0:0:
182,192,147373,128,0,147531:3:0:0:0:
475,192,147531,1,8,3:0:0:0:
36,192,147531,1,8,3:0:0:0:
329,192,147531,128,0,148005:2:0:0:0:
256,192,147689,128,0,147847:3:0:0:0:
402,192,147847,1,4,3:0:0:0:
182,192,147847,1,4,3:0:0:0:
36,192,147847,128,0,148320:2:0:0:0:
109,192,148005,128,0,148163:3:0:0:0:
256,192,148163,1,8,3:0:0:0:
329,192,148163,1,8,3:0:0:0:
475,192,148163,128,0,148636:2:0:0:0:
402,192,148320,128,0,148478:3:0:0:0:
256,192,148478,1,4,3:0:0:0:
109,192,148478,1,4,3:0:0:0:
329,192,148636,1,0,3:0:0:0:
182,192,148636,128,2,148794:2:0:0:0:
475,192,148794,1,8,3:0:0:0:
36,192,148794,1,8,3:0:0:0:
402,192,148794,128,2,148952:2:0:0:0:
256,192,148952,1,0,3:0:0:0:
109,192,148952,128,2,149110:2:0:0:0:
475,192,149110,1,4,3:0:0:0:
182,192,149110,1,4,3:0:0:0:
329,192,149110,128,2,149268:2:0:0:0:
402,192,149268,1,0,3:0:0:0:
36,192,149268,128,2,149426:2:0:0:0:
329,192,149426,1,8,3:0:0:0:
109,192,149426,1,8,3:0:0:0:
256,192,149426,128,2,149584:2:0:0:0:
182,192,149584,1,0,3:0:0:0:
475,192,149584,128,2,149742:2:0:0:0:
402,192,149742,128,0,150215:2:0:0:0:
36,192,149742,1,4,3:0:0:0:
256,192,149742,1,4,3:0:0:0:
329,192,149899,128,0,150057:3:0:0:0:
36,192,150057,1,8,3:0:0:0:
475,192,150057,1,8,3:0:0:0:
109,192,150057,128,0,150531:2:0:0:0:
182,192,150215,128,0,150373:3:0:0:0:
256,192,150373,1,4,3:0:0:0:
329,192,150373,1,4,3:0:0:0:
475,192,150373,128,0,150847:2:0:0:0:
402,192,150531,128,0,150689:3:0:0:0:
256,192,150689,1,8,3:0:0:0:
182,192,150689,1,8,3:0:0:0:
36,192,150689,128,0,151163:2:0:0:0:
109,192,150847,128,0,151005:3:0:0:0:
329,192,151005,1,4,3:0:0:0:
475,192,151005,1,4,3:0:0:0:
256,192,151005,128,0,151320:2:0:0:0:
182,192,151163,1,0,3:0:0:0:
402,192,151163,128,0,151478:2:0:0:0:
329,192,151320,1,8,3:0:0:0:
109,192,151320,1,8,3:0:0:0:
256,192,151478,1,0,3:0:0:0:
36,192,151478,128,0,151794:2:0:0:0:
109,192,151636,1,4,3:0:0:0:
402,192,151636,1,4,3:0:0:0:
182,192,151636,128,0,151952:2:0:0:0:
256,192,151794,1,0,3:0:0:0:
329,192,151794,128,0,152110:2:0:0:0:
36,192,151952,1,8,3:0:0:0:
402,192,151952,1,8,3:0:0:0:
475,192,151952,128,0,152110:2:0:0:0:
182,192,152110,1,0,3:0:0:0:
109,192,152268,128,0,152742:2:0:0:0:
475,192,152268,1,4,3:0:0:0:
329,192,152268,1,4,3:0:0:0:
256,192,152426,128,0,152584:3:0:0:0:
329,192,152584,1,8,3:0:0:0:
402,192,152584,128,0,153057:2:0:0:0:
36,192,152584,1,8,3:0:0:0:
256,192,152742,128,0,152899:3:0:0:0:
475,192,152899,1,4,3:0:0:0:
109,192,152899,128,0,153373:2:0:0:0:
182,192,152899,1,4,3:0:0:0:
256,192,153057,128,0,153215:3:0:0:0:
36,192,153215,1,8,3:0:0:0:
329,192,153215,1,8,3:0:0:0:
402,192,153215,128,0,153531:2:0:0:0:
256,192,153373,128,0,153531:3:0:0:0:
36,192,153531,1,4,3:0:0:0:
182,192,153531,1,4,3:0:0:0:
475,192,153531,1,4,3:0:0:0:
329,192,153531,1,4,3:0:0:0:
182,192,153847,1,4,3:0:0:0:
36,192,153847,1,4,3:0:0:0:
329,192,153847,1,4,3:0:0:0:
475,192,153847,1,4,3:0:0:0:
109,192,154794,1,0,3:0:0:0:
475,192,154794,1,8,3:0:0:0:
256,192,154794,1,4,2:0:0:0:
36,192,154794,1,8,3:0:0:0:
329,192,154794,128,0,154952:2:0:0:0:
182,192,154952,128,0,155110:2:0:0:0:
402,192,155110,128,0,155268:2:0:0:0:
36,192,155110,1,8,3:0:0:0:
475,192,155110,1,8,3:0:0:0:
256,192,155268,128,0,155426:2:0:0:0:
109,192,155426,128,0,155742:2:0:0:0:
36,192,155426,1,8,3:0:0:0:
475,192,155426,1,8,3:0:0:0:
256,192,155584,1,4,3:0:0:0:
402,192,155742,128,0,155899:2:0:0:0:
36,192,155742,1,8,3:0:0:0:
475,192,155742,1,8,3:0:0:0:
256,192,155899,128,0,156057:2:0:0:0:
182,192,155899,1,4,3:0:0:0:
109,192,156057,128,0,156215:2:0:0:0:
36,192,156057,1,8,3:0:0:0:
475,192,156057,1,8,3:0:0:0:
329,192,156215,128,0,156373:2:0:0:0:
182,192,156373,128,0,156689:2:0:0:0:
36,192,156373,1,8,3:0:0:0:
475,192,156373,1,8,3:0:0:0:
256,192,156531,1,4,3:0:0:0:
402,192,156689,128,0,156847:2:0:0:0:
36,192,156689,1,8,3:0:0:0:
475,192,156689,1,8,3:0:0:0:
256,192,156847,128,0,157005:2:0:0:0:
182,192,156847,1,4,3:0:0:0:
109,192,157005,128,0,157163:2:0:0:0:
36,192,157005,1,8,3:0:0:0:
475,192,157005,1,8,3:0:0:0:
329,192,157163,128,0,157320:2:0:0:0:
256,192,157163,1,4,3:0:0:0:
182,192,157320,128,0,157478:2:0:0:0:
36,192,157320,1,8,3:0:0:0:
475,192,157320,1,8,3:0:0:0:
402,192,157478,128,0,157636:2:0:0:0:
256,192,157636,128,0,157794:2:0:0:0:
36,192,157636,1,8,3:0:0:0:
475,192,157636,1,8,3:0:0:0:
109,192,157794,128,0,157952:2:0:0:0:
182,192,157794,1,4,3:0:0:0:
329,192,157952,128,0,158268:2:0:0:0:
36,192,157952,1,8,3:0:0:0:
475,192,157952,1,8,3:0:0:0:
256,192,158110,1,4,3:0:0:0:
109,192,158268,128,0,158426:2:0:0:0:
36,192,158268,1,8,3:0:0:0:
475,192,158268,1,8,3:0:0:0:
256,192,158426,128,0,158584:2:0:0:0:
329,192,158426,1,4,3:0:0:0:
402,192,158584,128,0,158742:2:0:0:0:
36,192,158584,1,8,3:0:0:0:
475,192,158584,1,8,3:0:0:0:
109,192,158742,128,0,158899:2:0:0:0:
256,192,158899,128,0,159215:2:0:0:0:
329,192,158899,1,8,3:0:0:0:
475,192,158899,1,8,3:0:0:0:
182,192,159057,1,4,3:0:0:0:
402,192,159215,128,0,159373:2:0:0:0:
36,192,159215,1,8,3:0:0:0:
475,192,159215,1,8,3:0:0:0:
109,192,159373,128,0,159531:2:0:0:0:
256,192,159373,1,4,3:0:0:0:
329,192,159531,128,0,159689:2:0:0:0:
36,192,159531,1,8,3:0:0:0:
475,192,159531,1,8,3:0:0:0:
182,192,159689,128,0,159847:2:0:0:0:
256,192,159689,1,4,3:0:0:0:
329,192,159847,1,4,2:0:0:0:
475,192,159847,1,8,3:0:0:0:
36,192,159847,128,0,160005:2:0:0:0:
109,192,159847,1,8,3:0:0:0:
402,192,160005,128,0,160163:2:0:0:0:
109,192,160163,128,0,160320:2:0:0:0:
475,192,160163,1,8,3:0:0:0:
36,192,160163,1,8,3:0:0:0:
256,192,160320,128,0,160478:2:0:0:0:
402,192,160478,128,0,160794:2:0:0:0:
475,192,160478,1,8,3:0:0:0:
36,192,160478,1,8,3:0:0:0:
256,192,160636,1,4,3:0:0:0:
109,192,160794,128,0,160952:2:0:0:0:
475,192,160794,1,8,3:0:0:0:
36,192,160794,1,8,3:0:0:0:
256,192,160952,128,0,161110:2:0:0:0:
329,192,160952,1,4,3:0:0:0:
402,192,161110,128,0,161268:2:0:0:0:
475,192,161110,1,8,3:0:0:0:
36,192,161110,1,8,3:0:0:0:
182,192,161268,128,0,161426:2:0:0:0:
329,192,161426,128,0,161742:2:0:0:0:
475,192,161426,1,8,3:0:0:0:
36,192,161426,1,8,3:0:0:0:
256,192,161584,1,4,3:0:0:0:
109,192,161742,128,0,161899:2:0:0:0:
475,192,161742,1,8,3:0:0:0:
36,192,161742,1,8,3:0:0:0:
256,192,161899,128,0,162057:2:0:0:0:
329,192,161899,1,4,3:0:0:0:
402,192,162057,128,0,162215:2:0:0:0:
475,192,162057,1,8,3:0:0:0:
36,192,162057,1,8,3:0:0:0:
182,192,162215,128,0,162373:2:0:0:0:
256,192,162215,1,4,3:0:0:0:
329,192,162373,128,0,162531:2:0:0:0:
475,192,162373,1,8,3:0:0:0:
36,192,162373,1,8,3:0:0:0:
109,192,162531,128,0,162689:2:0:0:0:
256,192,162689,128,0,162847:2:0:0:0:
475,192,162689,1,8,3:0:0:0:
36,192,162689,1,8,3:0:0:0:
402,192,162847,128,0,163005:2:0:0:0:
329,192,162847,1,4,3:0:0:0:
182,192,163005,128,0,163320:2:0:0:0:
475,192,163005,1,8,3:0:0:0:
36,192,163005,1,8,3:0:0:0:
256,192,163163,1,4,3:0:0:0:
329,192,163320,128,0,163478:2:0:0:0:
475,192,163320,1,8,3:0:0:0:
109,192,163320,1,8,3:0:0:0:
36,192,163478,128,0,163636:2:0:0:0:
256,192,163478,1,4,3:0:0:0:
182,192,163636,128,0,163794:2:0:0:0:
402,192,163636,1,8,3:0:0:0:
109,192,163636,1,8,3:0:0:0:
329,192,163794,128,0,163952:2:0:0:0:
475,192,163952,128,0,164110:2:0:0:0:
182,192,163952,1,8,3:0:0:0:
36,192,163952,1,8,3:0:0:0:
329,192,164110,1,4,3:0:0:0:
109,192,164110,128,0,164268:2:0:0:0:
256,192,164268,128,0,164426:2:0:0:0:
475,192,164268,1,8,3:0:0:0:
182,192,164268,1,8,3:0:0:0:
402,192,164426,128,0,164584:2:0:0:0:
109,192,164426,1,4,3:0:0:0:
36,192,164584,128,0,164742:2:0:0:0:
475,192,164584,1,8,3:0:0:0:
256,192,164584,1,8,3:0:0:0:
182,192,164742,128,0,164899:2:0:0:0:
402,192,164742,1,4,3:0:0:0:
329,192,164820,1,4,3:0:0:0:
256,192,164899,5,4,3:0:0:0:
475,192,164899,1,4,3:0:0:0:
36,192,165057,1,0,3:0:0:0:
402,192,165215,1,4,3:0:0:0:
256,192,165215,1,4,3:0:0:0:
36,192,165373,1,0,3:0:0:0:
329,192,165531,1,4,3:0:0:0:
182,192,165531,1,4,3:0:0:0:
36,192,165689,1,0,3:0:0:0:
256,192,165847,1,4,3:0:0:0:
109,192,165847,1,4,3:0:0:0:
36,192,166005,1,0,3:0:0:0:
329,192,166163,1,4,3:0:0:0:
475,192,166163,1,4,3:0:0:0:
36,192,166320,1,0,3:0:0:0:
402,192,166478,1,4,3:0:0:0:
256,192,166478,1,4,3:0:0:0:
36,192,166636,1,0,3:0:0:0:
329,192,166794,1,4,3:0:0:0:
182,192,166794,1,4,3:0:0:0:
36,192,166952,1,0,3:0:0:0:
256,192,167110,1,4,3:0:0:0:
109,192,167110,1,4,3:0:0:0:
475,192,167268,1,0,3:0:0:0:
36,192,167426,1,4,3:0:0:0:
182,192,167426,1,4,3:0:0:0:
475,192,167584,1,0,3:0:0:0:
109,192,167742,1,4,3:0:0:0:
256,192,167742,1,4,3:0:0:0:
475,192,167899,1,0,3:0:0:0:
182,192,168057,1,4,3:0:0:0:
329,192,168057,1,4,3:0:0:0:
475,192,168215,1,0,3:0:0:0:
256,192,168373,1,4,3:0:0:0:
402,192,168373,1,4,3:0:0:0:
475,192,168531,1,0,3:0:0:0:
182,192,168689,1,4,3:0:0:0:
36,192,168689,1,4,3:0:0:0:
475,192,168847,1,0,3:0:0:0:
109,192,169005,1,4,3:0:0:0:
256,192,169005,1,4,3:0:0:0:
475,192,169163,1,0,3:0:0:0:
182,192,169320,1,4,3:0:0:0:
329,192,169320,1,4,3:0:0:0:
475,192,169478,1,0,3:0:0:0:
256,192,169636,1,4,3:0:0:0:
402,192,169636,1,4,3:0:0:0:
36,192,169794,1,4,3:0:0:0:
109,192,169873,1,4,3:0:0:0:
329,192,169952,128,4,170110:3:0:0:0:
475,192,169952,128,4,170268:3:0:0:0:
182,192,169952,1,4,2:0:0:0:
36,192,170110,1,0,3:0:0:0:
256,192,170268,128,8,170426:3:0:0:0:
402,192,170268,128,8,170584:3:0:0:0:
36,192,170426,1,0,3:0:0:0:
182,192,170584,128,4,170742:3:0:0:0:
329,192,170584,128,4,170899:3:0:0:0:
36,192,170742,1,0,3:0:0:0:
109,192,170899,128,8,171057:3:0:0:0:
256,192,170899,128,8,171215:3:0:0:0:
36,192,171057,1,0,3:0:0:0:
329,192,171215,128,4,171531:3:0:0:0:
475,192,171215,128,4,171373:3:0:0:0:
36,192,171373,1,0,3:0:0:0:
256,192,171531,128,8,171847:3:0:0:0:
402,192,171531,128,8,171689:3:0:0:0:
36,192,171689,1,0,3:0:0:0:
182,192,171847,128,4,172163:3:0:0:0:
329,192,171847,128,4,172005:3:0:0:0:
36,192,172005,1,0,3:0:0:0:
109,192,172163,128,8,172478:3:0:0:0:
256,192,172163,128,8,172320:3:0:0:0:
475,192,172320,1,0,3:0:0:0:
182,192,172478,128,4,172636:3:0:0:0:
36,192,172478,128,4,172794:3:0:0:0:
475,192,172636,1,0,3:0:0:0:
109,192,172794,128,8,173110:3:0:0:0:
256,192,172794,128,8,172952:3:0:0:0:
475,192,172952,1,0,3:0:0:0:
182,192,173110,128,4,173426:3:0:0:0:
329,192,173110,128,4,173268:3:0:0:0:
475,192,173268,1,0,3:0:0:0:
256,192,173426,128,8,173742:3:0:0:0:
402,192,173426,128,8,173584:3:0:0:0:
475,192,173584,1,0,3:0:0:0:
182,192,173742,128,4,174057:3:0:0:0:
36,192,173742,128,4,173899:3:0:0:0:
475,192,173899,1,0,3:0:0:0:
256,192,174057,128,8,174373:3:0:0:0:
109,192,174057,128,8,174215:3:0:0:0:
475,192,174215,1,0,3:0:0:0:
329,192,174373,128,4,174689:3:0:0:0:
182,192,174373,128,4,174531:3:0:0:0:
475,192,174531,1,0,3:0:0:0:
402,192,174689,128,8,175005:3:0:0:0:
256,192,174689,128,8,174847:3:0:0:0:
36,192,174689,1,4,3:0:0:0:
109,192,174768,1,4,3:0:0:0:
182,192,174847,1,4,3:0:0:0:
36,192,174926,1,4,3:0:0:0:
329,192,175005,128,4,175320:3:0:0:0:
475,192,175005,128,4,176110:3:0:0:0:
109,192,175005,1,4,3:0:0:0:
256,192,175005,1,4,2:0:0:0:
36,192,175163,128,0,175320:3:0:0:0:
256,192,175320,128,8,175636:3:0:0:0:
402,192,175320,128,8,176426:3:0:0:0:
36,192,175478,128,0,175636:3:0:0:0:
329,192,175636,128,4,176110:3:0:0:0:
182,192,175636,128,4,175952:3:0:0:0:
36,192,175794,128,0,175952:3:0:0:0:
256,192,175952,128,8,176426:3:0:0:0:
109,192,175952,128,8,176268:3:0:0:0:
36,192,176110,128,0,176268:3:0:0:0:
329,192,176268,128,4,176742:3:0:0:0:
475,192,176268,128,4,176584:3:0:0:0:
36,192,176426,128,0,176584:3:0:0:0:
256,192,176584,128,8,177057:3:0:0:0:
402,192,176584,128,8,176899:3:0:0:0:
36,192,176742,128,0,176899:3:0:0:0:
182,192,176899,128,4,177373:3:0:0:0:
329,192,176899,128,4,177215:3:0:0:0:
36,192,177057,128,0,177215:3:0:0:0:
256,192,177215,128,8,177531:3:0:0:0:
109,192,177215,128,8,177531:3:0:0:0:
475,192,177373,128,0,177531:3:0:0:0:
182,192,177531,128,4,177847:3:0:0:0:
36,192,177531,128,4,178636:3:0:0:0:
475,192,177689,128,0,177847:3:0:0:0:
256,192,177847,128,8,178163:3:0:0:0:
109,192,177847,128,8,178952:3:0:0:0:
475,192,178005,128,0,178163:3:0:0:0:
329,192,178163,128,4,178478:3:0:0:0:
182,192,178163,128,4,178636:3:0:0:0:
475,192,178320,128,0,178478:3:0:0:0:
402,192,178478,128,8,178794:3:0:0:0:
256,192,178478,128,8,178952:3:0:0:0:
475,192,178636,128,0,178794:3:0:0:0:
182,192,178794,128,4,179268:3:0:0:0:
36,192,178794,128,4,179110:3:0:0:0:
475,192,178952,128,0,179110:3:0:0:0:
109,192,179110,128,8,179426:3:0:0:0:
256,192,179110,128,8,179584:3:0:0:0:
475,192,179268,128,0,179426:3:0:0:0:
182,192,179426,128,4,179742:3:0:0:0:
329,192,179426,128,4,179899:3:0:0:0:
475,192,179584,128,0,179742:3:0:0:0:
256,192,179742,128,8,180057:3:0:0:0:
402,192,179742,128,8,180057:3:0:0:0:
36,192,179899,128,0,180057:3:0:0:0:
329,192,180057,1,4,3:0:0:0:
475,192,180057,128,4,180373:3:0:0:0:
109,192,180057,128,4,180373:2:0:0:0:
182,192,180057,1,4,3:0:0:0:
36,192,180373,1,8,3:0:0:0:
402,192,180373,1,8,3:0:0:0:
256,192,180373,1,8,3:0:0:0:
329,192,180531,1,4,3:0:0:0:
256,192,180610,1,4,3:0:0:0:
182,192,180689,1,4,3:0:0:0:
475,192,180689,128,4,181005:2:0:0:0:
109,192,180689,128,4,181005:3:0:0:0:
36,192,181005,1,8,3:0:0:0:
402,192,181005,1,8,3:0:0:0:
256,192,181005,1,8,3:0:0:0:
182,192,181163,1,4,3:0:0:0:
256,192,181242,1,4,3:0:0:0:
329,192,181320,1,4,3:0:0:0:
475,192,181320,128,4,181636:3:0:0:0:
109,192,181320,128,4,181636:2:0:0:0:
36,192,181636,1,8,3:0:0:0:
256,192,181636,1,8,3:0:0:0:
402,192,181636,1,8,3:0:0:0:
329,192,181794,1,4,3:0:0:0:
256,192,181873,1,4,3:0:0:0:
182,192,181952,1,4,3:0:0:0:
475,192,181952,128,4,182268:2:0:0:0:
109,192,181952,128,4,182268:3:0:0:0:
402,192,182268,1,8,3:0:0:0:
256,192,182268,1,8,3:0:0:0:
36,192,182268,1,8,3:0:0:0:
182,192,182505,1,4,3:0:0:0:
36,192,182584,1,4,2:0:0:0:
329,192,182584,1,4,3:0:0:0:
475,192,182584,1,4,3:0:0:0:
36,192,182899,1,4,2:0:0:0:
256,192,182899,1,8,3:0:0:0:
402,192,182899,1,8,3:0:0:0:
36,192,183215,1,4,2:0:0:0:
329,192,183215,1,4,3:0:0:0:
475,192,183215,1,4,3:0:0:0:
182,192,183215,1,4,3:0:0:0:
36,192,183531,1,4,2:0:0:0:
182,192,183531,1,8,3:0:0:0:
402,192,183531,1,8,3:0:0:0:
256,192,183847,1,8,3:0:0:0:
36,192,183847,1,4,2:0:0:0:
475,192,183847,1,8,3:0:0:0:
182,192,183847,1,8,3:0:0:0:
256,192,184163,1,8,3:0:0:0:
475,192,184163,1,8,3:0:0:0:
36,192,184163,1,4,2:0:0:0:
182,192,184163,1,8,3:0:0:0:
256,192,184478,1,8,3:0:0:0:
182,192,184478,128,0,184794:2:0:0:0:
36,192,184478,1,4,2:0:0:0:
475,192,184478,1,8,3:0:0:0:
329,192,184557,1,4,3:0:0:0:
402,192,184636,1,4,3:0:0:0:
329,192,184715,1,4,3:0:0:0:
475,192,184794,128,0,185110:2:0:0:0:
256,192,184794,1,8,3:0:0:0:
36,192,184794,1,8,3:0:0:0:
109,192,184873,1,4,3:0:0:0:
182,192,184952,1,4,3:0:0:0:
256,192,185031,1,4,3:0:0:0:
329,192,185110,1,4,3:0:0:0:
402,192,185110,1,4,3:0:0:0:
36,192,185110,128,0,186215:2:0:0:0:
256,192,185268,1,4,3:0:0:0:
182,192,185268,1,4,3:0:0:0:
402,192,185426,1,4,3:0:0:0:
475,192,185426,1,4,3:0:0:0:
256,192,185584,1,4,3:0:0:0:
329,192,185584,1,4,3:0:0:0:
182,192,185742,1,4,3:0:0:0:
109,192,185742,1,4,3:0:0:0:
329,192,185899,1,4,3:0:0:0:
402,192,185899,1,4,3:0:0:0:
256,192,186057,1,4,3:0:0:0:
182,192,186057,1,4,3:0:0:0:
329,192,186215,128,0,186847:2:0:0:0:
402,192,186215,1,8,3:0:0:0:
475,192,186215,1,8,3:0:0:0:
109,192,186215,1,8,3:0:0:0:
182,192,186531,1,4,3:0:0:0:
109,192,186531,1,4,3:0:0:0:
256,192,186689,1,8,3:0:0:0:
36,192,186689,1,8,3:0:0:0:
475,192,186689,1,8,3:0:0:0:
402,192,186847,1,4,3:0:0:0:
256,192,186926,1,4,3:0:0:0:
182,192,187005,128,0,187636:2:0:0:0:
109,192,187005,1,8,3:0:0:0:
475,192,187005,1,8,3:0:0:0:
402,192,187084,1,4,3:0:0:0:
329,192,187163,1,4,3:0:0:0:
256,192,187242,1,4,3:0:0:0:
109,192,187320,1,8,3:0:0:0:
475,192,187320,1,8,3:0:0:0:
402,192,187320,1,8,3:0:0:0:
36,192,187320,1,8,3:0:0:0:
475,192,187636,128,0,188742:2:0:0:0:
36,192,187636,1,4,2:0:0:0:
256,192,187636,1,4,3:0:0:0:
329,192,187636,1,4,3:0:0:0:
109,192,187794,1,4,3:0:0:0:
182,192,187794,1,4,3:0:0:0:
329,192,187952,1,4,3:0:0:0:
402,192,187952,1,4,3:0:0:0:
182,192,188110,1,4,3:0:0:0:
256,192,188110,1,4,3:0:0:0:
36,192,188268,1,4,3:0:0:0:
109,192,188268,1,4,3:0:0:0:
329,192,188426,1,4,3:0:0:0:
256,192,188426,1,4,3:0:0:0:
182,192,188584,1,4,3:0:0:0:
109,192,188584,1,4,3:0:0:0:
256,192,188742,128,0,189057:2:0:0:0:
402,192,188742,1,8,3:0:0:0:
36,192,188742,1,8,3:0:0:0:
329,192,188742,1,8,3:0:0:0:
36,192,189057,128,0,189531:2:0:0:0:
329,192,189057,1,4,3:0:0:0:
402,192,189057,1,4,3:0:0:0:
109,192,189215,1,8,3:0:0:0:
182,192,189215,1,8,3:0:0:0:
475,192,189215,1,8,3:0:0:0:
402,192,189294,1,4,3:0:0:0:
329,192,189373,1,4,3:0:0:0:
256,192,189452,1,4,3:0:0:0:
182,192,189531,128,0,189847:2:0:0:0:
109,192,189531,1,8,3:0:0:0:
475,192,189531,1,8,3:0:0:0:
402,192,189610,1,4,3:0:0:0:
329,192,189689,1,4,3:0:0:0:
256,192,189768,1,8,3:0:0:0:
329,192,189847,128,0,190163:2:0:0:0:
109,192,189847,1,8,3:0:0:0:
36,192,189847,1,8,3:0:0:0:
475,192,189847,1,8,3:0:0:0:
402,192,190163,128,0,191268:2:0:0:0:
36,192,190163,1,4,3:0:0:0:
182,192,190163,1,4,3:0:0:0:
109,192,190320,1,4,3:0:0:0:
256,192,190320,1,4,3:0:0:0:
182,192,190478,1,4,3:0:0:0:
329,192,190478,1,4,3:0:0:0:
256,192,190636,1,4,3:0:0:0:
109,192,190636,1,4,3:0:0:0:
36,192,190794,1,4,3:0:0:0:
182,192,190794,1,4,3:0:0:0:
256,192,190952,1,4,3:0:0:0:
109,192,190952,1,4,3:0:0:0:
182,192,191110,1,4,3:0:0:0:
329,192,191110,1,4,3:0:0:0:
109,192,191268,128,0,191899:2:0:0:0:
256,192,191268,1,8,3:0:0:0:
36,192,191268,1,8,3:0:0:0:
475,192,191268,1,8,3:0:0:0:
182,192,191584,1,4,3:0:0:0:
329,192,191584,1,4,3:0:0:0:
36,192,191742,1,8,3:0:0:0:
256,192,191742,1,8,3:0:0:0:
402,192,191742,1,8,3:0:0:0:
329,192,191899,1,4,3:0:0:0:
256,192,191978,1,4,3:0:0:0:
109,192,192057,128,0,192689:2:0:0:0:
475,192,192057,1,8,3:0:0:0:
182,192,192057,1,8,3:0:0:0:
402,192,192136,1,4,3:0:0:0:
329,192,192215,1,4,3:0:0:0:
256,192,192294,1,4,3:0:0:0:
182,192,192373,1,8,3:0:0:0:
36,192,192373,1,8,3:0:0:0:
402,192,192373,1,8,3:0:0:0:
475,192,192373,1,8,3:0:0:0:
36,192,192689,5,8,3:0:0:0:
256,192,192689,1,4,2:0:0:0:
329,192,192689,1,8,3:0:0:0:
475,192,192689,1,8,3:0:0:0:
36,192,193163,1,8,3:0:0:0:
182,192,193163,1,8,3:0:0:0:
256,192,193163,1,4,2:0:0:0:
402,192,193163,1,8,3:0:0:0:
109,192,193636,5,8,3:0:0:0:
256,192,193636,1,4,2:0:0:0:
329,192,193636,1,8,3:0:0:0:
402,192,193636,1,8,3:0:0:0:
36,192,194110,5,8,3:0:0:0:
256,192,194110,1,8,3:0:0:0:
475,192,194110,1,8,3:0:0:0:
36,192,194268,1,8,3:0:0:0:
256,192,194268,1,8,3:0:0:0:
475,192,194268,1,8,3:0:0:0:
36,192,194426,1,8,3:0:0:0:
256,192,194426,1,8,3:0:0:0:
475,192,194426,1,8,3:0:0:0:
475,192,194584,1,8,3:0:0:0:
36,192,194584,1,8,3:0:0:0:
182,192,194584,1,8,3:0:0:0:
329,192,194584,1,4,2:0:0:0:
256,192,194742,5,8,2:0:0:0:
256,192,194899,1,8,2:0:0:0:
256,192,195057,1,8,2:0:0:0:
402,192,195215,128,0,195689:2:0:0:0:
475,192,195215,1,4,3:0:0:0:
36,192,195215,1,4,3:0:0:0:
182,192,195215,1,4,2:0:0:0:
329,192,195373,128,0,195531:3:0:0:0:
182,192,195531,128,0,196005:2:0:0:0:
36,192,195531,1,8,3:0:0:0:
109,192,195531,1,8,3:0:0:0:
256,192,195689,128,0,195847:3:0:0:0:
475,192,195847,128,0,196320:2:0:0:0:
329,192,195847,1,4,3:0:0:0:
36,192,195847,1,4,3:0:0:0:
402,192,196005,128,0,196163:3:0:0:0:
109,192,196163,128,0,196636:2:0:0:0:
256,192,196163,1,8,3:0:0:0:
36,192,196163,1,8,3:0:0:0:
182,192,196320,128,0,196478:3:0:0:0:
329,192,196478,1,4,3:0:0:0:
475,192,196478,1,4,3:0:0:0:
402,192,196636,128,2,196794:2:0:0:0:
256,192,196636,1,0,3:0:0:0:
182,192,196794,128,2,196952:2:0:0:0:
36,192,196794,1,8,3:0:0:0:
109,192,196794,1,8,3:0:0:0:
475,192,196952,128,2,197110:2:0:0:0:
256,192,196952,1,0,3:0:0:0:
329,192,197110,128,2,197268:2:0:0:0:
402,192,197110,1,4,3:0:0:0:
109,192,197110,1,4,3:0:0:0:
36,192,197268,128,2,197426:2:0:0:0:
256,192,197268,1,0,3:0:0:0:
402,192,197426,128,2,197584:2:0:0:0:
475,192,197426,1,8,3:0:0:0:
109,192,197426,1,8,3:0:0:0:
256,192,197584,128,2,197742:2:0:0:0:
182,192,197584,1,0,3:0:0:0:
36,192,197742,1,4,3:0:0:0:
329,192,197742,1,4,3:0:0:0:
475,192,197742,128,0,198215:2:0:0:0:
402,192,197899,128,0,198057:3:0:0:0:
109,192,198057,128,0,198531:2:0:0:0:
36,192,198057,1,8,3:0:0:0:
256,192,198057,1,8,3:0:0:0:
182,192,198215,128,0,198373:3:0:0:0:
402,192,198373,128,0,198847:2:0:0:0:
475,192,198373,1,4,3:0:0:0:
256,192,198373,1,4,3:0:0:0:
329,192,198531,128,0,198689:3:0:0:0:
36,192,198689,128,0,199163:2:0:0:0:
475,192,198689,1,8,3:0:0:0:
182,192,198689,1,8,3:0:0:0:
109,192,198847,128,0,199005:3:0:0:0:
256,192,199005,1,8,3:0:0:0:
475,192,199005,1,8,3:0:0:0:
402,192,199163,128,2,199320:2:0:0:0:
182,192,199163,1,0,3:0:0:0:
109,192,199320,128,2,199478:2:0:0:0:
329,192,199320,1,4,3:0:0:0:
36,192,199320,1,4,3:0:0:0:
256,192,199478,128,2,199636:2:0:0:0:
402,192,199478,1,0,3:0:0:0:
475,192,199636,128,2,199794:2:0:0:0:
109,192,199636,1,8,3:0:0:0:
182,192,199636,1,8,3:0:0:0:
36,192,199794,128,2,199952:2:0:0:0:
256,192,199794,1,0,3:0:0:0:
329,192,199952,128,2,200110:2:0:0:0:
109,192,199952,1,4,3:0:0:0:
475,192,199952,1,4,3:0:0:0:
182,192,200110,128,2,200268:2:0:0:0:
402,192,200110,1,0,3:0:0:0:
329,192,200268,1,8,3:0:0:0:
36,192,200268,1,8,3:0:0:0:
256,192,200268,128,0,200584:2:0:0:0:
109,192,200426,128,0,200742:3:0:0:0:
329,192,200584,128,0,200899:2:0:0:0:
36,192,200584,1,4,3:0:0:0:
402,192,200584,1,4,3:0:0:0:
182,192,200742,128,0,201057:3:0:0:0:
402,192,200899,128,0,201215:2:0:0:0:
475,192,200899,1,4,3:0:0:0:
109,192,200899,1,4,3:0:0:0:
256,192,201057,128,0,201373:3:0:0:0:
475,192,201215,128,0,201689:2:0:0:0:
182,192,201215,1,8,3:0:0:0:
36,192,201215,1,8,3:0:0:0:
329,192,201373,128,0,201531:3:0:0:0:
256,192,201531,128,0,201847:2:0:0:0:
182,192,201531,1,4,3:0:0:0:
36,192,201531,1,4,3:0:0:0:
402,192,201689,128,0,202005:3:0:0:0:
182,192,201847,128,0,202163:2:0:0:0:
475,192,201847,1,8,3:0:0:0:
109,192,201847,1,8,3:0:0:0:
329,192,202005,128,0,202320:3:0:0:0:
109,192,202163,128,0,202478:2:0:0:0:
36,192,202163,1,4,3:0:0:0:
402,192,202163,1,4,3:0:0:0:
256,192,202320,128,0,202636:3:0:0:0:
36,192,202478,128,0,202794:2:0:0:0:
329,192,202478,1,8,3:0:0:0:
475,192,202478,1,8,3:0:0:0:
182,192,202636,128,0,202952:3:0:0:0:
256,192,202794,1,4,3:0:0:0:
402,192,202794,128,2,203110:2:0:0:0:
329,192,202794,1,4,3:0:0:0:
109,192,202952,128,2,203268:2:0:0:0:
475,192,202952,1,0,3:0:0:0:
329,192,203110,128,2,203426:2:0:0:0:
182,192,203110,1,8,3:0:0:0:
256,192,203110,1,8,3:0:0:0:
36,192,203268,128,2,203584:2:0:0:0:
402,192,203268,1,0,3:0:0:0:
256,192,203426,128,2,203742:2:0:0:0:
109,192,203426,1,4,3:0:0:0:
182,192,203426,1,4,3:0:0:0:
329,192,203584,1,0,3:0:0:0:
402,192,203742,128,2,204057:2:0:0:0:
36,192,203742,1,8,3:0:0:0:
182,192,203742,1,8,3:0:0:0:
109,192,203899,128,2,204057:2:0:0:0:
256,192,203899,1,0,3:0:0:0:
329,192,204057,1,4,3:0:0:0:
475,192,204057,1,4,3:0:0:0:
182,192,204215,1,8,3:0:0:0:
36,192,204215,1,8,3:0:0:0:
256,192,204215,1,8,3:0:0:0:
402,192,204373,1,4,3:0:0:0:
329,192,204373,1,4,3:0:0:0:
475,192,204373,1,4,3:0:0:0:
109,192,204531,1,0,3:0:0:0:
182,192,204531,1,0,3:0:0:0:
475,192,204689,1,4,3:0:0:0:
256,192,204689,1,4,3:0:0:0:
402,192,204768,1,4,3:0:0:0:
182,192,204768,1,4,3:0:0:0:
329,192,204847,1,4,3:0:0:0:
109,192,204847,1,4,3:0:0:0:
475,192,205005,128,8,205320:3:0:0:0:
256,192,205005,128,8,205320:3:0:0:0:
36,192,205005,128,8,205320:3:0:0:0:
182,192,205320,1,4,3:0:0:0:
402,192,205320,128,0,205794:2:0:0:0:
109,192,205320,1,4,3:0:0:0:
329,192,205478,128,0,205636:3:0:0:0:
182,192,205636,128,0,206110:2:0:0:0:
475,192,205636,1,8,3:0:0:0:
36,192,205636,1,8,3:0:0:0:
256,192,205794,128,0,205952:3:0:0:0:
475,192,205952,128,0,206426:2:0:0:0:
329,192,205952,1,4,3:0:0:0:
109,192,205952,1,4,3:0:0:0:
402,192,206110,128,0,206268:3:0:0:0:
36,192,206268,128,0,206742:2:0:0:0:
182,192,206268,1,8,3:0:0:0:
256,192,206268,1,8,3:0:0:0:
109,192,206426,128,0,206584:3:0:0:0:
402,192,206584,1,4,3:0:0:0:
256,192,206584,1,4,3:0:0:0:
329,192,206742,128,2,206899:2:0:0:0:
182,192,206742,1,0,3:0:0:0:
109,192,206899,128,2,207057:2:0:0:0:
475,192,206899,1,8,3:0:0:0:
36,192,206899,1,8,3:0:0:0:
402,192,207057,128,2,207215:2:0:0:0:
256,192,207057,1,0,3:0:0:0:
182,192,207215,128,2,207373:2:0:0:0:
329,192,207215,1,4,3:0:0:0:
36,192,207215,1,4,3:0:0:0:
475,192,207373,128,2,207531:2:0:0:0:
109,192,207373,1,0,3:0:0:0:
256,192,207531,128,2,207689:2:0:0:0:
402,192,207531,1,8,3:0:0:0:
182,192,207531,1,8,3:0:0:0:
36,192,207689,128,2,207847:2:0:0:0:
329,192,207689,1,0,3:0:0:0:
256,192,207847,1,4,3:0:0:0:
475,192,207847,1,4,3:0:0:0:
109,192,207847,128,0,208320:2:0:0:0:
182,192,208005,128,0,208163:3:0:0:0:
402,192,208163,128,0,208636:2:0:0:0:
36,192,208163,1,8,3:0:0:0:
475,192,208163,1,8,3:0:0:0:
329,192,208320,128,0,208478:3:0:0:0:
36,192,208478,128,0,208952:2:0:0:0:
182,192,208478,1,4,3:0:0:0:
256,192,208478,1,4,3:0:0:0:
109,192,208636,128,0,208794:3:0:0:0:
475,192,208794,128,0,209268:2:0:0:0:
329,192,208794,1,8,3:0:0:0:
256,192,208794,1,8,3:0:0:0:
402,192,208952,128,0,209110:3:0:0:0:
329,192,209110,1,4,3:0:0:0:
36,192,209110,1,4,3:0:0:0:
256,192,209110,128,0,209426:2:0:0:0:
182,192,209268,1,0,3:0:0:0:
109,192,209268,128,0,209584:2:0:0:0:
402,192,209426,1,8,3:0:0:0:
36,192,209426,1,8,3:0:0:0:
256,192,209584,1,0,3:0:0:0:
475,192,209584,128,0,209899:2:0:0:0:
109,192,209742,1,4,3:0:0:0:
402,192,209742,1,4,3:0:0:0:
329,192,209742,128,0,210057:2:0:0:0:
256,192,209899,1,0,3:0:0:0:
182,192,209899,128,0,210215:2:0:0:0:
475,192,210057,1,8,3:0:0:0:
109,192,210057,1,8,3:0:0:0:
36,192,210057,128,0,210215:2:0:0:0:
329,192,210215,1,0,3:0:0:0:
36,192,210373,1,4,3:0:0:0:
182,192,210373,1,4,3:0:0:0:
402,192,210373,128,0,210847:2:0:0:0:
256,192,210531,128,0,210689:3:0:0:0:
109,192,210689,128,0,211163:2:0:0:0:
475,192,210689,1,8,3:0:0:0:
36,192,210689,1,8,3:0:0:0:
256,192,210847,128,0,211005:3:0:0:0:
402,192,211005,128,0,211478:2:0:0:0:
329,192,211005,1,4,3:0:0:0:
475,192,211005,1,4,3:0:0:0:
256,192,211163,128,0,211320:3:0:0:0:
109,192,211320,128,0,211636:2:0:0:0:
182,192,211320,1,8,3:0:0:0:
36,192,211320,1,8,3:0:0:0:
256,192,211478,128,0,211636:3:0:0:0:
182,192,211636,1,4,2:0:0:0:
36,192,211636,1,4,3:0:0:0:
475,192,211636,1,4,3:0:0:0:
329,192,211636,1,4,3:0:0:0:
36,192,211952,1,4,3:0:0:0:
182,192,211952,1,4,2:0:0:0:
329,192,211952,1,4,3:0:0:0:
475,192,211952,1,4,3:0:0:0:
402,192,212268,1,4,3:0:0:0:
109,192,212268,1,4,3:0:0:0:
182,192,212347,1,4,3:0:0:0:
256,192,212426,1,4,3:0:0:0:
329,192,212505,1,4,3:0:0:0:
402,192,212584,1,4,3:0:0:0:
109,192,212584,1,4,3:0:0:0:
182,192,212663,1,4,3:0:0:0:
256,192,212742,1,4,3:0:0:0:
329,192,212820,1,4,3:0:0:0:
475,192,212899,1,4,3:0:0:0:
402,192,212899,1,4,3:0:0:0:
109,192,212899,128,0,213373:2:0:0:0:
36,192,212899,1,4,2:0:0:0:
182,192,213057,128,0,213215:3:0:0:0:
402,192,213215,1,8,3:0:0:0:
475,192,213215,1,8,3:0:0:0:
329,192,213215,128,0,213689:2:0:0:0:
256,192,213373,128,0,213531:3:0:0:0:
475,192,213531,1,4,3:0:0:0:
182,192,213531,1,4,3:0:0:0:
36,192,213531,128,0,214005:2:0:0:0:
109,192,213689,128,0,213847:3:0:0:0:
475,192,213847,1,8,3:0:0:0:
256,192,213847,1,8,3:0:0:0:
402,192,213847,128,0,214320:2:0:0:0:
329,192,214005,128,0,214163:3:0:0:0:
36,192,214163,1,4,3:0:0:0:
182,192,214163,1,4,3:0:0:0:
256,192,214320,1,0,3:0:0:0:
109,192,214320,128,2,214478:2:0:0:0:
402,192,214478,1,8,3:0:0:0:
475,192,214478,1,8,3:0:0:0:
329,192,214478,128,2,214636:2:0:0:0:
256,192,214636,1,0,3:0:0:0:
36,192,214636,128,2,214794:2:0:0:0:
402,192,214794,1,4,3:0:0:0:
109,192,214794,1,4,3:0:0:0:
182,192,214794,128,2,214952:2:0:0:0:
256,192,214952,1,0,3:0:0:0:
475,192,214952,128,2,215110:2:0:0:0:
402,192,215110,1,8,3:0:0:0:
36,192,215110,1,8,3:0:0:0:
109,192,215110,128,2,215268:2:0:0:0:
329,192,215268,1,0,3:0:0:0:
256,192,215268,128,2,215426:2:0:0:0:
36,192,215426,128,0,215899:2:0:0:0:
182,192,215426,1,4,3:0:0:0:
475,192,215426,1,4,3:0:0:0:
109,192,215584,128,0,215742:3:0:0:0:
256,192,215742,1,8,3:0:0:0:
475,192,215742,1,8,3:0:0:0:
402,192,215742,128,0,216215:2:0:0:0:
329,192,215899,128,0,216057:3:0:0:0:
256,192,216057,1,4,3:0:0:0:
36,192,216057,1,4,3:0:0:0:
109,192,216057,128,0,216531:2:0:0:0:
182,192,216215,128,0,216373:3:0:0:0:
329,192,216373,1,8,3:0:0:0:
36,192,216373,1,8,3:0:0:0:
475,192,216373,128,0,216847:2:0:0:0:
402,192,216531,128,0,216689:3:0:0:0:
36,192,216689,1,4,3:0:0:0:
256,192,216689,1,4,3:0:0:0:
329,192,216847,1,0,3:0:0:0:
109,192,216847,128,2,217005:2:0:0:0:
475,192,217005,1,8,3:0:0:0:
182,192,217005,1,8,3:0:0:0:
402,192,217005,128,2,217163:2:0:0:0:
109,192,217163,1,0,3:0:0:0:
256,192,217163,128,2,217320:2:0:0:0:
329,192,217320,1,4,3:0:0:0:
402,192,217320,1,4,3:0:0:0:
36,192,217320,128,2,217478:2:0:0:0:
256,192,217478,1,0,3:0:0:0:
475,192,217478,128,2,217636:2:0:0:0:
36,192,217636,1,8,3:0:0:0:
402,192,217636,1,8,3:0:0:0:
182,192,217636,128,2,217794:2:0:0:0:
109,192,217794,1,0,3:0:0:0:
329,192,217794,128,2,217952:2:0:0:0:
256,192,217952,128,0,218268:2:0:0:0:
475,192,217952,1,4,3:0:0:0:
182,192,217952,1,4,3:0:0:0:
402,192,218110,128,0,218426:3:0:0:0:
109,192,218268,1,8,3:0:0:0:
475,192,218268,1,8,3:0:0:0:
182,192,218268,128,0,218584:2:0:0:0:
329,192,218426,128,0,218742:3:0:0:0:
402,192,218584,1,4,3:0:0:0:
36,192,218584,1,4,3:0:0:0:
109,192,218584,128,0,218899:2:0:0:0:
256,192,218742,128,0,219057:3:0:0:0:
475,192,218899,1,8,3:0:0:0:
329,192,218899,1,8,3:0:0:0:
36,192,218899,128,0,219373:2:0:0:0:
182,192,219057,128,0,219215:3:0:0:0:
329,192,219215,1,4,3:0:0:0:
256,192,219215,128,0,219531:2:0:0:0:
475,192,219215,1,4,3:0:0:0:
109,192,219373,128,0,219689:3:0:0:0:
402,192,219531,1,8,3:0:0:0:
36,192,219531,1,8,3:0:0:0:
329,192,219531,128,0,219847:2:0:0:0:
182,192,219689,128,0,220005:3:0:0:0:
109,192,219847,1,4,3:0:0:0:
475,192,219847,1,4,3:0:0:0:
402,192,219847,128,0,220163:2:0:0:0:
256,192,220005,128,0,220320:3:0:0:0:
36,192,220163,1,8,3:0:0:0:
182,192,220163,1,8,3:0:0:0:
475,192,220163,128,0,220478:2:0:0:0:
329,192,220320,128,0,220636:3:0:0:0:
109,192,220478,128,2,220794:2:0:0:0:
256,192,220478,1,4,3:0:0:0:
182,192,220478,1,4,3:0:0:0:
36,192,220636,1,0,3:0:0:0:
402,192,220636,128,2,220952:2:0:0:0:
329,192,220794,1,8,3:0:0:0:
182,192,220794,128,2,221110:2:0:0:0:
256,192,220794,1,8,3:0:0:0:
109,192,220952,1,0,3:0:0:0:
475,192,220952,128,2,221268:2:0:0:0:
402,192,221110,1,4,3:0:0:0:
256,192,221110,128,2,221426:2:0:0:0:
329,192,221110,1,4,3:0:0:0:
182,192,221268,1,0,3:0:0:0:
475,192,221426,1,8,3:0:0:0:
109,192,221426,128,2,221742:2:0:0:0:
329,192,221426,1,8,3:0:0:0:
256,192,221584,1,0,3:0:0:0:
402,192,221584,128,2,221742:2:0:0:0:
36,192,221742,1,4,3:0:0:0:
182,192,221742,1,4,3:0:0:0:
475,192,221899,1,8,3:0:0:0:
329,192,221899,1,8,3:0:0:0:
256,192,221899,1,8,3:0:0:0:
182,192,222057,1,4,3:0:0:0:
109,192,222057,1,4,3:0:0:0:
36,192,222057,1,4,3:0:0:0:
402,192,222215,1,0,3:0:0:0:
329,192,222215,1,0,3:0:0:0:
256,192,222373,1,4,3:0:0:0:
36,192,222373,1,4,3:0:0:0:
329,192,222452,1,4,3:0:0:0:
109,192,222452,1,4,3:0:0:0:
402,192,222531,1,4,3:0:0:0:
182,192,222531,1,4,3:0:0:0:
475,192,222689,128,8,223005:3:0:0:0:
256,192,222689,128,8,223005:3:0:0:0:
36,192,222689,128,8,223005:3:0:0:0:
402,192,223005,1,4,3:0:0:0:
109,192,223005,128,0,223478:2:0:0:0:
329,192,223005,1,4,3:0:0:0:
182,192,223163,128,0,223320:3:0:0:0:
475,192,223320,1,8,3:0:0:0:
36,192,223320,1,8,3:0:0:0:
329,192,223320,128,0,223794:2:0:0:0:
256,192,223478,128,0,223636:3:0:0:0:
402,192,223636,1,4,3:0:0:0:
182,192,223636,1,4,3:0:0:0:
36,192,223636,128,0,224110:2:0:0:0:
109,192,223794,128,0,223952:3:0:0:0:
256,192,223952,1,8,3:0:0:0:
329,192,223952,1,8,3:0:0:0:
475,192,223952,128,0,224426:2:0:0:0:
402,192,224110,128,0,224268:3:0:0:0:
256,192,224268,1,4,3:0:0:0:
109,192,224268,1,4,3:0:0:0:
329,192,224426,1,0,3:0:0:0:
182,192,224426,128,2,224584:2:0:0:0:
475,192,224584,1,8,3:0:0:0:
36,192,224584,1,8,3:0:0:0:
402,192,224584,128,2,224742:2:0:0:0:
256,192,224742,1,0,3:0:0:0:
109,192,224742,128,2,224899:2:0:0:0:
475,192,224899,1,4,3:0:0:0:
182,192,224899,1,4,3:0:0:0:
329,192,224899,128,2,225057:2:0:0:0:
402,192,225057,1,0,3:0:0:0:
36,192,225057,128,2,225215:2:0:0:0:
329,192,225215,1,8,3:0:0:0:
109,192,225215,1,8,3:0:0:0:
256,192,225215,128,2,225373:2:0:0:0:
182,192,225373,1,0,3:0:0:0:
475,192,225373,128,2,225531:2:0:0:0:
402,192,225531,128,0,226005:2:0:0:0:
36,192,225531,1,4,3:0:0:0:
256,192,225531,1,4,3:0:0:0:
329,192,225689,128,0,225847:3:0:0:0:
36,192,225847,1,8,3:0:0:0:
475,192,225847,1,8,3:0:0:0:
109,192,225847,128,0,226320:2:0:0:0:
182,192,226005,128,0,226163:3:0:0:0:
256,192,226163,1,4,3:0:0:0:
329,192,226163,1,4,3:0:0:0:
475,192,226163,128,0,226636:2:0:0:0:
402,192,226320,128,0,226478:3:0:0:0:
256,192,226478,1,8,3:0:0:0:
182,192,226478,1,8,3:0:0:0:
36,192,226478,128,0,226952:2:0:0:0:
109,192,226636,128,0,226794:3:0:0:0:
402,192,226794,1,4,3:0:0:0:
475,192,226794,1,4,3:0:0:0:
329,192,226794,128,0,227110:2:0:0:0:
256,192,226952,1,0,3:0:0:0:
182,192,226952,128,0,227268:2:0:0:0:
475,192,227110,1,8,3:0:0:0:
36,192,227110,1,8,3:0:0:0:
329,192,227268,1,0,3:0:0:0:
402,192,227268,128,0,227584:2:0:0:0:
256,192,227426,128,0,227742:2:0:0:0:
182,192,227426,1,4,3:0:0:0:
475,192,227426,1,4,3:0:0:0:
36,192,227584,1,0,3:0:0:0:
109,192,227584,128,0,227899:2:0:0:0:
329,192,227742,1,8,3:0:0:0:
475,192,227742,1,8,3:0:0:0:
402,192,227820,1,8,3:0:0:0:
256,192,227820,1,8,3:0:0:0:
182,192,227899,1,8,3:0:0:0:
329,192,227899,1,8,3:0:0:0:
256,192,227978,1,8,3:0:0:0:
109,192,227978,1,8,3:0:0:0:
475,192,228057,1,4,2:0:0:0:
182,192,228057,1,8,3:0:0:0:
36,192,228057,1,8,3:0:0:0:
402,192,228057,1,4,2:0:0:0:
182,192,229320,1,8,3:0:0:0:
36,192,229320,1,8,3:0:0:0:
402,192,229320,1,4,2:0:0:0:
475,192,229320,1,4,2:0:0:0:
182,192,230584,1,8,3:0:0:0:
36,192,230584,1,8,3:0:0:0:
402,192,230584,1,4,2:0:0:0:
475,192,230584,1,4,2:0:0:0:
36,192,231847,1,4,3:0:0:0:
182,192,231847,1,4,3:0:0:0:
329,192,231847,1,4,3:0:0:0:
475,192,231847,1,4,3:0:0:0:
182,192,232163,1,4,3:0:0:0:
36,192,232163,1,4,3:0:0:0:
329,192,232163,1,4,3:0:0:0:
475,192,232163,1,4,3:0:0:0:
36,192,233110,1,8,3:0:0:0:
475,192,233110,1,8,3:0:0:0:
256,192,233110,1,4,2:0:0:0:
329,192,233110,128,0,234057:2:0:0:0:
109,192,233110,1,8,3:0:0:0:
36,192,233426,1,8,3:0:0:0:
402,192,233426,1,8,3:0:0:0:
182,192,233426,1,8,3:0:0:0:
109,192,233742,1,8,3:0:0:0:
475,192,233742,1,8,3:0:0:0:
256,192,233742,1,8,3:0:0:0:
182,192,233899,1,4,3:0:0:0:
402,192,233899,1,4,3:0:0:0:
36,192,234057,1,8,3:0:0:0:
475,192,234057,1,8,3:0:0:0:
256,192,234057,1,8,3:0:0:0:
182,192,234215,128,0,235320:2:0:0:0:
329,192,234215,1,4,3:0:0:0:
109,192,234215,1,4,3:0:0:0:
402,192,234373,1,8,3:0:0:0:
36,192,234373,1,8,3:0:0:0:
256,192,234373,1,8,3:0:0:0:
475,192,234531,1,4,3:0:0:0:
329,192,234531,1,4,3:0:0:0:
402,192,234689,1,8,3:0:0:0:
256,192,234689,1,8,3:0:0:0:
109,192,234689,1,8,3:0:0:0:
329,192,234847,1,0,3:0:0:0:
36,192,235005,1,8,3:0:0:0:
256,192,235005,1,8,3:0:0:0:
402,192,235005,1,8,3:0:0:0:
109,192,235163,1,4,3:0:0:0:
329,192,235163,1,4,3:0:0:0:
256,192,235320,1,8,3:0:0:0:
36,192,235320,1,8,3:0:0:0:
475,192,235320,1,8,3:0:0:0:
402,192,235478,1,4,3:0:0:0:
182,192,235478,1,4,3:0:0:0:
475,192,235636,128,0,235952:2:0:0:0:
109,192,235636,1,8,3:0:0:0:
36,192,235636,1,8,3:0:0:0:
329,192,235636,1,8,3:0:0:0:
256,192,235952,1,8,3:0:0:0:
36,192,235952,1,8,3:0:0:0:
402,192,235952,1,8,3:0:0:0:
109,192,236110,128,0,236584:2:0:0:0:
182,192,236110,1,4,3:0:0:0:
329,192,236110,1,4,3:0:0:0:
256,192,236268,1,4,3:0:0:0:
36,192,236268,1,4,3:0:0:0:
475,192,236268,1,4,3:0:0:0:
182,192,236426,1,4,3:0:0:0:
402,192,236426,1,4,3:0:0:0:
256,192,236584,1,8,3:0:0:0:
36,192,236584,1,8,3:0:0:0:
475,192,236584,1,8,3:0:0:0:
402,192,236742,1,4,3:0:0:0:
182,192,236742,1,4,3:0:0:0:
329,192,236899,128,0,237847:2:0:0:0:
256,192,236899,1,8,3:0:0:0:
475,192,236899,1,8,3:0:0:0:
109,192,236899,1,8,3:0:0:0:
182,192,237057,1,4,3:0:0:0:
36,192,237057,1,4,3:0:0:0:
256,192,237215,1,8,3:0:0:0:
109,192,237215,1,8,3:0:0:0:
402,192,237215,1,8,3:0:0:0:
182,192,237373,1,0,3:0:0:0:
256,192,237531,1,8,3:0:0:0:
475,192,237531,1,8,3:0:0:0:
36,192,237531,1,8,3:0:0:0:
109,192,237689,1,4,3:0:0:0:
402,192,237689,1,4,3:0:0:0:
256,192,237847,1,8,3:0:0:0:
36,192,237847,1,8,3:0:0:0:
475,192,237847,1,8,3:0:0:0:
182,192,238005,1,4,3:0:0:0:
329,192,238005,1,4,3:0:0:0:
475,192,238163,1,8,3:0:0:0:
36,192,238163,1,8,3:0:0:0:
256,192,238163,1,4,2:0:0:0:
109,192,238163,128,0,239110:2:0:0:0:
402,192,238163,1,8,3:0:0:0:
402,192,238478,1,8,3:0:0:0:
36,192,238478,1,8,3:0:0:0:
256,192,238478,1,8,3:0:0:0:
329,192,238636,1,4,3:0:0:0:
475,192,238636,1,4,3:0:0:0:
402,192,238794,1,8,3:0:0:0:
36,192,238794,1,8,3:0:0:0:
256,192,238794,1,8,3:0:0:0:
329,192,238952,1,4,3:0:0:0:
182,192,238952,1,4,3:0:0:0:
475,192,239110,1,8,3:0:0:0:
36,192,239110,1,8,3:0:0:0:
256,192,239110,1,8,3:0:0:0:
329,192,239268,128,0,240373:2:0:0:0:
182,192,239268,1,4,3:0:0:0:
402,192,239268,1,4,3:0:0:0:
109,192,239426,1,8,3:0:0:0:
475,192,239426,1,8,3:0:0:0:
256,192,239426,1,8,3:0:0:0:
36,192,239584,1,4,3:0:0:0:
182,192,239584,1,4,3:0:0:0:
109,192,239742,1,8,3:0:0:0:
256,192,239742,1,8,3:0:0:0:
402,192,239742,1,8,3:0:0:0:
182,192,239899,1,0,3:0:0:0:
475,192,240057,1,8,3:0:0:0:
256,192,240057,1,8,3:0:0:0:
109,192,240057,1,8,3:0:0:0:
402,192,240215,1,4,3:0:0:0:
182,192,240215,1,4,3:0:0:0:
256,192,240373,1,8,3:0:0:0:
475,192,240373,1,8,3:0:0:0:
36,192,240373,1,8,3:0:0:0:
109,192,240531,1,4,3:0:0:0:
329,192,240531,1,4,3:0:0:0:
36,192,240689,128,0,241005:2:0:0:0:
402,192,240689,1,8,3:0:0:0:
475,192,240689,1,8,3:0:0:0:
182,192,240689,1,8,3:0:0:0:
256,192,241005,1,8,3:0:0:0:
475,192,241005,1,8,3:0:0:0:
109,192,241005,1,8,3:0:0:0:
402,192,241163,128,0,241636:2:0:0:0:
329,192,241163,1,4,3:0:0:0:
182,192,241163,1,4,3:0:0:0:
256,192,241320,1,8,3:0:0:0:
475,192,241320,1,8,3:0:0:0:
36,192,241320,1,8,3:0:0:0:
329,192,241478,1,4,3:0:0:0:
109,192,241478,1,4,3:0:0:0:
182,192,241636,1,8,3:0:0:0:
475,192,241636,1,8,3:0:0:0:
36,192,241636,1,8,3:0:0:0:
256,192,241794,128,0,242899:2:0:0:0:
109,192,241794,1,4,3:0:0:0:
402,192,241794,1,4,3:0:0:0:
182,192,241952,1,8,3:0:0:0:
36,192,241952,1,8,3:0:0:0:
329,192,241952,1,8,3:0:0:0:
109,192,242110,1,4,3:0:0:0:
475,192,242110,1,4,3:0:0:0:
182,192,242268,1,8,3:0:0:0:
402,192,242268,1,8,3:0:0:0:
36,192,242268,1,8,3:0:0:0:
329,192,242426,1,4,3:0:0:0:
109,192,242426,1,4,3:0:0:0:
182,192,242584,1,8,3:0:0:0:
36,192,242584,1,8,3:0:0:0:
402,192,242584,1,8,3:0:0:0:
475,192,242742,1,8,3:0:0:0:
109,192,242742,1,8,3:0:0:0:
329,192,242742,1,8,3:0:0:0:
402,192,242899,1,8,3:0:0:0:
475,192,242899,1,8,3:0:0:0:
182,192,242899,1,8,3:0:0:0:
109,192,243057,1,8,3:0:0:0:
329,192,243057,1,8,3:0:0:0:
475,192,243057,1,8,3:0:0:0:
475,192,243215,1,8,3:0:0:0:
36,192,243215,1,8,3:0:0:0:
256,192,243215,1,8,3:0:0:0:
182,192,243215,128,0,243610:2:0:0:0:
329,192,243531,1,4,3:0:0:0:
402,192,243531,1,4,3:0:0:0:
182,192,243689,1,8,3:0:0:0:
109,192,243689,128,0,244084:2:0:0:0:
256,192,243689,1,8,3:0:0:0:
256,192,244005,1,4,3:0:0:0:
329,192,244005,1,4,3:0:0:0:
109,192,244163,1,8,3:0:0:0:
475,192,244163,128,0,244399:2:0:0:0:
182,192,244163,1,8,3:0:0:0:
36,192,244163,128,0,244399:2:0:0:0:
475,192,244478,1,4,3:0:0:0:
36,192,244478,1,4,3:0:0:0:
256,192,244478,1,4,3:0:0:0:
109,192,244478,128,4,245110:2:0:0:0:
402,192,244478,128,4,245110:2:0:0:0:
475,192,245742,1,4,3:0:0:0:
402,192,245742,1,4,3:0:0:0:
109,192,245742,1,4,3:0:0:0:
36,192,245742,1,4,3:0:0:0:
256,192,245742,1,4,3:0:0:0:
