osu file format v14

[General]
AudioFilename: audio.mp3
AudioLeadIn: 0
PreviewTime: 137925
Countdown: 0
SampleSet: None
StackLeniency: 0.2
Mode: 0
LetterboxInBreaks: 0
WidescreenStoryboard: 1

[Editor]
DistanceSpacing: 3
BeatDivisor: 4
GridSize: 16
TimelineZoom: 0.9

[Metadata]
Title:Asylums for the Feeling feat. Leila Adu
TitleUnicode:Asylums for the Feeling feat. Leila Adu
Artist:SILENT POETS
ArtistUnicode:SILENT POETS
Creator:winterr
Version:empathy
Source:
Tags:SILENT POETS Guitar Acoustic Death Stranding Strings Orchestra Female Vocal
BeatmapID:1717412
BeatmapSetID:819125

[Difficulty]
HPDrainRate:7
CircleSize:3.5
OverallDifficulty:7
ApproachRate:8
SliderMultiplier:1.00000000596046
SliderTickRate:1

[Events]
//Background and Video events
0,0,"1528227854778.jpg",0,0
//Break Periods
2,140686,163517
//Storyboard Layer 0 (Background)
//Storyboard Layer 1 (Fail)
//Storyboard Layer 2 (Pass)
//Storyboard Layer 3 (Foreground)
//Storyboard Sound Samples

[TimingPoints]
365,731.707317073171,4,2,0,30,1,0
47194,-100,4,2,0,30,0,0
94023,-100,4,2,0,50,0,0
137925,-200,4,2,0,45,0,0
140852,-133.333333333333,4,2,0,40,0,0
187682,-100,4,3,0,50,0,0
234511,-100,4,1,0,40,0,0
281340,-100,4,3,0,60,0,0
298901,-100,4,1,0,60,0,0
304755,-100,4,3,0,60,0,0
322316,-100,4,1,0,60,0,0
328169,-80,4,2,0,70,0,1
369145,-100,4,1,0,70,0,1
374999,-100,4,2,0,50,0,0

[HitObjects]
176,112,47194,6,4,L|224:160,1,50.0000002980232
352,192,47925,1,0,0:0:0:0:
224,256,48291,1,0,0:0:0:0:
285,82,48657,6,0,L|267:148,1,50.0000002980232
304,275,49388,1,0,0:0:0:0:
184,196,49754,1,0,0:0:0:0:
365,162,50121,6,0,L|299:180,1,50.0000002980232
208,275,50852,1,0,0:0:0:0:
216,132,51218,1,0,0:0:0:0:
336,271,51584,6,0,L|287:223,1,50.0000002980232
160,191,52315,1,0,0:0:0:0:
288,128,52681,1,0,0:0:0:0:
160,48,53047,6,4,L|128:48,2,25.0000001490115
240,176,53779,2,0,L|208:128,1,50.000000298023
261,170,54511,2,0,L|287:118,1,50.000000298023
277,186,55243,2,0,L|335:182,1,50.000000298023
176,272,55974,6,0,L|224:224,1,50.0000002980232
352,192,56705,1,0,0:0:0:0:
224,128,57071,1,0,0:0:0:0:
285,302,57437,6,0,L|272:240,1,50.000000298023
304,109,58168,1,0,0:0:0:0:
184,188,58534,1,0,0:0:0:0:
160,48,58901,6,4,L|160:112,1,50.000000298023
240,224,59633,1,0,0:0:0:0:
96,224,59999,1,0,0:0:0:0:
240,224,60365,6,0,L|176:224,1,50.000000298023
64,304,61097,1,0,0:0:0:0:
64,160,61463,1,0,0:0:0:0:
190,224,61828,6,0,L|254:224,1,50.000000298023
366,304,62560,1,0,0:0:0:0:
366,160,62926,1,0,0:0:0:0:
224,128,63291,6,0,L|288:128,1,50.000000298023
400,208,64023,1,0,0:0:0:0:
400,64,64389,1,0,0:0:0:0:
256,128,64755,6,4,L|256:64,1,50.000000298023
256,224,65486,2,0,L|256:288,1,50.000000298023
256,128,66218,2,0,L|256:64,1,50.000000298023
256,224,66950,2,0,L|256:288,1,50.000000298023
112,224,67682,6,0,L|176:224,1,50.000000298023
320,224,68413,1,0,0:0:0:0:
176,224,68779,1,0,0:0:0:0:
304,304,69145,6,0,L|240:304,1,50.000000298023
96,304,69876,1,0,0:0:0:0:
240,304,70242,1,0,0:0:0:0:
240,304,70608,6,4,L|288:256,1,50.0000002980232
416,224,71339,1,0,0:0:0:0:
288,160,71705,1,0,0:0:0:0:
349,334,72071,6,0,L|331:268,1,50.0000002980232
368,141,72802,1,0,0:0:0:0:
248,220,73168,1,0,0:0:0:0:
429,254,73535,6,0,L|363:236,1,50.0000002980232
272,141,74266,1,0,0:0:0:0:
280,284,74632,1,0,0:0:0:0:
400,145,74998,6,0,L|351:193,1,50.0000002980232
224,225,75729,1,0,0:0:0:0:
368,192,76095,1,0,0:0:0:0:
224,144,76462,6,4,L|224:80,2,50.000000298023
224,288,77560,1,0,0:0:0:0:
304,160,77925,6,0,L|304:96,2,50.000000298023
304,304,79023,1,0,0:0:0:0:
384,176,79389,6,0,L|384:112,2,50.000000298023
384,320,80487,1,0,0:0:0:0:
464,192,80852,6,0,L|464:128,2,50.000000298023
464,336,81950,1,0,0:0:0:0:
352,240,82316,6,4,L|304:192,1,50.000000298023
262,299,83047,2,0,L|280:233,1,50.000000298023
166,251,83779,2,0,L|232:233,1,50.000000298023
160,144,84511,2,0,L|208:192,1,50.000000298023
249,84,85243,2,0,L|232:150,1,50.000000298023
345,132,85974,2,0,L|280:150,1,50.000000298023
351,239,86706,2,0,L|304:192,1,50.000000298023
262,299,87438,2,0,L|280:233,1,50.000000298023
208,144,88169,6,4,L|256:192,1,50.000000298023
320,272,88901,1,0,0:0:0:0:
320,144,89267,1,0,0:0:0:0:
448,144,89633,6,0,L|400:192,1,50.000000298023
320,272,90365,1,0,0:0:0:0:
320,144,90730,1,0,0:0:0:0:
208,144,91096,6,0,L|256:192,1,50.000000298023
320,272,91828,1,0,0:0:0:0:
320,144,92194,1,0,0:0:0:0:
448,144,92560,6,0,L|400:192,1,50.000000298023
320,272,93292,1,0,0:0:0:0:
320,144,93657,1,0,0:0:0:0:
368,192,94023,5,0,0:0:0:0:
208,256,94389,1,0,0:0:0:0:
368,336,94755,1,0,0:0:0:0:
304,176,95121,2,0,L|288:144,4,25.0000001490115
432,64,96218,2,0,L|384:112,1,50.000000298023
240,176,96950,5,0,0:0:0:0:
400,240,97316,1,0,0:0:0:0:
240,320,97682,1,0,0:0:0:0:
304,160,98048,2,0,L|320:128,4,25.0000001490115
176,48,99145,2,0,L|224:96,1,50.000000298023
174,229,99877,5,0,0:0:0:0:
304,144,100243,1,0,0:0:0:0:
176,64,100608,2,0,L|192:96,1,25.0000001490115
192,96,100974,2,0,L|224:128,1,25.0000001490115
224,128,101340,2,0,L|272:144,1,50.000000298023
160,288,102072,2,0,L|160:224,1,50.000000298023
272,192,102804,6,0,L|320:240,1,50.000000298023
400,320,103535,1,0,0:0:0:0:
400,192,103901,2,0,L|384:224,1,25.0000001490115
352,160,104267,2,0,L|288:160,1,50.000000298023
176,160,104999,2,0,L|240:160,1,50.000000298023
144,192,105730,5,0,0:0:0:0:
304,128,106096,1,0,0:0:0:0:
144,48,106462,1,0,0:0:0:0:
208,208,106828,2,0,L|224:240,4,25.0000001490115
80,320,107925,2,0,L|128:272,1,50.000000298023
272,208,108657,5,0,0:0:0:0:
112,144,109023,1,0,0:0:0:0:
272,64,109389,1,0,0:0:0:0:
208,224,109755,2,0,L|192:256,4,25.0000001490115
336,336,110852,2,0,L|288:288,1,50.000000298023
304,240,111584,5,0,0:0:0:0:
384,112,111950,2,0,L|352:128,1,25.0000001490115
336,144,112315,2,0,L|304:176,1,25.0000001490115
288,192,112681,2,0,L|272:224,1,25.0000001490115
160,96,113413,2,0,L|224:96,1,50.000000298023
256,208,114145,6,0,L|208:256,1,50.000000298023
128,336,114876,1,0,0:0:0:0:
256,336,115242,2,0,L|224:320,1,25.0000001490115
288,288,115608,2,0,L|288:224,1,50.000000298023
288,112,116340,2,0,L|288:176,1,50.000000298023
256,304,117438,5,0,0:0:0:0:
192,144,117804,1,0,0:0:0:0:
112,304,118170,1,0,0:0:0:0:
272,240,118536,2,0,L|304:224,4,25.0000001490115
384,368,119633,2,0,L|336:320,1,50.000000298023
272,176,120365,5,0,0:0:0:0:
208,336,120731,1,0,0:0:0:0:
128,176,121097,1,0,0:0:0:0:
288,240,121463,2,0,L|320:256,4,25.0000001490115
400,112,122560,2,0,L|352:160,1,50.000000298023
240,176,123291,5,0,0:0:0:0:
368,256,123656,2,0,L|352:224,1,25.0000001490115
336,208,124022,2,0,L|304:176,1,25.0000001490115
288,160,124388,2,0,L|256:144,1,25.0000001490115
384,32,125120,2,0,L|384:96,1,50.000000298023
272,128,125852,6,0,L|224:80,1,50.000000298023
96,32,126583,1,0,0:0:0:0:
144,128,126949,2,0,L|160:96,1,25.0000001490115
192,160,127315,2,0,L|256:160,1,50.000000298023
368,160,128047,2,0,L|304:160,1,50.000000298023
256,304,129145,5,0,0:0:0:0:
320,144,129511,1,0,0:0:0:0:
400,304,129877,1,0,0:0:0:0:
240,240,130243,2,0,L|208:224,4,25.0000001490115
128,368,131340,2,0,L|176:320,1,50.000000298023
240,176,132072,5,0,0:0:0:0:
304,336,132438,1,0,0:0:0:0:
384,176,132804,1,0,0:0:0:0:
224,240,133170,2,0,L|192:256,4,25.0000001490115
112,112,134267,2,0,L|160:160,1,50.000000298023
320,112,134999,6,0,L|368:160,1,50.000000298023
208,240,135730,1,0,0:0:0:0:
320,112,136462,2,0,L|368:160,1,50.000000298023
208,240,137194,1,0,0:0:0:0:
192,192,137925,6,0,L|224:192,1,25.0000001490115
144,160,138657,2,0,L|159:187,1,25.0000001490115
128,112,139389,2,0,L|128:143,1,25.0000001490115
160,64,140121,2,4,L|144:91,1,25.0000001490115
128,128,164267,6,0,B|192:80|192:80|192:80,2,75.0000033080576
96,80,166096,2,0,L|96:128,1,37.5000016540288
96,176,166828,2,0,B|96:288|96:288|240:336,1,262.500011578202
384,128,170121,6,0,B|320:80|320:80|320:80,2,75.0000033080576
416,80,171950,2,0,L|416:128,1,37.5000016540288
416,176,172682,2,0,L|416:224,1,37.5000016540288
384,256,173413,2,0,L|192:320,1,187.500008270144
128,240,175974,6,0,L|128:192,1,37.5000016540288
128,144,176706,2,0,L|160:112,1,37.5000016540288
208,80,177438,1,0,0:0:0:0:
272,80,177804,2,0,L|320:80,1,37.5000016540288
368,80,178535,2,0,L|368:272,1,187.500008270144
464,320,181096,1,0,0:0:0:0:
352,320,181462,2,0,P|208:288|96:64,1,412.500018194317
128,320,186218,6,0,L|160:288,1,37.5000016540288
80,208,186950,2,0,L|128:208,1,37.5000016540288
160,128,187682,6,2,L|208:176,2,50.000000298023
96,208,188779,1,0,0:0:0:0:
192,320,189328,1,8,0:0:0:0:
240,320,189511,1,8,0:0:0:0:
336,320,189877,2,4,L|384:288,1,50.000000298023
352,128,190608,6,2,L|304:176,2,50.000000298023
416,208,191705,1,0,0:0:0:0:
320,320,192254,1,8,0:0:0:0:
272,320,192438,1,8,0:0:0:0:
176,320,192804,2,4,L|128:288,1,50.000000298023
160,128,193535,6,2,L|224:128,2,50.000000298023
240,192,194633,1,0,0:0:0:0:
336,80,195182,1,8,0:0:0:0:
368,112,195365,1,8,0:0:0:0:
368,208,195730,2,4,L|416:176,1,50.000000298023
336,112,196462,6,2,L|336:48,2,50.000000298023
416,64,197560,1,0,0:0:0:0:
368,208,198108,1,8,0:0:0:0:
336,240,198291,1,8,0:0:0:0:
352,336,198657,2,4,L|304:304,1,50.000000298023
256,192,199389,5,2,0:0:0:0:
144,96,199755,1,2,0:0:0:0:
144,240,200121,1,2,0:0:0:0:
224,112,200486,1,0,0:0:0:0:
304,320,201035,1,8,0:0:0:0:
384,320,201218,1,8,0:0:0:0:
384,176,201584,2,4,L|384:240,1,50.000000298023
240,192,202316,5,2,0:0:0:0:
96,192,202682,1,2,0:0:0:0:
240,192,203047,1,2,0:0:0:0:
384,192,203413,1,0,0:0:0:0:
176,112,203962,1,8,0:0:0:0:
176,192,204145,1,8,0:0:0:0:
176,336,204511,2,4,L|176:272,1,50.000000298023
176,128,205243,5,2,0:0:0:0:
64,240,205608,1,2,0:0:0:0:
176,336,205974,1,2,0:0:0:0:
176,192,206340,1,0,0:0:0:0:
400,192,206889,2,8,L|352:192,1,25.0000001490115
224,192,207438,2,4,L|288:192,1,50.000000298023
448,240,208169,5,2,0:0:0:0:
336,336,208535,1,2,0:0:0:0:
336,192,208901,1,2,0:0:0:0:
112,192,209816,1,8,0:0:0:0:
192,192,209999,1,8,0:0:0:0:
336,192,210365,2,4,L|272:192,1,50.000000298023
128,112,211096,5,2,0:0:0:0:
288,160,211462,1,2,0:0:0:0:
384,304,211828,1,2,0:0:0:0:
64,304,212743,2,8,L|64:336,1,25.0000001490115
160,192,213291,1,4,0:0:0:0:
240,256,214023,5,2,0:0:0:0:
400,208,214389,1,2,0:0:0:0:
496,64,214755,1,2,0:0:0:0:
64,64,215669,1,8,0:0:0:0:
64,144,215852,1,8,0:0:0:0:
64,320,216218,2,4,L|64:256,1,50.000000298023
64,80,216950,6,2,L|64:144,2,50.000000298023
448,336,218596,1,8,0:0:0:0:
448,240,218779,1,8,0:0:0:0:
448,48,219145,2,4,L|448:112,1,50.000000298023
288,176,219877,6,2,L|336:128,2,50.000000298023
48,48,221523,2,8,L|80:80,1,25.0000001490115
192,208,222072,1,4,0:0:0:0:
464,48,222804,5,2,0:0:0:0:
384,240,223169,1,2,0:0:0:0:
304,48,223535,1,2,0:0:0:0:
464,48,224450,2,8,L|432:48,1,25.0000001490115
240,48,224999,2,4,L|304:48,1,50.000000298023
240,240,225730,5,2,0:0:0:0:
448,240,226096,1,2,0:0:0:0:
240,240,226462,1,2,0:0:0:0:
464,240,227377,1,8,0:0:0:0:
400,176,227560,1,8,0:0:0:0:
336,112,227925,2,4,L|384:160,1,50.000000298023
256,320,228657,6,2,L|256:256,2,50.000000298023
256,320,230304,2,8,L|256:288,1,25.0000001490115
256,96,230852,1,0,0:0:0:0:
432,192,231218,1,0,0:0:0:0:
224,192,231584,5,2,0:0:0:0:
16,192,231950,1,2,0:0:0:0:
192,288,232316,1,2,0:0:0:0:
368,240,233230,1,8,0:0:0:0:
448,192,233413,1,8,0:0:0:0:
304,48,233779,1,0,0:0:0:0:
240,240,234145,1,4,0:0:0:0:
80,320,234511,6,8,L|112:320,2,25.0000001490115,8|8|8,3:0|3:0|3:0,3:0:0:0:
160,256,235243,1,0,3:0:0:0:
224,336,235608,1,0,3:0:0:0:
288,256,235974,1,0,3:0:0:0:
352,336,236340,1,0,3:0:0:0:
416,256,236706,1,0,3:0:0:0:
480,336,237072,1,0,3:0:0:0:
416,256,237438,1,0,3:0:0:0:
352,176,237804,1,0,3:0:0:0:
288,256,238169,1,0,3:0:0:0:
224,176,238535,1,0,3:0:0:0:
128,176,238901,6,8,L|80:176,2,25.0000001490115,8|8|8,3:0|3:0|3:0,3:0:0:0:
192,256,239633,1,0,3:0:0:0:
128,336,239999,1,0,3:0:0:0:
224,336,240365,6,8,L|256:336,2,25.0000001490115,8|8|8,3:0|3:0|3:0,3:0:0:0:
128,336,241096,1,0,3:0:0:0:
192,256,241462,1,0,3:0:0:0:
128,176,241828,1,0,3:0:0:0:
64,256,242194,1,0,3:0:0:0:
128,336,242560,1,0,3:0:0:0:
192,256,242925,1,0,3:0:0:0:
256,336,243291,1,0,3:0:0:0:
320,256,243657,1,0,3:0:0:0:
384,336,244023,1,0,3:0:0:0:
448,256,244389,1,0,3:0:0:0:
448,160,244755,6,8,L|448:128,2,25.0000001490115,8|8|8,3:0|3:0|3:0,3:0:0:0:
448,256,245486,1,0,3:0:0:0:
448,352,245852,1,0,3:0:0:0:
352,352,246218,6,8,L|320:352,2,25.0000001490115,8|8|8,3:0|3:0|3:0,3:0:0:0:
448,352,246950,1,0,3:0:0:0:
384,272,247316,1,0,3:0:0:0:
320,352,247682,1,0,3:0:0:0:
256,272,248047,1,0,3:0:0:0:
192,352,248413,1,0,3:0:0:0:
128,272,248779,1,0,3:0:0:0:
192,192,249145,1,0,3:0:0:0:
256,272,249511,1,0,3:0:0:0:
320,192,249877,1,0,3:0:0:0:
384,272,250243,1,0,3:0:0:0:
448,192,250608,6,8,L|448:160,2,25.0000001490115,8|8|8,3:0|3:0|3:0,3:0:0:0:
448,288,251340,1,0,3:0:0:0:
352,288,251706,1,0,3:0:0:0:
256,288,252072,6,8,L|208:288,2,25.0000001490115,8|8|8,3:0|3:0|3:0,3:0:0:0:
352,288,252804,1,0,3:0:0:0:
432,224,253169,1,0,3:0:0:0:
352,160,253535,1,0,3:0:0:0:
272,224,253901,1,0,3:0:0:0:
192,160,254267,1,0,3:0:0:0:
112,224,254633,1,0,3:0:0:0:
32,160,254999,1,0,3:0:0:0:
32,256,255365,1,0,3:0:0:0:
32,352,255730,1,0,3:0:0:0:
112,288,256096,1,0,3:0:0:0:
112,192,256462,6,8,L|112:160,2,25.0000001490115,8|8|8,3:0|3:0|3:0,3:0:0:0:
208,192,257194,1,0,3:0:0:0:
288,128,257560,1,0,3:0:0:0:
80,64,257925,6,8,L|112:64,2,25.0000001490115,8|8|8,3:0|3:0|3:0,3:0:0:0:
160,128,258657,1,0,3:0:0:0:
224,48,259022,1,0,3:0:0:0:
288,128,259388,1,0,3:0:0:0:
352,48,259754,1,0,3:0:0:0:
416,128,260120,1,0,3:0:0:0:
480,48,260486,1,0,3:0:0:0:
416,128,260852,1,0,3:0:0:0:
352,208,261218,1,0,3:0:0:0:
288,128,261583,1,0,3:0:0:0:
224,208,261949,1,0,3:0:0:0:
128,208,262315,6,8,L|80:208,2,25.0000001490115,8|8|8,3:0|3:0|3:0,3:0:0:0:
192,128,263047,1,0,3:0:0:0:
128,48,263413,1,0,3:0:0:0:
224,48,263779,6,8,L|256:48,2,25.0000001490115,8|8|8,3:0|3:0|3:0,3:0:0:0:
128,48,264510,1,0,3:0:0:0:
192,128,264876,1,0,3:0:0:0:
128,208,265242,1,0,3:0:0:0:
64,128,265608,1,0,3:0:0:0:
128,48,265974,1,0,3:0:0:0:
192,128,266339,1,0,3:0:0:0:
256,48,266705,1,0,3:0:0:0:
320,128,267071,1,0,3:0:0:0:
384,48,267437,1,0,3:0:0:0:
448,128,267803,1,0,3:0:0:0:
448,224,268170,6,8,L|448:256,2,25.0000001490115,8|8|8,3:0|3:0|3:0,3:0:0:0:
448,128,268900,1,0,3:0:0:0:
448,32,269266,1,0,3:0:0:0:
352,32,269633,6,8,L|320:32,2,25.0000001490115,8|8|8,3:0|3:0|3:0,3:0:0:0:
448,32,270364,1,0,3:0:0:0:
384,112,270730,1,0,3:0:0:0:
320,32,271096,1,0,3:0:0:0:
256,112,271461,1,0,3:0:0:0:
192,32,271827,1,0,3:0:0:0:
128,112,272193,1,0,3:0:0:0:
192,192,272559,1,0,3:0:0:0:
256,112,272925,1,0,3:0:0:0:
320,192,273291,1,0,3:0:0:0:
384,112,273657,1,0,3:0:0:0:
448,192,274022,6,8,L|448:224,2,25.0000001490115,8|8|8,3:0|3:0|3:0,3:0:0:0:
448,96,274754,1,0,3:0:0:0:
352,96,275120,1,0,3:0:0:0:
256,96,275486,6,8,L|208:96,2,25.0000001490115,8|8|8,3:0|3:0|3:0,3:0:0:0:
352,96,276218,1,0,3:0:0:0:
432,160,276583,1,0,3:0:0:0:
352,224,276949,1,0,3:0:0:0:
272,160,277315,1,0,3:0:0:0:
192,224,277681,1,0,3:0:0:0:
112,160,278047,1,0,3:0:0:0:
32,224,278413,1,0,3:0:0:0:
32,128,278779,1,0,3:0:0:0:
32,32,279144,1,0,3:0:0:0:
112,96,279510,1,0,3:0:0:0:
112,192,279877,6,8,L|112:224,2,25.0000001490115,8|8|8,3:0|3:0|3:0,3:0:0:0:
208,192,280609,1,0,3:0:0:0:
288,256,280975,1,0,3:0:0:0:
208,112,281340,6,2,B|144:80|144:80|96:80,2,100.000000596046
320,224,283169,1,8,0:0:0:0:
208,112,283535,1,8,0:0:0:0:
208,272,283901,2,2,B|352:192|352:192|480:352,1,350.000002086161
304,112,287194,6,2,B|368:80|368:80|416:80,2,100.000000596046
192,224,289023,1,8,0:0:0:0:
304,112,289389,1,8,0:0:0:0:
144,80,289755,2,2,L|144:144,1,50.000000298023
144,288,290486,2,2,B|192:192|192:192|336:144,1,250.000001490115
64,320,293047,6,2,L|112:272,1,50.000000298023
208,176,293779,2,2,L|160:224,1,50.000000298023
96,64,294511,1,8,0:0:0:0:
96,224,294877,2,2,L|96:160,1,50.000000298023
256,224,295608,2,2,L|368:336,1,150.000000894069
256,112,298901,6,2,L|208:112,2,25.0000001490115
320,192,299633,1,0,0:0:0:0:
256,272,299999,1,0,0:0:0:0:
352,272,300365,6,2,L|384:272,2,25.0000001490115
256,272,301096,1,0,0:0:0:0:
320,192,301462,1,0,0:0:0:0:
256,112,301828,1,0,0:0:0:0:
192,192,302194,1,0,0:0:0:0:
256,272,302560,1,0,0:0:0:0:
320,192,302925,1,0,0:0:0:0:
368,272,303291,2,2,L|368:304,2,25.0000001490115
368,112,304023,1,0,0:0:0:0:
272,240,304389,1,0,0:0:0:0:
208,272,304755,6,2,B|144:304|144:304|96:304,2,100.000000596046
320,160,306584,1,8,0:0:0:0:
208,272,306950,1,8,0:0:0:0:
208,112,307316,2,2,B|352:192|352:192|480:32,1,350.000002086161
304,272,310609,6,2,B|368:304|368:304|416:304,2,100.000000596046
192,160,312438,1,8,0:0:0:0:
304,272,312804,1,8,0:0:0:0:
144,304,313170,2,2,L|144:240,1,50.000000298023
144,96,313901,2,2,B|192:192|192:192|336:240,1,250.000001490115
64,64,316461,6,2,L|112:112,1,50.000000298023
208,208,317193,2,2,L|160:160,1,50.000000298023
96,320,317925,1,8,0:0:0:0:
96,160,318291,2,2,L|96:224,1,50.000000298023
256,160,319023,2,2,L|368:48,1,150.000000894069
320,144,322316,6,2,L|320:96,2,25.0000001490115
240,208,323048,1,0,0:0:0:0:
160,144,323414,1,0,0:0:0:0:
160,240,323779,6,2,L|160:272,2,25.0000001490115
160,144,324511,1,0,0:0:0:0:
240,208,324877,1,0,0:0:0:0:
320,144,325243,1,0,0:0:0:0:
240,80,325609,1,0,0:0:0:0:
160,144,325975,1,0,0:0:0:0:
240,208,326340,1,0,0:0:0:0:
160,256,326706,2,2,L|128:256,2,25.0000001490115
320,256,327438,1,0,0:0:0:0:
192,160,327804,1,0,0:0:0:0:
80,48,328169,6,2,L|144:112,1,62.5000003725287
288,80,328901,2,2,L|352:144,1,62.5000003725287
192,192,329633,2,8,L|128:240,2,62.5000003725287
80,80,330730,2,2,P|96:192|352:352,1,437.500002607701
464,320,334023,6,2,L|400:256,1,62.5000003725287
304,160,334755,2,2,L|240:224,1,62.5000003725287
144,320,335486,2,8,L|208:256,2,62.5000003725287
144,160,336584,2,2,L|144:240,1,62.5000003725287
144,64,337316,2,2,P|288:112|384:256,1,312.500001862644
112,96,339877,6,8,B|80:32|80:32|16:32,2,125.000000745057
112,256,341706,2,2,L|112:192,1,62.5000003725287
112,352,342438,2,2,P|304:304|432:96,1,437.500002607701
416,352,345730,6,2,L|416:288,1,62.5000003725287
272,208,346462,2,2,L|272:272,1,62.5000003725287
416,208,347194,1,8,0:0:0:0:
320,336,347560,2,2,L|368:272,1,62.5000003725287
208,336,348291,2,2,P|400:240|480:32,1,437.500002607701
112,112,351584,6,8,L|256:112,2,125.000000745057
160,320,353413,2,2,L|160:256,1,62.5000003725287
160,64,354145,2,2,P|240:80|464:336,1,437.500002607701
368,224,357438,6,2,L|368:144,1,62.5000003725287
208,320,358169,2,2,L|272:272,1,62.5000003725287
64,176,358901,1,8,0:0:0:0:
256,64,359267,2,2,L|256:144,1,62.5000003725287
256,320,359999,2,0,P|144:176|32:336,1,437.500002607701
112,256,363291,6,2,L|176:208,1,62.5000003725287
384,256,364023,2,2,L|320:208,1,62.5000003725287
128,272,364755,1,8,0:0:0:0:
128,48,365121,2,2,L|128:128,1,62.5000003725287
128,336,365852,2,2,L|336:336,1,187.500001117586
176,96,369145,6,2,L|128:96,2,25.0000001490115
288,208,369877,1,0,0:0:0:0:
432,272,370243,1,0,0:0:0:0:
432,112,370608,1,0,0:0:0:0:
304,208,370974,1,0,0:0:0:0:
176,304,371340,1,0,0:0:0:0:
304,208,371706,1,0,0:0:0:0:
160,144,372072,6,0,P|176:176|208:176,1,50.000000298023
64,288,372804,2,0,P|80:320|112:320,1,50.000000298023
256,304,373535,2,2,P|288:336|288:336,2,25.0000001490115
400,224,374267,1,0,0:0:0:0:
400,64,374633,1,0,0:0:0:0:
176,112,374999,6,4,L|208:144,2,25.0000001490115,14|4|4,0:0|0:0|0:0,0:0:0:0:
352,192,375730,1,0,0:0:0:0:
224,256,376096,1,0,0:0:0:0:
285,82,376462,6,0,L|272:128,2,25.0000001490115
304,275,377193,1,0,0:0:0:0:
184,196,377559,1,0,0:0:0:0:
365,162,377926,6,0,L|299:180,1,50.0000002980232
208,275,378657,1,0,0:0:0:0:
216,132,379023,1,0,0:0:0:0:
336,271,379389,6,0,L|304:240,2,25.0000001490115
160,191,380120,1,0,0:0:0:0:
288,128,380486,1,0,0:0:0:0:
160,48,380852,6,4,L|128:48,2,25.0000001490115
240,176,381584,2,0,L|208:128,1,50.000000298023
261,170,382316,2,0,L|272:128,2,25.0000001490115
277,186,383048,2,0,L|335:182,1,50.000000298023
176,272,383779,6,0,L|224:224,1,50.0000002980232
352,192,384510,1,0,0:0:0:0:
224,128,384876,1,0,0:0:0:0:
285,302,385242,6,0,L|272:256,2,25.0000001490115
304,109,385973,1,0,0:0:0:0:
184,188,386339,1,0,0:0:0:0:
160,48,386706,6,4,L|160:96,2,25.0000001490115
240,224,387438,1,0,0:0:0:0:
96,224,387804,1,0,0:0:0:0:
240,224,388170,6,0,L|192:224,2,25.0000001490115
64,304,388902,1,0,0:0:0:0:
64,160,389268,1,0,0:0:0:0:
190,224,389633,6,0,L|254:224,1,50.000000298023
366,304,390365,1,0,0:0:0:0:
366,160,390731,1,0,0:0:0:0:
224,128,391096,6,0,L|272:128,2,25.0000001490115
400,208,391828,1,0,0:0:0:0:
400,64,392194,1,0,0:0:0:0:
256,128,392560,6,4,L|256:80,2,25.0000001490115
256,224,393291,2,0,L|256:288,1,50.000000298023
256,128,394023,2,0,L|256:80,2,25.0000001490115
256,224,394755,2,0,L|256:288,1,50.000000298023
112,224,395487,6,0,L|176:224,1,50.000000298023
320,224,396218,1,0,0:0:0:0:
176,224,396584,1,0,0:0:0:0:
304,304,396950,6,0,L|256:304,2,25.0000001490115
96,304,397681,1,0,0:0:0:0:
240,304,398047,1,0,0:0:0:0:
240,304,398413,6,4,L|272:272,2,25.0000001490115
416,224,399144,1,0,0:0:0:0:
288,160,399510,1,0,0:0:0:0:
349,334,399876,6,0,L|336:288,2,25.0000001490115
368,141,400607,1,0,0:0:0:0:
248,220,400973,1,0,0:0:0:0:
429,254,401340,6,0,L|363:236,1,50.0000002980232
272,141,402071,1,0,0:0:0:0:
272,288,402437,1,0,0:0:0:0:
400,145,402803,6,0,L|368:176,2,25.0000001490115
224,225,403534,1,0,0:0:0:0:
368,192,403900,1,0,0:0:0:0:
224,144,404267,6,4,L|224:96,2,25.0000001490115
96,208,404999,1,0,0:0:0:0:
224,288,405365,1,0,0:0:0:0:
304,160,405730,6,0,L|304:96,2,50.000000298023
304,304,406828,1,0,0:0:0:0:
384,176,407194,6,0,L|384:112,2,50.000000298023
384,320,408292,1,0,0:0:0:0:
464,192,408657,6,0,L|464:144,2,25.0000001490115
320,256,409389,1,0,0:0:0:0:
464,336,409755,1,0,0:0:0:0:
352,240,410121,6,4,L|320:208,2,25.0000001490115
262,299,410852,2,0,L|280:233,1,50.000000298023
166,251,411584,2,0,L|232:233,1,50.000000298023
160,144,412316,2,0,L|208:192,1,50.000000298023
249,84,413048,2,0,L|232:150,1,50.000000298023
345,132,413779,2,0,L|280:150,1,50.000000298023
351,239,414511,2,0,L|320:208,2,25.0000001490115
262,299,415243,2,0,L|280:233,1,50.000000298023
144,192,415974,6,4,L|96:192,2,25.0000001490115
288,192,416706,1,0,0:0:0:0:
432,192,417072,1,0,0:0:0:0:
432,48,417438,1,0,0:0:0:0:
352,176,417804,1,0,0:0:0:0:
272,48,418169,1,0,0:0:0:0:
192,176,418535,1,0,0:0:0:0:
336,112,418901,6,0,L|384:160,1,50.000000298023
336,112,419633,2,0,L|318:177,1,50.000000298023
336,112,420365,2,0,L|304:128,2,25.0000001490115
336,112,421096,2,4,L|288:64,1,50.000000298023
