osu file format v14

[General]
AudioFilename: audio.mp3
AudioLeadIn: 0
PreviewTime: -1
Countdown: 0
SampleSet: None
StackLeniency: 0.7
Mode: 3
LetterboxInBreaks: 0
SpecialStyle: 0
WidescreenStoryboard: 0

[Editor]
DistanceSpacing: 0.8
BeatDivisor: 16
GridSize: 32
TimelineZoom: 3.299999

[Metadata]
Title:REMorse
TitleUnicode:REMorse
Artist:SIHanatsuka
ArtistUnicode:SIHanatsuka
Creator:Topcayk
Version:Guilt
Source:Cytus II
Tags:tech, dump, aurusei
BeatmapID:4566837
BeatmapSetID:2164991

[Difficulty]
HPDrainRate:8
CircleSize:4
OverallDifficulty:8
ApproachRate:5
SliderMultiplier:1.4
SliderTickRate:1

[Events]
//Background and Video events
0,0,"maxresdefault.jpg.jpg",0,0
//Break Periods
//Storyboard Layer 0 (Background)
//Storyboard Layer 1 (Fail)
//Storyboard Layer 2 (Pass)
//Storyboard Layer 3 (Foreground)
//Storyboard Layer 4 (Overlay)
//Storyboard Sound Samples

[TimingPoints]
4800,294.117647058824,4,1,0,100,1,0

[HitObjects]
64,192,4800,128,0,4873:0:0:0:0:
448,192,4800,128,0,5167:0:0:0:0:
64,192,4947,128,0,5020:0:0:0:0:
64,192,5094,128,0,5167:0:0:0:0:
64,192,5241,128,0,5314:0:0:0:0:
192,192,5241,128,0,5608:0:0:0:0:
64,192,5388,128,0,5755:0:0:0:0:
320,192,5682,128,0,6491:0:0:0:0:
64,192,5829,128,0,6197:0:0:0:0:
64,192,6270,128,0,7079:0:0:0:0:
192,192,6564,128,0,6711:0:0:0:0:
320,192,6858,128,0,7005:0:0:0:0:
448,192,7152,128,0,7226:0:0:0:0:
192,192,7152,128,0,7520:0:0:0:0:
448,192,7300,128,0,7373:0:0:0:0:
448,192,7447,128,0,7520:0:0:0:0:
448,192,7594,128,0,7667:0:0:0:0:
64,192,7594,128,0,7961:0:0:0:0:
448,192,7741,128,0,8108:0:0:0:0:
192,192,8035,128,0,8844:0:0:0:0:
448,192,8182,128,0,8550:0:0:0:0:
448,192,8623,128,0,8844:0:0:0:0:
448,192,8917,128,0,9432:0:0:0:0:
320,192,8917,128,0,9432:0:0:0:0:
192,192,9505,128,0,9579:0:0:0:0:
64,192,9505,128,0,10314:0:0:0:0:
192,192,9652,128,0,9726:0:0:0:0:
192,192,9800,128,0,9873:0:0:0:0:
192,192,9947,128,0,10020:0:0:0:0:
192,192,10094,128,0,10461:0:0:0:0:
448,192,10388,128,0,12667:0:0:0:0:
192,192,10535,128,0,10902:0:0:0:0:
192,192,10976,128,0,11785:0:0:0:0:
320,192,11858,128,0,11932:0:0:0:0:
320,192,12005,128,0,12079:0:0:0:0:
320,192,12152,128,0,12226:0:0:0:0:
320,192,12300,128,0,12373:0:0:0:0:
320,192,12447,128,0,12667:0:0:0:0:
320,192,12741,1,0,0:0:0:0:
192,192,12790,1,0,0:0:0:0:
64,192,12839,1,0,0:0:0:0:
448,192,12888,1,0,0:0:0:0:
320,192,12937,1,0,0:0:0:0:
192,192,12986,1,0,0:0:0:0:
64,192,13035,128,0,13255:0:0:0:0:
448,192,13035,128,0,13255:0:0:0:0:
64,192,13329,128,0,13476:0:0:0:0:
448,192,13329,128,0,13476:0:0:0:0:
192,192,13476,128,0,13844:0:0:0:0:
448,192,13623,128,0,13844:0:0:0:0:
64,192,13623,128,0,13844:0:0:0:0:
320,192,13917,128,0,14138:0:0:0:0:
64,192,14211,128,0,14285:0:0:0:0:
192,192,14260,128,0,14334:0:0:0:0:
320,192,14309,128,0,14383:0:0:0:0:
64,192,14358,128,0,14432:0:0:0:0:
64,192,14505,128,0,14579:0:0:0:0:
64,192,14652,128,0,14726:0:0:0:0:
64,192,14800,128,0,15167:0:0:0:0:
320,192,14800,128,0,15314:0:0:0:0:
64,192,15241,128,0,15608:0:0:0:0:
448,192,15388,128,0,15461:0:0:0:0:
320,192,15559,128,0,15731:0:0:0:0:
64,192,15682,128,0,16491:0:0:0:0:
192,192,15780,128,0,15927:0:0:0:0:
448,192,15976,128,0,16074:0:0:0:0:
192,192,16123,128,0,16221:0:0:0:0:
320,192,16270,1,0,0:0:0:0:
448,192,16344,128,0,16491:0:0:0:0:
192,192,16564,128,0,16638:0:0:0:0:
448,192,16564,128,0,17005:0:0:0:0:
192,192,16711,128,0,16785:0:0:0:0:
192,192,16858,128,0,16932:0:0:0:0:
192,192,17005,128,0,17079:0:0:0:0:
320,192,17079,128,0,17373:0:0:0:0:
192,192,17152,128,0,17520:0:0:0:0:
64,192,17447,128,0,18274:0:0:0:0:
192,192,17594,128,0,17961:0:0:0:0:
192,192,18035,128,0,18274:0:0:0:0:
192,192,18329,128,0,18844:0:0:0:0:
448,192,18329,128,0,18697:0:0:0:0:
64,192,18770,128,0,19211:0:0:0:0:
320,192,18917,128,0,18991:0:0:0:0:
320,192,19064,128,0,19138:0:0:0:0:
320,192,19211,128,0,19285:0:0:0:0:
448,192,19285,128,0,20314:0:0:0:0:
320,192,19358,128,0,19432:0:0:0:0:
320,192,19505,128,0,19873:0:0:0:0:
64,192,19947,1,0,0:0:0:0:
320,192,19947,128,0,20314:0:0:0:0:
320,192,20388,128,0,21197:0:0:0:0:
64,192,20388,128,0,20608:0:0:0:0:
448,192,20682,128,0,21050:0:0:0:0:
192,192,21123,128,0,21491:0:0:0:0:
448,192,21270,128,0,21344:0:0:0:0:
448,192,21417,128,0,21491:0:0:0:0:
448,192,21564,128,0,21638:0:0:0:0:
320,192,21564,128,0,23550:0:0:0:0:
448,192,21711,128,0,21803:0:0:0:0:
448,192,21858,128,0,22226:0:0:0:0:
448,192,22300,128,0,22667:0:0:0:0:
192,192,22300,128,0,23550:0:0:0:0:
448,192,22741,128,0,22961:0:0:0:0:
64,192,22741,128,0,23550:0:0:0:0:
448,192,23035,128,0,23550:0:0:0:0:
64,192,23623,128,0,23697:0:0:0:0:
320,192,23623,1,0,0:0:0:0:
448,192,23623,128,0,23991:0:0:0:0:
64,192,23770,128,0,23844:0:0:0:0:
192,192,23770,1,0,0:0:0:0:
64,192,23917,128,0,23991:0:0:0:0:
192,192,23917,1,0,0:0:0:0:
320,192,23917,1,0,0:0:0:0:
64,192,24064,128,0,24138:0:0:0:0:
448,192,24064,1,0,0:0:0:0:
192,192,24064,128,0,24432:0:0:0:0:
64,192,24211,128,0,24579:0:0:0:0:
320,192,24211,1,0,0:0:0:0:
448,192,24211,1,0,0:0:0:0:
448,192,24505,128,0,25314:0:0:0:0:
320,192,24505,1,0,0:0:0:0:
64,192,24652,128,0,24873:0:0:0:0:
192,192,24652,1,0,0:0:0:0:
64,192,24947,128,0,25020:0:0:0:0:
320,192,24947,1,0,0:0:0:0:
64,192,25094,128,0,25388:0:0:0:0:
192,192,25094,1,0,0:0:0:0:
320,192,25094,1,0,0:0:0:0:
320,192,25388,128,0,25608:0:0:0:0:
192,192,25682,128,0,25902:0:0:0:0:
64,192,25682,128,0,25755:0:0:0:0:
448,192,25682,128,0,25829:0:0:0:0:
320,192,25682,1,0,0:0:0:0:
448,192,25976,128,0,26050:0:0:0:0:
320,192,25976,128,0,26344:0:0:0:0:
64,192,25976,1,0,0:0:0:0:
448,192,26123,128,0,26197:0:0:0:0:
192,192,26123,1,0,0:0:0:0:
448,192,26270,128,0,26344:0:0:0:0:
64,192,26270,1,0,0:0:0:0:
448,192,26417,128,0,26491:0:0:0:0:
192,192,26417,1,0,0:0:0:0:
64,192,26417,128,0,26785:0:0:0:0:
448,192,26564,128,0,26932:0:0:0:0:
320,192,26564,1,0,0:0:0:0:
192,192,26564,1,0,0:0:0:0:
192,192,26858,128,0,27667:0:0:0:0:
448,192,27005,128,0,27226:0:0:0:0:
64,192,27005,1,0,0:0:0:0:
448,192,27300,128,0,27373:0:0:0:0:
320,192,27300,1,0,0:0:0:0:
448,192,27447,128,0,27667:0:0:0:0:
64,192,27447,1,0,0:0:0:0:
448,192,27741,128,0,28255:0:0:0:0:
320,192,27741,128,0,28255:0:0:0:0:
64,192,27741,128,0,28255:0:0:0:0:
192,192,27741,1,0,0:0:0:0:
192,192,28329,128,0,28402:0:0:0:0:
320,192,28329,128,0,29211:0:0:0:0:
64,192,28329,1,0,0:0:0:0:
192,192,28476,128,0,28550:0:0:0:0:
448,192,28476,1,0,0:0:0:0:
192,192,28623,128,0,28697:0:0:0:0:
64,192,28623,1,0,0:0:0:0:
192,192,28770,128,0,28844:0:0:0:0:
448,192,28770,1,0,0:0:0:0:
192,192,28917,128,0,29285:0:0:0:0:
448,192,28917,1,0,0:0:0:0:
64,192,28917,1,0,0:0:0:0:
64,192,29285,128,0,31491:0:0:0:0:
192,192,29358,128,0,29579:0:0:0:0:
448,192,29358,1,0,0:0:0:0:
192,192,29652,128,0,29726:0:0:0:0:
448,192,29652,1,0,0:0:0:0:
192,192,29800,128,0,30314:0:0:0:0:
448,192,29800,1,0,0:0:0:0:
192,192,30388,128,0,30535:0:0:0:0:
320,192,30388,1,0,0:0:0:0:
320,192,30682,128,0,30755:0:0:0:0:
448,192,30682,1,0,0:0:0:0:
320,192,30829,128,0,30902:0:0:0:0:
192,192,30829,1,0,0:0:0:0:
320,192,30976,128,0,31050:0:0:0:0:
448,192,30976,1,0,0:0:0:0:
320,192,31123,128,0,31197:0:0:0:0:
192,192,31123,1,0,0:0:0:0:
320,192,31270,128,0,31638:0:0:0:0:
192,192,31270,1,0,0:0:0:0:
448,192,31270,1,0,0:0:0:0:
448,192,31564,1,0,0:0:0:0:
192,192,31601,1,0,0:0:0:0:
64,192,31638,1,0,0:0:0:0:
320,192,31711,128,0,31932:0:0:0:0:
448,192,31711,1,0,0:0:0:0:
64,192,31932,128,0,32300:0:0:0:0:
320,192,32005,128,0,32079:0:0:0:0:
448,192,32005,1,0,0:0:0:0:
320,192,32152,128,0,32373:0:0:0:0:
192,192,32152,1,0,0:0:0:0:
192,192,32373,128,0,32667:0:0:0:0:
320,192,32447,128,0,32961:0:0:0:0:
448,192,32447,1,0,0:0:0:0:
64,192,32447,128,0,32961:0:0:0:0:
448,192,32741,128,0,32961:0:0:0:0:
64,192,33035,128,0,33108:0:0:0:0:
192,192,33035,128,0,33550:0:0:0:0:
448,192,33035,1,0,0:0:0:0:
64,192,33182,128,0,33255:0:0:0:0:
320,192,33182,1,0,0:0:0:0:
64,192,33329,128,0,33402:0:0:0:0:
448,192,33329,1,0,0:0:0:0:
64,192,33476,128,0,33550:0:0:0:0:
320,192,33476,1,0,0:0:0:0:
64,192,33623,128,0,33844:0:0:0:0:
320,192,33623,128,0,34138:0:0:0:0:
448,192,33623,1,0,0:0:0:0:
64,192,33917,128,0,33991:0:0:0:0:
192,192,33917,1,0,0:0:0:0:
64,192,34064,128,0,34138:0:0:0:0:
448,192,34064,1,0,0:0:0:0:
64,192,34211,128,0,34285:0:0:0:0:
448,192,34211,128,0,34358:0:0:0:0:
192,192,34211,1,0,0:0:0:0:
64,192,34358,128,0,34432:0:0:0:0:
192,192,34358,1,0,0:0:0:0:
320,192,34407,128,0,34554:0:0:0:0:
64,192,34505,128,0,34579:0:0:0:0:
448,192,34505,1,0,0:0:0:0:
192,192,34603,128,0,34726:0:0:0:0:
64,192,34652,128,0,34726:0:0:0:0:
320,192,34652,1,0,0:0:0:0:
64,192,34800,128,0,35020:0:0:0:0:
448,192,34800,128,0,34898:0:0:0:0:
320,192,34800,1,0,0:0:0:0:
320,192,34947,128,0,35314:0:0:0:0:
448,192,35094,128,0,35314:0:0:0:0:
64,192,35094,128,0,35314:0:0:0:0:
192,192,35094,1,0,0:0:0:0:
192,192,35388,128,0,35461:0:0:0:0:
448,192,35388,128,0,35755:0:0:0:0:
320,192,35388,1,0,0:0:0:0:
64,192,35388,1,0,0:0:0:0:
192,192,35535,128,0,35608:0:0:0:0:
64,192,35535,1,0,0:0:0:0:
192,192,35682,128,0,35755:0:0:0:0:
320,192,35682,1,0,0:0:0:0:
192,192,35829,128,0,35902:0:0:0:0:
320,192,35829,128,0,36197:0:0:0:0:
64,192,35829,1,0,0:0:0:0:
192,192,35976,128,0,36344:0:0:0:0:
448,192,35976,1,0,0:0:0:0:
64,192,35976,1,0,0:0:0:0:
64,192,36270,128,0,36785:0:0:0:0:
448,192,36417,128,0,36491:0:0:0:0:
320,192,36417,1,0,0:0:0:0:
192,192,36564,128,0,36638:0:0:0:0:
320,192,36564,1,0,0:0:0:0:
448,192,36564,1,0,0:0:0:0:
192,192,36711,128,0,36785:0:0:0:0:
448,192,36711,1,0,0:0:0:0:
192,192,36858,128,0,37079:0:0:0:0:
320,192,36858,128,0,37079:0:0:0:0:
448,192,36858,1,0,0:0:0:0:
64,192,36858,1,0,0:0:0:0:
64,192,37152,128,0,37300:0:0:0:0:
448,192,37152,128,0,37300:0:0:0:0:
320,192,37152,1,0,0:0:0:0:
192,192,37152,1,0,0:0:0:0:
192,192,37447,128,0,37520:0:0:0:0:
448,192,37447,1,0,0:0:0:0:
320,192,37447,1,0,0:0:0:0:
64,192,37447,1,0,0:0:0:0:
192,192,37594,128,0,37667:0:0:0:0:
448,192,37594,1,0,0:0:0:0:
320,192,37594,1,0,0:0:0:0:
64,192,37594,1,0,0:0:0:0:
320,192,37741,128,0,37814:0:0:0:0:
448,192,37741,1,0,0:0:0:0:
64,192,37741,1,0,0:0:0:0:
320,192,37888,128,0,37961:0:0:0:0:
192,192,37888,1,0,0:0:0:0:
64,192,37888,1,0,0:0:0:0:
320,192,38035,128,0,38108:0:0:0:0:
64,192,38035,1,0,0:0:0:0:
448,192,38035,1,0,0:0:0:0:
320,192,38182,128,0,38255:0:0:0:0:
192,192,38182,1,0,0:0:0:0:
448,192,38182,1,0,0:0:0:0:
64,192,38329,1,0,0:0:0:0:
448,192,38329,128,0,38402:0:0:0:0:
320,192,38329,1,0,0:0:0:0:
320,192,38476,128,0,38550:0:0:0:0:
192,192,38476,1,0,0:0:0:0:
64,192,38476,1,0,0:0:0:0:
192,192,38623,1,0,0:0:0:0:
448,192,38623,128,0,38697:0:0:0:0:
320,192,38623,1,0,0:0:0:0:
64,192,38752,1,0,0:0:0:0:
320,192,38770,128,0,38844:0:0:0:0:
448,192,38770,1,0,0:0:0:0:
448,192,38917,128,0,38991:0:0:0:0:
320,192,38917,1,0,0:0:0:0:
192,192,38917,1,0,0:0:0:0:
64,192,38917,128,0,38991:0:0:0:0:
192,192,38991,128,0,39064:0:0:0:0:
448,192,39064,128,0,39138:0:0:0:0:
64,192,39064,1,0,0:0:0:0:
320,192,39064,128,0,39138:0:0:0:0:
192,192,39138,128,0,39211:0:0:0:0:
448,192,39211,128,0,39285:0:0:0:0:
64,192,39211,128,0,39285:0:0:0:0:
320,192,39285,128,0,39358:0:0:0:0:
448,192,39358,128,0,39432:0:0:0:0:
192,192,39358,128,0,39432:0:0:0:0:
320,192,39432,128,0,39505:0:0:0:0:
448,192,39505,128,0,39652:0:0:0:0:
64,192,39579,128,0,39726:0:0:0:0:
320,192,39652,128,0,39800:0:0:0:0:
192,192,39726,128,0,39873:0:0:0:0:
448,192,39800,128,0,39947:0:0:0:0:
64,192,39873,128,0,40020:0:0:0:0:
320,192,39947,128,0,40094:0:0:0:0:
192,192,40020,128,0,40167:0:0:0:0:
448,192,40094,128,0,40167:0:0:0:0:
64,192,40167,128,0,40241:0:0:0:0:
320,192,40241,128,0,40314:0:0:0:0:
448,192,40241,1,0,0:0:0:0:
192,192,40314,128,0,40388:0:0:0:0:
64,192,40314,1,0,0:0:0:0:
448,192,40388,128,0,40461:0:0:0:0:
320,192,40388,1,0,0:0:0:0:
64,192,40461,128,0,40535:0:0:0:0:
192,192,40461,1,0,0:0:0:0:
320,192,40535,128,0,40608:0:0:0:0:
448,192,40535,1,0,0:0:0:0:
192,192,40608,128,0,40682:0:0:0:0:
64,192,40608,1,0,0:0:0:0:
448,192,40682,128,0,40755:0:0:0:0:
320,192,40682,1,0,0:0:0:0:
64,192,40755,128,0,40829:0:0:0:0:
192,192,40755,1,0,0:0:0:0:
320,192,40829,128,0,40902:0:0:0:0:
448,192,40829,1,0,0:0:0:0:
192,192,40902,128,0,40976:0:0:0:0:
64,192,40902,1,0,0:0:0:0:
448,192,40976,128,0,41050:0:0:0:0:
320,192,40976,1,0,0:0:0:0:
64,192,41050,128,0,41123:0:0:0:0:
192,192,41050,1,0,0:0:0:0:
320,192,41123,128,0,41197:0:0:0:0:
448,192,41123,1,0,0:0:0:0:
192,192,41197,128,0,41270:0:0:0:0:
64,192,41197,1,0,0:0:0:0:
448,192,41307,1,0,0:0:0:0:
64,192,41344,1,0,0:0:0:0:
320,192,41380,1,0,0:0:0:0:
192,192,41417,1,0,0:0:0:0:
448,192,41454,1,0,0:0:0:0:
64,192,41491,1,0,0:0:0:0:
320,192,41527,1,0,0:0:0:0:
448,192,41564,1,0,0:0:0:0:
192,192,41601,1,0,0:0:0:0:
320,192,41638,1,0,0:0:0:0:
448,192,41675,1,0,0:0:0:0:
64,192,41711,1,0,0:0:0:0:
192,192,41748,1,0,0:0:0:0:
320,192,41785,1,0,0:0:0:0:
192,192,41858,128,0,42226:0:0:0:0:
448,192,41858,128,0,42079:0:0:0:0:
64,192,41858,128,0,42373:0:0:0:0:
448,192,42447,1,0,0:0:0:0:
64,192,42447,1,0,0:0:0:0:
192,192,42483,1,0,0:0:0:0:
320,192,42520,1,0,0:0:0:0:
448,192,42557,1,0,0:0:0:0:
192,192,42594,1,0,0:0:0:0:
64,192,42630,1,0,0:0:0:0:
320,192,42667,1,0,0:0:0:0:
448,192,42704,1,0,0:0:0:0:
192,192,42741,1,0,0:0:0:0:
64,192,42777,1,0,0:0:0:0:
320,192,42814,1,0,0:0:0:0:
192,192,42851,1,0,0:0:0:0:
448,192,42888,1,0,0:0:0:0:
64,192,42888,1,0,0:0:0:0:
192,192,42961,1,0,0:0:0:0:
64,192,42961,1,0,0:0:0:0:
320,192,43035,1,0,0:0:0:0:
448,192,43035,1,0,0:0:0:0:
448,192,43108,1,0,0:0:0:0:
192,192,43108,1,0,0:0:0:0:
320,192,43182,1,0,0:0:0:0:
64,192,43182,1,0,0:0:0:0:
64,192,43255,1,0,0:0:0:0:
320,192,43255,1,0,0:0:0:0:
192,192,43329,1,0,0:0:0:0:
448,192,43329,1,0,0:0:0:0:
64,192,43402,1,0,0:0:0:0:
320,192,43402,1,0,0:0:0:0:
448,192,43476,1,0,0:0:0:0:
192,192,43476,1,0,0:0:0:0:
320,192,43550,1,0,0:0:0:0:
64,192,43550,1,0,0:0:0:0:
320,192,43623,1,0,0:0:0:0:
64,192,43623,1,0,0:0:0:0:
192,192,43697,1,0,0:0:0:0:
448,192,43697,1,0,0:0:0:0:
320,192,43770,1,0,0:0:0:0:
64,192,43770,1,0,0:0:0:0:
192,192,43844,1,0,0:0:0:0:
448,192,43917,1,0,0:0:0:0:
64,192,43917,1,0,0:0:0:0:
320,192,43954,1,0,0:0:0:0:
192,192,43991,1,0,0:0:0:0:
448,192,44027,1,0,0:0:0:0:
64,192,44064,1,0,0:0:0:0:
192,192,44101,1,0,0:0:0:0:
320,192,44138,1,0,0:0:0:0:
64,192,44211,1,0,0:0:0:0:
448,192,44211,1,0,0:0:0:0:
192,192,44285,1,0,0:0:0:0:
320,192,44285,1,0,0:0:0:0:
192,192,44358,1,0,0:0:0:0:
320,192,44358,1,0,0:0:0:0:
64,192,44432,1,0,0:0:0:0:
448,192,44432,1,0,0:0:0:0:
448,192,44505,1,0,0:0:0:0:
192,192,44579,1,0,0:0:0:0:
64,192,44579,1,0,0:0:0:0:
320,192,44652,1,0,0:0:0:0:
192,192,44652,1,0,0:0:0:0:
448,192,44726,1,0,0:0:0:0:
320,192,44726,1,0,0:0:0:0:
64,192,44800,1,0,0:0:0:0:
192,192,44800,1,0,0:0:0:0:
64,192,44873,1,0,0:0:0:0:
192,192,44873,1,0,0:0:0:0:
448,192,44947,1,0,0:0:0:0:
320,192,44947,1,0,0:0:0:0:
448,192,45020,1,0,0:0:0:0:
320,192,45020,1,0,0:0:0:0:
64,192,45094,1,0,0:0:0:0:
192,192,45094,1,0,0:0:0:0:
64,192,45167,1,0,0:0:0:0:
192,192,45167,1,0,0:0:0:0:
320,192,45241,1,0,0:0:0:0:
448,192,45241,1,0,0:0:0:0:
320,192,45314,1,0,0:0:0:0:
192,192,45388,1,0,0:0:0:0:
448,192,45388,1,0,0:0:0:0:
64,192,45388,1,0,0:0:0:0:
320,192,45461,1,0,0:0:0:0:
192,192,45498,1,0,0:0:0:0:
64,192,45535,1,0,0:0:0:0:
448,192,45572,1,0,0:0:0:0:
320,192,45608,1,0,0:0:0:0:
192,192,45682,1,0,0:0:0:0:
64,192,45682,1,0,0:0:0:0:
448,192,45682,1,0,0:0:0:0:
320,192,45755,1,0,0:0:0:0:
192,192,45792,1,0,0:0:0:0:
64,192,45829,1,0,0:0:0:0:
448,192,45866,1,0,0:0:0:0:
320,192,45902,1,0,0:0:0:0:
192,192,45976,1,0,0:0:0:0:
64,192,45976,1,0,0:0:0:0:
448,192,45976,1,0,0:0:0:0:
192,192,46050,1,0,0:0:0:0:
64,192,46050,1,0,0:0:0:0:
320,192,46123,1,0,0:0:0:0:
448,192,46123,1,0,0:0:0:0:
448,192,46197,1,0,0:0:0:0:
192,192,46197,1,0,0:0:0:0:
320,192,46270,1,0,0:0:0:0:
64,192,46270,1,0,0:0:0:0:
192,192,46344,1,0,0:0:0:0:
64,192,46344,1,0,0:0:0:0:
448,192,46417,1,0,0:0:0:0:
320,192,46417,1,0,0:0:0:0:
448,192,46491,1,0,0:0:0:0:
192,192,46491,1,0,0:0:0:0:
64,192,46564,1,0,0:0:0:0:
320,192,46564,1,0,0:0:0:0:
192,192,46638,1,0,0:0:0:0:
64,192,46638,1,0,0:0:0:0:
320,192,46711,1,0,0:0:0:0:
448,192,46711,1,0,0:0:0:0:
448,192,46785,1,0,0:0:0:0:
192,192,46785,1,0,0:0:0:0:
320,192,46858,1,0,0:0:0:0:
64,192,46858,1,0,0:0:0:0:
192,192,46932,1,0,0:0:0:0:
320,192,46932,1,0,0:0:0:0:
64,192,47005,1,0,0:0:0:0:
448,192,47005,1,0,0:0:0:0:
320,192,47079,1,0,0:0:0:0:
192,192,47079,1,0,0:0:0:0:
64,192,47152,1,0,0:0:0:0:
448,192,47152,1,0,0:0:0:0:
320,192,47201,1,0,0:0:0:0:
448,192,47250,1,0,0:0:0:0:
192,192,47300,1,0,0:0:0:0:
64,192,47300,1,0,0:0:0:0:
448,192,47349,1,0,0:0:0:0:
320,192,47398,1,0,0:0:0:0:
64,192,47447,1,0,0:0:0:0:
192,192,47447,1,0,0:0:0:0:
448,192,47496,1,0,0:0:0:0:
192,192,47545,1,0,0:0:0:0:
320,192,47594,1,0,0:0:0:0:
64,192,47643,1,0,0:0:0:0:
192,192,47692,1,0,0:0:0:0:
448,192,47741,1,0,0:0:0:0:
320,192,47741,1,0,0:0:0:0:
64,192,47790,1,0,0:0:0:0:
192,192,47839,1,0,0:0:0:0:
448,192,47888,1,0,0:0:0:0:
320,192,47937,1,0,0:0:0:0:
448,192,47986,1,0,0:0:0:0:
64,192,48035,1,0,0:0:0:0:
192,192,48035,1,0,0:0:0:0:
448,192,48084,1,0,0:0:0:0:
320,192,48133,1,0,0:0:0:0:
192,192,48182,1,0,0:0:0:0:
64,192,48182,1,0,0:0:0:0:
448,192,48231,1,0,0:0:0:0:
320,192,48280,1,0,0:0:0:0:
192,192,48329,1,0,0:0:0:0:
64,192,48329,1,0,0:0:0:0:
320,192,48378,1,0,0:0:0:0:
448,192,48427,1,0,0:0:0:0:
192,192,48476,1,0,0:0:0:0:
64,192,48476,1,0,0:0:0:0:
320,192,48525,1,0,0:0:0:0:
448,192,48574,1,0,0:0:0:0:
192,192,48623,1,0,0:0:0:0:
64,192,48623,1,0,0:0:0:0:
448,192,48672,1,0,0:0:0:0:
320,192,48721,1,0,0:0:0:0:
448,192,48770,1,0,0:0:0:0:
192,192,48819,1,0,0:0:0:0:
64,192,48868,1,0,0:0:0:0:
448,192,48917,1,0,0:0:0:0:
320,192,48917,1,0,0:0:0:0:
192,192,48966,1,0,0:0:0:0:
64,192,49015,1,0,0:0:0:0:
320,192,49064,1,0,0:0:0:0:
448,192,49064,1,0,0:0:0:0:
64,192,49113,1,0,0:0:0:0:
192,192,49162,1,0,0:0:0:0:
320,192,49211,1,0,0:0:0:0:
448,192,49211,1,0,0:0:0:0:
192,192,49260,1,0,0:0:0:0:
64,192,49309,1,0,0:0:0:0:
320,192,49358,1,0,0:0:0:0:
448,192,49358,1,0,0:0:0:0:
192,192,49407,1,0,0:0:0:0:
64,192,49456,1,0,0:0:0:0:
320,192,49505,1,0,0:0:0:0:
192,192,49505,1,0,0:0:0:0:
64,192,49554,1,0,0:0:0:0:
448,192,49603,1,0,0:0:0:0:
320,192,49652,1,0,0:0:0:0:
192,192,49652,1,0,0:0:0:0:
64,192,49701,1,0,0:0:0:0:
448,192,49750,1,0,0:0:0:0:
320,192,49800,1,0,0:0:0:0:
192,192,49800,1,0,0:0:0:0:
448,192,49849,1,0,0:0:0:0:
64,192,49898,1,0,0:0:0:0:
192,192,49947,1,0,0:0:0:0:
320,192,49947,1,0,0:0:0:0:
448,192,49996,1,0,0:0:0:0:
64,192,50045,1,0,0:0:0:0:
192,192,50094,1,0,0:0:0:0:
448,192,50094,1,0,0:0:0:0:
320,192,50130,1,0,0:0:0:0:
64,192,50167,1,0,0:0:0:0:
192,192,50204,1,0,0:0:0:0:
448,192,50241,1,0,0:0:0:0:
320,192,50277,1,0,0:0:0:0:
64,192,50314,1,0,0:0:0:0:
192,192,50351,1,0,0:0:0:0:
320,192,50388,1,0,0:0:0:0:
448,192,50388,1,0,0:0:0:0:
64,192,50425,1,0,0:0:0:0:
192,192,50461,1,0,0:0:0:0:
448,192,50498,1,0,0:0:0:0:
64,192,50535,1,0,0:0:0:0:
320,192,50535,1,0,0:0:0:0:
192,192,50608,1,0,0:0:0:0:
64,192,50608,1,0,0:0:0:0:
320,192,50682,1,0,0:0:0:0:
448,192,50682,1,0,0:0:0:0:
192,192,50755,1,0,0:0:0:0:
448,192,50755,1,0,0:0:0:0:
64,192,50829,1,0,0:0:0:0:
320,192,50829,1,0,0:0:0:0:
192,192,50902,1,0,0:0:0:0:
320,192,50902,1,0,0:0:0:0:
64,192,50976,1,0,0:0:0:0:
448,192,50976,1,0,0:0:0:0:
192,192,51050,1,0,0:0:0:0:
64,192,51050,1,0,0:0:0:0:
320,192,51123,1,0,0:0:0:0:
448,192,51123,1,0,0:0:0:0:
320,192,51197,1,0,0:0:0:0:
192,192,51197,1,0,0:0:0:0:
64,192,51270,1,0,0:0:0:0:
448,192,51270,1,0,0:0:0:0:
192,192,51307,1,0,0:0:0:0:
320,192,51344,1,0,0:0:0:0:
448,192,51380,1,0,0:0:0:0:
64,192,51417,1,0,0:0:0:0:
192,192,51454,1,0,0:0:0:0:
448,192,51491,1,0,0:0:0:0:
320,192,51527,1,0,0:0:0:0:
64,192,51564,1,0,0:0:0:0:
192,192,51564,1,0,0:0:0:0:
448,192,51601,1,0,0:0:0:0:
320,192,51638,1,0,0:0:0:0:
192,192,51675,1,0,0:0:0:0:
64,192,51711,1,0,0:0:0:0:
448,192,51748,1,0,0:0:0:0:
320,192,51785,1,0,0:0:0:0:
192,192,51822,1,0,0:0:0:0:
64,192,51858,5,0,0:0:0:0:
448,192,51858,1,0,0:0:0:0:
320,192,51895,1,0,0:0:0:0:
192,192,51932,1,0,0:0:0:0:
448,192,51969,1,0,0:0:0:0:
64,192,52005,1,0,0:0:0:0:
320,192,52042,1,0,0:0:0:0:
192,192,52079,1,0,0:0:0:0:
64,192,52116,1,0,0:0:0:0:
448,192,52152,1,0,0:0:0:0:
320,192,52189,1,0,0:0:0:0:
192,192,52226,1,0,0:0:0:0:
64,192,52263,1,0,0:0:0:0:
448,192,52300,1,0,0:0:0:0:
320,192,52300,1,0,0:0:0:0:
320,192,52373,1,0,0:0:0:0:
192,192,52373,1,0,0:0:0:0:
64,192,52447,1,0,0:0:0:0:
448,192,52447,1,0,0:0:0:0:
64,192,52520,1,0,0:0:0:0:
320,192,52520,1,0,0:0:0:0:
192,192,52557,1,0,0:0:0:0:
448,192,52594,1,0,0:0:0:0:
64,192,52630,1,0,0:0:0:0:
192,192,52667,1,0,0:0:0:0:
320,192,52704,1,0,0:0:0:0:
64,192,52741,1,0,0:0:0:0:
448,192,52741,1,0,0:0:0:0:
192,192,52814,1,0,0:0:0:0:
64,192,52814,1,0,0:0:0:0:
320,192,52888,1,0,0:0:0:0:
448,192,52888,1,0,0:0:0:0:
320,192,52961,1,0,0:0:0:0:
192,192,52961,1,0,0:0:0:0:
64,192,53035,1,0,0:0:0:0:
448,192,53035,1,0,0:0:0:0:
64,192,53108,1,0,0:0:0:0:
192,192,53108,1,0,0:0:0:0:
320,192,53182,1,0,0:0:0:0:
448,192,53182,1,0,0:0:0:0:
320,192,53255,1,0,0:0:0:0:
64,192,53329,1,0,0:0:0:0:
448,192,53329,1,0,0:0:0:0:
192,192,53366,1,0,0:0:0:0:
320,192,53402,1,0,0:0:0:0:
64,192,53439,1,0,0:0:0:0:
448,192,53476,1,0,0:0:0:0:
192,192,53513,1,0,0:0:0:0:
320,192,53550,1,0,0:0:0:0:
448,192,53586,1,0,0:0:0:0:
64,192,53623,1,0,0:0:0:0:
192,192,53623,1,0,0:0:0:0:
64,192,53697,1,0,0:0:0:0:
320,192,53697,1,0,0:0:0:0:
192,192,53770,1,0,0:0:0:0:
448,192,53770,1,0,0:0:0:0:
320,192,53844,1,0,0:0:0:0:
448,192,53844,1,0,0:0:0:0:
64,192,53917,1,0,0:0:0:0:
192,192,53917,1,0,0:0:0:0:
320,192,53991,1,0,0:0:0:0:
192,192,53991,1,0,0:0:0:0:
448,192,54064,1,0,0:0:0:0:
64,192,54064,1,0,0:0:0:0:
320,192,54138,1,0,0:0:0:0:
448,192,54138,1,0,0:0:0:0:
64,192,54211,1,0,0:0:0:0:
192,192,54248,1,0,0:0:0:0:
320,192,54285,1,0,0:0:0:0:
448,192,54322,1,0,0:0:0:0:
64,192,54358,1,0,0:0:0:0:
192,192,54395,1,0,0:0:0:0:
448,192,54432,1,0,0:0:0:0:
320,192,54469,1,0,0:0:0:0:
64,192,54505,1,0,0:0:0:0:
192,192,54542,1,0,0:0:0:0:
320,192,54579,1,0,0:0:0:0:
64,192,54616,1,0,0:0:0:0:
448,192,54652,1,0,0:0:0:0:
320,192,54689,1,0,0:0:0:0:
192,192,54726,1,0,0:0:0:0:
448,192,54763,1,0,0:0:0:0:
64,192,54800,1,0,0:0:0:0:
320,192,54800,1,0,0:0:0:0:
192,192,54873,1,0,0:0:0:0:
64,192,54873,1,0,0:0:0:0:
320,192,54947,1,0,0:0:0:0:
448,192,54947,1,0,0:0:0:0:
448,192,55020,1,0,0:0:0:0:
192,192,55020,1,0,0:0:0:0:
64,192,55094,1,0,0:0:0:0:
320,192,55094,1,0,0:0:0:0:
192,192,55130,1,0,0:0:0:0:
448,192,55167,1,0,0:0:0:0:
320,192,55204,1,0,0:0:0:0:
64,192,55241,1,0,0:0:0:0:
192,192,55277,1,0,0:0:0:0:
320,192,55314,1,0,0:0:0:0:
448,192,55351,1,0,0:0:0:0:
64,192,55388,1,0,0:0:0:0:
192,192,55425,1,0,0:0:0:0:
320,192,55461,1,0,0:0:0:0:
64,192,55535,1,0,0:0:0:0:
448,192,55535,1,0,0:0:0:0:
192,192,55535,1,0,0:0:0:0:
192,192,55608,1,0,0:0:0:0:
320,192,55682,1,0,0:0:0:0:
448,192,55682,1,0,0:0:0:0:
64,192,55682,1,0,0:0:0:0:
320,192,55755,1,0,0:0:0:0:
64,192,55829,1,0,0:0:0:0:
192,192,55829,1,0,0:0:0:0:
448,192,55829,1,0,0:0:0:0:
192,192,55902,1,0,0:0:0:0:
320,192,55976,1,0,0:0:0:0:
448,192,55976,1,0,0:0:0:0:
320,192,56050,1,0,0:0:0:0:
192,192,56050,1,0,0:0:0:0:
64,192,56123,1,0,0:0:0:0:
448,192,56123,1,0,0:0:0:0:
192,192,56197,1,0,0:0:0:0:
64,192,56197,1,0,0:0:0:0:
320,192,56270,1,0,0:0:0:0:
448,192,56270,1,0,0:0:0:0:
448,192,56344,1,0,0:0:0:0:
64,192,56344,1,0,0:0:0:0:
64,192,56417,1,0,0:0:0:0:
192,192,56417,1,0,0:0:0:0:
320,192,56491,1,0,0:0:0:0:
64,192,56564,1,0,0:0:0:0:
448,192,56564,1,0,0:0:0:0:
192,192,56613,1,0,0:0:0:0:
320,192,56662,1,0,0:0:0:0:
448,192,56711,1,0,0:0:0:0:
64,192,56711,1,0,0:0:0:0:
320,192,56760,1,0,0:0:0:0:
192,192,56809,1,0,0:0:0:0:
448,192,56858,1,0,0:0:0:0:
64,192,56858,1,0,0:0:0:0:
320,192,56907,1,0,0:0:0:0:
192,192,56956,1,0,0:0:0:0:
320,192,57005,1,0,0:0:0:0:
448,192,57005,1,0,0:0:0:0:
64,192,57054,1,0,0:0:0:0:
192,192,57103,1,0,0:0:0:0:
448,192,57152,1,0,0:0:0:0:
320,192,57152,1,0,0:0:0:0:
64,192,57201,1,0,0:0:0:0:
448,192,57250,1,0,0:0:0:0:
192,192,57300,1,0,0:0:0:0:
320,192,57300,1,0,0:0:0:0:
64,192,57349,1,0,0:0:0:0:
448,192,57398,1,0,0:0:0:0:
192,192,57447,1,0,0:0:0:0:
64,192,57447,1,0,0:0:0:0:
320,192,57496,1,0,0:0:0:0:
192,192,57545,1,0,0:0:0:0:
64,192,57545,1,0,0:0:0:0:
448,192,57594,1,0,0:0:0:0:
192,192,57643,1,0,0:0:0:0:
64,192,57643,1,0,0:0:0:0:
320,192,57692,1,0,0:0:0:0:
192,192,57741,1,0,0:0:0:0:
64,192,57741,1,0,0:0:0:0:
448,192,57790,1,0,0:0:0:0:
320,192,57839,1,0,0:0:0:0:
192,192,57888,1,0,0:0:0:0:
64,192,57888,1,0,0:0:0:0:
448,192,57937,1,0,0:0:0:0:
192,192,57986,1,0,0:0:0:0:
320,192,58035,1,0,0:0:0:0:
64,192,58035,1,0,0:0:0:0:
448,192,58084,1,0,0:0:0:0:
192,192,58133,1,0,0:0:0:0:
448,192,58182,1,0,0:0:0:0:
64,192,58182,1,0,0:0:0:0:
320,192,58231,1,0,0:0:0:0:
192,192,58280,1,0,0:0:0:0:
448,192,58329,1,0,0:0:0:0:
320,192,58329,1,0,0:0:0:0:
64,192,58378,1,0,0:0:0:0:
448,192,58427,1,0,0:0:0:0:
320,192,58427,1,0,0:0:0:0:
192,192,58476,1,0,0:0:0:0:
448,192,58525,1,0,0:0:0:0:
320,192,58525,1,0,0:0:0:0:
64,192,58574,1,0,0:0:0:0:
448,192,58623,1,0,0:0:0:0:
320,192,58623,1,0,0:0:0:0:
64,192,58672,1,0,0:0:0:0:
192,192,58721,1,0,0:0:0:0:
448,192,58770,1,0,0:0:0:0:
64,192,58770,1,0,0:0:0:0:
320,192,58819,1,0,0:0:0:0:
192,192,58868,1,0,0:0:0:0:
448,192,58917,1,0,0:0:0:0:
64,192,58917,1,0,0:0:0:0:
192,192,58966,1,0,0:0:0:0:
320,192,59015,1,0,0:0:0:0:
448,192,59064,1,0,0:0:0:0:
64,192,59064,1,0,0:0:0:0:
320,192,59113,1,0,0:0:0:0:
192,192,59162,1,0,0:0:0:0:
448,192,59211,1,0,0:0:0:0:
64,192,59211,1,0,0:0:0:0:
320,192,59260,1,0,0:0:0:0:
192,192,59309,1,0,0:0:0:0:
448,192,59358,1,0,0:0:0:0:
64,192,59358,1,0,0:0:0:0:
320,192,59407,1,0,0:0:0:0:
192,192,59456,1,0,0:0:0:0:
64,192,59505,5,0,0:0:0:0:
448,192,59505,1,0,0:0:0:0:
320,192,59505,1,0,0:0:0:0:
192,192,59579,1,0,0:0:0:0:
448,192,59616,1,0,0:0:0:0:
64,192,59652,1,0,0:0:0:0:
320,192,59689,1,0,0:0:0:0:
448,192,59726,1,0,0:0:0:0:
64,192,59800,1,0,0:0:0:0:
192,192,59800,1,0,0:0:0:0:
64,192,59873,1,0,0:0:0:0:
192,192,59873,1,0,0:0:0:0:
448,192,59947,1,0,0:0:0:0:
320,192,59947,1,0,0:0:0:0:
448,192,60020,1,0,0:0:0:0:
320,192,60020,1,0,0:0:0:0:
64,192,60094,5,0,0:0:0:0:
192,192,60094,1,0,0:0:0:0:
64,192,60167,1,0,0:0:0:0:
192,192,60167,1,0,0:0:0:0:
448,192,60241,1,0,0:0:0:0:
320,192,60241,1,0,0:0:0:0:
448,192,60314,1,0,0:0:0:0:
320,192,60314,1,0,0:0:0:0:
192,192,60388,1,0,0:0:0:0:
448,192,60388,1,0,0:0:0:0:
320,192,60425,1,0,0:0:0:0:
64,192,60461,1,0,0:0:0:0:
448,192,60535,1,0,0:0:0:0:
192,192,60535,1,0,0:0:0:0:
320,192,60572,1,0,0:0:0:0:
64,192,60608,1,0,0:0:0:0:
448,192,60682,1,0,0:0:0:0:
192,192,60682,1,0,0:0:0:0:
64,192,60719,1,0,0:0:0:0:
320,192,60755,1,0,0:0:0:0:
64,192,60829,1,0,0:0:0:0:
192,192,60829,1,0,0:0:0:0:
192,192,60902,1,0,0:0:0:0:
64,192,60902,1,0,0:0:0:0:
448,192,60976,1,0,0:0:0:0:
320,192,60976,1,0,0:0:0:0:
448,192,61050,1,0,0:0:0:0:
320,192,61050,1,0,0:0:0:0:
64,192,61123,1,0,0:0:0:0:
192,192,61123,1,0,0:0:0:0:
192,192,61197,1,0,0:0:0:0:
64,192,61197,1,0,0:0:0:0:
320,192,61270,128,0,61491:0:0:0:0:
448,192,61270,128,0,61638:0:0:0:0:
64,192,61564,128,0,61601:0:0:0:0:
192,192,61711,1,0,0:0:0:0:
64,192,61711,128,0,61748:0:0:0:0:
448,192,61858,128,0,62226:0:0:0:0:
64,192,61858,128,0,61895:0:0:0:0:
320,192,61858,1,0,0:0:0:0:
64,192,62005,128,0,62042:0:0:0:0:
192,192,62152,1,0,0:0:0:0:
64,192,62152,128,0,62189:0:0:0:0:
448,192,62300,128,0,62667:0:0:0:0:
64,192,62300,128,0,62336:0:0:0:0:
320,192,62300,1,0,0:0:0:0:
64,192,62447,128,0,62483:0:0:0:0:
192,192,62594,1,0,0:0:0:0:
64,192,62594,128,0,62630:0:0:0:0:
448,192,63035,128,0,63402:0:0:0:0:
64,192,63035,128,0,63072:0:0:0:0:
320,192,63035,1,0,0:0:0:0:
192,192,63035,1,0,0:0:0:0:
64,192,63182,128,0,63219:0:0:0:0:
64,192,63329,128,0,63366:0:0:0:0:
448,192,63476,128,0,63844:0:0:0:0:
64,192,63476,128,0,63513:0:0:0:0:
320,192,63476,1,0,0:0:0:0:
192,192,63476,1,0,0:0:0:0:
64,192,63623,128,0,63660:0:0:0:0:
64,192,63770,128,0,63807:0:0:0:0:
192,192,63917,1,0,0:0:0:0:
64,192,63917,128,0,63954:0:0:0:0:
64,192,64211,1,0,0:0:0:0:
192,192,64211,128,0,64579:0:0:0:0:
448,192,64211,128,0,64248:0:0:0:0:
320,192,64358,1,0,0:0:0:0:
448,192,64358,128,0,64395:0:0:0:0:
448,192,64505,128,0,64542:0:0:0:0:
64,192,64652,1,0,0:0:0:0:
192,192,64652,128,0,65020:0:0:0:0:
448,192,64652,128,0,64689:0:0:0:0:
320,192,64800,1,0,0:0:0:0:
448,192,64800,128,0,64836:0:0:0:0:
448,192,64947,128,0,64983:0:0:0:0:
448,192,65094,128,0,65130:0:0:0:0:
320,192,65241,1,0,0:0:0:0:
448,192,65241,128,0,65277:0:0:0:0:
64,192,65388,1,0,0:0:0:0:
320,192,65388,128,0,65755:0:0:0:0:
448,192,65388,128,0,65425:0:0:0:0:
192,192,65535,128,0,65572:0:0:0:0:
192,192,65682,128,0,65719:0:0:0:0:
64,192,65829,128,0,66197:0:0:0:0:
192,192,65902,128,0,66270:0:0:0:0:
320,192,65939,128,0,66307:0:0:0:0:
448,192,65958,128,0,68329:0:0:0:0:
192,192,66417,128,0,66454:0:0:0:0:
64,192,66564,128,0,66932:0:0:0:0:
192,192,66564,128,0,66601:0:0:0:0:
192,192,66711,128,0,66748:0:0:0:0:
320,192,66858,1,0,0:0:0:0:
192,192,66858,128,0,66895:0:0:0:0:
64,192,67005,128,0,67373:0:0:0:0:
192,192,67005,128,0,67042:0:0:0:0:
192,192,67152,128,0,67189:0:0:0:0:
320,192,67300,1,0,0:0:0:0:
192,192,67300,128,0,67336:0:0:0:0:
192,192,67447,128,0,67483:0:0:0:0:
192,192,67594,128,0,67630:0:0:0:0:
320,192,67741,1,0,0:0:0:0:
64,192,67741,128,0,68108:0:0:0:0:
192,192,67741,128,0,67777:0:0:0:0:
192,192,67888,128,0,67925:0:0:0:0:
192,192,68035,128,0,68072:0:0:0:0:
64,192,68182,128,0,68550:0:0:0:0:
192,192,68182,128,0,68219:0:0:0:0:
320,192,68329,1,0,0:0:0:0:
192,192,68329,128,0,68550:0:0:0:0:
64,192,68623,1,0,0:0:0:0:
192,192,68623,1,0,0:0:0:0:
320,192,68623,1,0,0:0:0:0:
448,192,68623,1,0,0:0:0:0:
320,192,68770,1,0,0:0:0:0:
448,192,68770,1,0,0:0:0:0:
64,192,68770,1,0,0:0:0:0:
64,192,68917,1,0,0:0:0:0:
192,192,68917,128,0,69285:0:0:0:0:
320,192,68917,128,0,68954:0:0:0:0:
448,192,68917,1,0,0:0:0:0:
320,192,69064,128,0,69101:0:0:0:0:
320,192,69211,128,0,69248:0:0:0:0:
64,192,69211,1,0,0:0:0:0:
192,192,69358,128,0,69726:0:0:0:0:
320,192,69358,128,0,69395:0:0:0:0:
448,192,69358,1,0,0:0:0:0:
320,192,69505,128,0,69542:0:0:0:0:
64,192,69505,1,0,0:0:0:0:
320,192,69652,128,0,69689:0:0:0:0:
320,192,69800,128,0,69836:0:0:0:0:
320,192,69947,128,0,69983:0:0:0:0:
448,192,69947,1,0,0:0:0:0:
64,192,69947,1,0,0:0:0:0:
192,192,70094,1,0,0:0:0:0:
64,192,70094,1,0,0:0:0:0:
448,192,70094,1,0,0:0:0:0:
448,192,70167,1,0,0:0:0:0:
320,192,70241,1,0,0:0:0:0:
192,192,70241,1,0,0:0:0:0:
64,192,70241,1,0,0:0:0:0:
320,192,70314,1,0,0:0:0:0:
192,192,70388,1,0,0:0:0:0:
448,192,70388,1,0,0:0:0:0:
64,192,70388,1,0,0:0:0:0:
64,192,70461,1,0,0:0:0:0:
448,192,70535,1,0,0:0:0:0:
192,192,70535,1,0,0:0:0:0:
320,192,70535,1,0,0:0:0:0:
192,192,70608,1,0,0:0:0:0:
64,192,70682,1,0,0:0:0:0:
320,192,70682,1,0,0:0:0:0:
448,192,70682,1,0,0:0:0:0:
320,192,70755,1,0,0:0:0:0:
192,192,70755,1,0,0:0:0:0:
64,192,70829,1,0,0:0:0:0:
448,192,70829,1,0,0:0:0:0:
64,192,70902,1,0,0:0:0:0:
320,192,70976,1,0,0:0:0:0:
448,192,70976,1,0,0:0:0:0:
448,192,71050,1,0,0:0:0:0:
320,192,71123,1,0,0:0:0:0:
64,192,71123,1,0,0:0:0:0:
320,192,71197,1,0,0:0:0:0:
64,192,71270,1,0,0:0:0:0:
448,192,71270,1,0,0:0:0:0:
192,192,71270,1,0,0:0:0:0:
448,192,71344,1,0,0:0:0:0:
192,192,71417,1,0,0:0:0:0:
64,192,71417,1,0,0:0:0:0:
192,192,71491,1,0,0:0:0:0:
448,192,71564,1,0,0:0:0:0:
64,192,71564,1,0,0:0:0:0:
448,192,71638,1,0,0:0:0:0:
320,192,71711,1,0,0:0:0:0:
64,192,71711,1,0,0:0:0:0:
64,192,71785,1,0,0:0:0:0:
320,192,71858,1,0,0:0:0:0:
448,192,71858,1,0,0:0:0:0:
192,192,71858,1,0,0:0:0:0:
448,192,71932,1,0,0:0:0:0:
320,192,72005,1,0,0:0:0:0:
192,192,72005,1,0,0:0:0:0:
192,192,72079,1,0,0:0:0:0:
320,192,72152,1,0,0:0:0:0:
448,192,72152,1,0,0:0:0:0:
320,192,72226,1,0,0:0:0:0:
448,192,72300,1,0,0:0:0:0:
64,192,72300,1,0,0:0:0:0:
448,192,72373,1,0,0:0:0:0:
320,192,72447,1,0,0:0:0:0:
192,192,72447,1,0,0:0:0:0:
64,192,72447,1,0,0:0:0:0:
64,192,72520,1,0,0:0:0:0:
320,192,72594,1,0,0:0:0:0:
192,192,72594,1,0,0:0:0:0:
192,192,72667,1,0,0:0:0:0:
320,192,72741,1,0,0:0:0:0:
64,192,72741,1,0,0:0:0:0:
320,192,72814,1,0,0:0:0:0:
192,192,72888,1,0,0:0:0:0:
64,192,72888,1,0,0:0:0:0:
192,192,72961,1,0,0:0:0:0:
320,192,73035,1,0,0:0:0:0:
448,192,73035,1,0,0:0:0:0:
64,192,73035,1,0,0:0:0:0:
320,192,73108,1,0,0:0:0:0:
64,192,73182,1,0,0:0:0:0:
448,192,73182,1,0,0:0:0:0:
64,192,73255,1,0,0:0:0:0:
320,192,73329,1,0,0:0:0:0:
448,192,73329,1,0,0:0:0:0:
448,192,73402,1,0,0:0:0:0:
64,192,73402,1,0,0:0:0:0:
192,192,73476,1,0,0:0:0:0:
320,192,73476,1,0,0:0:0:0:
192,192,73550,1,0,0:0:0:0:
320,192,73623,1,0,0:0:0:0:
64,192,73623,1,0,0:0:0:0:
448,192,73623,1,0,0:0:0:0:
320,192,73697,1,0,0:0:0:0:
448,192,73770,1,0,0:0:0:0:
64,192,73770,1,0,0:0:0:0:
448,192,73844,1,0,0:0:0:0:
320,192,73917,1,0,0:0:0:0:
64,192,73917,1,0,0:0:0:0:
64,192,73991,1,0,0:0:0:0:
448,192,74064,1,0,0:0:0:0:
320,192,74064,1,0,0:0:0:0:
320,192,74138,1,0,0:0:0:0:
448,192,74211,1,0,0:0:0:0:
192,192,74211,1,0,0:0:0:0:
64,192,74211,1,0,0:0:0:0:
64,192,74285,1,0,0:0:0:0:
192,192,74358,1,0,0:0:0:0:
448,192,74358,1,0,0:0:0:0:
192,192,74432,1,0,0:0:0:0:
64,192,74505,1,0,0:0:0:0:
448,192,74505,1,0,0:0:0:0:
64,192,74579,1,0,0:0:0:0:
320,192,74652,1,0,0:0:0:0:
448,192,74652,1,0,0:0:0:0:
320,192,74726,1,0,0:0:0:0:
448,192,74800,1,0,0:0:0:0:
64,192,74800,1,0,0:0:0:0:
64,192,74873,1,0,0:0:0:0:
448,192,74947,1,0,0:0:0:0:
320,192,74947,1,0,0:0:0:0:
448,192,75020,1,0,0:0:0:0:
320,192,75094,1,0,0:0:0:0:
192,192,75094,1,0,0:0:0:0:
192,192,75167,1,0,0:0:0:0:
64,192,75167,1,0,0:0:0:0:
320,192,75241,1,0,0:0:0:0:
448,192,75241,1,0,0:0:0:0:
320,192,75314,1,0,0:0:0:0:
192,192,75314,1,0,0:0:0:0:
448,192,75388,1,0,0:0:0:0:
192,192,75388,128,0,75976:0:0:0:0:
64,192,75388,128,0,75461:0:0:0:0:
64,192,75535,128,0,75608:0:0:0:0:
64,192,75682,128,0,75755:0:0:0:0:
64,192,75829,128,0,75902:0:0:0:0:
320,192,75976,128,0,76417:0:0:0:0:
448,192,75976,128,0,76050:0:0:0:0:
448,192,76123,128,0,76197:0:0:0:0:
448,192,76270,128,0,76344:0:0:0:0:
192,192,76417,128,0,77152:0:0:0:0:
64,192,76417,128,0,76491:0:0:0:0:
64,192,76564,128,0,76638:0:0:0:0:
64,192,76711,128,0,76785:0:0:0:0:
64,192,76858,128,0,76932:0:0:0:0:
64,192,77005,128,0,77079:0:0:0:0:
320,192,77152,128,0,77741:0:0:0:0:
448,192,77152,128,0,77226:0:0:0:0:
448,192,77300,128,0,77373:0:0:0:0:
448,192,77447,128,0,77520:0:0:0:0:
448,192,77594,128,0,77667:0:0:0:0:
192,192,77741,128,0,78329:0:0:0:0:
64,192,77741,128,0,77814:0:0:0:0:
448,192,77741,1,0,0:0:0:0:
64,192,77888,128,0,77961:0:0:0:0:
64,192,78035,128,0,78108:0:0:0:0:
64,192,78182,128,0,78255:0:0:0:0:
448,192,78329,128,0,78770:0:0:0:0:
320,192,78329,128,0,78402:0:0:0:0:
320,192,78476,128,0,78550:0:0:0:0:
320,192,78623,128,0,78844:0:0:0:0:
64,192,78623,128,0,78844:0:0:0:0:
192,192,78770,128,0,78991:0:0:0:0:
448,192,78917,128,0,79432:0:0:0:0:
320,192,79064,128,0,79432:0:0:0:0:
64,192,79175,128,0,79432:0:0:0:0:
192,192,79285,128,0,79432:0:0:0:0:
192,192,79505,1,0,0:0:0:0:
448,192,79505,1,0,0:0:0:0:
320,192,79505,1,0,0:0:0:0:
64,192,79505,1,0,0:0:0:0:
64,192,79800,1,0,0:0:0:0:
320,192,79800,1,0,0:0:0:0:
192,192,79800,1,0,0:0:0:0:
448,192,79800,1,0,0:0:0:0:
64,192,79947,1,0,0:0:0:0:
448,192,79947,1,0,0:0:0:0:
192,192,79947,1,0,0:0:0:0:
320,192,79947,1,0,0:0:0:0:
64,192,80094,5,0,0:0:0:0:
320,192,80094,1,0,0:0:0:0:
448,192,80094,1,0,0:0:0:0:
448,192,80167,1,0,0:0:0:0:
192,192,80204,1,0,0:0:0:0:
320,192,80241,1,0,0:0:0:0:
64,192,80241,1,0,0:0:0:0:
64,192,80314,1,0,0:0:0:0:
320,192,80351,1,0,0:0:0:0:
448,192,80388,1,0,0:0:0:0:
192,192,80388,1,0,0:0:0:0:
448,192,80461,1,0,0:0:0:0:
320,192,80498,1,0,0:0:0:0:
192,192,80535,1,0,0:0:0:0:
64,192,80535,1,0,0:0:0:0:
64,192,80608,1,0,0:0:0:0:
320,192,80608,1,0,0:0:0:0:
192,192,80682,1,0,0:0:0:0:
448,192,80682,1,0,0:0:0:0:
320,192,80682,1,0,0:0:0:0:
192,192,80755,1,0,0:0:0:0:
320,192,80792,1,0,0:0:0:0:
448,192,80829,1,0,0:0:0:0:
64,192,80829,1,0,0:0:0:0:
64,192,80902,1,0,0:0:0:0:
448,192,80939,1,0,0:0:0:0:
192,192,80976,1,0,0:0:0:0:
320,192,80976,1,0,0:0:0:0:
320,192,81050,1,0,0:0:0:0:
192,192,81086,1,0,0:0:0:0:
64,192,81123,1,0,0:0:0:0:
448,192,81123,1,0,0:0:0:0:
320,192,81197,1,0,0:0:0:0:
448,192,81197,1,0,0:0:0:0:
320,192,81270,1,0,0:0:0:0:
192,192,81270,1,0,0:0:0:0:
64,192,81270,1,0,0:0:0:0:
64,192,81344,1,0,0:0:0:0:
192,192,81380,1,0,0:0:0:0:
320,192,81417,1,0,0:0:0:0:
448,192,81417,1,0,0:0:0:0:
448,192,81491,1,0,0:0:0:0:
192,192,81527,1,0,0:0:0:0:
64,192,81564,1,0,0:0:0:0:
320,192,81564,1,0,0:0:0:0:
64,192,81638,1,0,0:0:0:0:
320,192,81675,1,0,0:0:0:0:
192,192,81711,1,0,0:0:0:0:
448,192,81711,1,0,0:0:0:0:
320,192,81785,1,0,0:0:0:0:
192,192,81785,1,0,0:0:0:0:
64,192,81858,1,0,0:0:0:0:
320,192,81858,1,0,0:0:0:0:
448,192,81858,1,0,0:0:0:0:
448,192,81932,1,0,0:0:0:0:
64,192,81969,1,0,0:0:0:0:
192,192,82005,1,0,0:0:0:0:
320,192,82005,1,0,0:0:0:0:
192,192,82079,1,0,0:0:0:0:
320,192,82116,1,0,0:0:0:0:
448,192,82152,1,0,0:0:0:0:
64,192,82152,1,0,0:0:0:0:
64,192,82226,1,0,0:0:0:0:
192,192,82263,1,0,0:0:0:0:
320,192,82300,1,0,0:0:0:0:
448,192,82300,1,0,0:0:0:0:
320,192,82373,1,0,0:0:0:0:
192,192,82373,1,0,0:0:0:0:
192,192,82447,1,0,0:0:0:0:
64,192,82447,1,0,0:0:0:0:
448,192,82447,1,0,0:0:0:0:
448,192,82520,1,0,0:0:0:0:
320,192,82557,1,0,0:0:0:0:
192,192,82594,1,0,0:0:0:0:
64,192,82594,1,0,0:0:0:0:
64,192,82667,1,0,0:0:0:0:
320,192,82704,1,0,0:0:0:0:
448,192,82741,1,0,0:0:0:0:
192,192,82741,1,0,0:0:0:0:
448,192,82814,1,0,0:0:0:0:
320,192,82851,1,0,0:0:0:0:
192,192,82888,1,0,0:0:0:0:
64,192,82888,1,0,0:0:0:0:
64,192,82961,1,0,0:0:0:0:
448,192,82961,1,0,0:0:0:0:
448,192,83035,1,0,0:0:0:0:
320,192,83035,1,0,0:0:0:0:
192,192,83035,1,0,0:0:0:0:
192,192,83108,1,0,0:0:0:0:
320,192,83145,1,0,0:0:0:0:
64,192,83182,1,0,0:0:0:0:
448,192,83182,1,0,0:0:0:0:
64,192,83255,1,0,0:0:0:0:
192,192,83292,1,0,0:0:0:0:
320,192,83329,1,0,0:0:0:0:
448,192,83329,1,0,0:0:0:0:
320,192,83402,1,0,0:0:0:0:
448,192,83476,1,0,0:0:0:0:
64,192,83476,1,0,0:0:0:0:
64,192,83550,1,0,0:0:0:0:
320,192,83550,1,0,0:0:0:0:
192,192,83623,1,0,0:0:0:0:
320,192,83623,1,0,0:0:0:0:
448,192,83623,1,0,0:0:0:0:
192,192,83697,1,0,0:0:0:0:
448,192,83733,1,0,0:0:0:0:
320,192,83770,1,0,0:0:0:0:
64,192,83770,1,0,0:0:0:0:
320,192,83844,1,0,0:0:0:0:
192,192,83880,1,0,0:0:0:0:
448,192,83917,1,0,0:0:0:0:
64,192,83917,1,0,0:0:0:0:
448,192,83991,1,0,0:0:0:0:
192,192,84027,1,0,0:0:0:0:
320,192,84064,1,0,0:0:0:0:
64,192,84064,1,0,0:0:0:0:
320,192,84138,1,0,0:0:0:0:
448,192,84138,1,0,0:0:0:0:
448,192,84211,1,0,0:0:0:0:
64,192,84211,1,0,0:0:0:0:
192,192,84211,1,0,0:0:0:0:
64,192,84285,1,0,0:0:0:0:
192,192,84322,1,0,0:0:0:0:
320,192,84358,1,0,0:0:0:0:
448,192,84358,1,0,0:0:0:0:
320,192,84432,1,0,0:0:0:0:
64,192,84505,1,0,0:0:0:0:
448,192,84505,1,0,0:0:0:0:
192,192,84505,1,0,0:0:0:0:
192,192,84579,1,0,0:0:0:0:
64,192,84579,1,0,0:0:0:0:
320,192,84652,1,0,0:0:0:0:
448,192,84652,1,0,0:0:0:0:
320,192,84726,1,0,0:0:0:0:
448,192,84726,1,0,0:0:0:0:
64,192,84800,1,0,0:0:0:0:
192,192,84800,1,0,0:0:0:0:
64,192,84873,1,0,0:0:0:0:
320,192,84873,1,0,0:0:0:0:
192,192,84947,1,0,0:0:0:0:
448,192,84947,1,0,0:0:0:0:
448,192,85020,1,0,0:0:0:0:
64,192,85020,1,0,0:0:0:0:
320,192,85094,1,0,0:0:0:0:
64,192,85094,1,0,0:0:0:0:
192,192,85094,1,0,0:0:0:0:
320,192,85167,1,0,0:0:0:0:
448,192,85241,1,0,0:0:0:0:
64,192,85241,1,0,0:0:0:0:
192,192,85314,1,0,0:0:0:0:
64,192,85314,1,0,0:0:0:0:
320,192,85388,1,0,0:0:0:0:
448,192,85388,1,0,0:0:0:0:
192,192,85425,1,0,0:0:0:0:
448,192,85461,1,0,0:0:0:0:
64,192,85461,1,0,0:0:0:0:
320,192,85535,1,0,0:0:0:0:
192,192,85535,1,0,0:0:0:0:
64,192,85608,1,0,0:0:0:0:
320,192,85608,1,0,0:0:0:0:
192,192,85682,1,0,0:0:0:0:
448,192,85682,1,0,0:0:0:0:
64,192,85682,1,0,0:0:0:0:
192,192,85755,1,0,0:0:0:0:
448,192,85829,1,0,0:0:0:0:
64,192,85829,1,0,0:0:0:0:
448,192,85902,1,0,0:0:0:0:
192,192,85902,1,0,0:0:0:0:
320,192,85976,1,0,0:0:0:0:
64,192,85976,1,0,0:0:0:0:
448,192,86013,1,0,0:0:0:0:
192,192,86050,1,0,0:0:0:0:
64,192,86050,1,0,0:0:0:0:
320,192,86123,1,0,0:0:0:0:
448,192,86123,1,0,0:0:0:0:
320,192,86197,1,0,0:0:0:0:
192,192,86197,1,0,0:0:0:0:
192,192,86270,1,0,0:0:0:0:
64,192,86270,1,0,0:0:0:0:
448,192,86270,1,0,0:0:0:0:
448,192,86344,1,0,0:0:0:0:
320,192,86417,1,0,0:0:0:0:
192,192,86417,1,0,0:0:0:0:
320,192,86491,1,0,0:0:0:0:
64,192,86491,1,0,0:0:0:0:
192,192,86564,1,0,0:0:0:0:
448,192,86564,1,0,0:0:0:0:
320,192,86601,1,0,0:0:0:0:
64,192,86638,1,0,0:0:0:0:
448,192,86638,1,0,0:0:0:0:
192,192,86711,1,0,0:0:0:0:
320,192,86711,1,0,0:0:0:0:
448,192,86748,1,0,0:0:0:0:
64,192,86785,1,0,0:0:0:0:
320,192,86785,1,0,0:0:0:0:
192,192,86858,1,0,0:0:0:0:
64,192,86858,1,0,0:0:0:0:
448,192,86858,1,0,0:0:0:0:
192,192,86932,1,0,0:0:0:0:
320,192,87005,1,0,0:0:0:0:
64,192,87005,1,0,0:0:0:0:
320,192,87079,1,0,0:0:0:0:
192,192,87079,1,0,0:0:0:0:
64,192,87152,1,0,0:0:0:0:
448,192,87152,1,0,0:0:0:0:
192,192,87189,1,0,0:0:0:0:
320,192,87226,1,0,0:0:0:0:
448,192,87226,1,0,0:0:0:0:
192,192,87300,1,0,0:0:0:0:
64,192,87300,1,0,0:0:0:0:
320,192,87336,1,0,0:0:0:0:
64,192,87373,1,0,0:0:0:0:
448,192,87373,1,0,0:0:0:0:
192,192,87447,1,0,0:0:0:0:
320,192,87447,1,0,0:0:0:0:
448,192,87447,1,0,0:0:0:0:
192,192,87520,1,0,0:0:0:0:
64,192,87594,1,0,0:0:0:0:
448,192,87594,1,0,0:0:0:0:
192,192,87667,1,0,0:0:0:0:
448,192,87667,1,0,0:0:0:0:
320,192,87741,1,0,0:0:0:0:
64,192,87741,1,0,0:0:0:0:
192,192,87777,1,0,0:0:0:0:
448,192,87814,1,0,0:0:0:0:
320,192,87814,1,0,0:0:0:0:
192,192,87888,1,0,0:0:0:0:
64,192,87888,1,0,0:0:0:0:
64,192,87961,1,0,0:0:0:0:
448,192,87961,1,0,0:0:0:0:
192,192,88035,1,0,0:0:0:0:
320,192,88035,1,0,0:0:0:0:
448,192,88035,1,0,0:0:0:0:
320,192,88108,1,0,0:0:0:0:
192,192,88182,1,0,0:0:0:0:
64,192,88182,1,0,0:0:0:0:
448,192,88255,1,0,0:0:0:0:
192,192,88255,1,0,0:0:0:0:
320,192,88329,1,0,0:0:0:0:
64,192,88329,1,0,0:0:0:0:
448,192,88366,1,0,0:0:0:0:
64,192,88402,1,0,0:0:0:0:
192,192,88402,1,0,0:0:0:0:
320,192,88476,1,0,0:0:0:0:
448,192,88476,1,0,0:0:0:0:
448,192,88550,1,0,0:0:0:0:
64,192,88550,1,0,0:0:0:0:
192,192,88623,1,0,0:0:0:0:
320,192,88623,1,0,0:0:0:0:
64,192,88623,1,0,0:0:0:0:
320,192,88697,1,0,0:0:0:0:
448,192,88770,1,0,0:0:0:0:
64,192,88770,1,0,0:0:0:0:
192,192,88844,1,0,0:0:0:0:
64,192,88844,1,0,0:0:0:0:
320,192,88917,1,0,0:0:0:0:
448,192,88917,1,0,0:0:0:0:
320,192,88991,1,0,0:0:0:0:
192,192,88991,1,0,0:0:0:0:
192,192,89064,1,0,0:0:0:0:
64,192,89064,1,0,0:0:0:0:
448,192,89064,1,0,0:0:0:0:
64,192,89138,1,0,0:0:0:0:
192,192,89211,1,0,0:0:0:0:
320,192,89211,1,0,0:0:0:0:
448,192,89211,1,0,0:0:0:0:
448,192,89285,1,0,0:0:0:0:
320,192,89358,1,0,0:0:0:0:
64,192,89358,1,0,0:0:0:0:
192,192,89358,1,0,0:0:0:0:
64,192,89432,1,0,0:0:0:0:
448,192,89505,1,0,0:0:0:0:
320,192,89505,1,0,0:0:0:0:
192,192,89505,1,0,0:0:0:0:
448,192,89579,1,0,0:0:0:0:
64,192,89579,1,0,0:0:0:0:
192,192,89616,1,0,0:0:0:0:
64,192,89652,1,0,0:0:0:0:
320,192,89652,1,0,0:0:0:0:
320,192,89726,1,0,0:0:0:0:
192,192,89726,1,0,0:0:0:0:
64,192,89763,1,0,0:0:0:0:
192,192,89800,1,0,0:0:0:0:
448,192,89800,1,0,0:0:0:0:
320,192,89873,1,0,0:0:0:0:
448,192,89873,1,0,0:0:0:0:
320,192,89947,1,0,0:0:0:0:
192,192,89947,1,0,0:0:0:0:
64,192,90020,1,0,0:0:0:0:
448,192,90020,1,0,0:0:0:0:
320,192,90094,1,0,0:0:0:0:
192,192,90094,1,0,0:0:0:0:
64,192,90094,1,0,0:0:0:0:
320,192,90167,1,0,0:0:0:0:
192,192,90204,1,0,0:0:0:0:
448,192,90241,1,0,0:0:0:0:
64,192,90241,1,0,0:0:0:0:
320,192,90277,1,0,0:0:0:0:
192,192,90314,1,0,0:0:0:0:
448,192,90388,1,0,0:0:0:0:
320,192,90388,1,0,0:0:0:0:
64,192,90388,1,0,0:0:0:0:
320,192,90461,1,0,0:0:0:0:
192,192,90461,1,0,0:0:0:0:
192,192,90535,1,0,0:0:0:0:
64,192,90535,1,0,0:0:0:0:
64,192,90608,1,0,0:0:0:0:
448,192,90608,1,0,0:0:0:0:
448,192,90682,1,0,0:0:0:0:
320,192,90682,1,0,0:0:0:0:
192,192,90682,1,0,0:0:0:0:
192,192,90755,1,0,0:0:0:0:
64,192,90829,1,0,0:0:0:0:
320,192,90829,1,0,0:0:0:0:
320,192,90902,1,0,0:0:0:0:
192,192,90976,1,0,0:0:0:0:
64,192,90976,1,0,0:0:0:0:
448,192,90976,1,0,0:0:0:0:
192,192,91050,1,0,0:0:0:0:
64,192,91050,1,0,0:0:0:0:
320,192,91123,1,0,0:0:0:0:
448,192,91123,1,0,0:0:0:0:
192,192,91197,1,0,0:0:0:0:
64,192,91197,1,0,0:0:0:0:
448,192,91270,1,0,0:0:0:0:
320,192,91270,1,0,0:0:0:0:
64,192,91270,1,0,0:0:0:0:
320,192,91344,1,0,0:0:0:0:
448,192,91344,1,0,0:0:0:0:
192,192,91417,1,0,0:0:0:0:
64,192,91417,1,0,0:0:0:0:
320,192,91491,1,0,0:0:0:0:
448,192,91491,1,0,0:0:0:0:
192,192,91564,1,0,0:0:0:0:
64,192,91564,1,0,0:0:0:0:
448,192,91564,1,0,0:0:0:0:
192,192,91638,1,0,0:0:0:0:
320,192,91638,1,0,0:0:0:0:
320,192,91711,1,0,0:0:0:0:
448,192,91711,1,0,0:0:0:0:
448,192,91785,1,0,0:0:0:0:
64,192,91785,1,0,0:0:0:0:
320,192,91858,1,0,0:0:0:0:
192,192,91858,1,0,0:0:0:0:
64,192,91858,1,0,0:0:0:0:
192,192,91932,1,0,0:0:0:0:
448,192,91932,1,0,0:0:0:0:
64,192,91969,1,0,0:0:0:0:
448,192,92005,1,0,0:0:0:0:
320,192,92005,1,0,0:0:0:0:
64,192,92079,1,0,0:0:0:0:
192,192,92079,1,0,0:0:0:0:
320,192,92116,1,0,0:0:0:0:
64,192,92152,1,0,0:0:0:0:
448,192,92152,1,0,0:0:0:0:
192,192,92226,1,0,0:0:0:0:
320,192,92226,1,0,0:0:0:0:
64,192,92263,1,0,0:0:0:0:
192,192,92300,1,0,0:0:0:0:
448,192,92300,1,0,0:0:0:0:
320,192,92373,1,0,0:0:0:0:
64,192,92373,1,0,0:0:0:0:
192,192,92447,1,0,0:0:0:0:
64,192,92447,1,0,0:0:0:0:
448,192,92447,1,0,0:0:0:0:
320,192,92520,1,0,0:0:0:0:
448,192,92520,1,0,0:0:0:0:
192,192,92594,1,0,0:0:0:0:
64,192,92594,1,0,0:0:0:0:
192,192,92667,1,0,0:0:0:0:
320,192,92667,1,0,0:0:0:0:
448,192,92741,1,0,0:0:0:0:
64,192,92741,1,0,0:0:0:0:
448,192,92814,1,0,0:0:0:0:
320,192,92814,1,0,0:0:0:0:
192,192,92888,1,0,0:0:0:0:
64,192,92888,1,0,0:0:0:0:
320,192,92961,1,0,0:0:0:0:
192,192,92961,1,0,0:0:0:0:
448,192,93035,1,0,0:0:0:0:
64,192,93035,1,0,0:0:0:0:
320,192,93108,1,0,0:0:0:0:
448,192,93108,1,0,0:0:0:0:
192,192,93182,1,0,0:0:0:0:
64,192,93182,1,0,0:0:0:0:
64,192,93255,1,0,0:0:0:0:
448,192,93255,1,0,0:0:0:0:
320,192,93329,1,0,0:0:0:0:
192,192,93329,1,0,0:0:0:0:
448,192,93329,1,0,0:0:0:0:
192,192,93402,1,0,0:0:0:0:
64,192,93402,1,0,0:0:0:0:
320,192,93476,1,0,0:0:0:0:
448,192,93476,1,0,0:0:0:0:
192,192,93513,1,0,0:0:0:0:
64,192,93550,1,0,0:0:0:0:
448,192,93550,1,0,0:0:0:0:
64,192,93623,1,0,0:0:0:0:
320,192,93623,1,0,0:0:0:0:
192,192,93623,1,0,0:0:0:0:
320,192,93697,1,0,0:0:0:0:
448,192,93697,1,0,0:0:0:0:
192,192,93770,1,0,0:0:0:0:
64,192,93770,1,0,0:0:0:0:
448,192,93807,1,0,0:0:0:0:
64,192,93844,1,0,0:0:0:0:
320,192,93844,1,0,0:0:0:0:
192,192,93917,1,0,0:0:0:0:
448,192,93917,1,0,0:0:0:0:
320,192,93917,1,0,0:0:0:0:
192,192,93991,1,0,0:0:0:0:
64,192,94064,1,0,0:0:0:0:
320,192,94064,1,0,0:0:0:0:
448,192,94064,1,0,0:0:0:0:
64,192,94138,1,0,0:0:0:0:
448,192,94211,1,0,0:0:0:0:
320,192,94236,1,0,0:0:0:0:
64,192,94260,1,0,0:0:0:0:
192,192,94285,1,0,0:0:0:0:
448,192,94309,1,0,0:0:0:0:
320,192,94334,1,0,0:0:0:0:
64,192,94358,1,0,0:0:0:0:
192,192,94383,1,0,0:0:0:0:
448,192,94505,1,0,0:0:0:0:
320,192,94505,1,0,0:0:0:0:
192,192,94505,1,0,0:0:0:0:
64,192,94505,1,0,0:0:0:0:
64,192,94800,1,0,0:0:0:0:
192,192,94800,1,0,0:0:0:0:
320,192,94800,1,0,0:0:0:0:
64,192,94873,1,0,0:0:0:0:
448,192,94873,1,0,0:0:0:0:
320,192,94947,1,0,0:0:0:0:
448,192,94947,1,0,0:0:0:0:
192,192,94947,1,0,0:0:0:0:
448,192,95094,1,0,0:0:0:0:
320,192,95094,1,0,0:0:0:0:
192,192,95094,1,0,0:0:0:0:
64,192,95094,1,0,0:0:0:0:
192,192,95388,1,0,0:0:0:0:
64,192,95412,1,0,0:0:0:0:
320,192,95437,1,0,0:0:0:0:
448,192,95461,1,0,0:0:0:0:
192,192,95486,1,0,0:0:0:0:
64,192,95510,1,0,0:0:0:0:
320,192,95535,1,0,0:0:0:0:
448,192,95559,1,0,0:0:0:0:
448,192,95682,1,0,0:0:0:0:
320,192,95682,1,0,0:0:0:0:
192,192,95682,1,0,0:0:0:0:
64,192,95682,1,0,0:0:0:0:
64,192,95976,1,0,0:0:0:0:
448,192,95976,1,0,0:0:0:0:
192,192,96013,1,0,0:0:0:0:
320,192,96050,1,0,0:0:0:0:
448,192,96086,1,0,0:0:0:0:
192,192,96123,1,0,0:0:0:0:
64,192,96123,1,0,0:0:0:0:
64,192,96197,1,0,0:0:0:0:
320,192,96197,1,0,0:0:0:0:
192,192,96270,1,0,0:0:0:0:
448,192,96270,1,0,0:0:0:0:
448,192,96344,1,0,0:0:0:0:
320,192,96344,1,0,0:0:0:0:
320,192,96417,1,0,0:0:0:0:
192,192,96417,1,0,0:0:0:0:
192,192,96491,1,0,0:0:0:0:
64,192,96491,1,0,0:0:0:0:
448,192,96564,1,0,0:0:0:0:
320,192,96601,1,0,0:0:0:0:
64,192,96638,1,0,0:0:0:0:
448,192,96675,1,0,0:0:0:0:
192,192,96711,1,0,0:0:0:0:
64,192,96748,1,0,0:0:0:0:
320,192,96785,1,0,0:0:0:0:
192,192,96822,1,0,0:0:0:0:
64,192,96858,1,0,0:0:0:0:
448,192,96858,1,0,0:0:0:0:
320,192,96895,1,0,0:0:0:0:
192,192,96932,1,0,0:0:0:0:
448,192,96969,1,0,0:0:0:0:
64,192,97005,1,0,0:0:0:0:
192,192,97042,1,0,0:0:0:0:
320,192,97079,1,0,0:0:0:0:
192,192,97152,1,0,0:0:0:0:
64,192,97152,1,0,0:0:0:0:
448,192,97152,1,0,0:0:0:0:
320,192,97226,1,0,0:0:0:0:
448,192,97263,1,0,0:0:0:0:
64,192,97300,1,0,0:0:0:0:
192,192,97336,1,0,0:0:0:0:
448,192,97373,1,0,0:0:0:0:
320,192,97410,1,0,0:0:0:0:
64,192,97447,1,0,0:0:0:0:
448,192,97483,1,0,0:0:0:0:
192,192,97520,1,0,0:0:0:0:
320,192,97557,1,0,0:0:0:0:
448,192,97594,1,0,0:0:0:0:
64,192,97630,1,0,0:0:0:0:
192,192,97667,1,0,0:0:0:0:
448,192,97741,1,0,0:0:0:0:
320,192,97741,1,0,0:0:0:0:
64,192,97741,1,0,0:0:0:0:
192,192,97814,1,0,0:0:0:0:
64,192,97814,1,0,0:0:0:0:
448,192,97888,1,0,0:0:0:0:
320,192,97888,1,0,0:0:0:0:
192,192,97961,1,0,0:0:0:0:
320,192,97961,1,0,0:0:0:0:
448,192,98035,1,0,0:0:0:0:
64,192,98035,1,0,0:0:0:0:
192,192,98035,1,0,0:0:0:0:
64,192,98108,1,0,0:0:0:0:
320,192,98108,1,0,0:0:0:0:
192,192,98182,1,0,0:0:0:0:
448,192,98182,1,0,0:0:0:0:
320,192,98255,1,0,0:0:0:0:
448,192,98255,1,0,0:0:0:0:
192,192,98329,1,0,0:0:0:0:
64,192,98329,1,0,0:0:0:0:
192,192,98402,1,0,0:0:0:0:
64,192,98402,1,0,0:0:0:0:
448,192,98476,1,0,0:0:0:0:
320,192,98476,1,0,0:0:0:0:
320,192,98550,1,0,0:0:0:0:
448,192,98550,1,0,0:0:0:0:
192,192,98623,1,0,0:0:0:0:
64,192,98623,1,0,0:0:0:0:
192,192,98697,1,0,0:0:0:0:
64,192,98697,1,0,0:0:0:0:
448,192,98770,1,0,0:0:0:0:
320,192,98770,1,0,0:0:0:0:
448,192,98844,1,0,0:0:0:0:
320,192,98844,1,0,0:0:0:0:
192,192,98917,1,0,0:0:0:0:
64,192,98917,1,0,0:0:0:0:
320,192,98966,1,0,0:0:0:0:
448,192,99015,1,0,0:0:0:0:
64,192,99015,1,0,0:0:0:0:
320,192,99064,1,0,0:0:0:0:
192,192,99113,1,0,0:0:0:0:
448,192,99113,1,0,0:0:0:0:
64,192,99162,1,0,0:0:0:0:
448,192,99211,1,0,0:0:0:0:
320,192,99211,1,0,0:0:0:0:
192,192,99211,1,0,0:0:0:0:
64,192,99260,1,0,0:0:0:0:
320,192,99309,1,0,0:0:0:0:
192,192,99309,1,0,0:0:0:0:
448,192,99358,1,0,0:0:0:0:
64,192,99407,1,0,0:0:0:0:
320,192,99407,1,0,0:0:0:0:
192,192,99456,1,0,0:0:0:0:
320,192,99505,1,0,0:0:0:0:
448,192,99505,1,0,0:0:0:0:
64,192,99505,1,0,0:0:0:0:
192,192,99554,1,0,0:0:0:0:
448,192,99603,1,0,0:0:0:0:
64,192,99603,1,0,0:0:0:0:
320,192,99652,1,0,0:0:0:0:
192,192,99701,1,0,0:0:0:0:
64,192,99701,1,0,0:0:0:0:
320,192,99750,1,0,0:0:0:0:
448,192,99800,1,0,0:0:0:0:
192,192,99800,1,0,0:0:0:0:
64,192,99800,1,0,0:0:0:0:
320,192,99849,1,0,0:0:0:0:
448,192,99898,1,0,0:0:0:0:
64,192,99898,1,0,0:0:0:0:
192,192,99947,1,0,0:0:0:0:
320,192,99996,1,0,0:0:0:0:
448,192,99996,1,0,0:0:0:0:
64,192,100045,1,0,0:0:0:0:
192,192,100094,1,0,0:0:0:0:
320,192,100094,1,0,0:0:0:0:
448,192,100094,1,0,0:0:0:0:
64,192,100143,1,0,0:0:0:0:
448,192,100192,1,0,0:0:0:0:
192,192,100192,1,0,0:0:0:0:
320,192,100241,1,0,0:0:0:0:
192,192,100290,1,0,0:0:0:0:
64,192,100290,1,0,0:0:0:0:
320,192,100339,1,0,0:0:0:0:
448,192,100388,1,0,0:0:0:0:
192,192,100388,1,0,0:0:0:0:
64,192,100388,1,0,0:0:0:0:
320,192,100461,1,0,0:0:0:0:
64,192,100535,1,0,0:0:0:0:
192,192,100535,1,0,0:0:0:0:
448,192,100535,1,0,0:0:0:0:
64,192,100608,1,0,0:0:0:0:
192,192,100682,1,0,0:0:0:0:
320,192,100682,1,0,0:0:0:0:
448,192,100682,1,0,0:0:0:0:
64,192,100731,1,0,0:0:0:0:
192,192,100780,1,0,0:0:0:0:
448,192,100780,1,0,0:0:0:0:
320,192,100829,1,0,0:0:0:0:
448,192,100878,1,0,0:0:0:0:
64,192,100878,1,0,0:0:0:0:
192,192,100927,1,0,0:0:0:0:
448,192,100976,1,0,0:0:0:0:
320,192,100976,1,0,0:0:0:0:
64,192,100976,1,0,0:0:0:0:
192,192,101025,1,0,0:0:0:0:
64,192,101074,1,0,0:0:0:0:
448,192,101074,1,0,0:0:0:0:
320,192,101123,1,0,0:0:0:0:
64,192,101172,1,0,0:0:0:0:
448,192,101172,1,0,0:0:0:0:
192,192,101221,1,0,0:0:0:0:
320,192,101270,1,0,0:0:0:0:
448,192,101270,1,0,0:0:0:0:
64,192,101270,1,0,0:0:0:0:
192,192,101319,1,0,0:0:0:0:
320,192,101368,1,0,0:0:0:0:
448,192,101368,1,0,0:0:0:0:
64,192,101417,1,0,0:0:0:0:
192,192,101466,1,0,0:0:0:0:
320,192,101466,1,0,0:0:0:0:
448,192,101515,1,0,0:0:0:0:
192,192,101564,1,0,0:0:0:0:
64,192,101564,1,0,0:0:0:0:
320,192,101564,1,0,0:0:0:0:
448,192,101613,1,0,0:0:0:0:
64,192,101662,1,0,0:0:0:0:
320,192,101662,1,0,0:0:0:0:
192,192,101711,1,0,0:0:0:0:
448,192,101760,1,0,0:0:0:0:
64,192,101760,1,0,0:0:0:0:
192,192,101809,1,0,0:0:0:0:
320,192,101858,1,0,0:0:0:0:
448,192,101858,1,0,0:0:0:0:
64,192,101907,1,0,0:0:0:0:
320,192,101956,1,0,0:0:0:0:
448,192,101956,1,0,0:0:0:0:
192,192,102005,1,0,0:0:0:0:
320,192,102054,1,0,0:0:0:0:
448,192,102054,1,0,0:0:0:0:
64,192,102103,1,0,0:0:0:0:
320,192,102152,1,0,0:0:0:0:
448,192,102152,1,0,0:0:0:0:
192,192,102152,1,0,0:0:0:0:
64,192,102201,1,0,0:0:0:0:
192,192,102250,1,0,0:0:0:0:
320,192,102250,1,0,0:0:0:0:
448,192,102300,1,0,0:0:0:0:
64,192,102349,1,0,0:0:0:0:
192,192,102349,1,0,0:0:0:0:
320,192,102398,1,0,0:0:0:0:
192,192,102447,1,0,0:0:0:0:
64,192,102447,1,0,0:0:0:0:
448,192,102447,1,0,0:0:0:0:
320,192,102496,1,0,0:0:0:0:
64,192,102545,1,0,0:0:0:0:
448,192,102545,1,0,0:0:0:0:
192,192,102594,1,0,0:0:0:0:
320,192,102643,1,0,0:0:0:0:
448,192,102643,1,0,0:0:0:0:
192,192,102692,1,0,0:0:0:0:
64,192,102741,1,0,0:0:0:0:
448,192,102741,1,0,0:0:0:0:
320,192,102790,1,0,0:0:0:0:
192,192,102839,1,0,0:0:0:0:
64,192,102839,1,0,0:0:0:0:
448,192,102888,1,0,0:0:0:0:
192,192,102937,1,0,0:0:0:0:
64,192,102937,1,0,0:0:0:0:
320,192,102986,1,0,0:0:0:0:
192,192,103035,1,0,0:0:0:0:
64,192,103035,1,0,0:0:0:0:
448,192,103084,1,0,0:0:0:0:
192,192,103133,1,0,0:0:0:0:
64,192,103133,1,0,0:0:0:0:
320,192,103182,1,0,0:0:0:0:
448,192,103231,1,0,0:0:0:0:
192,192,103231,1,0,0:0:0:0:
64,192,103280,1,0,0:0:0:0:
192,192,103329,1,0,0:0:0:0:
320,192,103329,1,0,0:0:0:0:
448,192,103329,1,0,0:0:0:0:
320,192,103402,1,0,0:0:0:0:
64,192,103476,1,0,0:0:0:0:
192,192,103476,1,0,0:0:0:0:
448,192,103476,1,0,0:0:0:0:
192,192,103550,1,0,0:0:0:0:
64,192,103623,1,0,0:0:0:0:
320,192,103623,1,0,0:0:0:0:
448,192,103623,1,0,0:0:0:0:
192,192,103672,1,0,0:0:0:0:
448,192,103721,1,0,0:0:0:0:
64,192,103721,1,0,0:0:0:0:
320,192,103770,1,0,0:0:0:0:
192,192,103819,1,0,0:0:0:0:
64,192,103819,1,0,0:0:0:0:
320,192,103868,1,0,0:0:0:0:
448,192,103917,1,0,0:0:0:0:
64,192,103917,1,0,0:0:0:0:
192,192,103917,1,0,0:0:0:0:
320,192,103966,1,0,0:0:0:0:
448,192,104015,1,0,0:0:0:0:
192,192,104015,1,0,0:0:0:0:
64,192,104064,1,0,0:0:0:0:
448,192,104113,1,0,0:0:0:0:
320,192,104113,1,0,0:0:0:0:
192,192,104162,1,0,0:0:0:0:
64,192,104211,1,0,0:0:0:0:
320,192,104211,1,0,0:0:0:0:
448,192,104211,1,0,0:0:0:0:
192,192,104260,1,0,0:0:0:0:
64,192,104309,1,0,0:0:0:0:
448,192,104309,1,0,0:0:0:0:
320,192,104358,1,0,0:0:0:0:
192,192,104407,1,0,0:0:0:0:
64,192,104407,1,0,0:0:0:0:
320,192,104456,1,0,0:0:0:0:
448,192,104505,1,0,0:0:0:0:
192,192,104505,1,0,0:0:0:0:
64,192,104505,1,0,0:0:0:0:
320,192,104554,1,0,0:0:0:0:
448,192,104603,1,0,0:0:0:0:
192,192,104603,1,0,0:0:0:0:
64,192,104652,1,0,0:0:0:0:
448,192,104701,1,0,0:0:0:0:
320,192,104701,1,0,0:0:0:0:
192,192,104750,1,0,0:0:0:0:
320,192,104800,1,0,0:0:0:0:
64,192,104800,1,0,0:0:0:0:
448,192,104800,1,0,0:0:0:0:
192,192,104849,1,0,0:0:0:0:
64,192,104898,1,0,0:0:0:0:
320,192,104898,1,0,0:0:0:0:
448,192,104947,1,0,0:0:0:0:
192,192,104996,1,0,0:0:0:0:
64,192,104996,1,0,0:0:0:0:
320,192,105045,1,0,0:0:0:0:
448,192,105094,1,0,0:0:0:0:
192,192,105094,1,0,0:0:0:0:
64,192,105094,1,0,0:0:0:0:
192,192,105167,1,0,0:0:0:0:
320,192,105241,1,0,0:0:0:0:
448,192,105241,1,0,0:0:0:0:
64,192,105241,1,0,0:0:0:0:
448,192,105314,1,0,0:0:0:0:
192,192,105388,1,0,0:0:0:0:
64,192,105388,1,0,0:0:0:0:
320,192,105388,1,0,0:0:0:0:
448,192,105437,1,0,0:0:0:0:
320,192,105486,1,0,0:0:0:0:
64,192,105486,1,0,0:0:0:0:
192,192,105535,1,0,0:0:0:0:
64,192,105584,1,0,0:0:0:0:
448,192,105584,1,0,0:0:0:0:
320,192,105633,1,0,0:0:0:0:
192,192,105682,1,0,0:0:0:0:
448,192,105682,1,0,0:0:0:0:
64,192,105682,1,0,0:0:0:0:
320,192,105731,1,0,0:0:0:0:
192,192,105780,1,0,0:0:0:0:
448,192,105780,1,0,0:0:0:0:
64,192,105829,1,0,0:0:0:0:
192,192,105878,1,0,0:0:0:0:
448,192,105878,1,0,0:0:0:0:
320,192,105927,1,0,0:0:0:0:
448,192,105976,1,0,0:0:0:0:
192,192,105976,1,0,0:0:0:0:
64,192,105976,1,0,0:0:0:0:
320,192,106025,1,0,0:0:0:0:
448,192,106074,1,0,0:0:0:0:
64,192,106074,1,0,0:0:0:0:
320,192,106123,1,0,0:0:0:0:
192,192,106172,1,0,0:0:0:0:
64,192,106172,1,0,0:0:0:0:
448,192,106221,1,0,0:0:0:0:
320,192,106270,1,0,0:0:0:0:
192,192,106270,1,0,0:0:0:0:
64,192,106270,1,0,0:0:0:0:
448,192,106319,1,0,0:0:0:0:
320,192,106368,1,0,0:0:0:0:
192,192,106368,1,0,0:0:0:0:
64,192,106417,1,0,0:0:0:0:
320,192,106466,1,0,0:0:0:0:
448,192,106466,1,0,0:0:0:0:
192,192,106515,1,0,0:0:0:0:
320,192,106564,1,0,0:0:0:0:
448,192,106564,1,0,0:0:0:0:
64,192,106564,1,0,0:0:0:0:
192,192,106613,1,0,0:0:0:0:
64,192,106662,1,0,0:0:0:0:
448,192,106662,1,0,0:0:0:0:
320,192,106711,1,0,0:0:0:0:
192,192,106760,1,0,0:0:0:0:
64,192,106760,1,0,0:0:0:0:
320,192,106809,1,0,0:0:0:0:
192,192,106858,1,0,0:0:0:0:
448,192,106858,1,0,0:0:0:0:
64,192,106858,1,0,0:0:0:0:
320,192,106907,1,0,0:0:0:0:
192,192,106956,1,0,0:0:0:0:
448,192,106956,1,0,0:0:0:0:
320,192,107005,1,0,0:0:0:0:
448,192,107054,1,0,0:0:0:0:
64,192,107054,1,0,0:0:0:0:
192,192,107103,1,0,0:0:0:0:
320,192,107152,1,0,0:0:0:0:
448,192,107152,1,0,0:0:0:0:
64,192,107152,1,0,0:0:0:0:
192,192,107201,1,0,0:0:0:0:
320,192,107250,1,0,0:0:0:0:
64,192,107250,1,0,0:0:0:0:
448,192,107300,1,0,0:0:0:0:
320,192,107349,1,0,0:0:0:0:
192,192,107349,1,0,0:0:0:0:
64,192,107398,1,0,0:0:0:0:
320,192,107447,1,0,0:0:0:0:
448,192,107447,1,0,0:0:0:0:
192,192,107447,1,0,0:0:0:0:
64,192,107496,1,0,0:0:0:0:
192,192,107545,1,0,0:0:0:0:
448,192,107545,1,0,0:0:0:0:
320,192,107594,1,0,0:0:0:0:
448,192,107643,1,0,0:0:0:0:
64,192,107643,1,0,0:0:0:0:
192,192,107692,1,0,0:0:0:0:
64,192,107741,1,0,0:0:0:0:
320,192,107741,1,0,0:0:0:0:
448,192,107741,1,0,0:0:0:0:
320,192,107814,1,0,0:0:0:0:
64,192,107888,1,0,0:0:0:0:
192,192,107888,1,0,0:0:0:0:
448,192,107888,1,0,0:0:0:0:
192,192,107961,1,0,0:0:0:0:
64,192,108035,1,0,0:0:0:0:
320,192,108035,1,0,0:0:0:0:
448,192,108035,1,0,0:0:0:0:
320,192,108108,1,0,0:0:0:0:
64,192,108182,1,0,0:0:0:0:
192,192,108182,1,0,0:0:0:0:
448,192,108182,1,0,0:0:0:0:
192,192,108255,1,0,0:0:0:0:
64,192,108329,1,0,0:0:0:0:
320,192,108329,1,0,0:0:0:0:
448,192,108329,1,0,0:0:0:0:
192,192,108378,1,0,0:0:0:0:
64,192,108427,1,0,0:0:0:0:
448,192,108427,1,0,0:0:0:0:
192,192,108476,1,0,0:0:0:0:
320,192,108525,1,0,0:0:0:0:
448,192,108525,1,0,0:0:0:0:
64,192,108574,1,0,0:0:0:0:
192,192,108623,1,0,0:0:0:0:
320,192,108623,1,0,0:0:0:0:
448,192,108623,1,0,0:0:0:0:
64,192,108672,1,0,0:0:0:0:
320,192,108721,1,0,0:0:0:0:
192,192,108721,1,0,0:0:0:0:
448,192,108770,1,0,0:0:0:0:
64,192,108819,1,0,0:0:0:0:
192,192,108819,1,0,0:0:0:0:
320,192,108868,1,0,0:0:0:0:
448,192,108917,1,0,0:0:0:0:
192,192,108917,1,0,0:0:0:0:
64,192,108917,1,0,0:0:0:0:
320,192,108966,1,0,0:0:0:0:
448,192,109015,1,0,0:0:0:0:
64,192,109015,1,0,0:0:0:0:
192,192,109064,1,0,0:0:0:0:
448,192,109113,1,0,0:0:0:0:
320,192,109113,1,0,0:0:0:0:
192,192,109162,1,0,0:0:0:0:
320,192,109211,1,0,0:0:0:0:
448,192,109211,1,0,0:0:0:0:
64,192,109211,1,0,0:0:0:0:
192,192,109260,1,0,0:0:0:0:
320,192,109309,1,0,0:0:0:0:
64,192,109309,1,0,0:0:0:0:
448,192,109358,1,0,0:0:0:0:
64,192,109407,1,0,0:0:0:0:
192,192,109407,1,0,0:0:0:0:
320,192,109456,1,0,0:0:0:0:
448,192,109505,1,0,0:0:0:0:
64,192,109505,1,0,0:0:0:0:
192,192,109505,1,0,0:0:0:0:
320,192,109554,1,0,0:0:0:0:
448,192,109603,1,0,0:0:0:0:
192,192,109603,1,0,0:0:0:0:
64,192,109652,1,0,0:0:0:0:
448,192,109701,1,0,0:0:0:0:
320,192,109701,1,0,0:0:0:0:
192,192,109750,1,0,0:0:0:0:
448,192,109800,1,0,0:0:0:0:
64,192,109800,1,0,0:0:0:0:
320,192,109800,1,0,0:0:0:0:
192,192,109849,1,0,0:0:0:0:
64,192,109898,1,0,0:0:0:0:
320,192,109898,1,0,0:0:0:0:
448,192,109947,1,0,0:0:0:0:
192,192,109996,1,0,0:0:0:0:
64,192,109996,1,0,0:0:0:0:
320,192,110045,1,0,0:0:0:0:
448,192,110094,1,0,0:0:0:0:
192,192,110094,1,0,0:0:0:0:
64,192,110094,1,0,0:0:0:0:
320,192,110143,1,0,0:0:0:0:
192,192,110192,1,0,0:0:0:0:
448,192,110192,1,0,0:0:0:0:
320,192,110241,1,0,0:0:0:0:
64,192,110290,1,0,0:0:0:0:
448,192,110290,1,0,0:0:0:0:
192,192,110339,1,0,0:0:0:0:
320,192,110388,1,0,0:0:0:0:
448,192,110388,1,0,0:0:0:0:
64,192,110388,1,0,0:0:0:0:
192,192,110437,1,0,0:0:0:0:
64,192,110486,1,0,0:0:0:0:
320,192,110486,1,0,0:0:0:0:
448,192,110535,1,0,0:0:0:0:
192,192,110584,1,0,0:0:0:0:
320,192,110584,1,0,0:0:0:0:
64,192,110633,1,0,0:0:0:0:
192,192,110682,1,0,0:0:0:0:
320,192,110682,1,0,0:0:0:0:
448,192,110682,1,0,0:0:0:0:
64,192,110731,1,0,0:0:0:0:
192,192,110780,1,0,0:0:0:0:
448,192,110780,1,0,0:0:0:0:
320,192,110829,1,0,0:0:0:0:
448,192,110878,1,0,0:0:0:0:
64,192,110878,1,0,0:0:0:0:
320,192,110927,1,0,0:0:0:0:
448,192,110976,1,0,0:0:0:0:
64,192,110976,1,0,0:0:0:0:
192,192,110976,1,0,0:0:0:0:
320,192,111025,1,0,0:0:0:0:
192,192,111074,1,0,0:0:0:0:
64,192,111074,1,0,0:0:0:0:
320,192,111123,1,0,0:0:0:0:
448,192,111172,1,0,0:0:0:0:
192,192,111172,1,0,0:0:0:0:
64,192,111221,1,0,0:0:0:0:
320,192,111270,1,0,0:0:0:0:
448,192,111270,1,0,0:0:0:0:
192,192,111270,1,0,0:0:0:0:
64,192,111319,1,0,0:0:0:0:
320,192,111368,1,0,0:0:0:0:
448,192,111368,1,0,0:0:0:0:
192,192,111417,1,0,0:0:0:0:
64,192,111466,1,0,0:0:0:0:
320,192,111466,1,0,0:0:0:0:
192,192,111515,1,0,0:0:0:0:
64,192,111564,1,0,0:0:0:0:
320,192,111564,1,0,0:0:0:0:
448,192,111564,1,0,0:0:0:0:
192,192,111613,1,0,0:0:0:0:
64,192,111662,1,0,0:0:0:0:
448,192,111662,1,0,0:0:0:0:
320,192,111711,1,0,0:0:0:0:
192,192,111760,1,0,0:0:0:0:
448,192,111760,1,0,0:0:0:0:
64,192,111809,1,0,0:0:0:0:
192,192,111858,1,0,0:0:0:0:
320,192,111858,1,0,0:0:0:0:
448,192,111858,1,0,0:0:0:0:
64,192,111907,1,0,0:0:0:0:
320,192,111956,1,0,0:0:0:0:
192,192,111956,1,0,0:0:0:0:
448,192,112005,1,0,0:0:0:0:
320,192,112054,1,0,0:0:0:0:
64,192,112054,1,0,0:0:0:0:
192,192,112103,1,0,0:0:0:0:
64,192,112152,1,0,0:0:0:0:
320,192,112152,1,0,0:0:0:0:
448,192,112152,1,0,0:0:0:0:
192,192,112201,1,0,0:0:0:0:
64,192,112250,1,0,0:0:0:0:
448,192,112250,1,0,0:0:0:0:
320,192,112300,1,0,0:0:0:0:
448,192,112349,1,0,0:0:0:0:
192,192,112349,1,0,0:0:0:0:
64,192,112398,1,0,0:0:0:0:
192,192,112447,1,0,0:0:0:0:
320,192,112447,1,0,0:0:0:0:
448,192,112447,1,0,0:0:0:0:
64,192,112496,1,0,0:0:0:0:
320,192,112545,1,0,0:0:0:0:
192,192,112545,1,0,0:0:0:0:
448,192,112594,1,0,0:0:0:0:
320,192,112643,1,0,0:0:0:0:
64,192,112643,1,0,0:0:0:0:
192,192,112692,1,0,0:0:0:0:
64,192,112741,1,0,0:0:0:0:
320,192,112741,1,0,0:0:0:0:
448,192,112741,1,0,0:0:0:0:
448,192,112814,1,0,0:0:0:0:
192,192,112888,1,0,0:0:0:0:
64,192,112888,1,0,0:0:0:0:
320,192,112888,1,0,0:0:0:0:
64,192,112961,1,0,0:0:0:0:
448,192,113035,1,0,0:0:0:0:
320,192,113035,1,0,0:0:0:0:
192,192,113035,1,0,0:0:0:0:
320,192,113108,1,0,0:0:0:0:
448,192,113108,1,0,0:0:0:0:
192,192,113182,1,0,0:0:0:0:
64,192,113182,1,0,0:0:0:0:
64,192,113255,1,0,0:0:0:0:
448,192,113255,1,0,0:0:0:0:
448,192,113329,1,0,0:0:0:0:
320,192,113329,1,0,0:0:0:0:
192,192,113329,1,0,0:0:0:0:
320,192,113402,1,0,0:0:0:0:
192,192,113402,1,0,0:0:0:0:
64,192,113476,1,0,0:0:0:0:
448,192,113476,1,0,0:0:0:0:
320,192,113550,1,0,0:0:0:0:
448,192,113550,1,0,0:0:0:0:
320,192,113623,1,0,0:0:0:0:
192,192,113623,1,0,0:0:0:0:
64,192,113623,1,0,0:0:0:0:
64,192,113697,1,0,0:0:0:0:
448,192,113697,1,0,0:0:0:0:
320,192,113770,1,0,0:0:0:0:
192,192,113770,1,0,0:0:0:0:
192,192,113844,1,0,0:0:0:0:
64,192,113844,1,0,0:0:0:0:
320,192,113917,1,0,0:0:0:0:
448,192,113917,1,0,0:0:0:0:
64,192,113917,1,0,0:0:0:0:
320,192,113991,1,0,0:0:0:0:
192,192,113991,1,0,0:0:0:0:
448,192,114064,1,0,0:0:0:0:
64,192,114064,1,0,0:0:0:0:
448,192,114138,1,0,0:0:0:0:
320,192,114138,1,0,0:0:0:0:
320,192,114211,1,0,0:0:0:0:
192,192,114211,1,0,0:0:0:0:
64,192,114211,1,0,0:0:0:0:
192,192,114285,1,0,0:0:0:0:
64,192,114285,1,0,0:0:0:0:
320,192,114358,1,0,0:0:0:0:
448,192,114358,1,0,0:0:0:0:
448,192,114432,1,0,0:0:0:0:
192,192,114432,1,0,0:0:0:0:
64,192,114505,1,0,0:0:0:0:
320,192,114505,1,0,0:0:0:0:
192,192,114505,1,0,0:0:0:0:
320,192,114579,1,0,0:0:0:0:
64,192,114579,1,0,0:0:0:0:
192,192,114652,1,0,0:0:0:0:
448,192,114652,1,0,0:0:0:0:
320,192,114726,1,0,0:0:0:0:
192,192,114726,1,0,0:0:0:0:
320,192,114800,1,0,0:0:0:0:
448,192,114800,1,0,0:0:0:0:
64,192,114800,1,0,0:0:0:0:
64,192,114873,1,0,0:0:0:0:
192,192,114873,1,0,0:0:0:0:
320,192,114947,1,0,0:0:0:0:
448,192,114947,1,0,0:0:0:0:
448,192,115020,1,0,0:0:0:0:
64,192,115020,1,0,0:0:0:0:
192,192,115094,1,0,0:0:0:0:
320,192,115094,1,0,0:0:0:0:
64,192,115094,1,0,0:0:0:0:
192,192,115167,1,0,0:0:0:0:
448,192,115167,1,0,0:0:0:0:
320,192,115241,1,0,0:0:0:0:
64,192,115241,1,0,0:0:0:0:
320,192,115314,1,0,0:0:0:0:
448,192,115314,1,0,0:0:0:0:
64,192,115388,1,0,0:0:0:0:
192,192,115388,1,0,0:0:0:0:
448,192,115388,1,0,0:0:0:0:
64,192,115461,1,0,0:0:0:0:
192,192,115535,1,0,0:0:0:0:
320,192,115535,1,0,0:0:0:0:
448,192,115535,1,0,0:0:0:0:
448,192,115608,1,0,0:0:0:0:
64,192,115682,1,0,0:0:0:0:
320,192,115682,1,0,0:0:0:0:
192,192,115682,1,0,0:0:0:0:
64,192,115755,1,0,0:0:0:0:
192,192,115829,1,0,0:0:0:0:
320,192,115829,1,0,0:0:0:0:
448,192,115829,1,0,0:0:0:0:
448,192,115902,1,0,0:0:0:0:
320,192,115976,1,0,0:0:0:0:
192,192,115976,1,0,0:0:0:0:
64,192,115976,1,0,0:0:0:0:
192,192,116050,1,0,0:0:0:0:
448,192,116123,1,0,0:0:0:0:
320,192,116123,1,0,0:0:0:0:
64,192,116123,1,0,0:0:0:0:
320,192,116197,1,0,0:0:0:0:
192,192,116270,1,0,0:0:0:0:
64,192,116270,1,0,0:0:0:0:
448,192,116270,1,0,0:0:0:0:
192,192,116344,1,0,0:0:0:0:
320,192,116417,1,0,0:0:0:0:
448,192,116417,1,0,0:0:0:0:
64,192,116417,1,0,0:0:0:0:
320,192,116491,1,0,0:0:0:0:
192,192,116564,1,0,0:0:0:0:
64,192,116564,1,0,0:0:0:0:
448,192,116564,1,0,0:0:0:0:
64,192,116638,1,0,0:0:0:0:
320,192,116638,1,0,0:0:0:0:
192,192,116711,1,0,0:0:0:0:
448,192,116711,1,0,0:0:0:0:
192,192,116785,1,0,0:0:0:0:
64,192,116785,1,0,0:0:0:0:
320,192,116858,1,0,0:0:0:0:
448,192,116858,1,0,0:0:0:0:
320,192,116932,1,0,0:0:0:0:
192,192,116932,1,0,0:0:0:0:
64,192,117005,1,0,0:0:0:0:
448,192,117005,1,0,0:0:0:0:
448,192,117079,1,0,0:0:0:0:
192,192,117079,1,0,0:0:0:0:
320,192,117152,1,0,0:0:0:0:
192,192,117152,1,0,0:0:0:0:
64,192,117152,1,0,0:0:0:0:
64,192,117226,1,0,0:0:0:0:
448,192,117226,1,0,0:0:0:0:
448,192,117300,1,0,0:0:0:0:
320,192,117300,1,0,0:0:0:0:
192,192,117300,1,0,0:0:0:0:
64,192,117447,1,0,0:0:0:0:
320,192,117447,1,0,0:0:0:0:
192,192,117447,1,0,0:0:0:0:
320,192,117520,1,0,0:0:0:0:
448,192,117520,1,0,0:0:0:0:
64,192,117520,1,0,0:0:0:0:
448,192,117594,1,0,0:0:0:0:
192,192,117594,1,0,0:0:0:0:
64,192,117594,1,0,0:0:0:0:
64,192,117741,1,0,0:0:0:0:
448,192,117741,1,0,0:0:0:0:
320,192,117777,1,0,0:0:0:0:
192,192,117814,1,0,0:0:0:0:
64,192,117851,1,0,0:0:0:0:
448,192,117888,1,0,0:0:0:0:
320,192,117925,1,0,0:0:0:0:
192,192,117961,1,0,0:0:0:0:
448,192,117998,1,0,0:0:0:0:
320,192,118035,1,0,0:0:0:0:
64,192,118072,1,0,0:0:0:0:
192,192,118108,1,0,0:0:0:0:
448,192,118145,1,0,0:0:0:0:
64,192,118182,1,0,0:0:0:0:
320,192,118182,1,0,0:0:0:0:
64,192,118255,1,0,0:0:0:0:
192,192,118329,1,0,0:0:0:0:
320,192,118329,1,0,0:0:0:0:
448,192,118329,1,0,0:0:0:0:
448,192,118402,1,0,0:0:0:0:
64,192,118476,1,0,0:0:0:0:
320,192,118476,1,0,0:0:0:0:
192,192,118513,1,0,0:0:0:0:
448,192,118550,1,0,0:0:0:0:
64,192,118623,1,0,0:0:0:0:
320,192,118623,1,0,0:0:0:0:
192,192,118623,1,0,0:0:0:0:
64,192,118697,1,0,0:0:0:0:
192,192,118770,1,0,0:0:0:0:
320,192,118770,1,0,0:0:0:0:
448,192,118770,1,0,0:0:0:0:
192,192,118844,1,0,0:0:0:0:
448,192,118917,1,0,0:0:0:0:
320,192,118917,1,0,0:0:0:0:
64,192,118917,1,0,0:0:0:0:
320,192,118991,1,0,0:0:0:0:
448,192,119064,1,0,0:0:0:0:
192,192,119064,1,0,0:0:0:0:
192,192,119138,1,0,0:0:0:0:
64,192,119138,1,0,0:0:0:0:
448,192,119211,1,0,0:0:0:0:
320,192,119211,1,0,0:0:0:0:
64,192,119211,1,0,0:0:0:0:
448,192,119285,1,0,0:0:0:0:
192,192,119322,1,0,0:0:0:0:
64,192,119358,1,0,0:0:0:0:
448,192,119395,1,0,0:0:0:0:
192,192,119432,1,0,0:0:0:0:
64,192,119469,1,0,0:0:0:0:
320,192,119505,1,0,0:0:0:0:
448,192,119505,1,0,0:0:0:0:
448,192,119579,1,0,0:0:0:0:
64,192,119616,1,0,0:0:0:0:
320,192,119652,1,0,0:0:0:0:
192,192,119652,1,0,0:0:0:0:
320,192,119726,1,0,0:0:0:0:
448,192,119763,1,0,0:0:0:0:
192,192,119800,1,0,0:0:0:0:
64,192,119800,1,0,0:0:0:0:
192,192,119873,1,0,0:0:0:0:
320,192,119910,1,0,0:0:0:0:
64,192,119947,1,0,0:0:0:0:
448,192,119947,1,0,0:0:0:0:
64,192,120020,1,0,0:0:0:0:
192,192,120094,1,0,0:0:0:0:
320,192,120094,1,0,0:0:0:0:
448,192,120094,1,0,0:0:0:0:
320,192,120167,1,0,0:0:0:0:
64,192,120204,1,0,0:0:0:0:
448,192,120241,1,0,0:0:0:0:
192,192,120277,1,0,0:0:0:0:
320,192,120314,1,0,0:0:0:0:
64,192,120314,1,0,0:0:0:0:
448,192,120351,1,0,0:0:0:0:
192,192,120388,1,0,0:0:0:0:
64,192,120425,1,0,0:0:0:0:
320,192,120461,1,0,0:0:0:0:
448,192,120498,1,0,0:0:0:0:
192,192,120535,1,0,0:0:0:0:
64,192,120535,1,0,0:0:0:0:
64,192,120608,1,0,0:0:0:0:
192,192,120682,1,0,0:0:0:0:
320,192,120682,1,0,0:0:0:0:
448,192,120682,1,0,0:0:0:0:
448,192,120755,1,0,0:0:0:0:
320,192,120792,1,0,0:0:0:0:
192,192,120829,1,0,0:0:0:0:
64,192,120866,1,0,0:0:0:0:
448,192,120902,1,0,0:0:0:0:
192,192,120976,1,0,0:0:0:0:
64,192,120976,1,0,0:0:0:0:
320,192,120976,1,0,0:0:0:0:
64,192,121050,1,0,0:0:0:0:
192,192,121086,1,0,0:0:0:0:
320,192,121123,1,0,0:0:0:0:
448,192,121160,1,0,0:0:0:0:
64,192,121197,1,0,0:0:0:0:
192,192,121233,1,0,0:0:0:0:
320,192,121270,1,0,0:0:0:0:
448,192,121270,1,0,0:0:0:0:
448,192,121344,1,0,0:0:0:0:
64,192,121344,1,0,0:0:0:0:
320,192,121417,1,0,0:0:0:0:
192,192,121417,1,0,0:0:0:0:
64,192,121417,1,0,0:0:0:0:
320,192,121491,1,0,0:0:0:0:
448,192,121564,1,0,0:0:0:0:
64,192,121564,1,0,0:0:0:0:
192,192,121638,1,0,0:0:0:0:
64,192,121638,1,0,0:0:0:0:
320,192,121711,1,0,0:0:0:0:
448,192,121711,1,0,0:0:0:0:
192,192,121711,1,0,0:0:0:0:
448,192,121785,1,0,0:0:0:0:
320,192,121822,1,0,0:0:0:0:
192,192,121858,1,0,0:0:0:0:
64,192,121858,1,0,0:0:0:0:
64,192,121932,1,0,0:0:0:0:
448,192,121932,1,0,0:0:0:0:
320,192,122005,1,0,0:0:0:0:
192,192,122005,1,0,0:0:0:0:
320,192,122079,1,0,0:0:0:0:
64,192,122079,1,0,0:0:0:0:
192,192,122152,1,0,0:0:0:0:
64,192,122152,1,0,0:0:0:0:
448,192,122152,1,0,0:0:0:0:
192,192,122226,1,0,0:0:0:0:
320,192,122226,1,0,0:0:0:0:
448,192,122300,1,0,0:0:0:0:
64,192,122300,1,0,0:0:0:0:
320,192,122336,1,0,0:0:0:0:
192,192,122373,1,0,0:0:0:0:
320,192,122447,1,0,0:0:0:0:
448,192,122447,1,0,0:0:0:0:
64,192,122447,1,0,0:0:0:0:
192,192,122496,1,0,0:0:0:0:
64,192,122545,1,0,0:0:0:0:
448,192,122545,1,0,0:0:0:0:
320,192,122594,1,0,0:0:0:0:
192,192,122643,1,0,0:0:0:0:
64,192,122643,1,0,0:0:0:0:
320,192,122692,1,0,0:0:0:0:
448,192,122741,1,0,0:0:0:0:
192,192,122741,1,0,0:0:0:0:
64,192,122741,1,0,0:0:0:0:
320,192,122790,1,0,0:0:0:0:
448,192,122839,1,0,0:0:0:0:
192,192,122839,1,0,0:0:0:0:
64,192,122888,1,0,0:0:0:0:
320,192,122937,1,0,0:0:0:0:
448,192,122937,1,0,0:0:0:0:
192,192,122986,1,0,0:0:0:0:
64,192,123035,1,0,0:0:0:0:
448,192,123035,1,0,0:0:0:0:
320,192,123084,1,0,0:0:0:0:
192,192,123133,1,0,0:0:0:0:
64,192,123133,1,0,0:0:0:0:
448,192,123182,1,0,0:0:0:0:
320,192,123231,1,0,0:0:0:0:
192,192,123231,1,0,0:0:0:0:
64,192,123280,1,0,0:0:0:0:
448,192,123329,1,0,0:0:0:0:
320,192,123329,1,0,0:0:0:0:
192,192,123329,1,0,0:0:0:0:
64,192,123378,1,0,0:0:0:0:
448,192,123427,1,0,0:0:0:0:
320,192,123427,1,0,0:0:0:0:
192,192,123476,1,0,0:0:0:0:
448,192,123525,1,0,0:0:0:0:
320,192,123525,1,0,0:0:0:0:
64,192,123574,1,0,0:0:0:0:
448,192,123623,1,0,0:0:0:0:
320,192,123623,1,0,0:0:0:0:
192,192,123672,1,0,0:0:0:0:
448,192,123721,1,0,0:0:0:0:
64,192,123721,1,0,0:0:0:0:
192,192,123770,1,0,0:0:0:0:
64,192,123819,1,0,0:0:0:0:
448,192,123819,1,0,0:0:0:0:
320,192,123868,1,0,0:0:0:0:
192,192,123917,1,0,0:0:0:0:
64,192,123917,1,0,0:0:0:0:
448,192,123917,1,0,0:0:0:0:
320,192,123966,1,0,0:0:0:0:
64,192,124015,1,0,0:0:0:0:
192,192,124015,1,0,0:0:0:0:
448,192,124064,1,0,0:0:0:0:
320,192,124113,1,0,0:0:0:0:
192,192,124113,1,0,0:0:0:0:
64,192,124162,1,0,0:0:0:0:
448,192,124211,1,0,0:0:0:0:
320,192,124211,1,0,0:0:0:0:
192,192,124211,1,0,0:0:0:0:
64,192,124260,1,0,0:0:0:0:
320,192,124309,1,0,0:0:0:0:
448,192,124309,1,0,0:0:0:0:
192,192,124358,1,0,0:0:0:0:
320,192,124407,1,0,0:0:0:0:
448,192,124407,1,0,0:0:0:0:
64,192,124456,1,0,0:0:0:0:
320,192,124505,1,0,0:0:0:0:
448,192,124505,1,0,0:0:0:0:
192,192,124505,1,0,0:0:0:0:
192,192,124579,1,0,0:0:0:0:
64,192,124652,1,0,0:0:0:0:
320,192,124652,1,0,0:0:0:0:
448,192,124652,1,0,0:0:0:0:
320,192,124726,1,0,0:0:0:0:
448,192,124800,1,0,0:0:0:0:
192,192,124800,1,0,0:0:0:0:
64,192,124800,1,0,0:0:0:0:
64,192,124873,1,0,0:0:0:0:
320,192,124873,1,0,0:0:0:0:
192,192,124947,1,0,0:0:0:0:
448,192,124947,1,0,0:0:0:0:
192,192,125020,1,0,0:0:0:0:
320,192,125020,1,0,0:0:0:0:
448,192,125094,1,0,0:0:0:0:
64,192,125094,1,0,0:0:0:0:
64,192,125167,1,0,0:0:0:0:
320,192,125167,1,0,0:0:0:0:
192,192,125241,1,0,0:0:0:0:
448,192,125241,1,0,0:0:0:0:
192,192,125314,1,0,0:0:0:0:
64,192,125314,1,0,0:0:0:0:
64,192,125388,1,0,0:0:0:0:
320,192,125388,1,0,0:0:0:0:
448,192,125388,1,0,0:0:0:0:
320,192,125461,1,0,0:0:0:0:
192,192,125535,1,0,0:0:0:0:
448,192,125535,1,0,0:0:0:0:
192,192,125608,1,0,0:0:0:0:
64,192,125682,1,0,0:0:0:0:
320,192,125682,1,0,0:0:0:0:
448,192,125682,1,0,0:0:0:0:
64,192,125755,1,0,0:0:0:0:
320,192,125829,1,0,0:0:0:0:
448,192,125829,1,0,0:0:0:0:
192,192,125829,1,0,0:0:0:0:
448,192,125902,1,0,0:0:0:0:
64,192,125976,1,0,0:0:0:0:
320,192,125976,1,0,0:0:0:0:
192,192,125976,1,0,0:0:0:0:
64,192,126050,1,0,0:0:0:0:
192,192,126123,1,0,0:0:0:0:
320,192,126123,1,0,0:0:0:0:
448,192,126123,1,0,0:0:0:0:
448,192,126197,1,0,0:0:0:0:
64,192,126270,1,0,0:0:0:0:
320,192,126270,1,0,0:0:0:0:
192,192,126270,1,0,0:0:0:0:
64,192,126344,1,0,0:0:0:0:
320,192,126417,1,0,0:0:0:0:
448,192,126417,1,0,0:0:0:0:
192,192,126417,1,0,0:0:0:0:
448,192,126491,1,0,0:0:0:0:
64,192,126564,1,0,0:0:0:0:
320,192,126564,1,0,0:0:0:0:
192,192,126564,1,0,0:0:0:0:
320,192,126638,1,0,0:0:0:0:
64,192,126711,1,0,0:0:0:0:
192,192,126711,1,0,0:0:0:0:
448,192,126711,1,0,0:0:0:0:
192,192,126785,1,0,0:0:0:0:
64,192,126858,1,0,0:0:0:0:
320,192,126858,1,0,0:0:0:0:
448,192,126858,1,0,0:0:0:0:
64,192,126932,1,0,0:0:0:0:
192,192,127005,1,0,0:0:0:0:
320,192,127005,1,0,0:0:0:0:
448,192,127005,1,0,0:0:0:0:
192,192,127079,1,0,0:0:0:0:
64,192,127152,1,0,0:0:0:0:
320,192,127152,1,0,0:0:0:0:
448,192,127152,1,0,0:0:0:0:
192,192,127226,1,0,0:0:0:0:
320,192,127226,1,0,0:0:0:0:
448,192,127300,1,0,0:0:0:0:
64,192,127300,1,0,0:0:0:0:
192,192,127373,1,0,0:0:0:0:
64,192,127373,1,0,0:0:0:0:
320,192,127447,1,0,0:0:0:0:
448,192,127447,1,0,0:0:0:0:
320,192,127520,1,0,0:0:0:0:
192,192,127520,1,0,0:0:0:0:
64,192,127594,1,0,0:0:0:0:
448,192,127594,1,0,0:0:0:0:
192,192,127594,1,0,0:0:0:0:
64,192,127667,1,0,0:0:0:0:
320,192,127667,1,0,0:0:0:0:
192,192,127741,1,0,0:0:0:0:
448,192,127741,1,0,0:0:0:0:
320,192,127777,1,0,0:0:0:0:
64,192,127814,1,0,0:0:0:0:
448,192,127851,1,0,0:0:0:0:
320,192,127888,1,0,0:0:0:0:
64,192,127925,1,0,0:0:0:0:
192,192,127961,1,0,0:0:0:0:
448,192,128035,1,0,0:0:0:0:
320,192,128035,1,0,0:0:0:0:
64,192,128035,1,0,0:0:0:0:
192,192,128108,1,0,0:0:0:0:
64,192,128108,1,0,0:0:0:0:
320,192,128182,1,0,0:0:0:0:
448,192,128182,1,0,0:0:0:0:
448,192,128255,1,0,0:0:0:0:
192,192,128255,1,0,0:0:0:0:
64,192,128329,1,0,0:0:0:0:
320,192,128329,1,0,0:0:0:0:
192,192,128402,1,0,0:0:0:0:
320,192,128402,1,0,0:0:0:0:
64,192,128476,1,0,0:0:0:0:
448,192,128476,1,0,0:0:0:0:
448,192,128550,1,0,0:0:0:0:
192,192,128550,1,0,0:0:0:0:
320,192,128623,1,0,0:0:0:0:
192,192,128623,1,0,0:0:0:0:
64,192,128623,1,0,0:0:0:0:
64,192,128697,1,0,0:0:0:0:
448,192,128697,1,0,0:0:0:0:
320,192,128733,1,0,0:0:0:0:
192,192,128770,1,0,0:0:0:0:
448,192,128807,1,0,0:0:0:0:
320,192,128844,1,0,0:0:0:0:
192,192,128880,1,0,0:0:0:0:
64,192,128917,1,0,0:0:0:0:
448,192,128917,1,0,0:0:0:0:
320,192,128991,1,0,0:0:0:0:
448,192,128991,1,0,0:0:0:0:
192,192,129064,1,0,0:0:0:0:
64,192,129064,1,0,0:0:0:0:
192,192,129138,1,0,0:0:0:0:
320,192,129138,1,0,0:0:0:0:
64,192,129211,1,0,0:0:0:0:
448,192,129211,1,0,0:0:0:0:
320,192,129285,1,0,0:0:0:0:
448,192,129285,1,0,0:0:0:0:
192,192,129358,1,0,0:0:0:0:
64,192,129358,1,0,0:0:0:0:
320,192,129432,1,0,0:0:0:0:
192,192,129432,1,0,0:0:0:0:
320,192,129505,1,0,0:0:0:0:
448,192,129505,1,0,0:0:0:0:
64,192,129505,1,0,0:0:0:0:
64,192,129579,1,0,0:0:0:0:
192,192,129652,1,0,0:0:0:0:
320,192,129652,1,0,0:0:0:0:
448,192,129652,1,0,0:0:0:0:
192,192,129726,1,0,0:0:0:0:
64,192,129800,1,0,0:0:0:0:
320,192,129800,1,0,0:0:0:0:
448,192,129800,1,0,0:0:0:0:
320,192,129873,1,0,0:0:0:0:
192,192,129947,1,0,0:0:0:0:
64,192,129947,1,0,0:0:0:0:
448,192,129947,1,0,0:0:0:0:
192,192,130020,1,0,0:0:0:0:
448,192,130094,1,0,0:0:0:0:
64,192,130094,1,0,0:0:0:0:
320,192,130130,1,0,0:0:0:0:
192,192,130167,1,0,0:0:0:0:
448,192,130204,1,0,0:0:0:0:
64,192,130241,1,0,0:0:0:0:
320,192,130277,1,0,0:0:0:0:
192,192,130314,1,0,0:0:0:0:
64,192,130351,1,0,0:0:0:0:
448,192,130388,1,0,0:0:0:0:
320,192,130388,1,0,0:0:0:0:
192,192,130425,1,0,0:0:0:0:
64,192,130461,1,0,0:0:0:0:
320,192,130498,1,0,0:0:0:0:
448,192,130535,1,0,0:0:0:0:
192,192,130572,1,0,0:0:0:0:
320,192,130608,1,0,0:0:0:0:
448,192,130645,1,0,0:0:0:0:
64,192,130682,1,0,0:0:0:0:
192,192,130682,1,0,0:0:0:0:
64,192,130755,1,0,0:0:0:0:
320,192,130755,1,0,0:0:0:0:
448,192,130829,1,0,0:0:0:0:
192,192,130829,1,0,0:0:0:0:
320,192,130902,1,0,0:0:0:0:
448,192,130902,1,0,0:0:0:0:
64,192,130902,1,0,0:0:0:0:
320,192,130976,1,0,0:0:0:0:
448,192,131050,1,0,0:0:0:0:
64,192,131050,1,0,0:0:0:0:
192,192,131123,1,0,0:0:0:0:
64,192,131123,1,0,0:0:0:0:
320,192,131123,1,0,0:0:0:0:
192,192,131197,1,0,0:0:0:0:
64,192,131270,1,0,0:0:0:0:
320,192,131270,1,0,0:0:0:0:
448,192,131270,1,0,0:0:0:0:
320,192,131344,1,0,0:0:0:0:
192,192,131417,1,0,0:0:0:0:
64,192,131417,1,0,0:0:0:0:
448,192,131417,1,0,0:0:0:0:
192,192,131491,1,0,0:0:0:0:
64,192,131564,1,0,0:0:0:0:
320,192,131564,1,0,0:0:0:0:
448,192,131564,1,0,0:0:0:0:
320,192,131638,1,0,0:0:0:0:
64,192,131711,1,0,0:0:0:0:
192,192,131711,1,0,0:0:0:0:
448,192,131711,1,0,0:0:0:0:
448,192,131785,1,0,0:0:0:0:
64,192,131858,1,0,0:0:0:0:
320,192,131858,1,0,0:0:0:0:
192,192,131858,1,0,0:0:0:0:
192,192,131932,1,0,0:0:0:0:
64,192,131932,1,0,0:0:0:0:
320,192,132005,1,0,0:0:0:0:
448,192,132005,1,0,0:0:0:0:
320,192,132079,1,0,0:0:0:0:
192,192,132152,1,0,0:0:0:0:
64,192,132152,1,0,0:0:0:0:
448,192,132152,1,0,0:0:0:0:
320,192,132226,1,0,0:0:0:0:
64,192,132226,1,0,0:0:0:0:
192,192,132300,1,0,0:0:0:0:
448,192,132300,1,0,0:0:0:0:
192,192,132373,1,0,0:0:0:0:
320,192,132447,1,0,0:0:0:0:
64,192,132447,1,0,0:0:0:0:
448,192,132447,1,0,0:0:0:0:
320,192,132520,1,0,0:0:0:0:
192,192,132520,1,0,0:0:0:0:
64,192,132594,1,0,0:0:0:0:
448,192,132594,1,0,0:0:0:0:
64,192,132667,1,0,0:0:0:0:
192,192,132741,1,0,0:0:0:0:
320,192,132741,1,0,0:0:0:0:
448,192,132741,1,0,0:0:0:0:
64,192,132814,1,0,0:0:0:0:
448,192,132814,1,0,0:0:0:0:
192,192,132888,1,0,0:0:0:0:
320,192,132888,1,0,0:0:0:0:
320,192,132961,1,0,0:0:0:0:
192,192,133035,1,0,0:0:0:0:
64,192,133035,1,0,0:0:0:0:
448,192,133035,1,0,0:0:0:0:
320,192,133108,1,0,0:0:0:0:
64,192,133108,1,0,0:0:0:0:
192,192,133182,1,0,0:0:0:0:
448,192,133182,1,0,0:0:0:0:
192,192,133255,1,0,0:0:0:0:
320,192,133329,1,0,0:0:0:0:
448,192,133329,1,0,0:0:0:0:
64,192,133329,1,0,0:0:0:0:
192,192,133402,1,0,0:0:0:0:
64,192,133402,1,0,0:0:0:0:
320,192,133476,1,0,0:0:0:0:
448,192,133476,1,0,0:0:0:0:
448,192,133550,1,0,0:0:0:0:
320,192,133623,1,0,0:0:0:0:
192,192,133623,1,0,0:0:0:0:
64,192,133623,1,0,0:0:0:0:
320,192,133697,1,0,0:0:0:0:
448,192,133697,1,0,0:0:0:0:
192,192,133770,1,0,0:0:0:0:
64,192,133770,1,0,0:0:0:0:
64,192,133844,1,0,0:0:0:0:
320,192,133917,1,0,0:0:0:0:
448,192,133917,1,0,0:0:0:0:
192,192,133917,1,0,0:0:0:0:
448,192,133991,1,0,0:0:0:0:
64,192,133991,1,0,0:0:0:0:
192,192,134064,1,0,0:0:0:0:
320,192,134064,1,0,0:0:0:0:
192,192,134138,1,0,0:0:0:0:
448,192,134138,1,0,0:0:0:0:
320,192,134211,1,0,0:0:0:0:
64,192,134211,1,0,0:0:0:0:
192,192,134285,1,0,0:0:0:0:
64,192,134285,1,0,0:0:0:0:
320,192,134358,1,0,0:0:0:0:
448,192,134358,1,0,0:0:0:0:
320,192,134432,1,0,0:0:0:0:
192,192,134432,1,0,0:0:0:0:
64,192,134505,1,0,0:0:0:0:
448,192,134505,1,0,0:0:0:0:
448,192,134579,1,0,0:0:0:0:
192,192,134579,1,0,0:0:0:0:
320,192,134652,1,0,0:0:0:0:
64,192,134652,1,0,0:0:0:0:
192,192,134726,1,0,0:0:0:0:
64,192,134726,1,0,0:0:0:0:
320,192,134800,1,0,0:0:0:0:
448,192,134800,1,0,0:0:0:0:
192,192,134800,1,0,0:0:0:0:
448,192,134873,1,0,0:0:0:0:
320,192,134910,1,0,0:0:0:0:
64,192,134947,1,0,0:0:0:0:
448,192,134983,1,0,0:0:0:0:
192,192,135020,1,0,0:0:0:0:
448,192,135094,1,0,0:0:0:0:
64,192,135094,1,0,0:0:0:0:
320,192,135094,1,0,0:0:0:0:
320,192,135167,1,0,0:0:0:0:
192,192,135241,1,0,0:0:0:0:
64,192,135241,1,0,0:0:0:0:
448,192,135241,1,0,0:0:0:0:
192,192,135314,1,0,0:0:0:0:
320,192,135388,1,0,0:0:0:0:
448,192,135388,1,0,0:0:0:0:
64,192,135388,1,0,0:0:0:0:
320,192,135461,1,0,0:0:0:0:
192,192,135535,1,0,0:0:0:0:
64,192,135535,1,0,0:0:0:0:
448,192,135535,1,0,0:0:0:0:
192,192,135608,1,0,0:0:0:0:
448,192,135682,1,0,0:0:0:0:
320,192,135682,1,0,0:0:0:0:
320,192,135755,1,0,0:0:0:0:
192,192,135829,1,0,0:0:0:0:
64,192,135829,1,0,0:0:0:0:
448,192,135829,1,0,0:0:0:0:
192,192,135902,1,0,0:0:0:0:
320,192,135976,1,0,0:0:0:0:
448,192,135976,1,0,0:0:0:0:
64,192,135976,1,0,0:0:0:0:
320,192,136050,1,0,0:0:0:0:
192,192,136086,1,0,0:0:0:0:
64,192,136123,1,0,0:0:0:0:
320,192,136160,1,0,0:0:0:0:
448,192,136197,1,0,0:0:0:0:
64,192,136233,1,0,0:0:0:0:
192,192,136270,1,0,0:0:0:0:
320,192,136307,1,0,0:0:0:0:
448,192,136344,1,0,0:0:0:0:
192,192,136380,1,0,0:0:0:0:
64,192,136417,1,0,0:0:0:0:
448,192,136454,1,0,0:0:0:0:
320,192,136491,1,0,0:0:0:0:
192,192,136527,1,0,0:0:0:0:
64,192,136564,1,0,0:0:0:0:
448,192,136564,1,0,0:0:0:0:
448,192,136638,1,0,0:0:0:0:
320,192,136711,1,0,0:0:0:0:
192,192,136711,1,0,0:0:0:0:
320,192,136785,1,0,0:0:0:0:
64,192,136858,1,0,0:0:0:0:
448,192,136858,1,0,0:0:0:0:
64,192,136932,1,0,0:0:0:0:
192,192,137005,1,0,0:0:0:0:
320,192,137005,1,0,0:0:0:0:
192,192,137079,1,0,0:0:0:0:
448,192,137152,1,0,0:0:0:0:
320,192,137152,1,0,0:0:0:0:
64,192,137152,1,0,0:0:0:0:
320,192,137226,1,0,0:0:0:0:
448,192,137300,1,0,0:0:0:0:
64,192,137300,1,0,0:0:0:0:
448,192,137373,1,0,0:0:0:0:
192,192,137447,1,0,0:0:0:0:
64,192,137447,1,0,0:0:0:0:
320,192,137447,1,0,0:0:0:0:
64,192,137520,1,0,0:0:0:0:
448,192,137594,1,0,0:0:0:0:
320,192,137594,1,0,0:0:0:0:
320,192,137667,1,0,0:0:0:0:
192,192,137741,1,0,0:0:0:0:
448,192,137741,1,0,0:0:0:0:
192,192,137814,1,0,0:0:0:0:
64,192,137888,1,0,0:0:0:0:
320,192,137888,1,0,0:0:0:0:
448,192,137888,1,0,0:0:0:0:
448,192,137961,1,0,0:0:0:0:
192,192,138035,1,0,0:0:0:0:
64,192,138035,1,0,0:0:0:0:
64,192,138108,1,0,0:0:0:0:
320,192,138182,1,0,0:0:0:0:
448,192,138182,1,0,0:0:0:0:
320,192,138255,1,0,0:0:0:0:
448,192,138329,1,0,0:0:0:0:
192,192,138329,1,0,0:0:0:0:
64,192,138329,1,0,0:0:0:0:
448,192,138402,1,0,0:0:0:0:
320,192,138476,1,0,0:0:0:0:
192,192,138476,1,0,0:0:0:0:
192,192,138550,1,0,0:0:0:0:
320,192,138623,1,0,0:0:0:0:
64,192,138623,1,0,0:0:0:0:
448,192,138623,1,0,0:0:0:0:
64,192,138697,1,0,0:0:0:0:
192,192,138770,1,0,0:0:0:0:
320,192,138770,1,0,0:0:0:0:
320,192,138844,1,0,0:0:0:0:
448,192,138917,1,0,0:0:0:0:
192,192,138917,1,0,0:0:0:0:
64,192,138917,1,0,0:0:0:0:
192,192,138991,1,0,0:0:0:0:
320,192,139064,1,0,0:0:0:0:
448,192,139064,1,0,0:0:0:0:
320,192,139138,1,0,0:0:0:0:
448,192,139211,1,0,0:0:0:0:
64,192,139211,1,0,0:0:0:0:
448,192,139285,1,0,0:0:0:0:
320,192,139358,1,0,0:0:0:0:
192,192,139358,1,0,0:0:0:0:
64,192,139358,1,0,0:0:0:0:
64,192,139432,1,0,0:0:0:0:
320,192,139505,1,0,0:0:0:0:
448,192,139505,1,0,0:0:0:0:
192,192,139505,1,0,0:0:0:0:
448,192,139579,1,0,0:0:0:0:
192,192,139652,1,0,0:0:0:0:
64,192,139652,1,0,0:0:0:0:
64,192,139726,1,0,0:0:0:0:
320,192,139800,1,0,0:0:0:0:
448,192,139800,1,0,0:0:0:0:
192,192,139800,1,0,0:0:0:0:
448,192,139873,1,0,0:0:0:0:
320,192,139947,1,0,0:0:0:0:
64,192,139947,1,0,0:0:0:0:
64,192,140020,1,0,0:0:0:0:
448,192,140094,1,0,0:0:0:0:
192,192,140094,1,0,0:0:0:0:
192,192,140167,1,0,0:0:0:0:
320,192,140241,1,0,0:0:0:0:
64,192,140241,1,0,0:0:0:0:
320,192,140314,1,0,0:0:0:0:
192,192,140388,1,0,0:0:0:0:
64,192,140388,1,0,0:0:0:0:
192,192,140461,1,0,0:0:0:0:
320,192,140535,1,0,0:0:0:0:
64,192,140535,1,0,0:0:0:0:
320,192,140608,1,0,0:0:0:0:
448,192,140682,1,0,0:0:0:0:
192,192,140682,1,0,0:0:0:0:
64,192,140682,1,0,0:0:0:0:
448,192,140755,1,0,0:0:0:0:
192,192,140829,1,0,0:0:0:0:
64,192,140829,1,0,0:0:0:0:
64,192,140902,1,0,0:0:0:0:
320,192,140976,1,0,0:0:0:0:
448,192,140976,1,0,0:0:0:0:
192,192,140976,1,0,0:0:0:0:
448,192,141050,1,0,0:0:0:0:
320,192,141123,1,0,0:0:0:0:
192,192,141123,1,0,0:0:0:0:
192,192,141197,1,0,0:0:0:0:
64,192,141270,1,0,0:0:0:0:
320,192,141270,1,0,0:0:0:0:
448,192,141270,1,0,0:0:0:0:
192,192,141344,1,0,0:0:0:0:
64,192,141417,1,0,0:0:0:0:
448,192,141417,1,0,0:0:0:0:
320,192,141491,1,0,0:0:0:0:
192,192,141564,1,0,0:0:0:0:
64,192,141638,1,0,0:0:0:0:
448,192,141638,1,0,0:0:0:0:
320,192,141711,1,0,0:0:0:0:
192,192,141785,1,0,0:0:0:0:
448,192,141858,1,0,0:0:0:0:
320,192,141858,1,0,0:0:0:0:
64,192,141858,1,0,0:0:0:0:
192,192,141932,1,0,0:0:0:0:
320,192,142005,1,0,0:0:0:0:
64,192,142005,1,0,0:0:0:0:
448,192,142079,1,0,0:0:0:0:
320,192,142152,1,0,0:0:0:0:
64,192,142152,1,0,0:0:0:0:
192,192,142226,1,0,0:0:0:0:
64,192,142300,1,0,0:0:0:0:
320,192,142300,1,0,0:0:0:0:
448,192,142373,1,0,0:0:0:0:
64,192,142447,1,0,0:0:0:0:
320,192,142447,1,0,0:0:0:0:
192,192,142447,1,0,0:0:0:0:
192,192,142520,1,0,0:0:0:0:
64,192,142594,1,0,0:0:0:0:
448,192,142594,1,0,0:0:0:0:
320,192,142667,1,0,0:0:0:0:
64,192,142741,1,0,0:0:0:0:
192,192,142741,1,0,0:0:0:0:
320,192,142814,1,0,0:0:0:0:
192,192,142888,1,0,0:0:0:0:
448,192,142888,1,0,0:0:0:0:
320,192,142961,1,0,0:0:0:0:
448,192,143035,1,0,0:0:0:0:
64,192,143035,1,0,0:0:0:0:
192,192,143035,1,0,0:0:0:0:
320,192,143108,1,0,0:0:0:0:
448,192,143182,1,0,0:0:0:0:
64,192,143182,1,0,0:0:0:0:
192,192,143255,1,0,0:0:0:0:
64,192,143329,1,0,0:0:0:0:
448,192,143329,1,0,0:0:0:0:
320,192,143402,1,0,0:0:0:0:
64,192,143476,1,0,0:0:0:0:
448,192,143476,1,0,0:0:0:0:
192,192,143550,1,0,0:0:0:0:
64,192,143623,1,0,0:0:0:0:
320,192,143623,1,0,0:0:0:0:
448,192,143623,1,0,0:0:0:0:
320,192,143697,1,0,0:0:0:0:
64,192,143770,1,0,0:0:0:0:
192,192,143770,1,0,0:0:0:0:
320,192,143844,1,0,0:0:0:0:
192,192,143917,1,0,0:0:0:0:
448,192,143917,1,0,0:0:0:0:
64,192,143991,1,0,0:0:0:0:
320,192,144064,1,0,0:0:0:0:
192,192,144064,1,0,0:0:0:0:
448,192,144138,1,0,0:0:0:0:
64,192,144211,1,0,0:0:0:0:
320,192,144211,1,0,0:0:0:0:
192,192,144211,1,0,0:0:0:0:
64,192,144285,1,0,0:0:0:0:
192,192,144358,1,0,0:0:0:0:
320,192,144358,1,0,0:0:0:0:
64,192,144432,1,0,0:0:0:0:
448,192,144505,1,0,0:0:0:0:
320,192,144505,1,0,0:0:0:0:
192,192,144579,1,0,0:0:0:0:
64,192,144652,1,0,0:0:0:0:
320,192,144652,1,0,0:0:0:0:
448,192,144652,1,0,0:0:0:0:
448,192,144726,1,0,0:0:0:0:
320,192,144800,1,0,0:0:0:0:
64,192,144800,1,0,0:0:0:0:
448,192,144873,1,0,0:0:0:0:
64,192,144947,1,0,0:0:0:0:
320,192,144947,1,0,0:0:0:0:
192,192,144947,1,0,0:0:0:0:
192,192,145020,1,0,0:0:0:0:
64,192,145094,1,0,0:0:0:0:
448,192,145094,1,0,0:0:0:0:
320,192,145167,1,0,0:0:0:0:
64,192,145241,1,0,0:0:0:0:
448,192,145241,1,0,0:0:0:0:
192,192,145241,1,0,0:0:0:0:
192,192,145314,1,0,0:0:0:0:
64,192,145388,1,0,0:0:0:0:
448,192,145388,1,0,0:0:0:0:
320,192,145388,1,0,0:0:0:0:
64,192,145461,1,0,0:0:0:0:
320,192,145535,1,0,0:0:0:0:
448,192,145535,1,0,0:0:0:0:
192,192,145535,1,0,0:0:0:0:
448,192,145608,1,0,0:0:0:0:
320,192,145682,1,0,0:0:0:0:
64,192,145682,1,0,0:0:0:0:
64,192,145829,1,0,0:0:0:0:
448,192,145829,1,0,0:0:0:0:
192,192,145829,1,0,0:0:0:0:
192,192,145902,1,0,0:0:0:0:
64,192,145976,128,0,146270:0:0:0:0:
448,192,145976,128,0,146270:0:0:0:0:
