osu file format v14

[General]
AudioFilename: audio.mp3
AudioLeadIn: 0
PreviewTime: 76754
Countdown: 0
SampleSet: Soft
StackLeniency: 0.3
Mode: 0
LetterboxInBreaks: 0
WidescreenStoryboard: 1

[Editor]
DistanceSpacing: 1
BeatDivisor: 4
GridSize: 32
TimelineZoom: 2

[Metadata]
Title:RAMSING
TitleUnicode:RAMSING
Artist:SIDxRAM
ArtistUnicode:SID×RAM
Creator:Ksardas
Version:NORMAL
Source:
Tags:SID RAM РАМСИНГ sharu 0ppinosu -atri- firis mistlud kurantemelodii krt Сид Рам Рэм Сидоджи Дубоshit Дубощит Sidodzhi Duboshit Грязный Рамирес Gryazniy Ramires dnb drum and bass neurofunk russian rap Мочивилс 2 II Mochivils Gydra Split Attack Soul King EP electronic russian and x piroshki
BeatmapID:2431463
BeatmapSetID:1137778

[Difficulty]
HPDrainRate:3
CircleSize:4
OverallDifficulty:4
ApproachRate:5.5
SliderMultiplier:0.999999999999999
SliderTickRate:1

[Events]
//Background and Video events
0,0,"MOSHED-2020-3-29-23-1-7.jpg",0,0
//Break Periods
2,99540,108995
//Storyboard Layer 0 (Background)
//Storyboard Layer 1 (Fail)
//Storyboard Layer 2 (Pass)
//Storyboard Layer 3 (Foreground)
//Storyboard Layer 4 (Overlay)
//Storyboard Sound Samples

[TimingPoints]
30,344.827586206897,4,2,5,50,1,0
11064,-100,4,2,5,50,0,0
11581,-100,4,2,4,50,0,0
13823,-100,4,2,5,50,0,0
13844,-100,4,2,4,50,0,0
15202,-100,4,2,5,50,0,0
15223,-100,4,2,4,50,0,0
16581,-100,4,2,5,50,0,0
16603,-100,4,2,4,50,0,0
19340,-100,4,2,5,50,0,0
19362,-100,4,2,4,50,0,0
22098,-100,4,2,4,60,0,0
30374,-100,4,2,3,70,0,0
31754,-100,4,2,5,65,0,0
33133,-100,4,2,1,65,0,0
38650,-100,4,2,5,65,0,0
38672,-100,4,2,1,65,0,0
43823,-100,4,2,5,65,0,0
44167,-100,4,2,1,65,0,0
66236,-100,4,2,5,65,0,0
66258,-100,4,2,1,65,0,0
67443,-100,4,2,5,65,0,0
67465,-100,4,2,1,65,0,0
77271,-90.9090909090909,4,2,3,75,0,1
77292,-90.9090909090909,4,2,1,75,0,1
88305,-90.9090909090909,4,2,3,75,0,1
88326,-90.9090909090909,4,2,1,75,0,1
96581,-100,4,2,1,75,0,0
99340,-100,4,2,5,50,0,0
110374,-100,4,2,4,50,0,0
113133,-100,4,2,4,55,0,0
115892,-100,4,2,4,60,0,0
117271,-100,4,2,4,65,0,0
118650,-100,4,2,3,70,0,0
120030,-100,4,2,5,65,0,0
120892,-100,4,2,1,60,0,0
126926,-100,4,2,5,65,0,0
126948,-100,4,2,1,65,0,0
132098,-100,4,2,5,65,0,0
132443,-100,4,2,1,65,0,0
154512,-100,4,2,5,65,0,0
154534,-100,4,2,1,65,0,0
155719,-100,4,2,5,65,0,0
155741,-100,4,2,1,65,0,0
165547,-90.9090909090909,4,2,3,75,0,1
165568,-90.9090909090909,4,2,1,75,0,1
176581,-90.9090909090909,4,2,3,75,0,1
176603,-90.9090909090909,4,2,1,75,0,1
184857,-100,4,2,1,75,0,0
187616,-100,4,2,5,50,0,0

[Colours]
Combo1 : 208,87,87
Combo2 : 192,192,192
Combo3 : 128,128,128
Combo4 : 128,0,255
Combo5 : 95,154,226
Combo6 : 225,30,30

[HitObjects]
496,273,11064,5,8,3:2:0:0:
410,220,11409,2,0,L|425:59,1,150,0|2,0:0|0:0,0:0:0:0:
455,31,12098,1,2,0:0:0:0:
306,10,12616,1,2,0:0:0:0:
316,58,12788,1,2,0:0:0:0:
166,41,13305,1,2,0:0:0:0:
160,90,13478,2,0,L|101:78,1,50,2|0,0:0|0:0,0:0:0:0:
62,68,13823,5,10,3:2:0:0:
19,158,14167,2,0,L|182:190,1,150,2|2,0:0|0:0,0:0:0:0:
214,199,14857,1,2,0:0:0:0:
160,283,15202,1,6,2:2:0:0:
259,289,15547,2,0,L|422:257,1,150,2|2,0:0|0:0,0:0:0:0:
454,248,16236,2,0,L|443:309,1,50,2|0,0:0|0:0,0:0:0:0:
436,346,16581,69,10,0:0:0:0:
351,292,16926,2,0,P|334:240|366:141,1,150,10|0,0:0|0:0,0:0:0:0:
407,140,17616,2,0,P|352:140|268:79,1,150,10|0,0:0|0:0,0:0:0:0:
279,39,18305,2,0,P|262:91|178:152,1,150,10|0,0:0|0:0,0:0:0:0:
143,129,18995,1,10,0:0:0:0:
69,61,19340,5,10,3:2:0:0:
18,147,19685,2,0,L|30:307,1,150,2|0,3:2|3:2,0:0:0:0:
13,343,20374,1,10,0:0:0:0:
107,310,20719,2,0,L|207:328,1,99.9999999999999,2|10,0:0|0:0,0:0:0:0:
163,236,21409,2,0,L|263:218,1,99.9999999999999,2|10,0:0|0:0,0:0:0:0:
360,228,22098,22,0,P|412:248|443:297,1,99.9999999999999,12|0,3:2|3:2,0:0:0:0:
457,328,22616,2,0,P|448:272|475:221,1,99.9999999999999,10|0,3:2|3:2,0:0:0:0:
507,206,23133,1,8,3:2:0:0:
424,149,23478,2,0,P|443:61|472:-3,2,150,8|10|8,3:2|3:2|3:2,0:0:0:0:
345,87,24857,38,0,P|274:103|243:104,1,99.9999999999999,8|0,3:2|3:2,0:0:0:0:
225,149,25374,2,0,P|154:133|123:132,1,99.9999999999999,10|0,3:2|3:2,0:0:0:0:
87,163,25892,1,8,3:2:0:0:
33,247,26236,2,0,L|1:93,2,150,8|10|8,3:2|3:2|3:2,0:0:0:0:
59,343,27616,22,0,P|112:350|154:309,1,99.9999999999999,12|8,3:1|3:2,0:0:0:0:
181,360,28133,2,0,P|176:311|208:273,1,99.9999999999999,10|8,3:2|3:2,0:0:0:0:
254,292,28650,1,8,3:2:0:0:
351,312,28995,2,0,P|358:259|317:217,1,99.9999999999999,8|8,3:2|3:2,0:0:0:0:
368,190,29512,2,0,P|319:194|281:162,1,99.9999999999999,10|8,3:2|3:2,0:0:0:0:
300,117,30030,1,8,3:2:0:0:
256,192,30374,12,12,31754,3:2:0:0:
442,38,33133,5,6,3:2:0:0:
352,83,33478,2,0,L|189:64,1,150,8|2,3:2|3:2,0:0:0:0:
153,59,34167,1,10,3:2:0:0:
63,102,34512,2,0,L|70:42,2,50,2|2|10,3:2|3:2|3:2,0:0:0:0:
34,143,35030,1,2,3:2:0:0:
124,184,35374,1,2,3:2:0:0:
95,225,35547,2,0,L|88:285,1,50,10|0,3:2|3:2,0:0:0:0:
84,324,35892,70,0,L|197:302,1,99.9999999999999,2|8,3:2|3:2,0:0:0:0:
279,283,36581,1,2,3:2:0:0:
365,333,36926,1,10,3:2:0:0:
461,311,37271,2,0,L|474:200,1,99.9999999999999,2|10,3:2|3:2,0:0:0:0:
422,206,37788,2,0,L|409:95,1,99.9999999999999,2|2,3:2|3:2,0:0:0:0:
457,88,38305,2,0,L|466:24,1,50,8|0,3:2|3:2,0:0:0:0:
427,4,38650,5,4,3:2:0:0:
331,32,38995,1,10,3:2:0:0:
235,60,39340,2,0,L|230:111,2,50,2|0|10,3:2|3:2|3:2,0:0:0:0:
135,49,40030,2,0,L|130:0,2,50,2|2|10,3:2|3:2|3:2,0:0:0:0:
115,95,40547,1,2,3:2:0:0:
46,167,40892,1,2,3:2:0:0:
50,216,41064,2,0,L|54:282,1,50,10|0,3:2|3:2,0:0:0:0:
59,315,41409,37,2,3:2:0:0:
27,332,44167,21,6,3:2:0:0:
121,365,44512,2,0,P|155:324|217:310,1,99.9999999999999,8|2,3:2|3:2,0:0:0:0:
246,324,45030,2,0,L|238:380,1,50,2|10,3:2|3:2,0:0:0:0:
333,341,45547,2,0,L|347:238,1,99.9999999999999,2|8,3:2|0:0,0:0:0:0:
442,214,46236,2,0,L|428:111,1,99.9999999999999,0|10,3:2|3:2,0:0:0:0:
451,70,46754,1,0,3:2:0:0:
473,25,46926,6,0,L|370:39,1,99.9999999999999,2|8,3:2|3:2,0:0:0:0:
298,104,47616,2,0,L|195:90,1,99.9999999999999,2|10,3:2|3:2,0:0:0:0:
149,81,48133,1,0,0:0:0:0:
99,74,48305,2,0,L|47:66,2,50,2|2|10,3:2|3:2|3:2,0:0:0:0:
60,166,48995,2,0,L|8:158,2,50,2|2|8,3:2|3:2|3:2,0:0:0:0:
90,206,49512,1,0,3:2:0:0:
105,253,49685,70,0,L|86:360,1,99.9999999999999,4|10,3:2|3:2,0:0:0:0:
186,338,50374,2,0,L|293:319,1,99.9999999999999,2|10,3:2|3:2,0:0:0:0:
383,302,51064,2,0,P|416:309|435:323,1,50,2|2,3:2|3:2,0:0:0:0:
460,357,51409,2,0,L|466:242,1,99.9999999999999,10|0,3:2|3:2,0:0:0:0:
468,207,51926,1,2,3:2:0:0:
471,157,52098,2,0,P|456:126|426:100,1,50,10|0,3:2|3:2,0:0:0:0:
395,121,52443,53,2,3:2:0:0:
39,45,55202,22,0,L|157:38,1,99.9999999999999,6|8,3:2|3:2,0:0:0:0:
184,59,55719,2,0,L|244:85,1,50,2|2,3:2|3:2,0:0:0:0:
319,34,56236,1,10,3:2:0:0:
408,79,56581,2,0,B|403:128|403:128|406:131|406:131|401:184,1,99.9999999999999,2|10,3:2|3:2,0:0:0:0:
394,227,57098,2,0,L|388:279,1,50,2|0,3:2|3:2,0:0:0:0:
447,358,57616,1,10,3:2:0:0:
349,379,57961,6,0,L|291:368,1,50,2|2,3:2|0:0,0:0:0:0:
250,377,58305,2,0,B|186:364|186:364|140:383,2,99.9999999999999,8|2|10,3:2|3:2|3:2,0:0:0:0:
207,286,59340,2,0,B|155:276|155:276|109:293,1,99.9999999999999,2|10,3:2|3:2,0:0:0:0:
66,315,59857,1,2,3:2:0:0:
20,336,60030,1,2,3:2:0:0:
38,237,60374,1,8,3:2:0:0:
56,138,60719,70,0,L|43:26,1,99.9999999999999,4|10,3:2|3:2,0:0:0:0:
93,49,61236,1,2,3:2:0:0:
141,61,61409,1,2,3:2:0:0:
237,34,61754,1,10,3:2:0:0:
369,103,62271,1,2,3:2:0:0:
369,103,62443,2,0,L|473:94,2,99.9999999999999,10|0|10,3:2|3:2|3:2,0:0:0:0:
269,116,63478,53,2,3:2:0:0:
269,116,64857,53,10,3:2:0:0:
372,7,65374,1,8,3:2:0:0:
414,150,65892,1,4,0:0:0:0:
341,80,66236,54,0,L|222:94,1,99.9999999999999,8|8,3:2|3:2,0:0:0:0:
191,98,66754,1,2,3:2:0:0:
141,105,66926,1,2,3:2:0:0:
112,9,67271,2,0,L|56:-1,1,50,10|4,3:2|3:2,0:0:0:0:
12,8,67616,2,0,L|27:125,1,99.9999999999999,2|10,3:2|3:2,0:0:0:0:
4,153,68133,2,0,L|19:270,1,99.9999999999999,2|2,3:2|3:2,0:0:0:0:
26,301,68650,1,10,3:2:0:0:
113,350,68995,6,0,B|156:342|156:342|164:332|164:332|213:323,1,99.9999999999999,2|8,3:2|3:2,0:0:0:0:
240,287,69512,2,0,B|283:295|283:295|291:305|291:305|340:314,1,99.9999999999999,0|2,3:2|3:2,0:0:0:0:
382,324,70030,2,0,L|367:246,1,50,10|2,3:2|3:2,0:0:0:0:
401,234,70374,2,0,L|415:124,1,99.9999999999999,2|10,3:2|3:2,0:0:0:0:
448,98,70892,1,2,3:2:0:0:
384,21,71236,1,2,3:2:0:0:
384,21,71409,2,0,L|319:26,1,50,8|0,3:2|3:2,0:0:0:0:
294,55,71754,70,0,L|173:40,1,99.9999999999999,4|10,3:2|3:2,0:0:0:0:
98,14,72443,2,0,B|68:42|68:42|81:102,1,99.9999999999999,2|10,3:2|3:2,0:0:0:0:
128,116,72961,2,0,B|140:173|140:173|110:201,1,99.9999999999999,0|2,3:2|3:2,0:0:0:0:
97,250,73478,2,0,L|48:241,1,50,10|2,3:2|3:2,0:0:0:0:
5,213,73823,2,0,L|27:321,1,99.9999999999999,0|10,3:2|3:2,0:0:0:0:
256,192,74512,12,8,76581,3:2:0:0:
461,338,77271,22,0,L|342:319,1,110.000003356934,6|8,3:1|3:2,0:0:0:0:
306,289,77788,1,2,3:2:0:0:
261,320,77961,2,0,L|270:380,2,55.0000016784668,2|2|10,3:2|3:2|3:2,0:0:0:0:
156,286,78650,2,0,L|169:165,1,110.000003356934,2|10,3:2|3:2,0:0:0:0:
217,152,79167,1,2,3:2:0:0:
228,98,79340,2,0,L|217:24,1,55.0000016784668,0|2,3:2|3:2,0:0:0:0:
262,6,79685,1,10,3:2:0:0:
347,74,80030,6,0,L|338:135,1,55.0000016784668,2|2,3:2|3:2,0:2:0:0:
359,179,80374,2,0,L|349:246,1,55.0000016784668,8|0,0:2|3:2,0:2:0:0:
371,284,80719,2,0,L|437:272,2,55.0000016784668,2|2|10,3:2|3:2|3:2,0:2:0:0:
334,325,81236,1,0,0:0:0:0:
284,300,81409,2,0,L|170:288,1,110.000003356934,2|10,3:2|3:2,0:0:0:0:
120,300,81926,1,2,3:2:0:0:
33,240,82271,1,2,3:2:0:0:
33,240,82443,2,0,L|22:180,1,55.0000016784668,10|0,3:1|0:0,0:0:0:0:
37,132,82788,70,0,L|172:147,1,110.000003356934,6|10,3:1|3:2,0:0:0:0:
200,152,83305,1,2,3:2:0:0:
254,158,83478,2,0,L|244:217,1,55.0000016784668,2|0,3:2|3:2,0:0:0:0:
197,241,83823,2,0,L|207:300,1,55.0000016784668,10|0,3:2|3:2,0:0:0:0:
250,327,84167,2,0,L|385:307,1,110.000003356934,2|10,3:2|3:2,0:0:0:0:
412,296,84685,2,0,L|429:173,1,110.000003356934,2|2,3:2|3:2,0:0:0:0:
476,162,85202,2,0,L|467:94,1,55.0000016784668,10|0,3:2|3:2,3:2:0:0:
453,54,85547,5,2,3:2:0:0:
344,70,85892,2,0,L|356:155,2,55.0000016784668,2|2|8,3:2|3:2|3:2,0:0:0:0:
296,42,86409,2,0,L|172:33,1,110.000003356934,0|0,3:2|3:2,0:0:0:0:
132,46,86926,2,0,L|146:168,2,110.000003356934,10|8|8,3:2|3:2|3:2,0:0:0:0:
217,115,87961,1,10,3:1:0:0:
195,222,88305,70,0,L|179:344,1,110.000003356934,6|8,3:1|3:2,0:0:0:0:
131,355,88823,1,2,3:2:0:0:
77,366,88995,2,0,L|17:358,2,55.0000016784668,2|2|10,3:2|3:2|3:2,0:0:0:0:
47,249,89685,2,0,L|33:129,1,110.000003356934,2|10,3:2|3:2,0:0:0:0:
88,148,90202,1,2,3:2:0:0:
141,158,90374,2,0,L|150:91,1,55.0000016784668,0|2,3:2|3:2,0:0:0:0:
116,58,90719,1,10,3:2:0:0:
215,10,91064,6,0,L|286:19,1,55.0000016784668,2|0,3:2|0:2,0:0:0:0:
324,25,91409,2,0,L|395:34,1,55.0000016784668,8|0,3:2|0:2,0:0:0:0:
394,84,91754,2,0,L|385:158,2,55.0000016784668,2|2|10,3:2|3:2|3:2,0:0:0:0:
494,18,92443,2,0,L|507:137,1,110.000003356934,2|10,3:2|3:2,0:0:0:0:
481,177,92961,1,2,3:2:0:0:
403,253,93305,1,2,3:2:0:0:
403,253,93478,2,0,L|415:320,1,55.0000016784668,10|0,3:1|0:0,0:0:0:0:
446,350,93823,70,0,L|312:335,1,110.000003356934,6|10,3:1|3:2,0:0:0:0:
289,309,94340,1,2,3:2:0:0:
277,255,94512,2,0,L|266:200,1,55.0000016784668,2|0,3:2|3:2,0:0:0:0:
307,163,94857,2,0,L|317:108,1,55.0000016784668,10|0,3:2|3:2,0:0:0:0:
288,61,95202,2,0,L|167:49,1,110.000003356934,2|10,3:2|3:2,0:0:0:0:
123,55,95719,2,0,L|134:167,1,110.000003356934,2|2,3:2|3:2,0:0:0:0:
142,219,96236,1,10,3:2:0:0:
256,192,96581,12,8,99340,3:2:0:0:
463,28,110374,70,0,B|499:68|499:68|472:182,2,150,12|10|8,3:2|3:2|3:2,0:0:0:0:
391,98,111754,2,0,B|368:191|368:191|404:231,2,150,8|10|8,3:2|3:2|3:2,0:0:0:0:
309,40,113133,38,0,B|221:53|221:53|201:44|201:44|146:51,2,150,8|10|8,3:2|3:2|3:2,0:0:0:0:
264,129,114512,2,0,B|225:124|225:124|205:133|205:133|117:120,2,150,8|10|8,3:2|3:2|3:2,0:0:0:0:
206,211,115892,22,0,L|223:316,1,99.9999999999999,12|8,3:1|3:2,0:0:0:0:
233,358,116409,2,0,L|128:341,1,99.9999999999999,10|8,3:2|3:2,0:0:0:0:
123,293,116926,1,8,3:2:0:0:
44,230,117271,2,0,L|27:125,1,99.9999999999999,8|8,3:2|3:2,0:0:0:0:
17,83,117788,2,0,L|122:100,1,99.9999999999999,10|8,3:2|3:2,0:0:0:0:
105,49,118305,1,8,3:2:0:0:
256,192,118650,12,12,120030,3:2:0:0:
468,46,121409,5,6,3:2:0:0:
387,105,121754,1,8,3:2:0:0:
306,46,122098,2,0,L|194:56,1,99.9999999999999,2|10,3:2|3:2,0:0:0:0:
156,58,122616,1,0,3:2:0:0:
106,63,122788,2,0,L|110:7,2,50,2|2|10,3:2|3:2|3:2,0:0:0:0:
57,68,123305,1,2,3:2:0:0:
87,168,123650,1,2,3:2:0:0:
87,168,123823,2,0,L|82:217,1,50,10|0,3:2|3:2,0:0:0:0:
35,234,124167,69,2,3:2:0:0:
116,293,124512,1,8,3:2:0:0:
197,234,124857,2,0,L|309:244,1,99.9999999999999,2|10,3:2|3:2,0:0:0:0:
347,246,125374,1,2,3:2:0:0:
397,251,125547,2,0,L|401:306,2,50,2|2|10,3:2|3:2|3:2,0:0:0:0:
446,256,126064,1,2,3:2:0:0:
486,166,126409,1,2,3:2:0:0:
486,166,126581,2,0,L|481:116,1,50,8|0,3:2|3:2,0:0:0:0:
495,67,126926,5,4,3:2:0:0:
413,8,127271,1,10,3:2:0:0:
353,88,127616,2,0,L|343:198,1,99.9999999999999,2|10,3:2|3:2,0:0:0:0:
361,234,128133,1,0,3:2:0:0:
382,279,128305,2,0,L|450:271,2,50,2|2|10,3:2|3:2|3:2,0:0:0:0:
401,325,128823,1,2,3:2:0:0:
306,357,129167,1,2,3:2:0:0:
306,357,129340,2,0,L|248:348,1,50,10|0,3:2|3:2,0:0:0:0:
206,341,129685,37,2,3:2:0:0:
15,333,132443,21,6,3:2:0:0:
114,319,132788,1,8,3:2:0:0:
53,241,133133,2,0,L|65:136,1,99.9999999999999,2|10,3:2|3:2,0:0:0:0:
133,68,133823,1,2,3:2:0:0:
232,82,134167,1,10,3:2:0:0:
171,160,134512,2,0,L|183:265,1,99.9999999999999,0|10,3:2|3:2,0:0:0:0:
216,296,135030,1,0,3:2:0:0:
198,342,135202,6,0,L|88:331,2,99.9999999999999,2|8|2,3:2|3:2|3:2,0:0:0:0:
293,371,136236,1,10,3:2:0:0:
293,270,136581,2,0,P|345:273|399:301,1,99.9999999999999,2|10,3:2|3:2,0:0:0:0:
422,329,137098,1,2,3:2:0:0:
462,300,137271,2,0,L|472:190,1,99.9999999999999,2|8,3:2|3:2,0:0:0:0:
488,155,137788,1,0,3:2:0:0:
488,155,137961,69,4,3:2:0:0:
469,56,138305,1,10,3:2:0:0:
370,75,138650,2,0,B|321:84|321:84|318:88|318:88|254:103,1,99.9999999999999,2|10,3:2|3:2,0:0:0:0:
347,166,139340,1,2,3:2:0:0:
328,265,139685,1,10,3:2:0:0:
229,246,140030,2,0,B|180:237|180:237|177:233|177:233|112:222,2,99.9999999999999,0|10|2,3:2|3:2|3:2,0:0:0:0:
39,62,143478,6,0,P|88:78|145:68,1,99.9999999999999,6|8,3:2|3:2,0:0:0:0:
179,47,143995,1,2,3:2:0:0:
222,22,144167,2,0,P|271:16|319:32,1,99.9999999999999,2|10,3:2|3:2,0:0:0:0:
399,91,144857,2,0,L|465:86,2,50,2|2|10,3:2|3:2|3:2,0:0:0:0:
370,132,145374,2,0,L|309:137,1,50,2|0,3:2|3:2,0:0:0:0:
385,212,145892,1,10,3:2:0:0:
449,287,146236,70,0,B|416:318|416:318|347:308,1,99.9999999999999,2|8,3:2|3:2,0:0:0:0:
311,302,146754,1,0,3:2:0:0:
261,294,146926,2,0,B|207:287|207:287|174:318,1,99.9999999999999,2|10,3:2|3:2,0:0:0:0:
74,334,147616,2,0,L|79:383,2,50,2|2|10,3:2|3:2|3:2,0:0:0:0:
36,300,148133,2,0,L|31:251,1,50,2|2,3:2|3:2,0:0:0:0:
89,169,148650,1,8,3:2:0:0:
23,93,148995,6,0,L|73:58,1,50,4|0,3:2|0:0,0:0:0:0:
103,33,149340,2,0,B|144:6|144:6|229:20,1,99.9999999999999,10|2,3:2|3:2,0:0:0:0:
227,51,149857,1,0,3:2:0:0:
256,91,150030,2,0,L|245:148,1,50,10|0,3:2|3:2,0:0:0:0:
235,188,150374,1,2,3:2:0:0:
332,208,150719,1,10,3:2:0:0:
397,133,151064,2,0,L|385:22,1,99.9999999999999,0|10,3:2|3:2,0:0:0:0:
481,0,151754,37,2,3:2:0:0:
481,0,153133,53,10,3:2:0:0:
457,148,153650,1,8,3:2:0:0:
341,54,154167,1,4,0:0:0:0:
439,70,154512,54,0,L|422:239,1,150,8|2,3:2|3:2,0:0:0:0:
437,267,155202,2,0,L|515:255,2,50,2|2|10,3:2|3:2|3:2,0:0:0:0:
404,304,155719,1,4,3:2:0:0:
372,343,155892,2,0,L|263:330,2,99.9999999999999,2|10|0,3:2|3:2|3:2,0:0:0:0:
327,253,156926,1,10,3:2:0:0:
227,260,157271,6,0,L|93:283,1,99.9999999999999,2|8,3:2|3:2,0:0:0:0:
84,301,157788,1,0,3:2:0:0:
42,329,157961,2,0,L|33:378,2,50,2|2|10,3:2|3:2|3:2,0:0:0:0:
20,231,158650,1,2,3:2:0:0:
58,198,158823,2,0,L|46:63,1,99.9999999999999,2|2,3:2|3:2,0:0:0:0:
44,48,159340,2,0,L|112:73,2,50,2|2|8,3:2|3:2|3:2,0:0:0:0:
134,4,160030,70,0,L|289:-1,1,150,4|2,3:2|3:2,0:0:0:0:
323,29,160719,2,0,L|385:38,1,50,2|0,3:2|3:2,0:0:0:0:
420,22,161064,1,10,3:2:0:0:
317,131,161581,1,2,3:2:0:0:
317,131,161754,2,0,L|310:200,1,50,10|2,3:2|3:2,0:0:0:0:
305,230,162098,2,0,B|257:247|257:247|184:234,1,99.9999999999999,0|10,3:2|3:2,0:0:0:0:
256,192,162788,12,8,164857,3:2:0:0:
503,28,165547,22,0,L|320:40,1,165.0000050354,6|2,3:1|3:2,0:0:0:0:
322,91,166236,2,0,L|253:83,1,55.0000016784668,2|2,3:2|3:2,0:0:0:0:
235,39,166581,1,10,3:2:0:0:
125,28,166926,2,0,L|115:97,1,55.0000016784668,2|2,3:2|3:2,0:0:0:0:
145,129,167271,2,0,L|152:183,1,55.0000016784668,10|2,3:2|3:2,0:0:0:0:
98,193,167616,2,0,L|112:308,1,110.000003356934,0|10,3:2|3:2,0:0:0:0:
19,363,168305,5,2,3:2:0:0:
128,378,168650,1,8,3:2:0:0:
195,290,168995,2,0,B|250:294|250:294|303:336,1,110.000003356934,2|10,3:2|3:2,0:0:0:0:
348,332,169512,2,0,B|323:282|323:282|333:215,1,110.000003356934,2|2,3:2|3:2,0:0:0:0:
316,174,170030,1,10,3:2:0:0:
420,206,170374,1,2,3:2:0:0:
475,110,170719,2,0,L|468:43,1,55.0000016784668,10|0,3:1|0:0,0:0:0:0:
508,15,171064,70,0,L|494:240,1,220.000006713867,6|2,3:1|3:2,0:0:0:0:
468,283,171926,2,0,L|484:351,2,55.0000016784668,0|10|0,3:2|3:2|3:2,0:0:0:0:
420,311,172443,2,0,L|301:299,1,110.000003356934,2|10,3:2|3:2,0:0:0:0:
319,245,172961,2,0,L|199:256,1,110.000003356934,2|2,3:2|3:2,0:0:0:0:
183,303,173478,2,0,L|190:372,1,55.0000016784668,10|0,3:2|3:2,3:2:0:0:
133,359,173823,6,0,P|89:324|78:241,1,110.000003356934,2|10,3:2|3:2,0:0:0:0:
23,250,174340,2,0,P|31:194|94:144,1,110.000003356934,0|0,3:2|3:2,0:0:0:0:
97,201,174857,1,10,3:2:0:0:
205,183,175202,2,0,P|196:127|130:76,1,110.000003356934,2|10,3:2|3:2,0:0:0:0:
166,33,175719,2,0,P|113:11|38:41,1,110.000003356934,0|0,3:2|3:2,0:0:0:0:
86,72,176236,1,10,3:1:0:0:
38,171,176581,70,0,L|209:156,1,165.0000050354,6|2,3:1|3:2,0:0:0:0:
210,211,177271,2,0,L|288:221,1,55.0000016784668,2|2,3:2|3:2,0:0:0:0:
306,181,177616,1,10,3:2:0:0:
377,97,177961,2,0,L|369:40,2,55.0000016784668,2|2|10,3:2|3:2|3:2,0:0:0:0:
430,110,178478,1,2,3:2:0:0:
483,122,178650,2,0,L|467:242,1,110.000003356934,0|10,3:2|3:2,0:0:0:0:
505,335,179340,1,2,3:2:0:0:
397,312,179685,1,8,3:2:0:0:
303,370,180030,6,0,B|278:327|278:327|290:238,1,110.000003356934,2|10,3:2|3:2,0:0:0:0:
273,213,180547,2,0,B|248:256|248:256|169:287,1,110.000003356934,2|2,3:2|3:2,0:0:0:0:
139,295,181064,1,10,3:2:0:0:
52,227,181409,1,2,3:2:0:0:
133,152,181754,2,0,L|122:80,1,55.0000016784668,10|0,3:1|0:0,0:0:0:0:
76,71,182098,70,0,L|301:95,1,220.000006713867,6|2,3:1|3:2,0:0:0:0:
347,77,182961,2,0,L|338:6,2,55.0000016784668,0|10|0,3:2|3:2|3:2,0:0:0:0:
358,130,183478,2,0,B|407:144|407:144|472:125,1,110.000003356934,2|10,3:2|3:2,0:0:0:0:
510,97,183995,2,0,B|496:146|496:146|516:215,1,110.000003356934,2|2,3:2|3:2,0:0:0:0:
496,255,184512,1,10,3:2:0:0:
256,192,184857,12,8,187616,3:2:0:0:
